  0
SECTION
  2
HEADER
  9
$ACADVER
  1
AC1021
  9
$ACADMAINTVER
 70
    26
  9
$DWGCODEPAGE
  3
ANSI_932
  9
$LASTSAVEDBY
  1
yoshino
  9
$INSBASE
 10
0.0
 20
0.0
 30
0.0
  9
$EXTMIN
 10
-0.1089394419789227
 20
-0.1540714965132919
 30
-0.0015258207003612
  9
$EXTMAX
 10
3570.108956066087
 20
5049.154095007751
 30
0.0000000349246008
  9
$LIMMIN
 10
0.0
 20
0.0
  9
$LIMMAX
 10
3570.0
 20
5049.0
  9
$ORTHOMODE
 70
     0
  9
$REGENMODE
 70
     1
  9
$FILLMODE
 70
     1
  9
$QTEXTMODE
 70
     0
  9
$MIRRTEXT
 70
     0
  9
$LTSCALE
 40
17.0
  9
$ATTMODE
 70
     1
  9
$TEXTSIZE
 40
16.0
  9
$TRACEWID
 40
0.05
  9
$TEXTSTYLE
  7
STANDARD
  9
$CLAYER
  8
0
  9
$CELTYPE
  6
BYLAYER
  9
$CECOLOR
 62
   256
  9
$CELTSCALE
 40
1.0
  9
$DISPSILH
 70
     0
  9
$DIMSCALE
 40
17.0
  9
$DIMASZ
 40
3.0
  9
$DIMEXO
 40
2.0
  9
$DIMDLI
 40
6.0
  9
$DIMRND
 40
0.0
  9
$DIMDLE
 40
0.0
  9
$DIMEXE
 40
2.0
  9
$DIMTP
 40
0.0
  9
$DIMTM
 40
0.0
  9
$DIMTXT
 40
3.2
  9
$DIMCEN
 40
0.09
  9
$DIMTSZ
 40
0.0
  9
$DIMTOL
 70
     0
  9
$DIMLIM
 70
     0
  9
$DIMTIH
 70
     0
  9
$DIMTOH
 70
     0
  9
$DIMSE1
 70
     0
  9
$DIMSE2
 70
     0
  9
$DIMTAD
 70
     1
  9
$DIMZIN
 70
     8
  9
$DIMBLK
  1
Open30
  9
$DIMASO
 70
     1
  9
$DIMSHO
 70
     0
  9
$DIMPOST
  1

  9
$DIMAPOST
  1

  9
$DIMALT
 70
     0
  9
$DIMALTD
 70
     2
  9
$DIMALTF
 40
25.4
  9
$DIMLFAC
 40
1.0
  9
$DIMTOFL
 70
     1
  9
$DIMTVP
 40
0.0
  9
$DIMTIX
 70
     0
  9
$DIMSOXD
 70
     0
  9
$DIMSAH
 70
     0
  9
$DIMBLK1
  1

  9
$DIMBLK2
  1

  9
$DIMSTYLE
  2
STANDARD
  9
$DIMCLRD
 70
     0
  9
$DIMCLRE
 70
     0
  9
$DIMCLRT
 70
     0
  9
$DIMTFAC
 40
1.0
  9
$DIMGAP
 40
0.9999999999999996
  9
$DIMJUST
 70
     0
  9
$DIMSD1
 70
     0
  9
$DIMSD2
 70
     0
  9
$DIMTOLJ
 70
     1
  9
$DIMTZIN
 70
     0
  9
$DIMALTZ
 70
     0
  9
$DIMALTTZ
 70
     0
  9
$DIMUPT
 70
     0
  9
$DIMDEC
 70
     2
  9
$DIMTDEC
 70
     2
  9
$DIMALTU
 70
     2
  9
$DIMALTTD
 70
     2
  9
$DIMTXSTY
  7
STANDARD
  9
$DIMAUNIT
 70
     0
  9
$DIMADEC
 70
     4
  9
$DIMALTRND
 40
0.0
  9
$DIMAZIN
 70
     2
  9
$DIMDSEP
 70
    46
  9
$DIMATFIT
 70
     3
  9
$DIMFRAC
 70
     0
  9
$DIMLDRBLK
  1
Open30
  9
$DIMLUNIT
 70
     2
  9
$DIMLWD
 70
    -2
  9
$DIMLWE
 70
    -2
  9
$DIMTMOVE
 70
     0
  9
$DIMFXL
 40
1.0
  9
$DIMFXLON
 70
     0
  9
$DIMJOGANG
 40
0.7853981633974483
  9
$DIMTFILL
 70
     0
  9
$DIMTFILLCLR
 70
     0
  9
$DIMARCSYM
 70
     0
  9
$DIMLTYPE
  6

  9
$DIMLTEX1
  6

  9
$DIMLTEX2
  6

  9
$LUNITS
 70
     2
  9
$LUPREC
 70
     2
  9
$SKETCHINC
 40
0.1
  9
$FILLETRAD
 40
24.0
  9
$AUNITS
 70
     0
  9
$AUPREC
 70
     2
  9
$MENU
  1
dash
  9
$ELEVATION
 40
0.0
  9
$PELEVATION
 40
0.0
  9
$THICKNESS
 40
0.0
  9
$LIMCHECK
 70
     0
  9
$CHAMFERA
 40
0.0
  9
$CHAMFERB
 40
0.0
  9
$CHAMFERC
 40
0.0
  9
$CHAMFERD
 40
0.0
  9
$SKPOLY
 70
     0
  9
$TDCREATE
 40
2453136.600744352
  9
$TDUCREATE
 40
2453136.225744352
  9
$TDUPDATE
 40
2454838.821609873
  9
$TDUUPDATE
 40
2454838.446609873
  9
$TDINDWG
 40
6.8238587731
  9
$TDUSRTIMER
 40
6.8238563773
  9
$USRTIMER
 70
     1
  9
$ANGBASE
 50
0.0
  9
$ANGDIR
 70
     0
  9
$PDMODE
 70
    35
  9
$PDSIZE
 40
1.0
  9
$PLINEWID
 40
0.0
  9
$SPLFRAME
 70
     0
  9
$SPLINETYPE
 70
     6
  9
$SPLINESEGS
 70
     8
  9
$HANDSEED
  5
302C2
  9
$SURFTAB1
 70
     6
  9
$SURFTAB2
 70
     6
  9
$SURFTYPE
 70
     6
  9
$SURFU
 70
     6
  9
$SURFV
 70
     6
  9
$UCSBASE
  2

  9
$UCSNAME
  2

  9
$UCSORG
 10
0.0
 20
0.0
 30
0.0
  9
$UCSXDIR
 10
1.0
 20
0.0
 30
0.0
  9
$UCSYDIR
 10
0.0
 20
1.0
 30
0.0
  9
$UCSORTHOREF
  2

  9
$UCSORTHOVIEW
 70
     0
  9
$UCSORGTOP
 10
0.0
 20
0.0
 30
0.0
  9
$UCSORGBOTTOM
 10
0.0
 20
0.0
 30
0.0
  9
$UCSORGLEFT
 10
0.0
 20
0.0
 30
0.0
  9
$UCSORGRIGHT
 10
0.0
 20
0.0
 30
0.0
  9
$UCSORGFRONT
 10
0.0
 20
0.0
 30
0.0
  9
$UCSORGBACK
 10
0.0
 20
0.0
 30
0.0
  9
$PUCSBASE
  2

  9
$PUCSNAME
  2

  9
$PUCSORG
 10
0.0
 20
0.0
 30
0.0
  9
$PUCSXDIR
 10
1.0
 20
0.0
 30
0.0
  9
$PUCSYDIR
 10
0.0
 20
1.0
 30
0.0
  9
$PUCSORTHOREF
  2

  9
$PUCSORTHOVIEW
 70
     0
  9
$PUCSORGTOP
 10
0.0
 20
0.0
 30
0.0
  9
$PUCSORGBOTTOM
 10
0.0
 20
0.0
 30
0.0
  9
$PUCSORGLEFT
 10
0.0
 20
0.0
 30
0.0
  9
$PUCSORGRIGHT
 10
0.0
 20
0.0
 30
0.0
  9
$PUCSORGFRONT
 10
0.0
 20
0.0
 30
0.0
  9
$PUCSORGBACK
 10
0.0
 20
0.0
 30
0.0
  9
$USERI1
 70
     0
  9
$USERI2
 70
     0
  9
$USERI3
 70
     0
  9
$USERI4
 70
     0
  9
$USERI5
 70
     0
  9
$USERR1
 40
0.0
  9
$USERR2
 40
3.2
  9
$USERR3
 40
0.0
  9
$USERR4
 40
0.0
  9
$USERR5
 40
0.0
  9
$WORLDVIEW
 70
     1
  9
$SHADEDGE
 70
     3
  9
$SHADEDIF
 70
    70
  9
$TILEMODE
 70
     1
  9
$MAXACTVP
 70
    48
  9
$PINSBASE
 10
0.0
 20
0.0
 30
0.0
  9
$PLIMCHECK
 70
     0
  9
$PEXTMIN
 10
1.000000000000000E+20
 20
1.000000000000000E+20
 30
1.000000000000000E+20
  9
$PEXTMAX
 10
-1.000000000000000E+20
 20
-1.000000000000000E+20
 30
-1.000000000000000E+20
  9
$PLIMMIN
 10
0.0
 20
0.0
  9
$PLIMMAX
 10
12.0
 20
9.0
  9
$UNITMODE
 70
     0
  9
$VISRETAIN
 70
     0
  9
$PLINEGEN
 70
     0
  9
$PSLTSCALE
 70
     0
  9
$TREEDEPTH
 70
  3020
  9
$CMLSTYLE
  2
STANDARD
  9
$CMLJUST
 70
     0
  9
$CMLSCALE
 40
1.0
  9
$PROXYGRAPHICS
 70
     1
  9
$MEASUREMENT
 70
     1
  9
$CELWEIGHT
370
    -1
  9
$ENDCAPS
280
     0
  9
$JOINSTYLE
280
     0
  9
$LWDISPLAY
290
     0
  9
$INSUNITS
 70
     0
  9
$HYPERLINKBASE
  1

  9
$STYLESHEET
  1
MONOCHROME.CTB
  9
$XEDIT
290
     1
  9
$CEPSNTYPE
380
     0
  9
$PSTYLEMODE
290
     1
  9
$FINGERPRINTGUID
  2
{F2A97C53-EF7E-49C1-956A-0F2CE1E6DF2C}
  9
$VERSIONGUID
  2
{306218E2-0C60-47E8-975C-A1528A5AC4F4}
  9
$EXTNAMES
290
     1
  9
$PSVPSCALE
 40
0.0
  9
$OLESTARTUP
290
     0
  9
$SORTENTS
280
    96
  9
$INDEXCTL
280
     0
  9
$HIDETEXT
280
     0
  9
$XCLIPFRAME
290
     0
  9
$HALOGAP
280
     0
  9
$OBSCOLOR
 70
   257
  9
$OBSLTYPE
280
     0
  9
$INTERSECTIONDISPLAY
280
     0
  9
$INTERSECTIONCOLOR
 70
   257
  9
$DIMASSOC
280
     1
  9
$PROJECTNAME
  1

  9
$CAMERADISPLAY
290
     0
  9
$LENSLENGTH
 40
50.0
  9
$CAMERAHEIGHT
 40
0.0
  9
$STEPSPERSEC
 40
2.0
  9
$STEPSIZE
 40
6.0
  9
$3DDWFPREC
 40
2.0
  9
$PSOLWIDTH
 40
0.25
  9
$PSOLHEIGHT
 40
4.0
  9
$LOFTANG1
 40
1.570796326794895
  9
$LOFTANG2
 40
1.570796326794895
  9
$LOFTMAG1
 40
0.0
  9
$LOFTMAG2
 40
0.0
  9
$LOFTPARAM
 70
     7
  9
$LOFTNORMALS
280
     1
  9
$LATITUDE
 40
37.795
  9
$LONGITUDE
 40
-122.394
  9
$NORTHDIRECTION
 40
0.0
  9
$TIMEZONE
 70
 -8000
  9
$LIGHTGLYPHDISPLAY
280
     1
  9
$TILEMODELIGHTSYNCH
280
     1
  9
$CMATERIAL
347
2D822
  9
$SOLIDHIST
280
     1
  9
$SHOWHIST
280
     1
  9
$DWFFRAME
280
     2
  9
$DGNFRAME
280
     0
  9
$REALWORLDSCALE
290
     1
  9
$INTERFERECOLOR
 62
     1
  9
$INTERFEREOBJVS
345
2D844
  9
$INTERFEREVPVS
346
2D841
  9
$CSHADOW
280
     0
  9
$SHADOWPLANELOCATION
 40
0.0
  0
ENDSEC
  0
SECTION
  2
CLASSES
  0
CLASS
  1
ACDBDICTIONARYWDFLT
  2
AcDbDictionaryWithDefault
  3
ObjectDBX Classes
 90
        0
 91
        1
280
     0
281
     0
  0
CLASS
  1
DICTIONARYVAR
  2
AcDbDictionaryVar
  3
ObjectDBX Classes
 90
        0
 91
        7
280
     0
281
     0
  0
CLASS
  1
MATERIAL
  2
AcDbMaterial
  3
ObjectDBX Classes
 90
     1153
 91
        3
280
     0
281
     0
  0
CLASS
  1
VISUALSTYLE
  2
AcDbVisualStyle
  3
ObjectDBX Classes
 90
     4095
 91
       16
280
     0
281
     0
  0
CLASS
  1
TABLESTYLE
  2
AcDbTableStyle
  3
ObjectDBX Classes
 90
     4095
 91
        1
280
     0
281
     0
  0
CLASS
  1
SCALE
  2
AcDbScale
  3
ObjectDBX Classes
 90
     1153
 91
       33
280
     0
281
     0
  0
CLASS
  1
MLEADERSTYLE
  2
AcDbMLeaderStyle
  3
ACDB_MLEADERSTYLE_CLASS
 90
     4095
 91
        1
280
     0
281
     0
  0
CLASS
  1
CELLSTYLEMAP
  2
AcDbCellStyleMap
  3
ObjectDBX Classes
 90
     1152
 91
        2
280
     0
281
     0
  0
CLASS
  1
SORTENTSTABLE
  2
AcDbSortentsTable
  3
ObjectDBX Classes
 90
        0
 91
        1
280
     0
281
     0
  0
ENDSEC
  0
SECTION
  2
TABLES
  0
TABLE
  2
VPORT
  5
8
330
0
100
AcDbSymbolTable
 70
     1
  0
VPORT
  5
2D81C
330
8
100
AcDbSymbolTableRecord
100
AcDbViewportTableRecord
  2
*Active
 70
     0
 10
0.0
 20
0.0
 11
1.0
 21
1.0
 12
1785.000008312054
 22
2524.500011755619
 13
0.0
 23
0.0
 14
1.0
 24
1.0
 15
0.0
 25
0.0
 16
0.0
 26
0.0
 36
1.0
 17
0.0
 27
0.0
 37
0.0
 40
5089.066498523983
 41
1.565045992115637
 42
50.0
 43
0.0
 44
0.0
 50
0.0
 51
0.0
 71
     0
 72
  2000
 73
     1
 74
     3
 75
     0
 76
     0
 77
     0
 78
     0
281
     0
 65
     1
110
0.0
120
0.0
130
0.0
111
1.0
121
0.0
131
0.0
112
0.0
122
1.0
132
0.0
 79
     0
146
0.0
348
2D840
 60
     3
 61
     5
292
     1
282
     1
141
0.0
142
0.0
 63
   250
421
  3355443
  0
ENDTAB
  0
TABLE
  2
LTYPE
  5
5
330
0
100
AcDbSymbolTable
 70
     3
  0
LTYPE
  5
11
330
5
100
AcDbSymbolTableRecord
100
AcDbLinetypeTableRecord
  2
BYBLOCK
 70
     0
  3

 72
    65
 73
     0
 40
0.0
  0
LTYPE
  5
12
330
5
100
AcDbSymbolTableRecord
100
AcDbLinetypeTableRecord
  2
BYLAYER
 70
     0
  3

 72
    65
 73
     0
 40
0.0
  0
LTYPE
  5
13
330
5
100
AcDbSymbolTableRecord
100
AcDbLinetypeTableRecord
  2
CONTINUOUS
 70
     0
  3
Solid line
 72
    65
 73
     0
 40
0.0
  0
LTYPE
  5
1C
330
5
100
AcDbSymbolTableRecord
100
AcDbLinetypeTableRecord
  2
DASHED
 70
     0
  3
__ __ __ __ __ __ __ __ __ __ __ __ __ __ __
 72
    65
 73
     2
 40
3.0
 49
2.0
 74
     0
 49
-1.0
 74
     0
  0
LTYPE
  5
1D
330
5
100
AcDbSymbolTableRecord
100
AcDbLinetypeTableRecord
  2
CENTER
 70
     0
  3
____ _ ____ _ ____ _ ____ _ ____ _ ____ _ ____
 72
    65
 73
     4
 40
12.0
 49
9.0
 74
     0
 49
-1.0
 74
     0
 49
1.0
 74
     0
 49
-1.0
 74
     0
  0
ENDTAB
  0
TABLE
  2
LAYER
  5
2
102
{ACAD_XDICTIONARY
360
2C31C
102
}
330
0
100
AcDbSymbolTable
 70
     7
  0
LAYER
  5
E
102
{ACAD_XDICTIONARY
360
2EEBC
102
}
330
2
100
AcDbSymbolTableRecord
100
AcDbLayerTableRecord
  2
0
 70
     0
 62
     3
  6
CONTINUOUS
370
    25
390
33
347
2D832
  0
LAYER
  5
21
102
{ACAD_XDICTIONARY
360
2EEBE
102
}
330
2
100
AcDbSymbolTableRecord
100
AcDbLayerTableRecord
  2
CEN
 70
     0
 62
     4
  6
CENTER
370
    18
390
33
347
2D832
  0
LAYER
  5
22
102
{ACAD_XDICTIONARY
360
2EEC0
102
}
330
2
100
AcDbSymbolTableRecord
100
AcDbLayerTableRecord
  2
HID
 70
     0
 62
     2
  6
DASHED
370
    18
390
33
347
2D832
  0
LAYER
  5
23
102
{ACAD_XDICTIONARY
360
2EEC2
102
}
330
2
100
AcDbSymbolTableRecord
100
AcDbLayerTableRecord
  2
DIM
 70
     0
 62
     7
  6
CONTINUOUS
370
    18
390
33
347
2D832
  0
LAYER
  5
24
102
{ACAD_XDICTIONARY
360
2EEC4
102
}
330
2
100
AcDbSymbolTableRecord
100
AcDbLayerTableRecord
  2
WAKU
 70
     0
 62
     3
  6
CONTINUOUS
370
    25
390
33
347
2D832
  0
LAYER
  5
27
102
{ACAD_XDICTIONARY
360
2EEC6
102
}
330
2
100
AcDbSymbolTableRecord
100
AcDbLayerTableRecord
  2
DIMTEXT
 70
     0
 62
     7
  6
CONTINUOUS
370
    18
390
33
347
2D832
  0
LAYER
  5
42A
330
2
100
AcDbSymbolTableRecord
100
AcDbLayerTableRecord
  2
Defpoints
 70
     0
 62
     7
  6
CONTINUOUS
290
     0
370
    -3
390
33
347
2D832
  0
ENDTAB
  0
TABLE
  2
STYLE
  5
3
330
0
100
AcDbSymbolTable
 70
     1
  0
STYLE
  5
F
330
3
100
AcDbSymbolTableRecord
100
AcDbTextStyleTableRecord
  2
STANDARD
 70
     0
 40
0.0
 41
0.8
 50
0.0
 71
     0
 42
16.0
  3
sse
  4
bigfont
  0
ENDTAB
  0
TABLE
  2
VIEW
  5
6
330
0
100
AcDbSymbolTable
 70
     0
  0
ENDTAB
  0
TABLE
  2
UCS
  5
7
330
0
100
AcDbSymbolTable
 70
     0
  0
ENDTAB
  0
TABLE
  2
APPID
  5
9
330
0
100
AcDbSymbolTable
 70
    16
  0
APPID
  5
10
330
9
100
AcDbSymbolTableRecord
100
AcDbRegAppTableRecord
  2
ACAD
 70
     0
  0
APPID
  5
91
330
9
100
AcDbSymbolTableRecord
100
AcDbRegAppTableRecord
  2
SSE
 70
     0
  0
APPID
  5
92
330
9
100
AcDbSymbolTableRecord
100
AcDbRegAppTableRecord
  2
SSE_DIMTEXT
 70
     0
  0
APPID
  5
6B32
330
9
100
AcDbSymbolTableRecord
100
AcDbRegAppTableRecord
  2
GENIUS_GENODEF_13
 70
     0
  0
APPID
  5
6B33
330
9
100
AcDbSymbolTableRecord
100
AcDbRegAppTableRecord
  2
GENIUS_GENOBJ-N-CEN_13
 70
     0
  0
APPID
  5
6B34
330
9
100
AcDbSymbolTableRecord
100
AcDbRegAppTableRecord
  2
GENIUS_GENOBJ-N-FIL_13
 70
     0
  0
APPID
  5
B60B
330
9
100
AcDbSymbolTableRecord
100
AcDbRegAppTableRecord
  2
SSE_BALOON
 70
     0
  0
APPID
  5
1414F
330
9
100
AcDbSymbolTableRecord
100
AcDbRegAppTableRecord
  2
TYP
 70
     0
  0
APPID
  5
14150
330
9
100
AcDbSymbolTableRecord
100
AcDbRegAppTableRecord
  2
BNO
 70
     0
  0
APPID
  5
14151
330
9
100
AcDbSymbolTableRecord
100
AcDbRegAppTableRecord
  2
BLN
 70
     0
  0
APPID
  5
14152
330
9
100
AcDbSymbolTableRecord
100
AcDbRegAppTableRecord
  2
ETC
 70
     0
  0
APPID
  5
14153
330
9
100
AcDbSymbolTableRecord
100
AcDbRegAppTableRecord
  2
DEF
 70
     0
  0
APPID
  5
2D872
330
9
100
AcDbSymbolTableRecord
100
AcDbRegAppTableRecord
  2
ACAD_MLEADERVER
 70
     0
  0
APPID
  5
2DADB
330
9
100
AcDbSymbolTableRecord
100
AcDbRegAppTableRecord
  2
ACAD_PSEXT
 70
     0
  0
APPID
  5
2F86D
330
9
100
AcDbSymbolTableRecord
100
AcDbRegAppTableRecord
  2
ACAD_DSTYLE_DIMRADIAL_EXTENSION
 70
     0
  0
APPID
  5
2FE27
330
9
100
AcDbSymbolTableRecord
100
AcDbRegAppTableRecord
  2
ACAD_EXEMPT_FROM_CAD_STANDARDS
 70
     0
  0
ENDTAB
  0
TABLE
  2
DIMSTYLE
  5
A
330
0
100
AcDbSymbolTable
 70
     1
100
AcDbDimStyleTable
 71
     1
340
2C
  0
DIMSTYLE
105
2C
102
{ACAD_REACTORS
330
2F028
330
2F05B
330
2F029
330
2F02A
330
2F070
330
2F04D
330
2F03F
330
2F03E
330
2F02F
330
2F030
330
2F03D
330
2F032
330
2F02B
330
2F946
330
2F026
330
2F027
330
2E71A
330
2E739
330
2DE60
330
2E620
330
2E62D
330
2E075
330
2E074
330
2DE95
330
2DE96
330
30231
102
}
330
A
100
AcDbSymbolTableRecord
100
AcDbDimStyleTableRecord
  2
STANDARD
 70
     0
 40
17.0
340
F
  0
ENDTAB
  0
TABLE
  2
BLOCK_RECORD
  5
1
330
0
100
AcDbSymbolTable
 70
    32
  0
BLOCK_RECORD
  5
17
102
{ACAD_XDICTIONARY
360
2F857
102
}
330
1
100
AcDbSymbolTableRecord
100
AcDbBlockTableRecord
  2
*MODEL_SPACE
340
36
 70
     0
280
     1
281
     0
  0
BLOCK_RECORD
  5
14
330
1
100
AcDbSymbolTableRecord
100
AcDbBlockTableRecord
  2
*PAPER_SPACE
340
37
 70
     0
280
     1
281
     0
  0
BLOCK_RECORD
  5
4A
330
1
100
AcDbSymbolTableRecord
100
AcDbBlockTableRecord
  2
_Open30
340
0
102
{BLKREFS
331
2FE74
331
2FE75
331
2FE7D
331
2FE7E
331
2FE86
331
2FE87
331
2FEA3
331
2FEA4
331
2FEC2
331
2FEC3
331
2FECB
331
2FECC
331
2FED4
331
2FED5
331
2FEE8
331
2FEE9
331
2FF07
331
2FF08
331
2FF10
331
2FF11
331
2FF19
331
2FF1A
331
2FF2B
331
2FF2C
331
2FF88
331
2FFBA
331
2FFC0
331
2FFC1
331
3006F
331
30070
331
300F5
331
300F6
331
301B1
331
301B2
331
301BA
331
301BB
331
301C3
331
301C4
331
301CD
331
301CE
331
301D7
331
301D8
331
301FA
331
301FB
331
30203
331
30204
331
3020C
331
3020D
331
30261
331
30262
331
3026A
331
3026B
102
}
 70
     0
280
     1
281
     0
  0
BLOCK_RECORD
  5
2C2
330
1
100
AcDbSymbolTableRecord
100
AcDbBlockTableRecord
  2
dimstat
340
0
102
{BLKREFS
331
1549A
102
}
 70
     0
280
     1
281
     0
  0
BLOCK_RECORD
  5
2CD
330
1
100
AcDbSymbolTableRecord
100
AcDbBlockTableRecord
  2
dimstat2
340
0
102
{BLKREFS
331
15497
102
}
 70
     0
280
     1
281
     0
  0
BLOCK_RECORD
  5
5132
330
1
100
AcDbSymbolTableRecord
100
AcDbBlockTableRecord
  2
_DotSmall
340
0
102
{BLKREFS
331
2FF87
102
}
 70
     0
280
     1
281
     0
  0
BLOCK_RECORD
  5
192FE
330
1
100
AcDbSymbolTableRecord
100
AcDbBlockTableRecord
  2
waku0
340
0
102
{BLKREFS
331
2FCC1
102
}
 70
     0
280
     1
281
     0
  0
BLOCK_RECORD
  5
2D142
330
1
100
AcDbSymbolTableRecord
100
AcDbBlockTableRecord
  2
SSE_BALOON1
340
0
102
{BLKREFS
331
2F69D
331
2F6A0
331
2F6A5
331
2F6AC
331
2F6AF
331
2F6B2
102
}
 70
     0
280
     1
281
     0
  0
BLOCK_RECORD
  5
2E1DC
330
1
100
AcDbSymbolTableRecord
100
AcDbBlockTableRecord
  2
*D6
340
0
 70
     0
280
     1
281
     0
  0
BLOCK_RECORD
  5
2E1E9
330
1
100
AcDbSymbolTableRecord
100
AcDbBlockTableRecord
  2
*D7
340
0
 70
     0
280
     1
281
     0
  0
BLOCK_RECORD
  5
2E203
330
1
100
AcDbSymbolTableRecord
100
AcDbBlockTableRecord
  2
*D8
340
0
 70
     0
280
     1
281
     0
  0
BLOCK_RECORD
  5
2E235
330
1
100
AcDbSymbolTableRecord
100
AcDbBlockTableRecord
  2
*D9
340
0
 70
     0
280
     1
281
     0
  0
BLOCK_RECORD
  5
2E243
330
1
100
AcDbSymbolTableRecord
100
AcDbBlockTableRecord
  2
*D10
340
0
 70
     0
280
     1
281
     0
  0
BLOCK_RECORD
  5
2E621
330
1
100
AcDbSymbolTableRecord
100
AcDbBlockTableRecord
  2
*D11
340
0
 70
     0
280
     1
281
     0
  0
BLOCK_RECORD
  5
2E62E
330
1
100
AcDbSymbolTableRecord
100
AcDbBlockTableRecord
  2
*D12
340
0
 70
     0
280
     1
281
     0
  0
BLOCK_RECORD
  5
2E71B
330
1
100
AcDbSymbolTableRecord
100
AcDbBlockTableRecord
  2
*D13
340
0
 70
     0
280
     1
281
     0
  0
BLOCK_RECORD
  5
2E73A
330
1
100
AcDbSymbolTableRecord
100
AcDbBlockTableRecord
  2
*D14
340
0
 70
     0
280
     1
281
     0
  0
BLOCK_RECORD
  5
2F082
330
1
100
AcDbSymbolTableRecord
100
AcDbBlockTableRecord
  2
*D15
340
0
 70
     0
280
     1
281
     0
  0
BLOCK_RECORD
  5
2F08E
330
1
100
AcDbSymbolTableRecord
100
AcDbBlockTableRecord
  2
*D16
340
0
 70
     0
280
     1
281
     0
  0
BLOCK_RECORD
  5
2F09A
330
1
100
AcDbSymbolTableRecord
100
AcDbBlockTableRecord
  2
*D17
340
0
 70
     0
280
     1
281
     0
  0
BLOCK_RECORD
  5
2F0A6
330
1
100
AcDbSymbolTableRecord
100
AcDbBlockTableRecord
  2
*D18
340
0
 70
     0
280
     1
281
     0
  0
BLOCK_RECORD
  5
2F0B2
330
1
100
AcDbSymbolTableRecord
100
AcDbBlockTableRecord
  2
*D19
340
0
 70
     0
280
     1
281
     0
  0
BLOCK_RECORD
  5
2F0BE
330
1
100
AcDbSymbolTableRecord
100
AcDbBlockTableRecord
  2
*D20
340
0
 70
     0
280
     1
281
     0
  0
BLOCK_RECORD
  5
2F0CA
330
1
100
AcDbSymbolTableRecord
100
AcDbBlockTableRecord
  2
*D21
340
0
 70
     0
280
     1
281
     0
  0
BLOCK_RECORD
  5
2F0D6
330
1
100
AcDbSymbolTableRecord
100
AcDbBlockTableRecord
  2
*D22
340
0
 70
     0
280
     1
281
     0
  0
BLOCK_RECORD
  5
2F0F0
330
1
100
AcDbSymbolTableRecord
100
AcDbBlockTableRecord
  2
*D23
340
0
 70
     0
280
     1
281
     0
  0
BLOCK_RECORD
  5
2F10A
330
1
100
AcDbSymbolTableRecord
100
AcDbBlockTableRecord
  2
*D24
340
0
 70
     0
280
     1
281
     0
  0
BLOCK_RECORD
  5
2F118
330
1
100
AcDbSymbolTableRecord
100
AcDbBlockTableRecord
  2
*D25
340
0
 70
     0
280
     1
281
     0
  0
BLOCK_RECORD
  5
2F127
330
1
100
AcDbSymbolTableRecord
100
AcDbBlockTableRecord
  2
*D26
340
0
 70
     0
280
     1
281
     0
  0
BLOCK_RECORD
  5
2F133
330
1
100
AcDbSymbolTableRecord
100
AcDbBlockTableRecord
  2
*D27
340
0
 70
     0
280
     1
281
     0
  0
BLOCK_RECORD
  5
2F13F
330
1
100
AcDbSymbolTableRecord
100
AcDbBlockTableRecord
  2
*D28
340
0
 70
     0
280
     1
281
     0
  0
BLOCK_RECORD
  5
2F15B
330
1
100
AcDbSymbolTableRecord
100
AcDbBlockTableRecord
  2
*D29
340
0
 70
     0
280
     1
281
     0
  0
BLOCK_RECORD
  5
2F947
330
1
100
AcDbSymbolTableRecord
100
AcDbBlockTableRecord
  2
*D30
340
0
 70
     0
280
     1
281
     0
  0
BLOCK_RECORD
  5
30232
330
1
100
AcDbSymbolTableRecord
100
AcDbBlockTableRecord
  2
*D31
340
0
 70
     0
280
     1
281
     0
  0
ENDTAB
  0
ENDSEC
  0
SECTION
  2
BLOCKS
  0
BLOCK
  5
2A
330
17
100
AcDbEntity
  8
0
100
AcDbBlockBegin
  2
*MODEL_SPACE
 70
     0
 10
0.0
 20
0.0
 30
0.0
  3
*MODEL_SPACE
  1

  0
ENDBLK
  5
2B
330
17
100
AcDbEntity
  8
0
100
AcDbBlockEnd
  0
BLOCK
  5
28
330
14
100
AcDbEntity
 67
     1
  8
0
100
AcDbBlockBegin
  2
*PAPER_SPACE
 70
     0
 10
0.0
 20
0.0
 30
0.0
  3
*PAPER_SPACE
  1

  0
ENDBLK
  5
29
330
14
100
AcDbEntity
 67
     1
  8
0
100
AcDbBlockEnd
  0
BLOCK
  5
4E
330
4A
100
AcDbEntity
  8
0
100
AcDbBlockBegin
  2
_Open30
 70
     0
 10
0.0
 20
0.0
 30
0.0
  3
_Open30
  1

  0
LINE
  5
4B
330
4A
100
AcDbEntity
  8
0
  6
ByBlock
 62
     0
370
    -2
100
AcDbLine
 10
-1.0
 20
0.26794919
 30
0.0
 11
0.0
 21
0.0
 31
0.0
  0
LINE
  5
4C
330
4A
100
AcDbEntity
  8
0
  6
ByBlock
 62
     0
370
    -2
100
AcDbLine
 10
0.0
 20
0.0
 30
0.0
 11
-1.0
 21
-0.26794919
 31
0.0
  0
LINE
  5
4D
330
4A
100
AcDbEntity
  8
0
  6
ByBlock
 62
     0
370
    -2
100
AcDbLine
 10
0.0
 20
0.0
 30
0.0
 11
-1.0
 21
0.0
 31
0.0
  0
ENDBLK
  5
4F
330
4A
100
AcDbEntity
  8
0
100
AcDbBlockEnd
  0
BLOCK
  5
2C6
330
2C2
100
AcDbEntity
  8
0
100
AcDbBlockBegin
  2
dimstat
 70
     2
 10
0.0
 20
0.0
 30
0.0
  3
dimstat
  1

  0
ATTDEF
  5
2C3
330
2C2
100
AcDbEntity
  8
0
100
AcDbText
 10
0.0
 20
1.0
 30
0.0
 40
1.0
  1

 41
0.7
 51
15.0
100
AcDbAttributeDefinition
  3

  2
DIMEXT
 70
     1
280
     0
  0
ATTDEF
  5
2C4
330
2C2
100
AcDbEntity
  8
0
100
AcDbText
 10
0.0
 20
0.0
 30
0.0
 40
1.0
  1

 41
0.7
 51
15.0
100
AcDbAttributeDefinition
  3

  2
DIMBAL
 70
     1
280
     0
  0
ATTDEF
  5
2C5
330
2C2
100
AcDbEntity
  8
0
100
AcDbText
 10
1.50719045723035
 20
-0.911649989012119
 30
0.0
 40
1.0
  1

 41
0.7
 51
15.0
 72
     1
 11
1.50719045723035
 21
-0.911649989012119
 31
0.0
100
AcDbAttributeDefinition
  3

  2
SYMSCL
 70
     1
280
     0
  0
ENDBLK
  5
2C7
330
2C2
100
AcDbEntity
  8
0
100
AcDbBlockEnd
  0
BLOCK
  5
2CF
330
2CD
100
AcDbEntity
  8
0
100
AcDbBlockBegin
  2
dimstat2
 70
     2
 10
0.0
 20
0.0
 30
0.0
  3
dimstat2
  1

  0
ATTDEF
  5
2CE
330
2CD
100
AcDbEntity
  8
0
100
AcDbText
 10
0.0
 20
0.0
 30
0.0
 40
1.0
  1

 41
0.7
100
AcDbAttributeDefinition
  3

  2
DIMSIZ
 70
     1
280
     0
  0
ENDBLK
  5
2D0
330
2CD
100
AcDbEntity
  8
0
100
AcDbBlockEnd
  0
BLOCK
  5
5134
330
5132
100
AcDbEntity
  8
0
100
AcDbBlockBegin
  2
_DotSmall
 70
     0
 10
0.0
 20
0.0
 30
0.0
  3
_DotSmall
  1

  0
LWPOLYLINE
  5
5133
330
5132
100
AcDbEntity
  8
0
  6
ByBlock
 62
     0
100
AcDbPolyline
 90
        2
 70
     1
 43
0.5
 10
-0.0625
 20
0.0
 42
1.0
 10
0.0625
 20
0.0
 42
1.0
  0
ENDBLK
  5
5135
330
5132
100
AcDbEntity
  8
0
100
AcDbBlockEnd
  0
BLOCK
  5
19303
330
192FE
100
AcDbEntity
  8
0
100
AcDbBlockBegin
  2
waku0
 70
     0
 10
0.0
 20
0.0
 30
0.0
  3
waku0
  1

  0
LINE
  5
192FF
330
192FE
100
AcDbEntity
  8
0
100
AcDbLine
 10
0.0
 20
1.0
 30
0.0
 11
0.0
 21
0.0
 31
0.0
  0
LINE
  5
19300
330
192FE
100
AcDbEntity
  8
0
100
AcDbLine
 10
1.0
 20
1.0
 30
0.0
 11
0.0
 21
1.0
 31
0.0
  0
LINE
  5
19301
330
192FE
100
AcDbEntity
  8
0
100
AcDbLine
 10
1.0
 20
0.0
 30
0.0
 11
1.0
 21
1.0
 31
0.0
  0
LINE
  5
19302
330
192FE
100
AcDbEntity
  8
0
100
AcDbLine
 10
0.0
 20
0.0
 30
0.0
 11
1.0
 21
0.0
 31
0.0
  0
ENDBLK
  5
19304
330
192FE
100
AcDbEntity
  8
0
100
AcDbBlockEnd
  0
BLOCK
  5
2D145
330
2D142
100
AcDbEntity
  8
0
100
AcDbBlockBegin
  2
SSE_BALOON1
 70
     2
 10
0.0
 20
0.0
 30
0.0
  3
SSE_BALOON1
  1

  0
CIRCLE
  5
2D143
330
2D142
100
AcDbEntity
  8
0
  6
ByBlock
 62
     0
370
    -2
100
AcDbCircle
 10
0.0
 20
0.0
 30
0.0
 40
1.0
  0
ATTDEF
  5
2D144
330
2D142
100
AcDbEntity
  8
DIMTEXT
100
AcDbText
 10
0.0
 20
0.0
 30
0.0
 40
1.0
  1

 72
     4
 11
0.0
 21
0.0
 31
0.0
100
AcDbAttributeDefinition
  3
番号
  2
BAL_NUM
 70
     0
280
     0
  0
ENDBLK
  5
2D146
330
2D142
100
AcDbEntity
  8
0
100
AcDbBlockEnd
  0
BLOCK
  5
2E1DD
330
2E1DC
100
AcDbEntity
  8
0
100
AcDbBlockBegin
  2
*D6
 70
     1
 10
0.0
 20
0.0
 30
0.0
  3
*D6
  1

  0
LINE
  5
301D3
330
2E1DC
100
AcDbEntity
  8
DIM
 62
     0
370
    -2
100
AcDbLine
 10
1228.175247001253
 20
639.5048536008728
 30
0.0
 11
1707.2951192551
 21
639.5048536008727
 31
0.0
  0
LINE
  5
301D4
330
2E1DC
100
AcDbEntity
  8
DIM
 62
     0
370
    -2
100
AcDbLine
 10
1485.034138325606
 20
475.0048536009442
 30
0.0
 11
1707.2951192551
 21
475.0048536009442
 31
0.0
  0
LINE
  5
301D5
330
2E1DC
100
AcDbEntity
  8
DIM
 62
     0
370
    -2
100
AcDbLine
 10
1673.295119255099
 20
588.5048536008727
 30
0.0
 11
1673.295119255099
 21
526.0048536009443
 31
0.0
  0
LINE
  5
301D6
330
2E1DC
100
AcDbEntity
  8
DIM
 62
     0
370
    -2
100
AcDbLine
 10
1673.295119255099
 20
475.0048536009442
 30
0.0
 11
1673.295119255099
 21
285.6664042887489
 31
0.0
  0
INSERT
  5
301D7
330
2E1DC
100
AcDbEntity
  8
DIM
 62
     0
370
    -2
100
AcDbBlockReference
  2
_Open30
 10
1673.295119255099
 20
639.5048536008727
 30
0.0
 41
51.0
 42
51.0
 43
51.0
 50
90.0
  0
INSERT
  5
301D8
330
2E1DC
100
AcDbEntity
  8
DIM
 62
     0
370
    -2
100
AcDbBlockReference
  2
_Open30
 10
1673.295119255099
 20
475.0048536009442
 30
0.0
 41
51.0
 42
51.0
 43
51.0
 50
270.0
  0
MTEXT
  5
301D9
330
2E1DC
100
AcDbEntity
  8
DIM
 62
     0
100
AcDbMText
 10
1635.0451192551
 20
343.1425947649397
 30
0.0
 40
42.5
 41
0.0
 46
0.0
 71
     5
 72
     1
  1
\A1;165
 11
0.0000000000000001
 21
1.0
 31
0.0
 73
     1
 44
1.0
  0
POINT
  5
301DA
330
2E1DC
100
AcDbEntity
  8
Defpoints
 62
     0
100
AcDbPoint
 10
1194.175247001253
 20
639.5048536008728
 30
0.0
  0
POINT
  5
301DB
330
2E1DC
100
AcDbEntity
  8
Defpoints
 62
     0
100
AcDbPoint
 10
1451.034138325606
 20
475.0048536009442
 30
0.0
  0
POINT
  5
301DC
330
2E1DC
100
AcDbEntity
  8
Defpoints
 62
     0
100
AcDbPoint
 10
1673.295119255099
 20
475.0048536009442
 30
0.0
  0
ENDBLK
  5
2E1DE
330
2E1DC
100
AcDbEntity
  8
0
100
AcDbBlockEnd
  0
BLOCK
  5
2E1EA
330
2E1E9
100
AcDbEntity
  8
0
100
AcDbBlockBegin
  2
*D7
 70
     1
 10
0.0
 20
0.0
 30
0.0
  3
*D7
  1

  0
LINE
  5
301C9
330
2E1E9
100
AcDbEntity
  8
DIM
 62
     0
370
    -2
100
AcDbLine
 10
1485.034138325606
 20
475.0048536009442
 30
0.0
 11
1797.361809380319
 21
475.0048536009442
 31
0.0
  0
LINE
  5
301CA
330
2E1E9
100
AcDbEntity
  8
DIM
 62
     0
370
    -2
100
AcDbLine
 10
1482.175247001313
 20
725.0048536009387
 30
0.0
 11
1797.361809380319
 21
725.0048536009386
 31
0.0
  0
LINE
  5
301CB
330
2E1E9
100
AcDbEntity
  8
DIM
 62
     0
370
    -2
100
AcDbLine
 10
1763.361809380319
 20
674.0048536009387
 30
0.0
 11
1763.361809380319
 21
526.0048536009443
 31
0.0
  0
LINE
  5
301CC
330
2E1E9
100
AcDbEntity
  8
DIM
 62
     0
370
    -2
100
AcDbLine
 10
1763.361809380319
 20
475.0048536009442
 30
0.0
 11
1763.361809380319
 21
256.7689212954586
 31
0.0
  0
INSERT
  5
301CD
330
2E1E9
100
AcDbEntity
  8
DIM
 62
     0
370
    -2
100
AcDbBlockReference
  2
_Open30
 10
1763.361809380319
 20
725.0048536009387
 30
0.0
 41
51.0
 42
51.0
 43
51.0
 50
90.0
  0
INSERT
  5
301CE
330
2E1E9
100
AcDbEntity
  8
DIM
 62
     0
370
    -2
100
AcDbBlockReference
  2
_Open30
 10
1763.361809380319
 20
475.0048536009442
 30
0.0
 41
51.0
 42
51.0
 43
51.0
 50
270.0
  0
MTEXT
  5
301CF
330
2E1E9
100
AcDbEntity
  8
DIM
 62
     0
100
AcDbMText
 10
1725.111809380319
 20
317.4832070097446
 30
0.0
 40
42.5
 41
0.0
 46
0.0
 71
     5
 72
     1
  1
\A1;250
 11
0.0000000000000001
 21
1.0
 31
0.0
 73
     1
 44
1.0
  0
POINT
  5
301D0
330
2E1E9
100
AcDbEntity
  8
Defpoints
 62
     0
100
AcDbPoint
 10
1451.034138325606
 20
475.0048536009442
 30
0.0
  0
POINT
  5
301D1
330
2E1E9
100
AcDbEntity
  8
Defpoints
 62
     0
100
AcDbPoint
 10
1448.175247001313
 20
725.0048536009387
 30
0.0
  0
POINT
  5
301D2
330
2E1E9
100
AcDbEntity
  8
Defpoints
 62
     0
100
AcDbPoint
 10
1763.361809380319
 20
725.0048536009387
 30
0.0
  0
ENDBLK
  5
2E1EB
330
2E1E9
100
AcDbEntity
  8
0
100
AcDbBlockEnd
  0
BLOCK
  5
2E204
330
2E203
100
AcDbEntity
  8
0
100
AcDbBlockBegin
  2
*D8
 70
     1
 10
0.0
 20
0.0
 30
0.0
  3
*D8
  1

  0
LINE
  5
301F5
330
2E203
100
AcDbEntity
  8
DIM
 62
     0
370
    -2
100
AcDbLine
 10
1209.175247001339
 20
3986.525718582643
 30
0.0
 11
1556.304833041778
 21
3986.525718582643
 31
0.0
  0
LINE
  5
301F6
330
2E203
100
AcDbEntity
  8
DIM
 62
     0
370
    -2
100
AcDbLine
 10
1446.575247001336
 20
3896.525718582643
 30
0.0
 11
1556.304833041778
 21
3896.525718582643
 31
0.0
  0
LINE
  5
301F7
330
2E203
100
AcDbEntity
  8
DIM
 62
     0
370
    -2
100
AcDbLine
 10
1522.304833041778
 20
3845.525718582643
 30
0.0
 11
1522.304833041778
 21
3794.525718582643
 31
0.0
  0
LINE
  5
301F8
330
2E203
100
AcDbEntity
  8
DIM
 62
     0
370
    -2
100
AcDbLine
 10
1522.304833041778
 20
4037.525718582643
 30
0.0
 11
1522.304833041778
 21
4369.675813820738
 31
0.0
  0
LINE
  5
301F9
330
2E203
100
AcDbEntity
  8
DIM
 62
     0
370
    -2
100
AcDbLine
 10
1522.304833041778
 20
3896.525718582643
 30
0.0
 11
1522.304833041778
 21
3986.525718582643
 31
0.0
  0
INSERT
  5
301FA
330
2E203
100
AcDbEntity
  8
DIM
 62
     0
370
    -2
100
AcDbBlockReference
  2
_Open30
 10
1522.304833041778
 20
3896.525718582643
 30
0.0
 41
51.0
 42
51.0
 43
51.0
 50
90.0
  0
INSERT
  5
301FB
330
2E203
100
AcDbEntity
  8
DIM
 62
     0
370
    -2
100
AcDbBlockReference
  2
_Open30
 10
1522.304833041778
 20
3986.525718582643
 30
0.0
 41
51.0
 42
51.0
 43
51.0
 50
270.0
  0
MTEXT
  5
301FC
330
2E203
100
AcDbEntity
  8
DIM
 62
     0
100
AcDbMText
 10
1484.054833041778
 20
4237.399623344549
 30
0.0
 40
42.5
 41
0.0
 46
0.0
 71
     5
 72
     1
  1
\A1;最大90mm
 11
0.0000000000000001
 21
1.0
 31
0.0
 73
     1
 44
1.0
  0
POINT
  5
301FD
330
2E203
100
AcDbEntity
  8
Defpoints
 62
     0
100
AcDbPoint
 10
1175.175247001339
 20
3986.525718582643
 30
0.0
  0
POINT
  5
301FE
330
2E203
100
AcDbEntity
  8
Defpoints
 62
     0
100
AcDbPoint
 10
1412.575247001336
 20
3896.525718582643
 30
0.0
  0
POINT
  5
301FF
330
2E203
100
AcDbEntity
  8
Defpoints
 62
     0
100
AcDbPoint
 10
1522.304833041778
 20
3896.525718582643
 30
0.0
  0
ENDBLK
  5
2E205
330
2E203
100
AcDbEntity
  8
0
100
AcDbBlockEnd
  0
BLOCK
  5
2E236
330
2E235
100
AcDbEntity
  8
0
100
AcDbBlockBegin
  2
*D9
 70
     1
 10
0.0
 20
0.0
 30
0.0
  3
*D9
  1

  0
LINE
  5
300F0
330
2E235
100
AcDbEntity
  8
DIM
 62
     0
370
    -2
100
AcDbLine
 10
1466.542525365822
 20
595.0048536009441
 30
0.0
 11
1618.672111406284
 21
595.0048536009441
 31
0.0
  0
LINE
  5
300F1
330
2E235
100
AcDbEntity
  8
DIM
 62
     0
370
    -2
100
AcDbLine
 10
1832.436157688837
 20
475.0048536009448
 30
0.0
 11
1550.672111406284
 21
475.004853600945
 31
0.0
  0
LINE
  5
300F2
330
2E235
100
AcDbEntity
  8
DIM
 62
     0
370
    -2
100
AcDbLine
 10
1584.672111406284
 20
646.0048536009439
 30
0.0
 11
1584.672111406284
 21
697.0048536009441
 31
0.0
  0
LINE
  5
300F3
330
2E235
100
AcDbEntity
  8
DIM
 62
     0
370
    -2
100
AcDbLine
 10
1584.672111406284
 20
424.0048536009449
 30
0.0
 11
1584.672111406284
 21
373.004853600945
 31
0.0
  0
LINE
  5
300F4
330
2E235
100
AcDbEntity
  8
DIM
 62
     0
370
    -2
100
AcDbLine
 10
1584.672111406284
 20
595.0048536009441
 30
0.0
 11
1584.672111406284
 21
475.004853600945
 31
0.0
  0
INSERT
  5
300F5
330
2E235
100
AcDbEntity
  8
DIM
 62
     0
370
    -2
100
AcDbBlockReference
  2
_Open30
 10
1584.672111406284
 20
595.0048536009441
 30
0.0
 41
51.0
 42
51.0
 43
51.0
 50
270.0
  0
INSERT
  5
300F6
330
2E235
100
AcDbEntity
  8
DIM
 62
     0
370
    -2
100
AcDbBlockReference
  2
_Open30
 10
1584.672111406284
 20
475.004853600945
 30
0.0
 41
51.0
 42
51.0
 43
51.0
 50
90.0
  0
MTEXT
  5
300F7
330
2E235
100
AcDbEntity
  8
DIM
 62
     0
100
AcDbMText
 10
1546.422111406284
 20
535.0048536009446
 30
0.0
 40
42.5
 41
0.0
 46
0.0
 71
     5
 72
     1
  1
\A1;120
 11
0.0000000000000001
 21
1.0
 31
0.0
 73
     1
 44
1.0
  0
POINT
  5
300F8
330
2E235
100
AcDbEntity
  8
Defpoints
 62
     0
100
AcDbPoint
 10
1432.542525365822
 20
595.0048536009441
 30
0.0
  0
POINT
  5
300F9
330
2E235
100
AcDbEntity
  8
Defpoints
 62
     0
100
AcDbPoint
 10
1866.436157688837
 20
475.0048536009448
 30
0.0
  0
POINT
  5
300FA
330
2E235
100
AcDbEntity
  8
Defpoints
 62
     0
100
AcDbPoint
 10
1584.672111406284
 20
475.004853600945
 30
0.0
  0
ENDBLK
  5
2E237
330
2E235
100
AcDbEntity
  8
0
100
AcDbBlockEnd
  0
BLOCK
  5
2E244
330
2E243
100
AcDbEntity
  8
0
100
AcDbBlockBegin
  2
*D10
 70
     1
 10
0.0
 20
0.0
 30
0.0
  3
*D10
  1

  0
LINE
  5
301C0
330
2E243
100
AcDbEntity
  8
DIM
 62
     0
370
    -2
100
AcDbLine
 10
1056.18383485615
 20
1324.30485360094
 30
0.0
 11
1924.672111406284
 21
1324.30485360094
 31
0.0
  0
LINE
  5
301C1
330
2E243
100
AcDbEntity
  8
DIM
 62
     0
370
    -2
100
AcDbLine
 10
1806.577874180592
 20
475.0048536009448
 30
0.0
 11
1924.672111406284
 21
475.0048536009447
 31
0.0
  0
LINE
  5
301C2
330
2E243
100
AcDbEntity
  8
DIM
 62
     0
370
    -2
100
AcDbLine
 10
1890.672111406284
 20
1273.30485360094
 30
0.0
 11
1890.672111406284
 21
526.0048536009447
 31
0.0
  0
INSERT
  5
301C3
330
2E243
100
AcDbEntity
  8
DIM
 62
     0
370
    -2
100
AcDbBlockReference
  2
_Open30
 10
1890.672111406284
 20
1324.30485360094
 30
0.0
 41
51.0
 42
51.0
 43
51.0
 50
90.0
  0
INSERT
  5
301C4
330
2E243
100
AcDbEntity
  8
DIM
 62
     0
370
    -2
100
AcDbBlockReference
  2
_Open30
 10
1890.672111406284
 20
475.0048536009448
 30
0.0
 41
51.0
 42
51.0
 43
51.0
 50
270.0
  0
MTEXT
  5
301C5
330
2E243
100
AcDbEntity
  8
DIM
 62
     0
100
AcDbMText
 10
1852.422111406284
 20
899.6548536009427
 30
0.0
 40
42.5
 41
0.0
 46
0.0
 71
     5
 72
     1
  1
\A1;（850）
 11
0.0000000000000001
 21
1.0
 31
0.0
 73
     1
 44
1.0
  0
POINT
  5
301C6
330
2E243
100
AcDbEntity
  8
Defpoints
 62
     0
100
AcDbPoint
 10
1022.183834856151
 20
1324.30485360094
 30
0.0
  0
POINT
  5
301C7
330
2E243
100
AcDbEntity
  8
Defpoints
 62
     0
100
AcDbPoint
 10
1772.577874180591
 20
475.0048536009448
 30
0.0
  0
POINT
  5
301C8
330
2E243
100
AcDbEntity
  8
Defpoints
 62
     0
100
AcDbPoint
 10
1890.672111406284
 20
475.0048536009448
 30
0.0
  0
ENDBLK
  5
2E245
330
2E243
100
AcDbEntity
  8
0
100
AcDbBlockEnd
  0
BLOCK
  5
2E622
330
2E621
100
AcDbEntity
  8
0
100
AcDbBlockBegin
  2
*D11
 70
     1
 10
0.0
 20
0.0
 30
0.0
  3
*D11
  1

  0
LINE
  5
301AE
330
2E621
100
AcDbEntity
  8
DIM
 62
     0
370
    -2
100
AcDbLine
 10
1436.175247001337
 20
2656.504853600945
 30
0.0
 11
2128.672111406284
 21
2656.504853600945
 31
0.0
  0
LINE
  5
301AF
330
2E621
100
AcDbEntity
  8
DIM
 62
     0
370
    -2
100
AcDbLine
 10
2126.678123069678
 20
475.0048536009451
 30
0.0
 11
2060.672111406284
 21
475.0048536009451
 31
0.0
  0
LINE
  5
301B0
330
2E621
100
AcDbEntity
  8
DIM
 62
     0
370
    -2
100
AcDbLine
 10
2094.672111406284
 20
2605.504853600945
 30
0.0
 11
2094.672111406284
 21
526.0048536009451
 31
0.0
  0
INSERT
  5
301B1
330
2E621
100
AcDbEntity
  8
DIM
 62
     0
370
    -2
100
AcDbBlockReference
  2
_Open30
 10
2094.672111406284
 20
2656.504853600945
 30
0.0
 41
51.0
 42
51.0
 43
51.0
 50
90.0
  0
INSERT
  5
301B2
330
2E621
100
AcDbEntity
  8
DIM
 62
     0
370
    -2
100
AcDbBlockReference
  2
_Open30
 10
2094.672111406284
 20
475.0048536009451
 30
0.0
 41
51.0
 42
51.0
 43
51.0
 50
270.0
  0
MTEXT
  5
301B3
330
2E621
100
AcDbEntity
  8
DIM
 62
     0
100
AcDbMText
 10
2056.422111406284
 20
1565.754853600945
 30
0.0
 40
42.5
 41
0.0
 46
0.0
 71
     5
 72
     1
  1
\A1;2182
 11
0.0000000000000001
 21
1.0
 31
0.0
 73
     1
 44
1.0
  0
POINT
  5
301B4
330
2E621
100
AcDbEntity
  8
Defpoints
 62
     0
100
AcDbPoint
 10
1402.175247001337
 20
2656.504853600945
 30
0.0
  0
POINT
  5
301B5
330
2E621
100
AcDbEntity
  8
Defpoints
 62
     0
100
AcDbPoint
 10
2160.678123069678
 20
475.0048536009451
 30
0.0
  0
POINT
  5
301B6
330
2E621
100
AcDbEntity
  8
Defpoints
 62
     0
100
AcDbPoint
 10
2094.672111406284
 20
475.0048536009451
 30
0.0
  0
ENDBLK
  5
2E623
330
2E621
100
AcDbEntity
  8
0
100
AcDbBlockEnd
  0
BLOCK
  5
2E62F
330
2E62E
100
AcDbEntity
  8
0
100
AcDbBlockBegin
  2
*D12
 70
     1
 10
0.0
 20
0.0
 30
0.0
  3
*D12
  1

  0
LINE
  5
301B7
330
2E62E
100
AcDbEntity
  8
DIM
 62
     0
370
    -2
100
AcDbLine
 10
1312.10963023057
 20
2289.993505332727
 30
0.0
 11
2026.672111406285
 21
2289.993505332727
 31
0.0
  0
LINE
  5
301B8
330
2E62E
100
AcDbEntity
  8
DIM
 62
     0
370
    -2
100
AcDbLine
 10
2015.405393545844
 20
475.0048536009447
 30
0.0
 11
1958.672111406284
 21
475.0048536009447
 31
0.0
  0
LINE
  5
301B9
330
2E62E
100
AcDbEntity
  8
DIM
 62
     0
370
    -2
100
AcDbLine
 10
1992.672111406284
 20
2238.993505332727
 30
0.0
 11
1992.672111406284
 21
526.0048536009445
 31
0.0
  0
INSERT
  5
301BA
330
2E62E
100
AcDbEntity
  8
DIM
 62
     0
370
    -2
100
AcDbBlockReference
  2
_Open30
 10
1992.672111406284
 20
2289.993505332727
 30
0.0
 41
51.0
 42
51.0
 43
51.0
 50
90.0
  0
INSERT
  5
301BB
330
2E62E
100
AcDbEntity
  8
DIM
 62
     0
370
    -2
100
AcDbBlockReference
  2
_Open30
 10
1992.672111406284
 20
475.0048536009447
 30
0.0
 41
51.0
 42
51.0
 43
51.0
 50
270.0
  0
MTEXT
  5
301BC
330
2E62E
100
AcDbEntity
  8
DIM
 62
     0
100
AcDbMText
 10
1954.422111406284
 20
1382.499179466836
 30
0.0
 40
42.5
 41
0.0
 46
0.0
 71
     5
 72
     1
  1
\A1;（1815）
 11
0.0000000000000001
 21
1.0
 31
0.0
 73
     1
 44
1.0
  0
POINT
  5
301BD
330
2E62E
100
AcDbEntity
  8
Defpoints
 62
     0
100
AcDbPoint
 10
1278.10963023057
 20
2289.993505332727
 30
0.0
  0
POINT
  5
301BE
330
2E62E
100
AcDbEntity
  8
Defpoints
 62
     0
100
AcDbPoint
 10
2049.405393545844
 20
475.0048536009447
 30
0.0
  0
POINT
  5
301BF
330
2E62E
100
AcDbEntity
  8
Defpoints
 62
     0
100
AcDbPoint
 10
1992.672111406284
 20
475.0048536009447
 30
0.0
  0
ENDBLK
  5
2E630
330
2E62E
100
AcDbEntity
  8
0
100
AcDbBlockEnd
  0
BLOCK
  5
2E71C
330
2E71B
100
AcDbEntity
  8
0
100
AcDbBlockBegin
  2
*D13
 70
     1
 10
0.0
 20
0.0
 30
0.0
  3
*D13
  1

  0
LINE
  5
30200
330
2E71B
100
AcDbEntity
  8
DIM
 62
     0
370
    -2
100
AcDbLine
 10
1446.575247001336
 20
3896.525718582642
 30
0.0
 11
1556.304833041778
 21
3896.525718582642
 31
0.0
  0
LINE
  5
30201
330
2E71B
100
AcDbEntity
  8
DIM
 62
     0
370
    -2
100
AcDbLine
 10
1446.575247001336
 20
3174.525718582642
 30
0.0
 11
1556.304833041777
 21
3174.525718582642
 31
0.0
  0
LINE
  5
30202
330
2E71B
100
AcDbEntity
  8
DIM
 62
     0
370
    -2
100
AcDbLine
 10
1522.304833041778
 20
3845.525718582643
 30
0.0
 11
1522.304833041778
 21
3225.525718582642
 31
0.0
  0
INSERT
  5
30203
330
2E71B
100
AcDbEntity
  8
DIM
 62
     0
370
    -2
100
AcDbBlockReference
  2
_Open30
 10
1522.304833041778
 20
3896.525718582642
 30
0.0
 41
51.0
 42
51.0
 43
51.0
 50
90.0
  0
INSERT
  5
30204
330
2E71B
100
AcDbEntity
  8
DIM
 62
     0
370
    -2
100
AcDbBlockReference
  2
_Open30
 10
1522.304833041777
 20
3174.525718582642
 30
0.0
 41
51.0
 42
51.0
 43
51.0
 50
270.0
  0
MTEXT
  5
30205
330
2E71B
100
AcDbEntity
  8
DIM
 62
     0
100
AcDbMText
 10
1484.054833041777
 20
3535.525718582643
 30
0.0
 40
42.5
 41
0.0
 46
0.0
 71
     5
 72
     1
  1
\A1;（730）
 11
0.0000000000000001
 21
1.0
 31
0.0
 73
     1
 44
1.0
  0
POINT
  5
30206
330
2E71B
100
AcDbEntity
  8
Defpoints
 62
     0
100
AcDbPoint
 10
1412.575247001336
 20
3896.525718582642
 30
0.0
  0
POINT
  5
30207
330
2E71B
100
AcDbEntity
  8
Defpoints
 62
     0
100
AcDbPoint
 10
1412.575247001336
 20
3174.525718582642
 30
0.0
  0
POINT
  5
30208
330
2E71B
100
AcDbEntity
  8
Defpoints
 62
     0
100
AcDbPoint
 10
1522.304833041777
 20
3174.525718582642
 30
0.0
  0
ENDBLK
  5
2E71D
330
2E71B
100
AcDbEntity
  8
0
100
AcDbBlockEnd
  0
BLOCK
  5
2E73B
330
2E73A
100
AcDbEntity
  8
0
100
AcDbBlockBegin
  2
*D14
 70
     1
 10
0.0
 20
0.0
 30
0.0
  3
*D14
  1

  0
LINE
  5
30209
330
2E73A
100
AcDbEntity
  8
DIM
 62
     0
370
    -2
100
AcDbLine
 10
794.1752470013397
 20
3906.925718582642
 30
0.0
 11
794.1752470013397
 21
4087.90931599807
 31
0.0
  0
LINE
  5
3020A
330
2E73A
100
AcDbEntity
  8
DIM
 62
     0
370
    -2
100
AcDbLine
 10
1436.175247001336
 20
3906.925718582642
 30
0.0
 11
1436.175247001336
 21
4087.90931599807
 31
0.0
  0
LINE
  5
3020B
330
2E73A
100
AcDbEntity
  8
DIM
 62
     0
370
    -2
100
AcDbLine
 10
845.1752470013397
 20
4053.90931599807
 30
0.0
 11
1385.175247001336
 21
4053.90931599807
 31
0.0
  0
INSERT
  5
3020C
330
2E73A
100
AcDbEntity
  8
DIM
 62
     0
370
    -2
100
AcDbBlockReference
  2
_Open30
 10
794.1752470013397
 20
4053.90931599807
 30
0.0
 41
51.0
 42
51.0
 43
51.0
 50
180.0
  0
INSERT
  5
3020D
330
2E73A
100
AcDbEntity
  8
DIM
 62
     0
370
    -2
100
AcDbBlockReference
  2
_Open30
 10
1436.175247001336
 20
4053.90931599807
 30
0.0
 41
51.0
 42
51.0
 43
51.0
  0
MTEXT
  5
3020E
330
2E73A
100
AcDbEntity
  8
DIM
 62
     0
100
AcDbMText
 10
1115.175247001338
 20
4092.15931599807
 30
0.0
 40
42.5
 41
0.0
 46
0.0
 71
     5
 72
     1
  1
\A1;（650）
 73
     1
 44
1.0
  0
POINT
  5
3020F
330
2E73A
100
AcDbEntity
  8
Defpoints
 62
     0
100
AcDbPoint
 10
794.1752470013397
 20
3872.925718582644
 30
0.0
  0
POINT
  5
30210
330
2E73A
100
AcDbEntity
  8
Defpoints
 62
     0
100
AcDbPoint
 10
1436.175247001336
 20
3872.925718582644
 30
0.0
  0
POINT
  5
30211
330
2E73A
100
AcDbEntity
  8
Defpoints
 62
     0
100
AcDbPoint
 10
1436.175247001336
 20
4053.90931599807
 30
0.0
  0
ENDBLK
  5
2E73C
330
2E73A
100
AcDbEntity
  8
0
100
AcDbBlockEnd
  0
BLOCK
  5
2F083
330
2F082
100
AcDbEntity
  8
0
100
AcDbBlockBegin
  2
*D15
 70
     1
 10
0.0
 20
0.0
 30
0.0
  3
*D15
  1

  0
LINE
  5
3006C
330
2F082
100
AcDbEntity
  8
DIM
 62
     0
370
    -2
100
AcDbLine
 10
2582.290288939775
 20
3218.425713085889
 30
0.0
 11
2169.295744155869
 21
3218.425713085889
 31
0.0
  0
LINE
  5
3006D
330
2F082
100
AcDbEntity
  8
DIM
 62
     0
370
    -2
100
AcDbLine
 10
2426.390288938983
 20
3900.525718582641
 30
0.0
 11
2169.295744155869
 21
3900.525718582641
 31
0.0
  0
LINE
  5
3006E
330
2F082
100
AcDbEntity
  8
DIM
 62
     0
370
    -2
100
AcDbLine
 10
2203.29574415587
 20
3269.425713085889
 30
0.0
 11
2203.29574415587
 21
3849.525718582643
 31
0.0
  0
INSERT
  5
3006F
330
2F082
100
AcDbEntity
  8
DIM
 62
     0
370
    -2
100
AcDbBlockReference
  2
_Open30
 10
2203.29574415587
 20
3218.425713085889
 30
0.0
 41
51.0
 42
51.0
 43
51.0
 50
270.0
  0
INSERT
  5
30070
330
2F082
100
AcDbEntity
  8
DIM
 62
     0
370
    -2
100
AcDbBlockReference
  2
_Open30
 10
2203.29574415587
 20
3900.525718582641
 30
0.0
 41
51.0
 42
51.0
 43
51.0
 50
90.0
  0
MTEXT
  5
30071
330
2F082
100
AcDbEntity
  8
DIM
 62
     0
100
AcDbMText
 10
2165.045744155869
 20
3559.475715834266
 30
0.0
 40
42.5
 41
0.0
 46
0.0
 71
     5
 72
     1
  1
\A1;682
 11
0.0000000000000001
 21
1.0
 31
0.0
 73
     1
 44
1.0
  0
POINT
  5
30072
330
2F082
100
AcDbEntity
  8
Defpoints
 62
     0
100
AcDbPoint
 10
2616.290288939775
 20
3218.425713085889
 30
0.0
  0
POINT
  5
30073
330
2F082
100
AcDbEntity
  8
Defpoints
 62
     0
100
AcDbPoint
 10
2460.390288938985
 20
3900.525718582641
 30
0.0
  0
POINT
  5
30074
330
2F082
100
AcDbEntity
  8
Defpoints
 62
     0
100
AcDbPoint
 10
2203.29574415587
 20
3900.525718582641
 30
0.0
  0
ENDBLK
  5
2F084
330
2F082
100
AcDbEntity
  8
0
100
AcDbBlockEnd
  0
BLOCK
  5
2F08F
330
2F08E
100
AcDbEntity
  8
0
100
AcDbBlockBegin
  2
*D16
 70
     1
 10
0.0
 20
0.0
 30
0.0
  3
*D16
  1

  0
LINE
  5
2FF28
330
2F08E
100
AcDbEntity
  8
DIM
 62
     0
370
    -2
100
AcDbLine
 10
2426.390288938983
 20
3900.525718582641
 30
0.0
 11
2054.224786137094
 21
3900.525718582641
 31
0.0
  0
LINE
  5
2FF29
330
2F08E
100
AcDbEntity
  8
DIM
 62
     0
370
    -2
100
AcDbLine
 10
2551.623622273108
 20
3205.425718582644
 30
0.0
 11
2054.224786137094
 21
3205.425718582644
 31
0.0
  0
LINE
  5
2FF2A
330
2F08E
100
AcDbEntity
  8
DIM
 62
     0
370
    -2
100
AcDbLine
 10
2088.224786137094
 20
3849.525718582643
 30
0.0
 11
2088.224786137093
 21
3256.425718582644
 31
0.0
  0
INSERT
  5
2FF2B
330
2F08E
100
AcDbEntity
  8
DIM
 62
     0
370
    -2
100
AcDbBlockReference
  2
_Open30
 10
2088.224786137094
 20
3900.525718582641
 30
0.0
 41
51.0
 42
51.0
 43
51.0
 50
90.0
  0
INSERT
  5
2FF2C
330
2F08E
100
AcDbEntity
  8
DIM
 62
     0
370
    -2
100
AcDbBlockReference
  2
_Open30
 10
2088.224786137093
 20
3205.425718582644
 30
0.0
 41
51.0
 42
51.0
 43
51.0
 50
270.0
  0
MTEXT
  5
2FF2D
330
2F08E
100
AcDbEntity
  8
DIM
 62
     0
100
AcDbMText
 10
2049.974786137093
 20
3552.975718582643
 30
0.0
 40
42.5
 41
0.0
 46
0.0
 71
     5
 72
     1
  1
\A1;695
 11
0.0000000000000001
 21
1.0
 31
0.0
 73
     1
 44
1.0
  0
POINT
  5
2FF2E
330
2F08E
100
AcDbEntity
  8
Defpoints
 62
     0
100
AcDbPoint
 10
2460.390288938985
 20
3900.525718582641
 30
0.0
  0
POINT
  5
2FF2F
330
2F08E
100
AcDbEntity
  8
Defpoints
 62
     0
100
AcDbPoint
 10
2585.623622273108
 20
3205.425718582644
 30
0.0
  0
POINT
  5
2FF30
330
2F08E
100
AcDbEntity
  8
Defpoints
 62
     0
100
AcDbPoint
 10
2088.224786137093
 20
3205.425718582644
 30
0.0
  0
ENDBLK
  5
2F090
330
2F08E
100
AcDbEntity
  8
0
100
AcDbBlockEnd
  0
BLOCK
  5
2F09B
330
2F09A
100
AcDbEntity
  8
0
100
AcDbBlockBegin
  2
*D17
 70
     1
 10
0.0
 20
0.0
 30
0.0
  3
*D17
  1

  0
LINE
  5
2FFBD
330
2F09A
100
AcDbEntity
  8
DIM
 62
     0
370
    -2
100
AcDbLine
 10
2476.332032709837
 20
3435.925718582609
 30
0.0
 11
2476.332032709837
 21
4097.092385249307
 31
0.0
  0
LINE
  5
2FFBE
330
2F09A
100
AcDbEntity
  8
DIM
 62
     0
370
    -2
100
AcDbLine
 10
3039.248545169737
 20
3437.925718582635
 30
0.0
 11
3039.248545169737
 21
4097.092385249307
 31
0.0
  0
LINE
  5
2FFBF
330
2F09A
100
AcDbEntity
  8
DIM
 62
     0
370
    -2
100
AcDbLine
 10
2527.332032709837
 20
4063.092385249307
 30
0.0
 11
2988.248545169737
 21
4063.092385249307
 31
0.0
  0
INSERT
  5
2FFC0
330
2F09A
100
AcDbEntity
  8
DIM
 62
     0
370
    -2
100
AcDbBlockReference
  2
_Open30
 10
2476.332032709837
 20
4063.092385249307
 30
0.0
 41
51.0
 42
51.0
 43
51.0
 50
180.0
  0
INSERT
  5
2FFC1
330
2F09A
100
AcDbEntity
  8
DIM
 62
     0
370
    -2
100
AcDbBlockReference
  2
_Open30
 10
3039.248545169737
 20
4063.092385249307
 30
0.0
 41
51.0
 42
51.0
 43
51.0
  0
MTEXT
  5
2FFC2
330
2F09A
100
AcDbEntity
  8
DIM
 62
     0
100
AcDbMText
 10
2757.790288939787
 20
4101.342385249306
 30
0.0
 40
42.5
 41
0.0
 46
0.0
 71
     5
 72
     1
  1
\A1;563
 73
     1
 44
1.0
  0
POINT
  5
2FFC3
330
2F09A
100
AcDbEntity
  8
Defpoints
 62
     0
100
AcDbPoint
 10
2476.332032709837
 20
3401.925718582608
 30
0.0
  0
POINT
  5
2FFC4
330
2F09A
100
AcDbEntity
  8
Defpoints
 62
     0
100
AcDbPoint
 10
3039.248545169737
 20
3403.925718582635
 30
0.0
  0
POINT
  5
2FFC5
330
2F09A
100
AcDbEntity
  8
Defpoints
 62
     0
100
AcDbPoint
 10
3039.248545169737
 20
4063.092385249307
 30
0.0
  0
ENDBLK
  5
2F09C
330
2F09A
100
AcDbEntity
  8
0
100
AcDbBlockEnd
  0
BLOCK
  5
2F0A7
330
2F0A6
100
AcDbEntity
  8
0
100
AcDbBlockBegin
  2
*D18
 70
     1
 10
0.0
 20
0.0
 30
0.0
  3
*D18
  1

  0
LINE
  5
2FE7A
330
2F0A6
100
AcDbEntity
  8
DIM
 62
     0
370
    -2
100
AcDbLine
 10
3089.190288938984
 20
3900.525718582641
 30
0.0
 11
3217.190288938982
 21
3900.525718582641
 31
0.0
  0
LINE
  5
2FE7B
330
2F0A6
100
AcDbEntity
  8
DIM
 62
     0
370
    -2
100
AcDbLine
 10
2862.390288926801
 20
3227.855718582654
 30
0.0
 11
3217.190288938982
 21
3227.855718582654
 31
0.0
  0
LINE
  5
2FE7C
330
2F0A6
100
AcDbEntity
  8
DIM
 62
     0
370
    -2
100
AcDbLine
 10
3183.190288938982
 20
3849.525718582641
 30
0.0
 11
3183.190288938981
 21
3278.855718582654
 31
0.0
  0
INSERT
  5
2FE7D
330
2F0A6
100
AcDbEntity
  8
DIM
 62
     0
370
    -2
100
AcDbBlockReference
  2
_Open30
 10
3183.190288938982
 20
3900.525718582641
 30
0.0
 41
51.0
 42
51.0
 43
51.0
 50
90.0
  0
INSERT
  5
2FE7E
330
2F0A6
100
AcDbEntity
  8
DIM
 62
     0
370
    -2
100
AcDbBlockReference
  2
_Open30
 10
3183.190288938981
 20
3227.855718582654
 30
0.0
 41
51.0
 42
51.0
 43
51.0
 50
270.0
  0
MTEXT
  5
2FE7F
330
2F0A6
100
AcDbEntity
  8
DIM
 62
     0
100
AcDbMText
 10
3144.940288938981
 20
3564.190718582648
 30
0.0
 40
42.5
 41
0.0
 46
0.0
 71
     5
 72
     1
  1
\A1;673
 11
0.0000000000000001
 21
1.0
 31
0.0
 73
     1
 44
1.0
  0
POINT
  5
2FE80
330
2F0A6
100
AcDbEntity
  8
Defpoints
 62
     0
100
AcDbPoint
 10
3055.190288938984
 20
3900.525718582641
 30
0.0
  0
POINT
  5
2FE81
330
2F0A6
100
AcDbEntity
  8
Defpoints
 62
     0
100
AcDbPoint
 10
2828.390288926801
 20
3227.855718582654
 30
0.0
  0
POINT
  5
2FE82
330
2F0A6
100
AcDbEntity
  8
Defpoints
 62
     0
100
AcDbPoint
 10
3183.190288938981
 20
3227.855718582654
 30
0.0
  0
ENDBLK
  5
2F0A8
330
2F0A6
100
AcDbEntity
  8
0
100
AcDbBlockEnd
  0
BLOCK
  5
2F0B3
330
2F0B2
100
AcDbEntity
  8
0
100
AcDbBlockBegin
  2
*D19
 70
     1
 10
0.0
 20
0.0
 30
0.0
  3
*D19
  1

  0
LINE
  5
2FE83
330
2F0B2
100
AcDbEntity
  8
DIM
 62
     0
370
    -2
100
AcDbLine
 10
2965.79031644838
 20
3218.425713085889
 30
0.0
 11
3329.19028893898
 21
3218.425713085888
 31
0.0
  0
LINE
  5
2FE84
330
2F0B2
100
AcDbEntity
  8
DIM
 62
     0
370
    -2
100
AcDbLine
 10
3089.190288938984
 20
3900.525718582641
 30
0.0
 11
3329.19028893898
 21
3900.525718582641
 31
0.0
  0
LINE
  5
2FE85
330
2F0B2
100
AcDbEntity
  8
DIM
 62
     0
370
    -2
100
AcDbLine
 10
3295.19028893898
 20
3269.425713085889
 30
0.0
 11
3295.190288938981
 21
3849.525718582641
 31
0.0
  0
INSERT
  5
2FE86
330
2F0B2
100
AcDbEntity
  8
DIM
 62
     0
370
    -2
100
AcDbBlockReference
  2
_Open30
 10
3295.19028893898
 20
3218.425713085888
 30
0.0
 41
51.0
 42
51.0
 43
51.0
 50
270.0
  0
INSERT
  5
2FE87
330
2F0B2
100
AcDbEntity
  8
DIM
 62
     0
370
    -2
100
AcDbBlockReference
  2
_Open30
 10
3295.190288938981
 20
3900.525718582641
 30
0.0
 41
51.0
 42
51.0
 43
51.0
 50
90.0
  0
MTEXT
  5
2FE88
330
2F0B2
100
AcDbEntity
  8
DIM
 62
     0
100
AcDbMText
 10
3256.94028893898
 20
3559.475715834266
 30
0.0
 40
42.5
 41
0.0
 46
0.0
 71
     5
 72
     1
  1
\A1;682
 11
0.0000000000000001
 21
1.0
 31
0.0
 73
     1
 44
1.0
  0
POINT
  5
2FE89
330
2F0B2
100
AcDbEntity
  8
Defpoints
 62
     0
100
AcDbPoint
 10
2931.79031644838
 20
3218.425713085889
 30
0.0
  0
POINT
  5
2FE8A
330
2F0B2
100
AcDbEntity
  8
Defpoints
 62
     0
100
AcDbPoint
 10
3055.190288938984
 20
3900.525718582641
 30
0.0
  0
POINT
  5
2FE8B
330
2F0B2
100
AcDbEntity
  8
Defpoints
 62
     0
100
AcDbPoint
 10
3295.190288938981
 20
3900.525718582641
 30
0.0
  0
ENDBLK
  5
2F0B4
330
2F0B2
100
AcDbEntity
  8
0
100
AcDbBlockEnd
  0
BLOCK
  5
2F0BF
330
2F0BE
100
AcDbEntity
  8
0
100
AcDbBlockBegin
  2
*D20
 70
     1
 10
0.0
 20
0.0
 30
0.0
  3
*D20
  1

  0
LINE
  5
2FF0D
330
2F0BE
100
AcDbEntity
  8
DIM
 62
     0
370
    -2
100
AcDbLine
 10
2462.623622273108
 20
3247.425718582645
 30
0.0
 11
2358.390288938982
 21
3247.425718582645
 31
0.0
  0
LINE
  5
2FF0E
330
2F0BE
100
AcDbEntity
  8
DIM
 62
     0
370
    -2
100
AcDbLine
 10
2426.390288938983
 20
3900.525718582641
 30
0.0
 11
2358.390288938982
 21
3900.525718582641
 31
0.0
  0
LINE
  5
2FF0F
330
2F0BE
100
AcDbEntity
  8
DIM
 62
     0
370
    -2
100
AcDbLine
 10
2392.390288938982
 20
3298.425718582645
 30
0.0
 11
2392.390288938982
 21
3849.525718582643
 31
0.0
  0
INSERT
  5
2FF10
330
2F0BE
100
AcDbEntity
  8
DIM
 62
     0
370
    -2
100
AcDbBlockReference
  2
_Open30
 10
2392.390288938982
 20
3247.425718582645
 30
0.0
 41
51.0
 42
51.0
 43
51.0
 50
270.0
  0
INSERT
  5
2FF11
330
2F0BE
100
AcDbEntity
  8
DIM
 62
     0
370
    -2
100
AcDbBlockReference
  2
_Open30
 10
2392.390288938982
 20
3900.525718582641
 30
0.0
 41
51.0
 42
51.0
 43
51.0
 50
90.0
  0
MTEXT
  5
2FF12
330
2F0BE
100
AcDbEntity
  8
DIM
 62
     0
100
AcDbMText
 10
2354.140288938981
 20
3573.975718582643
 30
0.0
 40
42.5
 41
0.0
 46
0.0
 71
     5
 72
     1
  1
\A1;653
 11
0.0000000000000001
 21
1.0
 31
0.0
 73
     1
 44
1.0
  0
POINT
  5
2FF13
330
2F0BE
100
AcDbEntity
  8
Defpoints
 62
     0
100
AcDbPoint
 10
2496.623622273108
 20
3247.425718582645
 30
0.0
  0
POINT
  5
2FF14
330
2F0BE
100
AcDbEntity
  8
Defpoints
 62
     0
100
AcDbPoint
 10
2460.390288938985
 20
3900.525718582641
 30
0.0
  0
POINT
  5
2FF15
330
2F0BE
100
AcDbEntity
  8
Defpoints
 62
     0
100
AcDbPoint
 10
2392.390288938982
 20
3900.525718582641
 30
0.0
  0
ENDBLK
  5
2F0C0
330
2F0BE
100
AcDbEntity
  8
0
100
AcDbBlockEnd
  0
BLOCK
  5
2F0CB
330
2F0CA
100
AcDbEntity
  8
0
100
AcDbBlockBegin
  2
*D21
 70
     1
 10
0.0
 20
0.0
 30
0.0
  3
*D21
  1

  0
LINE
  5
2FED1
330
2F0CA
100
AcDbEntity
  8
DIM
 62
     0
370
    -2
100
AcDbLine
 10
2895.29031644838
 20
3147.925713085889
 30
0.0
 11
2895.29031644838
 21
2925.89880688803
 31
0.0
  0
LINE
  5
2FED2
330
2F0CA
100
AcDbEntity
  8
DIM
 62
     0
370
    -2
100
AcDbLine
 10
3082.790288938983
 20
3164.125718582643
 30
0.0
 11
3082.790288938983
 21
2925.89880688803
 31
0.0
  0
LINE
  5
2FED3
330
2F0CA
100
AcDbEntity
  8
DIM
 62
     0
370
    -2
100
AcDbLine
 10
2946.290316448381
 20
2959.89880688803
 30
0.0
 11
3031.790288938984
 21
2959.89880688803
 31
0.0
  0
INSERT
  5
2FED4
330
2F0CA
100
AcDbEntity
  8
DIM
 62
     0
370
    -2
100
AcDbBlockReference
  2
_Open30
 10
2895.29031644838
 20
2959.89880688803
 30
0.0
 41
51.0
 42
51.0
 43
51.0
 50
180.0
  0
INSERT
  5
2FED5
330
2F0CA
100
AcDbEntity
  8
DIM
 62
     0
370
    -2
100
AcDbBlockReference
  2
_Open30
 10
3082.790288938983
 20
2959.89880688803
 30
0.0
 41
51.0
 42
51.0
 43
51.0
  0
MTEXT
  5
2FED6
330
2F0CA
100
AcDbEntity
  8
DIM
 62
     0
100
AcDbMText
 10
2989.040302693682
 20
2998.14880688803
 30
0.0
 40
42.5
 41
0.0
 46
0.0
 71
     5
 72
     1
  1
\A1;（187）
 73
     1
 44
1.0
  0
POINT
  5
2FED7
330
2F0CA
100
AcDbEntity
  8
Defpoints
 62
     0
100
AcDbPoint
 10
2895.29031644838
 20
3181.92571308589
 30
0.0
  0
POINT
  5
2FED8
330
2F0CA
100
AcDbEntity
  8
Defpoints
 62
     0
100
AcDbPoint
 10
3082.790288938983
 20
3198.125718582643
 30
0.0
  0
POINT
  5
2FED9
330
2F0CA
100
AcDbEntity
  8
Defpoints
 62
     0
100
AcDbPoint
 10
3082.790288938983
 20
2959.89880688803
 30
0.0
  0
ENDBLK
  5
2F0CC
330
2F0CA
100
AcDbEntity
  8
0
100
AcDbBlockEnd
  0
BLOCK
  5
2F0D7
330
2F0D6
100
AcDbEntity
  8
0
100
AcDbBlockBegin
  2
*D22
 70
     1
 10
0.0
 20
0.0
 30
0.0
  3
*D22
  1

  0
LINE
  5
2FEE3
330
2F0D6
100
AcDbEntity
  8
DIM
 62
     0
370
    -2
100
AcDbLine
 10
2516.790288939776
 20
3193.259051915978
 30
0.0
 11
2516.790288939776
 21
2803.139726390704
 31
0.0
  0
LINE
  5
2FEE4
330
2F0D6
100
AcDbEntity
  8
DIM
 62
     0
370
    -2
100
AcDbLine
 10
2432.790288938984
 20
3164.125718582643
 30
0.0
 11
2432.790288938984
 21
2803.139726390704
 31
0.0
  0
LINE
  5
2FEE5
330
2F0D6
100
AcDbEntity
  8
DIM
 62
     0
370
    -2
100
AcDbLine
 10
2567.790288939776
 20
2837.139726390704
 30
0.0
 11
2618.790288939776
 21
2837.139726390704
 31
0.0
  0
LINE
  5
2FEE6
330
2F0D6
100
AcDbEntity
  8
DIM
 62
     0
370
    -2
100
AcDbLine
 10
2381.790288938984
 20
2837.139726390704
 30
0.0
 11
2179.033717510413
 21
2837.139726390704
 31
0.0
  0
LINE
  5
2FEE7
330
2F0D6
100
AcDbEntity
  8
DIM
 62
     0
370
    -2
100
AcDbLine
 10
2516.790288939776
 20
2837.139726390704
 30
0.0
 11
2432.790288938984
 21
2837.139726390704
 31
0.0
  0
INSERT
  5
2FEE8
330
2F0D6
100
AcDbEntity
  8
DIM
 62
     0
370
    -2
100
AcDbBlockReference
  2
_Open30
 10
2516.790288939776
 20
2837.139726390704
 30
0.0
 41
51.0
 42
51.0
 43
51.0
 50
180.0
  0
INSERT
  5
2FEE9
330
2F0D6
100
AcDbEntity
  8
DIM
 62
     0
370
    -2
100
AcDbBlockReference
  2
_Open30
 10
2432.790288938984
 20
2837.139726390704
 30
0.0
 41
51.0
 42
51.0
 43
51.0
  0
MTEXT
  5
2FEEA
330
2F0D6
100
AcDbEntity
  8
DIM
 62
     0
100
AcDbMText
 10
2247.681336558032
 20
2875.389726390706
 30
0.0
 40
42.5
 41
0.0
 46
0.0
 71
     5
 72
     1
  1
\A1;（84）
 73
     1
 44
1.0
  0
POINT
  5
2FEEB
330
2F0D6
100
AcDbEntity
  8
Defpoints
 62
     0
100
AcDbPoint
 10
2516.790288939776
 20
3227.259051915978
 30
0.0
  0
POINT
  5
2FEEC
330
2F0D6
100
AcDbEntity
  8
Defpoints
 62
     0
100
AcDbPoint
 10
2432.790288938984
 20
3198.125718582643
 30
0.0
  0
POINT
  5
2FEED
330
2F0D6
100
AcDbEntity
  8
Defpoints
 62
     0
100
AcDbPoint
 10
2432.790288938984
 20
2837.139726390704
 30
0.0
  0
ENDBLK
  5
2F0D8
330
2F0D6
100
AcDbEntity
  8
0
100
AcDbBlockEnd
  0
BLOCK
  5
2F0F1
330
2F0F0
100
AcDbEntity
  8
0
100
AcDbBlockBegin
  2
*D23
 70
     1
 10
0.0
 20
0.0
 30
0.0
  3
*D23
  1

  0
LINE
  5
2FF04
330
2F0F0
100
AcDbEntity
  8
DIM
 62
     0
370
    -2
100
AcDbLine
 10
2757.790288939796
 20
3092.565473554696
 30
0.0
 11
2757.790288939796
 21
2803.139726390704
 31
0.0
  0
LINE
  5
2FF05
330
2F0F0
100
AcDbEntity
  8
DIM
 62
     0
370
    -2
100
AcDbLine
 10
2516.790288939776
 20
3193.259051915978
 30
0.0
 11
2516.790288939776
 21
2803.139726390704
 31
0.0
  0
LINE
  5
2FF06
330
2F0F0
100
AcDbEntity
  8
DIM
 62
     0
370
    -2
100
AcDbLine
 10
2706.790288939797
 20
2837.139726390704
 30
0.0
 11
2567.790288939776
 21
2837.139726390704
 31
0.0
  0
INSERT
  5
2FF07
330
2F0F0
100
AcDbEntity
  8
DIM
 62
     0
370
    -2
100
AcDbBlockReference
  2
_Open30
 10
2757.790288939796
 20
2837.139726390704
 30
0.0
 41
51.0
 42
51.0
 43
51.0
  0
INSERT
  5
2FF08
330
2F0F0
100
AcDbEntity
  8
DIM
 62
     0
370
    -2
100
AcDbBlockReference
  2
_Open30
 10
2516.790288939776
 20
2837.139726390704
 30
0.0
 41
51.0
 42
51.0
 43
51.0
 50
180.0
  0
MTEXT
  5
2FF09
330
2F0F0
100
AcDbEntity
  8
DIM
 62
     0
100
AcDbMText
 10
2637.290288939786
 20
2875.389726390706
 30
0.0
 40
42.5
 41
0.0
 46
0.0
 71
     5
 72
     1
  1
\A1;241
 73
     1
 44
1.0
  0
POINT
  5
2FF0A
330
2F0F0
100
AcDbEntity
  8
Defpoints
 62
     0
100
AcDbPoint
 10
2757.790288939796
 20
3126.565473554696
 30
0.0
  0
POINT
  5
2FF0B
330
2F0F0
100
AcDbEntity
  8
Defpoints
 62
     0
100
AcDbPoint
 10
2516.790288939776
 20
3227.259051915978
 30
0.0
  0
POINT
  5
2FF0C
330
2F0F0
100
AcDbEntity
  8
Defpoints
 62
     0
100
AcDbPoint
 10
2516.790288939776
 20
2837.139726390704
 30
0.0
  0
ENDBLK
  5
2F0F2
330
2F0F0
100
AcDbEntity
  8
0
100
AcDbBlockEnd
  0
BLOCK
  5
2F10B
330
2F10A
100
AcDbEntity
  8
0
100
AcDbBlockBegin
  2
*D24
 70
     1
 10
0.0
 20
0.0
 30
0.0
  3
*D24
  1

  0
LINE
  5
2FF82
330
2F10A
100
AcDbEntity
  8
DIM
 62
     0
370
    -2
100
AcDbLine
 10
2757.790288939796
 20
3092.565473554696
 30
0.0
 11
2757.790288939796
 21
3028.565473554696
 31
0.0
  0
LINE
  5
2FF83
330
2F10A
100
AcDbEntity
  8
DIM
 62
     0
370
    -2
100
AcDbLine
 10
2807.790288939793
 20
3175.791763958112
 30
0.0
 11
2807.790288939793
 21
3028.565473554696
 31
0.0
  0
LINE
  5
2FF84
330
2F10A
100
AcDbEntity
  8
DIM
 62
     0
370
    -2
100
AcDbLine
 10
2757.790288939796
 20
3062.565473554696
 30
0.0
 11
2706.790288939797
 21
3062.565473554696
 31
0.0
  0
LINE
  5
2FF85
330
2F10A
100
AcDbEntity
  8
DIM
 62
     0
370
    -2
100
AcDbLine
 10
2858.790288939793
 20
3062.565473554696
 30
0.0
 11
3007.18801847504
 21
3062.565473554696
 31
0.0
  0
LINE
  5
2FF86
330
2F10A
100
AcDbEntity
  8
DIM
 62
     0
370
    -2
100
AcDbLine
 10
2757.790288939796
 20
3062.565473554696
 30
0.0
 11
2807.790288939793
 21
3062.565473554696
 31
0.0
  0
INSERT
  5
2FF87
330
2F10A
100
AcDbEntity
  8
DIM
 62
     0
370
    -2
100
AcDbBlockReference
  2
_DotSmall
 10
2757.790288939796
 20
3062.565473554696
 30
0.0
 41
51.0
 42
51.0
 43
51.0
  0
INSERT
  5
2FF88
330
2F10A
100
AcDbEntity
  8
DIM
 62
     0
370
    -2
100
AcDbBlockReference
  2
_Open30
 10
2807.790288939793
 20
3062.565473554696
 30
0.0
 41
51.0
 42
51.0
 43
51.0
 50
180.0
  0
MTEXT
  5
2FF89
330
2F10A
100
AcDbEntity
  8
DIM
 62
     0
100
AcDbMText
 10
2962.664208951231
 20
3100.815473554696
 30
0.0
 40
42.5
 41
0.0
 46
0.0
 71
     5
 72
     1
  1
\A1;50
 73
     1
 44
1.0
  0
POINT
  5
2FF8A
330
2F10A
100
AcDbEntity
  8
Defpoints
 62
     0
100
AcDbPoint
 10
2757.790288939796
 20
3126.565473554696
 30
0.0
  0
POINT
  5
2FF8B
330
2F10A
100
AcDbEntity
  8
Defpoints
 62
     0
100
AcDbPoint
 10
2807.790288939793
 20
3209.791763958112
 30
0.0
  0
POINT
  5
2FF8C
330
2F10A
100
AcDbEntity
  8
Defpoints
 62
     0
100
AcDbPoint
 10
2807.790288939793
 20
3062.565473554696
 30
0.0
  0
ENDBLK
  5
2F10C
330
2F10A
100
AcDbEntity
  8
0
100
AcDbBlockEnd
  0
BLOCK
  5
2F119
330
2F118
100
AcDbEntity
  8
0
100
AcDbBlockBegin
  2
*D25
 70
     1
 10
0.0
 20
0.0
 30
0.0
  3
*D25
  1

  0
LINE
  5
2FEC8
330
2F118
100
AcDbEntity
  8
DIM
 62
     0
370
    -2
100
AcDbLine
 10
2757.790288939796
 20
3092.565473554696
 30
0.0
 11
2757.790288939796
 21
2925.89880688803
 31
0.0
  0
LINE
  5
2FEC9
330
2F118
100
AcDbEntity
  8
DIM
 62
     0
370
    -2
100
AcDbLine
 10
2895.29031644838
 20
3147.925713085889
 30
0.0
 11
2895.29031644838
 21
2925.89880688803
 31
0.0
  0
LINE
  5
2FECA
330
2F118
100
AcDbEntity
  8
DIM
 62
     0
370
    -2
100
AcDbLine
 10
2808.790288939797
 20
2959.89880688803
 30
0.0
 11
2844.290316448381
 21
2959.89880688803
 31
0.0
  0
INSERT
  5
2FECB
330
2F118
100
AcDbEntity
  8
DIM
 62
     0
370
    -2
100
AcDbBlockReference
  2
_Open30
 10
2757.790288939796
 20
2959.89880688803
 30
0.0
 41
51.0
 42
51.0
 43
51.0
 50
180.0
  0
INSERT
  5
2FECC
330
2F118
100
AcDbEntity
  8
DIM
 62
     0
370
    -2
100
AcDbBlockReference
  2
_Open30
 10
2895.29031644838
 20
2959.89880688803
 30
0.0
 41
51.0
 42
51.0
 43
51.0
  0
MTEXT
  5
2FECD
330
2F118
100
AcDbEntity
  8
DIM
 62
     0
100
AcDbMText
 10
2826.540302694088
 20
2998.14880688803
 30
0.0
 40
42.5
 41
0.0
 46
0.0
 71
     5
 72
     1
  1
\A1;138
 73
     1
 44
1.0
  0
POINT
  5
2FECE
330
2F118
100
AcDbEntity
  8
Defpoints
 62
     0
100
AcDbPoint
 10
2757.790288939796
 20
3126.565473554696
 30
0.0
  0
POINT
  5
2FECF
330
2F118
100
AcDbEntity
  8
Defpoints
 62
     0
100
AcDbPoint
 10
2895.29031644838
 20
3181.92571308589
 30
0.0
  0
POINT
  5
2FED0
330
2F118
100
AcDbEntity
  8
Defpoints
 62
     0
100
AcDbPoint
 10
2895.29031644838
 20
2959.89880688803
 30
0.0
  0
ENDBLK
  5
2F11A
330
2F118
100
AcDbEntity
  8
0
100
AcDbBlockEnd
  0
BLOCK
  5
2F128
330
2F127
100
AcDbEntity
  8
0
100
AcDbBlockBegin
  2
*D26
 70
     1
 10
0.0
 20
0.0
 30
0.0
  3
*D26
  1

  0
LINE
  5
2FEBF
330
2F127
100
AcDbEntity
  8
DIM
 62
     0
370
    -2
100
AcDbLine
 10
2757.790288939796
 20
3092.565473554696
 30
0.0
 11
2757.790288939796
 21
2925.89880688803
 31
0.0
  0
LINE
  5
2FEC0
330
2F127
100
AcDbEntity
  8
DIM
 62
     0
370
    -2
100
AcDbLine
 10
2605.790288939776
 20
3151.259051915978
 30
0.0
 11
2605.790288939776
 21
2925.89880688803
 31
0.0
  0
LINE
  5
2FEC1
330
2F127
100
AcDbEntity
  8
DIM
 62
     0
370
    -2
100
AcDbLine
 10
2706.790288939797
 20
2959.89880688803
 30
0.0
 11
2656.790288939776
 21
2959.89880688803
 31
0.0
  0
INSERT
  5
2FEC2
330
2F127
100
AcDbEntity
  8
DIM
 62
     0
370
    -2
100
AcDbBlockReference
  2
_Open30
 10
2757.790288939796
 20
2959.89880688803
 30
0.0
 41
51.0
 42
51.0
 43
51.0
  0
INSERT
  5
2FEC3
330
2F127
100
AcDbEntity
  8
DIM
 62
     0
370
    -2
100
AcDbBlockReference
  2
_Open30
 10
2605.790288939776
 20
2959.89880688803
 30
0.0
 41
51.0
 42
51.0
 43
51.0
 50
180.0
  0
MTEXT
  5
2FEC4
330
2F127
100
AcDbEntity
  8
DIM
 62
     0
100
AcDbMText
 10
2681.790288939786
 20
2998.14880688803
 30
0.0
 40
42.5
 41
0.0
 46
0.0
 71
     5
 72
     1
  1
\A1;152
 73
     1
 44
1.0
  0
POINT
  5
2FEC5
330
2F127
100
AcDbEntity
  8
Defpoints
 62
     0
100
AcDbPoint
 10
2757.790288939796
 20
3126.565473554696
 30
0.0
  0
POINT
  5
2FEC6
330
2F127
100
AcDbEntity
  8
Defpoints
 62
     0
100
AcDbPoint
 10
2605.790288939776
 20
3185.259051915978
 30
0.0
  0
POINT
  5
2FEC7
330
2F127
100
AcDbEntity
  8
Defpoints
 62
     0
100
AcDbPoint
 10
2605.790288939776
 20
2959.89880688803
 30
0.0
  0
ENDBLK
  5
2F129
330
2F127
100
AcDbEntity
  8
0
100
AcDbBlockEnd
  0
BLOCK
  5
2F134
330
2F133
100
AcDbEntity
  8
0
100
AcDbBlockBegin
  2
*D27
 70
     1
 10
0.0
 20
0.0
 30
0.0
  3
*D27
  1

  0
LINE
  5
2FEA0
330
2F133
100
AcDbEntity
  8
DIM
 62
     0
370
    -2
100
AcDbLine
 10
3073.248545169736
 20
3403.925718582634
 30
0.0
 11
3441.190288938981
 21
3403.925718582634
 31
0.0
  0
LINE
  5
2FEA1
330
2F133
100
AcDbEntity
  8
DIM
 62
     0
370
    -2
100
AcDbLine
 10
3089.190288938984
 20
3170.525718582642
 30
0.0
 11
3441.190288938981
 21
3170.525718582642
 31
0.0
  0
LINE
  5
2FEA2
330
2F133
100
AcDbEntity
  8
DIM
 62
     0
370
    -2
100
AcDbLine
 10
3407.190288938982
 20
3352.925718582634
 30
0.0
 11
3407.190288938982
 21
3221.525718582642
 31
0.0
  0
INSERT
  5
2FEA3
330
2F133
100
AcDbEntity
  8
DIM
 62
     0
370
    -2
100
AcDbBlockReference
  2
_Open30
 10
3407.190288938982
 20
3403.925718582634
 30
0.0
 41
51.0
 42
51.0
 43
51.0
 50
90.0
  0
INSERT
  5
2FEA4
330
2F133
100
AcDbEntity
  8
DIM
 62
     0
370
    -2
100
AcDbBlockReference
  2
_Open30
 10
3407.190288938982
 20
3170.525718582642
 30
0.0
 41
51.0
 42
51.0
 43
51.0
 50
270.0
  0
MTEXT
  5
2FEA5
330
2F133
100
AcDbEntity
  8
DIM
 62
     0
100
AcDbMText
 10
3368.940288938981
 20
3287.225718582639
 30
0.0
 40
42.5
 41
0.0
 46
0.0
 71
     5
 72
     1
  1
\A1;（233）
 11
0.0000000000000001
 21
1.0
 31
0.0
 73
     1
 44
1.0
  0
POINT
  5
2FEA6
330
2F133
100
AcDbEntity
  8
Defpoints
 62
     0
100
AcDbPoint
 10
3039.248545169737
 20
3403.925718582635
 30
0.0
  0
POINT
  5
2FEA7
330
2F133
100
AcDbEntity
  8
Defpoints
 62
     0
100
AcDbPoint
 10
3055.190288938984
 20
3170.525718582642
 30
0.0
  0
POINT
  5
2FEA8
330
2F133
100
AcDbEntity
  8
Defpoints
 62
     0
100
AcDbPoint
 10
3407.190288938982
 20
3170.525718582642
 30
0.0
  0
ENDBLK
  5
2F135
330
2F133
100
AcDbEntity
  8
0
100
AcDbBlockEnd
  0
BLOCK
  5
2F140
330
2F13F
100
AcDbEntity
  8
0
100
AcDbBlockBegin
  2
*D28
 70
     1
 10
0.0
 20
0.0
 30
0.0
  3
*D28
  1

  0
LINE
  5
2FE6F
330
2F13F
100
AcDbEntity
  8
DIM
 62
     0
370
    -2
100
AcDbLine
 10
2750.790288939797
 20
3920.425718582641
 30
0.0
 11
2750.790288939797
 21
3988.425718582641
 31
0.0
  0
LINE
  5
2FE70
330
2F13F
100
AcDbEntity
  8
DIM
 62
     0
370
    -2
100
AcDbLine
 10
2764.790288939797
 20
3920.425718582641
 30
0.0
 11
2764.790288939797
 21
3988.425718582641
 31
0.0
  0
LINE
  5
2FE71
330
2F13F
100
AcDbEntity
  8
DIM
 62
     0
370
    -2
100
AcDbLine
 10
2699.790288939797
 20
3954.425718582641
 30
0.0
 11
2648.790288939796
 21
3954.425718582641
 31
0.0
  0
LINE
  5
2FE72
330
2F13F
100
AcDbEntity
  8
DIM
 62
     0
370
    -2
100
AcDbLine
 10
2815.790288939797
 20
3954.425718582641
 30
0.0
 11
2950.980765130273
 21
3954.425718582641
 31
0.0
  0
LINE
  5
2FE73
330
2F13F
100
AcDbEntity
  8
DIM
 62
     0
370
    -2
100
AcDbLine
 10
2750.790288939797
 20
3954.425718582641
 30
0.0
 11
2764.790288939797
 21
3954.425718582641
 31
0.0
  0
INSERT
  5
2FE74
330
2F13F
100
AcDbEntity
  8
DIM
 62
     0
370
    -2
100
AcDbBlockReference
  2
_Open30
 10
2750.790288939797
 20
3954.425718582641
 30
0.0
 41
51.0
 42
51.0
 43
51.0
  0
INSERT
  5
2FE75
330
2F13F
100
AcDbEntity
  8
DIM
 62
     0
370
    -2
100
AcDbBlockReference
  2
_Open30
 10
2764.790288939797
 20
3954.425718582641
 30
0.0
 41
51.0
 42
51.0
 43
51.0
 50
180.0
  0
MTEXT
  5
2FE76
330
2F13F
100
AcDbEntity
  8
DIM
 62
     0
100
AcDbMText
 10
2908.885527035035
 20
3992.675718582641
 30
0.0
 40
42.5
 41
0.0
 46
0.0
 71
     5
 72
     1
  1
\A1;14
 73
     1
 44
1.0
  0
POINT
  5
2FE77
330
2F13F
100
AcDbEntity
  8
Defpoints
 62
     0
100
AcDbPoint
 10
2750.790288939797
 20
3886.425718582641
 30
0.0
  0
POINT
  5
2FE78
330
2F13F
100
AcDbEntity
  8
Defpoints
 62
     0
100
AcDbPoint
 10
2764.790288939797
 20
3886.425718582641
 30
0.0
  0
POINT
  5
2FE79
330
2F13F
100
AcDbEntity
  8
Defpoints
 62
     0
100
AcDbPoint
 10
2764.790288939797
 20
3954.425718582641
 30
0.0
  0
ENDBLK
  5
2F141
330
2F13F
100
AcDbEntity
  8
0
100
AcDbBlockEnd
  0
BLOCK
  5
2F15C
330
2F15B
100
AcDbEntity
  8
0
100
AcDbBlockBegin
  2
*D29
 70
     1
 10
0.0
 20
0.0
 30
0.0
  3
*D29
  1

  0
LINE
  5
30267
330
2F15B
100
AcDbEntity
  8
DIM
 62
     0
370
    -2
100
AcDbLine
 10
2863.290288939797
 20
3871.425718582641
 30
0.0
 11
3441.190288938977
 21
3871.425718582641
 31
0.0
  0
LINE
  5
30268
330
2F15B
100
AcDbEntity
  8
DIM
 62
     0
370
    -2
100
AcDbLine
 10
3073.248545169736
 20
3403.925718582634
 30
0.0
 11
3441.190288938977
 21
3403.925718582634
 31
0.0
  0
LINE
  5
30269
330
2F15B
100
AcDbEntity
  8
DIM
 62
     0
370
    -2
100
AcDbLine
 10
3407.190288938978
 20
3820.425718582641
 30
0.0
 11
3407.190288938978
 21
3454.925718582634
 31
0.0
  0
INSERT
  5
3026A
330
2F15B
100
AcDbEntity
  8
DIM
 62
     0
370
    -2
100
AcDbBlockReference
  2
_Open30
 10
3407.190288938978
 20
3871.425718582641
 30
0.0
 41
51.0
 42
51.0
 43
51.0
 50
90.0
  0
INSERT
  5
3026B
330
2F15B
100
AcDbEntity
  8
DIM
 62
     0
370
    -2
100
AcDbBlockReference
  2
_Open30
 10
3407.190288938978
 20
3403.925718582634
 30
0.0
 41
51.0
 42
51.0
 43
51.0
 50
270.0
  0
MTEXT
  5
3026C
330
2F15B
100
AcDbEntity
  8
DIM
 62
     0
100
AcDbMText
 10
3368.940288938977
 20
3637.675718582638
 30
0.0
 40
42.5
 41
0.0
 46
0.0
 71
     5
 72
     1
  1
\A1;468
 11
0.0000000000000001
 21
1.0
 31
0.0
 73
     1
 44
1.0
  0
POINT
  5
3026D
330
2F15B
100
AcDbEntity
  8
Defpoints
 62
     0
100
AcDbPoint
 10
2829.290288939797
 20
3871.425718582641
 30
0.0
  0
POINT
  5
3026E
330
2F15B
100
AcDbEntity
  8
Defpoints
 62
     0
100
AcDbPoint
 10
3039.248545169737
 20
3403.925718582635
 30
0.0
  0
POINT
  5
3026F
330
2F15B
100
AcDbEntity
  8
Defpoints
 62
     0
100
AcDbPoint
 10
3407.190288938978
 20
3403.925718582634
 30
0.0
  0
ENDBLK
  5
2F15D
330
2F15B
100
AcDbEntity
  8
0
100
AcDbBlockEnd
  0
BLOCK
  5
2F948
330
2F947
100
AcDbEntity
  8
0
100
AcDbBlockBegin
  2
*D30
 70
     1
 10
0.0
 20
0.0
 30
0.0
  3
*D30
  1

  0
LINE
  5
2FF16
330
2F947
100
AcDbEntity
  8
DIM
 62
     0
370
    -2
100
AcDbLine
 10
2396.390288938983
 20
3900.525718582641
 30
0.0
 11
2270.589646606634
 21
3900.525718582641
 31
0.0
  0
LINE
  5
2FF17
330
2F947
100
AcDbEntity
  8
DIM
 62
     0
370
    -2
100
AcDbLine
 10
2548.790288939775
 20
3244.425718582645
 30
0.0
 11
2270.589646606633
 21
3244.425718582645
 31
0.0
  0
LINE
  5
2FF18
330
2F947
100
AcDbEntity
  8
DIM
 62
     0
370
    -2
100
AcDbLine
 10
2304.589646606634
 20
3849.525718582643
 30
0.0
 11
2304.589646606634
 21
3295.425718582645
 31
0.0
  0
INSERT
  5
2FF19
330
2F947
100
AcDbEntity
  8
DIM
 62
     0
370
    -2
100
AcDbBlockReference
  2
_Open30
 10
2304.589646606634
 20
3900.525718582641
 30
0.0
 41
51.0
 42
51.0
 43
51.0
 50
90.0
  0
INSERT
  5
2FF1A
330
2F947
100
AcDbEntity
  8
DIM
 62
     0
370
    -2
100
AcDbBlockReference
  2
_Open30
 10
2304.589646606634
 20
3244.425718582645
 30
0.0
 41
51.0
 42
51.0
 43
51.0
 50
270.0
  0
MTEXT
  5
2FF1B
330
2F947
100
AcDbEntity
  8
DIM
 62
     0
100
AcDbMText
 10
2266.339646606633
 20
3572.475718582643
 30
0.0
 40
42.5
 41
0.0
 46
0.0
 71
     5
 72
     1
  1
\A1;656
 11
0.0000000000000001
 21
1.0
 31
0.0
 73
     1
 44
1.0
  0
POINT
  5
2FF1C
330
2F947
100
AcDbEntity
  8
Defpoints
 62
     0
100
AcDbPoint
 10
2430.390288938983
 20
3900.525718582641
 30
0.0
  0
POINT
  5
2FF1D
330
2F947
100
AcDbEntity
  8
Defpoints
 62
     0
100
AcDbPoint
 10
2582.790288939775
 20
3244.425718582645
 30
0.0
  0
POINT
  5
2FF1E
330
2F947
100
AcDbEntity
  8
Defpoints
 62
     0
100
AcDbPoint
 10
2304.589646606634
 20
3244.425718582645
 30
0.0
  0
ENDBLK
  5
2F949
330
2F947
100
AcDbEntity
  8
0
100
AcDbBlockEnd
  0
BLOCK
  5
30233
330
30232
100
AcDbEntity
  8
0
100
AcDbBlockBegin
  2
*D31
 70
     1
 10
0.0
 20
0.0
 30
0.0
  3
*D31
  1

  0
LINE
  5
3025C
330
30232
100
AcDbEntity
  8
DIM
 62
     0
370
    -2
100
AcDbLine
 10
2829.290288939797
 20
3871.425718582641
 30
0.0
 11
3441.190288938978
 21
3871.425718582641
 31
0.0
  0
LINE
  5
3025D
330
30232
100
AcDbEntity
  8
DIM
 62
     0
370
    -2
100
AcDbLine
 10
3123.190288938984
 20
3900.52571858264
 30
0.0
 11
3441.190288938978
 21
3900.52571858264
 31
0.0
  0
LINE
  5
3025E
330
30232
100
AcDbEntity
  8
DIM
 62
     0
370
    -2
100
AcDbLine
 10
3407.190288938978
 20
3820.425718582641
 30
0.0
 11
3407.190288938978
 21
3769.42571858264
 31
0.0
  0
LINE
  5
3025F
330
30232
100
AcDbEntity
  8
DIM
 62
     0
370
    -2
100
AcDbLine
 10
3407.190288938978
 20
3951.525718582641
 30
0.0
 11
3407.190288938978
 21
4089.954290011212
 31
0.0
  0
LINE
  5
30260
330
30232
100
AcDbEntity
  8
DIM
 62
     0
370
    -2
100
AcDbLine
 10
3407.190288938978
 20
3871.425718582641
 30
0.0
 11
3407.190288938978
 21
3900.52571858264
 31
0.0
  0
INSERT
  5
30261
330
30232
100
AcDbEntity
  8
DIM
 62
     0
370
    -2
100
AcDbBlockReference
  2
_Open30
 10
3407.190288938978
 20
3871.425718582641
 30
0.0
 41
51.0
 42
51.0
 43
51.0
 50
90.0
  0
INSERT
  5
30262
330
30232
100
AcDbEntity
  8
DIM
 62
     0
370
    -2
100
AcDbBlockReference
  2
_Open30
 10
3407.190288938978
 20
3900.52571858264
 30
0.0
 41
51.0
 42
51.0
 43
51.0
 50
270.0
  0
MTEXT
  5
30263
330
30232
100
AcDbEntity
  8
DIM
 62
     0
100
AcDbMText
 10
3368.940288938977
 20
4046.240004296927
 30
0.0
 40
42.5
 41
0.0
 46
0.0
 71
     5
 72
     1
  1
\A1;29
 11
0.0000000000000001
 21
1.0
 31
0.0
 73
     1
 44
1.0
  0
POINT
  5
30264
330
30232
100
AcDbEntity
  8
Defpoints
 62
     0
100
AcDbPoint
 10
2795.290288939797
 20
3871.425718582641
 30
0.0
  0
POINT
  5
30265
330
30232
100
AcDbEntity
  8
Defpoints
 62
     0
100
AcDbPoint
 10
3089.190288938984
 20
3900.52571858264
 30
0.0
  0
POINT
  5
30266
330
30232
100
AcDbEntity
  8
Defpoints
 62
     0
100
AcDbPoint
 10
3407.190288938978
 20
3900.52571858264
 30
0.0
  0
ENDBLK
  5
30234
330
30232
100
AcDbEntity
  8
0
100
AcDbBlockEnd
  0
ENDSEC
  0
SECTION
  2
ENTITIES
  0
INSERT
  5
15497
330
17
100
AcDbEntity
  8
0
100
AcDbBlockReference
 66
     1
  2
dimstat2
 10
7723.001826654316
 20
1309.141213428434
 30
0.0
  0
ATTRIB
  5
15498
330
15497
100
AcDbEntity
  8
0
100
AcDbText
 10
7723.001826654316
 20
1309.141213428434
 30
0.0
 40
1.0
  1
(1.28 1.92 0 0 0 0 0 3.2 12 0 )
 41
0.7
100
AcDbAttribute
  2
DIMSIZ
 70
     1
280
     0
  0
SEQEND
  5
15499
330
15497
100
AcDbEntity
  8
0
  0
INSERT
  5
1549A
330
17
100
AcDbEntity
  8
0
100
AcDbBlockReference
 66
     1
  2
dimstat
 10
7723.001826654316
 20
1309.141213428434
 30
0.0
  0
ATTRIB
  5
1549B
330
1549A
100
AcDbEntity
  8
0
100
AcDbText
 10
7723.001826654316
 20
1310.141213428434
 30
0.0
 40
1.0
  1
1
 41
0.7
 51
15.0
100
AcDbAttribute
  2
DIMEXT
 70
     1
280
     0
  0
ATTRIB
  5
1549C
330
1549A
100
AcDbEntity
  8
0
100
AcDbText
 10
7723.001826654316
 20
1309.141213428434
 30
0.0
 40
1.0
  1
10 
 41
0.7
 51
15.0
100
AcDbAttribute
  2
DIMBAL
 70
     1
280
     0
  0
ATTRIB
  5
1549D
330
1549A
100
AcDbEntity
  8
0
100
AcDbText
 10
7723.965683778215
 20
1308.229563439422
 30
0.0
 40
1.0
  1
4 
 41
0.7
 51
15.0
 72
     1
 11
7724.509017111548
 21
1308.229563439422
 31
0.0
100
AcDbAttribute
  2
SYMSCL
 70
     1
280
     0
  0
SEQEND
  5
1549E
330
1549A
100
AcDbEntity
  8
0
  0
TEXT
  5
25323
330
17
100
AcDbEntity
  8
DIM
370
    18
100
AcDbText
 10
325.9148748410049
 20
4667.564704335248
 30
0.0
 40
96.0
  1
給湯専用角形４６０Ｌ外形図』
 41
0.8
100
AcDbText
  0
LINE
  5
2CA36
330
17
100
AcDbEntity
  8
WAKU
100
AcDbLine
 10
1838.386895278326
 20
4686.400284698806
 30
0.0
 11
3388.386895278329
 21
4686.400284698806
 31
0.0
  0
LINE
  5
2CA37
330
17
100
AcDbEntity
  8
WAKU
100
AcDbLine
 10
2038.386895278326
 20
4526.400284698806
 30
0.0
 11
3388.386895278329
 21
4526.400284698806
 31
0.0
  0
LINE
  5
2CA38
330
17
100
AcDbEntity
  8
WAKU
100
AcDbLine
 10
1838.386895278326
 20
4606.400284698806
 30
0.0
 11
3388.386895278329
 21
4606.400284698806
 31
0.0
  0
LINE
  5
2CA39
330
17
100
AcDbEntity
  8
WAKU
100
AcDbLine
 10
1838.386895278326
 20
4446.400284698806
 30
0.0
 11
3388.386895278329
 21
4446.400284698806
 31
0.0
  0
LINE
  5
2CAA5
330
17
100
AcDbEntity
  8
WAKU
100
AcDbLine
 10
3388.386895278329
 20
4766.400284698806
 30
0.0
 11
1838.386895278326
 21
4766.400284698806
 31
0.0
  0
TEXT
  5
2CAA6
330
17
100
AcDbEntity
  8
DIMTEXT
100
AcDbText
 10
1994.386895278327
 20
4781.868439960555
 30
0.0
 40
48.0
  1
品　番
 41
0.8
 72
     1
 11
2058.386895278327
 21
4805.868439960555
 31
0.0
100
AcDbText
 73
     2
  0
LINE
  5
2CAA7
330
17
100
AcDbEntity
  8
WAKU
100
AcDbLine
 10
1838.386895278325
 20
4846.400284698806
 30
0.0
 11
1838.386895278326
 21
4446.400284698806
 31
0.0
  0
LINE
  5
2CAA8
330
17
100
AcDbEntity
  8
WAKU
100
AcDbLine
 10
2038.386895278325
 20
4606.400284698806
 30
0.0
 11
2038.386895278325
 21
4446.400284698806
 31
0.0
  0
LINE
  5
2CAA9
330
17
100
AcDbEntity
  8
WAKU
100
AcDbLine
 10
2288.386895278325
 20
4846.400284698806
 30
0.0
 11
2288.386895278325
 21
4446.400284698806
 31
0.0
  0
TEXT
  5
2CAAA
330
17
100
AcDbEntity
  8
DIMTEXT
100
AcDbText
 10
1865.305313310902
 20
4474.06587428167
 30
0.0
 40
48.0
  1
（kg）
 41
0.8
 72
     1
 11
1928.939599025188
 21
4498.06587428167
 31
0.0
100
AcDbText
 73
     2
  0
TEXT
  5
2CAAB
330
17
100
AcDbEntity
  8
DIMTEXT
100
AcDbText
 10
1895.130217547194
 20
4543.690539413565
 30
0.0
 40
48.0
  1
質量
 41
0.8
 72
     1
 11
1936.090217547194
 21
4567.690539413565
 31
0.0
100
AcDbText
 73
     2
  0
TEXT
  5
2CAAC
330
17
100
AcDbEntity
  8
DIMTEXT
100
AcDbText
 10
2099.386895278327
 20
4462.400284698806
 30
0.0
 40
48.0
  1
満水時
 41
0.8
 72
     1
 11
2163.386895278327
 21
4486.400284698806
 31
0.0
100
AcDbText
 73
     2
  0
TEXT
  5
2CAAD
330
17
100
AcDbEntity
  8
DIMTEXT
100
AcDbText
 10
2099.386895278327
 20
4542.400284698807
 30
0.0
 40
48.0
  1
本　体
 41
0.8
 72
     1
 11
2163.386895278327
 21
4566.400284698807
 31
0.0
100
AcDbText
 73
     2
  0
TEXT
  5
2CAAE
330
17
100
AcDbEntity
  8
DIMTEXT
100
AcDbText
 10
1995.666895278327
 20
4622.400284698806
 30
0.0
 40
48.0
  1
圧　力
 41
0.8
 72
     1
 11
2058.386895278327
 21
4646.400284698806
 31
0.0
100
AcDbText
 73
     2
  0
LINE
  5
2CAB1
330
17
100
AcDbEntity
  8
WAKU
100
AcDbLine
 10
2838.386895278326
 20
4846.400284698806
 30
0.0
 11
2838.386895278326
 21
4446.400284698806
 31
0.0
  0
TEXT
  5
2CAC5
330
17
100
AcDbEntity
  8
DIMTEXT
100
AcDbText
 10
2453.306895278328
 20
4622.400284698806
 30
0.0
 40
48.0
  1
標準タイプ
 41
0.8
 72
     1
 11
2563.386895278328
 21
4646.400284698806
 31
0.0
100
AcDbText
 73
     2
  0
TEXT
  5
2CAC6
330
17
100
AcDbEntity
  8
DIMTEXT
100
AcDbText
 10
2514.0154667069
 20
4462.40028469881
 30
0.0
 40
48.0
  1
535
 41
0.8
 72
     1
 11
2563.386895278328
 21
4486.40028469881
 31
0.0
100
AcDbText
 73
     2
  0
TEXT
  5
2CAC7
330
17
100
AcDbEntity
  8
DIMTEXT
100
AcDbText
 10
2532.301180992614
 20
4542.400284698809
 30
0.0
 40
48.0
  1
75
 41
0.8
 72
     1
 11
2563.386895278328
 21
4566.400284698809
 31
0.0
100
AcDbText
 73
     2
  0
TEXT
  5
2CDBC
330
17
100
AcDbEntity
  8
DIMTEXT
100
AcDbText
 10
1968.786895278326
 20
4704.612923198429
 30
0.0
 40
48.0
  1
ヒータ数
 41
0.8
 72
     1
 11
2058.386895278326
 21
4728.612923198429
 31
0.0
100
AcDbText
 73
     2
  0
TEXT
  5
2CDBD
330
17
100
AcDbEntity
  8
DIMTEXT
100
AcDbText
 10
2558.815466706898
 20
4702.400284698806
 30
0.0
 40
48.0
  1
1
 41
0.8
 72
     1
 11
2563.386895278326
 21
4726.400284698806
 31
0.0
100
AcDbText
 73
     2
  0
TEXT
  5
2D645
330
17
100
AcDbEntity
  8
DIMTEXT
100
AcDbText
 10
2346.701180992612
 20
4775.539949759696
 30
0.0
 40
48.0
  1
YS46NNC1-J20
 41
0.8
 72
     1
 11
2563.386895278326
 21
4799.539949759696
 31
0.0
100
AcDbText
 73
     2
  0
LEADER
  5
2DE5E
330
17
100
AcDbEntity
  8
DIM
100
AcDbLeader
  3
STANDARD
 73
     0
 75
     1
 40
42.5
 41
276.5333333333334
 76
     3
 10
1055.175247001339
 20
3857.859438353866
 30
0.0
 10
869.6893214724049
 20
4162.697456996025
 30
0.0
 10
835.6893214724049
 20
4162.697456996025
 30
0.0
340
2DE5F
1001
ACAD
1000
DSTYLE
1002
{
1070
    41
1040
2.0
1070
   147
1040
1.0
1070
    77
1070
     1
1070
    43
1040
10.0
1070
    73
1070
     0
1070
    74
1070
     0
1070
   172
1070
     1
1070
   179
1070
     1
1070
   271
1070
     1
1070
   272
1070
     1
1070
   341
1005
4A
1070
   342
1005
0
1002
}
  0
MTEXT
  5
2DE5F
102
{ACAD_REACTORS
330
2DE5E
102
}
330
17
100
AcDbEntity
  8
DIM
100
AcDbMText
 10
818.6893214724049
 20
4179.697456996025
 30
0.0
 40
42.5
 41
539.5
 46
0.0
 71
     9
 72
     1
  1
上部振止め金具
 73
     1
 44
1.0
  0
DIMENSION
  5
2DE60
330
17
100
AcDbEntity
  8
DIM
100
AcDbDimension
  2
*D8
 10
1522.304833041778
 20
3896.525718582643
 30
0.0
 11
1522.304833041778
 21
4237.399623344549
 31
0.0
 70
   160
  1
最大<>mm
 71
     5
 42
90.00000000000046
 73
     0
 74
     0
 75
     0
  3
STANDARD
100
AcDbAlignedDimension
 13
1175.17524700134
 23
3986.525718582644
 33
0.0
 14
1412.575247001337
 24
3896.525718582643
 34
0.0
 50
90.0
100
AcDbRotatedDimension
1001
ACAD
1000
DSTYLE
1002
{
1070
    41
1040
3.0
1070
    42
1040
2.0
1070
    43
1040
10.0
1070
    44
1040
2.0
1070
    45
1040
1.0
1070
    73
1070
     0
1070
    74
1070
     0
1070
    77
1070
     1
1070
    78
1070
     8
1070
    79
1070
     2
1070
   140
1040
2.5
1070
   147
1040
0.9999999999999996
1070
   172
1070
     1
1070
   179
1070
     8
1070
   271
1070
     8
1070
   272
1070
     8
1070
   341
1005
4A
1070
   342
1005
4A
1002
}
  0
LINE
  5
2DE62
330
17
100
AcDbEntity
  8
0
100
AcDbLine
 10
1175.175247001339
 20
3896.525718582643
 30
0.0
 11
1412.575247001337
 21
3896.525718582643
 31
0.0
  0
LINE
  5
2DE63
330
17
100
AcDbEntity
  8
0
100
AcDbLine
 10
794.1752470013397
 20
3872.925718582644
 30
0.0
 11
794.1752470013397
 21
3198.125718582643
 31
0.0
  0
LINE
  5
2DE74
330
17
100
AcDbEntity
  8
0
100
AcDbLine
 10
817.7752470013382
 20
3896.525718582643
 30
0.0
 11
1055.175247001339
 21
3896.525718582643
 31
0.0
  0
ARC
  5
2DE75
330
17
100
AcDbEntity
  8
0
100
AcDbCircle
 10
817.7752470013377
 20
3872.925718582644
 30
0.0
 40
23.6
100
AcDbArc
 50
90.0
 51
180.0
  0
LINE
  5
2DE7A
330
17
100
AcDbEntity
  8
HID
100
AcDbLine
 10
1175.17524700134
 20
3986.525718582644
 30
0.0
 11
1055.175247001339
 21
3986.525718582644
 31
0.0
  0
ARC
  5
2DE7B
330
17
100
AcDbEntity
  8
0
100
AcDbCircle
 10
1115.175247001339
 20
3856.125718582643
 30
0.0
 40
3.0
100
AcDbArc
 50
0.0
 51
180.0
  0
ARC
  5
2DE7C
330
17
100
AcDbEntity
  8
0
100
AcDbCircle
 10
1115.175247001339
 20
3766.125718582643
 30
0.0
 40
3.0
100
AcDbArc
 50
180.0
 51
0.0
  0
LINE
  5
2DE7D
330
17
100
AcDbEntity
  8
0
100
AcDbLine
 10
1175.175247001339
 20
3753.125718582643
 30
0.0
 11
1055.175247001339
 21
3753.125718582643
 31
0.0
  0
LINE
  5
2DE7E
330
17
100
AcDbEntity
  8
0
100
AcDbLine
 10
1055.175247001339
 20
3898.125718582643
 30
0.0
 11
1175.175247001339
 21
3898.125718582643
 31
0.0
  0
LINE
  5
2DE7F
330
17
100
AcDbEntity
  8
HID
100
AcDbLine
 10
1055.175247001339
 20
3898.125718582643
 30
0.0
 11
1055.175247001339
 21
3986.525718582644
 31
0.0
  0
LINE
  5
2DE80
330
17
100
AcDbEntity
  8
0
100
AcDbLine
 10
1055.175247001339
 20
3898.125718582643
 30
0.0
 11
1055.175247001339
 21
3753.125718582643
 31
0.0
  0
LINE
  5
2DE81
330
17
100
AcDbEntity
  8
0
100
AcDbLine
 10
1067.175247001339
 20
3876.125718582643
 30
0.0
 11
1067.175247001339
 21
3786.125718582643
 31
0.0
  0
LINE
  5
2DE82
330
17
100
AcDbEntity
  8
0
100
AcDbLine
 10
1073.175247001339
 20
3876.125718582643
 30
0.0
 11
1073.175247001339
 21
3786.125718582643
 31
0.0
  0
LINE
  5
2DE83
330
17
100
AcDbEntity
  8
0
100
AcDbLine
 10
1112.175247001339
 20
3856.125718582643
 30
0.0
 11
1112.175247001339
 21
3766.125718582643
 31
0.0
  0
ARC
  5
2DE84
330
17
100
AcDbEntity
  8
0
100
AcDbCircle
 10
1070.175247001339
 20
3786.125718582643
 30
0.0
 40
3.0
100
AcDbArc
 50
180.0
 51
0.0
  0
ARC
  5
2DE85
330
17
100
AcDbEntity
  8
0
100
AcDbCircle
 10
1070.175247001339
 20
3876.125718582643
 30
0.0
 40
3.0
100
AcDbArc
 50
0.0
 51
180.0
  0
LINE
  5
2DE86
330
17
100
AcDbEntity
  8
HID
100
AcDbLine
 10
1175.17524700134
 20
3986.525718582644
 30
0.0
 11
1175.17524700134
 21
3898.125718582643
 31
0.0
  0
LINE
  5
2DE87
330
17
100
AcDbEntity
  8
0
100
AcDbLine
 10
1175.175247001339
 20
3898.125718582643
 30
0.0
 11
1175.175247001339
 21
3753.125718582643
 31
0.0
  0
LINE
  5
2DE88
330
17
100
AcDbEntity
  8
0
100
AcDbLine
 10
1157.175247001339
 20
3876.125718582643
 30
0.0
 11
1157.175247001339
 21
3786.125718582643
 31
0.0
  0
LINE
  5
2DE89
330
17
100
AcDbEntity
  8
0
100
AcDbLine
 10
1163.175247001339
 20
3876.125718582643
 30
0.0
 11
1163.175247001339
 21
3786.125718582643
 31
0.0
  0
LINE
  5
2DE8A
330
17
100
AcDbEntity
  8
0
100
AcDbLine
 10
1118.175247001339
 20
3856.125718582643
 30
0.0
 11
1118.175247001339
 21
3766.125718582643
 31
0.0
  0
ARC
  5
2DE8B
330
17
100
AcDbEntity
  8
0
100
AcDbCircle
 10
1160.175247001339
 20
3786.125718582643
 30
0.0
 40
3.0
100
AcDbArc
 50
180.0
 51
0.0
  0
ARC
  5
2DE8C
330
17
100
AcDbEntity
  8
0
100
AcDbCircle
 10
1160.175247001339
 20
3876.125718582643
 30
0.0
 40
3.0
100
AcDbArc
 50
0.0
 51
180.0
  0
LINE
  5
2DE8E
330
17
100
AcDbEntity
  8
0
100
AcDbLine
 10
1436.175247001337
 20
3872.925718582644
 30
0.0
 11
1436.175247001337
 21
3198.125718582643
 31
0.0
  0
ARC
  5
2DE93
330
17
100
AcDbEntity
  8
0
100
AcDbCircle
 10
1412.575247001337
 20
3872.925718582644
 30
0.0
 40
23.6
100
AcDbArc
 50
0.0
 51
90.0
  0
DIMENSION
  5
2DE95
330
17
100
AcDbEntity
  8
DIM
100
AcDbDimension
  2
*D9
 10
1584.672111406284
 20
475.004853600945
 30
0.0
 11
1546.422111406284
 21
535.0048536009446
 31
0.0
 70
    32
 71
     5
 42
119.9999999999991
 73
     0
 74
     0
 75
     0
  3
STANDARD
100
AcDbAlignedDimension
 13
1432.542525365822
 23
595.0048536009441
 33
0.0
 14
1866.436157688837
 24
475.004853600945
 34
0.0
 50
90.0
100
AcDbRotatedDimension
1001
ACAD
1000
DSTYLE
1002
{
1070
    41
1040
3.0
1070
    42
1040
2.0
1070
    43
1040
10.0
1070
    44
1040
2.0
1070
    45
1040
1.0
1070
    73
1070
     0
1070
    74
1070
     0
1070
    77
1070
     1
1070
    78
1070
     8
1070
    79
1070
     2
1070
   140
1040
2.5
1070
   147
1040
0.9999999999999996
1070
   172
1070
     1
1070
   179
1070
     8
1070
   271
1070
     8
1070
   272
1070
     8
1070
   341
1005
4A
1070
   342
1005
4A
1002
}
  0
DIMENSION
  5
2DE96
330
17
100
AcDbEntity
  8
DIM
100
AcDbDimension
  2
*D10
 10
1890.672111406284
 20
475.0048536009448
 30
0.0
 11
1852.422111406284
 21
899.6548536009427
 31
0.0
 70
    32
 71
     5
 42
849.2999999999948
 73
     0
 74
     0
 75
     0
  3
STANDARD
100
AcDbAlignedDimension
 13
1022.183834856151
 23
1324.30485360094
 33
0.0
 14
1772.577874180591
 24
475.004853600945
 34
0.0
 50
90.0
100
AcDbRotatedDimension
1001
ACAD
1000
DSTYLE
1002
{
1070
     3
1000
（<>）
1070
    41
1040
3.0
1070
    42
1040
2.0
1070
    43
1040
10.0
1070
    44
1040
2.0
1070
    45
1040
5.0
1070
    73
1070
     0
1070
    74
1070
     0
1070
    77
1070
     1
1070
    78
1070
     8
1070
    79
1070
     2
1070
   140
1040
2.5
1070
   147
1040
0.9999999999999996
1070
   172
1070
     1
1070
   179
1070
     8
1070
   271
1070
     8
1070
   272
1070
     8
1070
   341
1005
4A
1070
   342
1005
4A
1002
}
  0
LINE
  5
2DE97
330
17
100
AcDbEntity
  8
0
100
AcDbLine
 10
754.7898958540054
 20
475.0048536009443
 30
0.0
 11
2188.703056286748
 21
475.0048536009451
 31
0.0
  0
LEADER
  5
2DE98
330
17
100
AcDbEntity
  8
DIM
100
AcDbLeader
  3
STANDARD
 73
     0
 75
     1
 40
42.5
 41
235.7333333333333
 76
     3
 10
928.6752470013116
 20
2546.580627928165
 30
0.0
 10
550.7652253914466
 20
2755.440496304659
 30
0.0
 10
516.7652253914466
 20
2755.440496304659
 30
0.0
340
2DE99
1001
ACAD
1000
DSTYLE
1002
{
1070
    41
1040
2.0
1070
   147
1040
1.0
1070
    77
1070
     1
1070
    43
1040
10.0
1070
    73
1070
     0
1070
    74
1070
     0
1070
   172
1070
     1
1070
   179
1070
     1
1070
   271
1070
     1
1070
   272
1070
     1
1070
   341
1005
4A
1070
   342
1005
0
1002
}
  0
MTEXT
  5
2DE99
102
{ACAD_REACTORS
330
2DE98
102
}
330
17
100
AcDbEntity
  8
DIM
100
AcDbMText
 10
499.7652253914464
 20
2772.440496304659
 30
0.0
 40
42.5
 41
539.5
 46
0.0
 71
     9
 72
     1
  1
逃し弁点検窓
 73
     1
 44
1.0
  0
LINE
  5
2DE9A
330
17
100
AcDbEntity
  8
0
100
AcDbLine
 10
1317.414457799413
 20
2583.502853600946
 30
0.0
 11
1317.414457799413
 21
2563.108853600946
 31
0.0
  0
LINE
  5
2DE9B
330
17
100
AcDbEntity
  8
0
100
AcDbLine
 10
1326.313657799413
 20
2583.502853600946
 30
0.0
 11
1326.313657799413
 21
2565.333653600946
 31
0.0
  0
LINE
  5
2DE9C
330
17
100
AcDbEntity
  8
0
100
AcDbLine
 10
1321.493257799412
 20
2583.502853600946
 30
0.0
 11
1321.493257799412
 21
2566.446053600946
 31
0.0
  0
LINE
  5
2DE9D
330
17
100
AcDbEntity
  8
0
100
AcDbLine
 10
1330.392457799412
 20
2583.502853600946
 30
0.0
 11
1330.392457799412
 21
2553.097253600946
 31
0.0
  0
LINE
  5
2DE9E
330
17
100
AcDbEntity
  8
0
100
AcDbLine
 10
1380.82125779941
 20
2563.108853600946
 30
0.0
 11
1380.82125779941
 21
2583.502853600946
 31
0.0
  0
LINE
  5
2DE9F
330
17
100
AcDbEntity
  8
0
100
AcDbLine
 10
1376.74245779941
 20
2551.984853600946
 30
0.0
 11
1376.74245779941
 21
2583.502853600946
 31
0.0
  0
LINE
  5
2DEA0
330
17
100
AcDbEntity
  8
0
100
AcDbLine
 10
1083.675247001312
 20
2598.004853600954
 30
0.0
 11
1083.675247001313
 21
2502.004853600954
 31
0.0
  0
LINE
  5
2DEA1
330
17
100
AcDbEntity
  8
0
100
AcDbLine
 10
1075.175247001311
 20
2597.164853600954
 30
0.0
 11
1075.175247001311
 21
2502.844853600954
 31
0.0
  0
LINE
  5
2DEA2
330
17
100
AcDbEntity
  8
0
100
AcDbLine
 10
937.1752470013117
 20
2597.164853600954
 30
0.0
 11
937.1752470013117
 21
2502.844853600954
 31
0.0
  0
LINE
  5
2DEA3
330
17
100
AcDbEntity
  8
0
100
AcDbLine
 10
928.6752470013116
 20
2598.004853600954
 30
0.0
 11
928.6752470013116
 21
2502.004853600954
 31
0.0
  0
LINE
  5
2DEA4
330
17
100
AcDbEntity
  8
0
100
AcDbLine
 10
1448.775247001314
 20
2621.504853601017
 30
0.0
 11
1448.775247001312
 21
594.0048536009435
 31
0.0
  0
LINE
  5
2DEA5
330
17
100
AcDbEntity
  8
0
100
AcDbLine
 10
809.5752470013094
 20
2621.504853600944
 30
0.0
 11
809.5752470013094
 21
594.0048536009453
 31
0.0
  0
LEADER
  5
2DEA6
330
17
100
AcDbEntity
  8
DIM
100
AcDbLeader
  3
STANDARD
 73
     0
 75
     1
 40
42.5
 41
355.8666666666666
 76
     3
 10
1037.03285922093
 20
502.589344193715
 30
0.0
 10
717.9305233497339
 20
261.1016254032066
 30
0.0
 10
683.9305233497339
 20
261.1016254032066
 30
0.0
340
2DEA7
1001
ACAD
1000
DSTYLE
1002
{
1070
    41
1040
2.0
1070
   147
1040
1.0
1070
    77
1070
     1
1070
    43
1040
10.0
1070
    73
1070
     0
1070
    74
1070
     0
1070
   172
1070
     1
1070
   179
1070
     1
1070
   271
1070
     1
1070
   272
1070
     1
1070
   341
1005
4A
1070
   342
1005
4A
1002
}
  0
MTEXT
  5
2DEA7
102
{ACAD_REACTORS
330
2DEA6
102
}
330
17
100
AcDbEntity
  8
DIM
100
AcDbMText
 10
666.9305233497339
 20
278.1016254032067
 30
0.0
 40
42.5
 41
539.5
 46
0.0
 71
     9
 72
     1
  1
排水パンゴムホース
 73
     1
 44
1.0
  0
LEADER
  5
2DEA8
330
17
100
AcDbEntity
  8
DIM
100
AcDbLeader
  3
STANDARD
 73
     0
 75
     1
 40
42.5
 41
31.73333333333334
 76
     3
 10
818.0950123723077
 20
537.2548536009449
 30
0.0
 10
399.9538111553435
 20
413.7532127343038
 30
0.0
 10
365.9538111553435
 20
413.7532127343038
 30
0.0
340
2DEA9
1001
ACAD
1000
DSTYLE
1002
{
1070
    41
1040
2.0
1070
   147
1040
1.0
1070
    77
1070
     1
1070
    43
1040
10.0
1070
    73
1070
     0
1070
    74
1070
     0
1070
   172
1070
     1
1070
   179
1070
     1
1070
   271
1070
     1
1070
   272
1070
     1
1070
   341
1005
4A
1070
   342
1005
4A
1002
}
  0
MTEXT
  5
2DEA9
102
{ACAD_REACTORS
330
2DEA8
102
}
330
17
100
AcDbEntity
  8
DIM
100
AcDbMText
 10
348.9538111553435
 20
430.7532127343038
 30
0.0
 40
42.5
 41
539.5
 46
0.0
 71
     9
 72
     1
  1
脚
 73
     1
 44
1.0
  0
LEADER
  5
2DEAA
330
17
100
AcDbEntity
  8
DIM
100
AcDbLeader
  3
STANDARD
 73
     0
 75
     1
 40
113.3333333333333
 41
364.9333333333333
 76
     3
 10
1165.635374637445
 20
688.1540086151821
 30
0.0
 10
700.5373135376922
 20
1290.321782500419
 30
0.0
 10
666.5373135376922
 20
1290.321782500419
 30
0.0
340
2DEAB
213
-53.06399062146488
223
0.0
233
0.0
1001
ACAD
1000
DSTYLE
1002
{
1070
    41
1040
2.0
1070
   147
1040
1.0
1070
    77
1070
     1
1070
    43
1040
10.0
1070
    73
1070
     0
1070
    74
1070
     0
1070
   172
1070
     1
1070
   179
1070
     1
1070
   271
1070
     1
1070
   272
1070
     1
1070
   341
1005
4A
1070
   342
1005
0
1002
}
  0
MTEXT
  5
2DEAB
102
{ACAD_XDICTIONARY
360
302C0
102
}
102
{ACAD_REACTORS
330
2DEAA
102
}
330
17
100
AcDbEntity
  8
DIM
100
AcDbMText
 10
702.6013041591571
 20
1307.321782500419
 30
0.0
 40
42.5
 41
417.1291112552039
 46
0.0
 71
     9
 72
     1
  1
排水栓　Rc3／4\P（膨張水・排水兼用）
 73
     1
 44
1.0
  0
LEADER
  5
2DEAC
330
17
100
AcDbEntity
  8
DIM
100
AcDbLeader
  3
STANDARD
 73
     0
 75
     1
 40
42.5
 41
376.2666666666668
 76
     3
 10
1012.836711491642
 20
1334.798448600939
 30
0.0
 10
687.8555855174163
 20
1667.495277876348
 30
0.0
 10
653.8555855174163
 20
1667.495277876348
 30
0.0
340
2DEAD
1001
ACAD
1000
DSTYLE
1002
{
1070
    41
1040
2.0
1070
   147
1040
1.0
1070
    77
1070
     1
1070
    43
1040
10.0
1070
    73
1070
     0
1070
    74
1070
     0
1070
   172
1070
     1
1070
   179
1070
     1
1070
   271
1070
     1
1070
   272
1070
     1
1070
   341
1005
4A
1070
   342
1005
0
1002
}
  0
MTEXT
  5
2DEAD
102
{ACAD_REACTORS
330
2DEAC
102
}
330
17
100
AcDbEntity
  8
DIM
100
AcDbMText
 10
636.8555855174163
 20
1684.495277876348
 30
0.0
 40
42.5
 41
539.5
 46
0.0
 71
     9
 72
     1
  1
給水配管口　R3／4
 73
     1
 44
1.0
  0
LEADER
  5
2DEAE
330
17
100
AcDbEntity
  8
DIM
100
AcDbLeader
  3
STANDARD
 73
     0
 75
     1
 40
42.50000000000002
 41
235.7333333333334
 76
     3
 10
945.8003247297833
 20
1758.002672159688
 30
0.0
 10
546.3180074123705
 20
1960.940596189929
 30
0.0
 10
512.3180074123705
 20
1960.940596189929
 30
0.0
340
2DEAF
1001
ACAD
1000
DSTYLE
1002
{
1070
    41
1040
2.0
1070
   147
1040
1.0
1070
    77
1070
     1
1070
    43
1040
10.0
1070
    73
1070
     0
1070
    74
1070
     0
1070
   172
1070
     1
1070
   179
1070
     1
1070
   271
1070
     1
1070
   272
1070
     1
1070
   341
1005
5132
1070
   342
1005
0
1002
}
  0
MTEXT
  5
2DEAF
102
{ACAD_REACTORS
330
2DEAE
102
}
330
17
100
AcDbEntity
  8
DIM
100
AcDbMText
 10
495.3180074123705
 20
1977.940596189929
 30
0.0
 40
42.5
 41
539.5
 46
0.0
 71
     9
 72
     1
  1
漏電しゃ断器
 73
     1
 44
1.0
  0
LEADER
  5
2DEB0
330
17
100
AcDbEntity
  8
DIM
100
AcDbLeader
  3
STANDARD
 73
     0
 75
     1
 40
42.5
 41
192.6666666666668
 76
     3
 10
967.1752470013116
 20
1818.004853600954
 30
0.0
 10
509.3272606451359
 20
2112.552142673806
 30
0.0
 10
475.3272606451359
 20
2112.552142673806
 30
0.0
340
2DEB1
1001
ACAD
1000
DSTYLE
1002
{
1070
    41
1040
2.0
1070
   147
1040
1.0
1070
    77
1070
     1
1070
    43
1040
10.0
1070
    73
1070
     0
1070
    74
1070
     0
1070
   172
1070
     1
1070
   179
1070
     1
1070
   271
1070
     1
1070
   272
1070
     1
1070
   341
1005
4A
1070
   342
1005
0
1002
}
  0
MTEXT
  5
2DEB1
102
{ACAD_REACTORS
330
2DEB0
102
}
330
17
100
AcDbEntity
  8
DIM
100
AcDbMText
 10
458.3272606451358
 20
2129.552142673806
 30
0.0
 40
42.5
 41
539.5
 46
0.0
 71
     9
 72
     1
  1
操作カバー
 73
     1
 44
1.0
  0
MTEXT
  5
2DEB2
330
17
100
AcDbEntity
  8
DIM
100
AcDbMText
 10
637.6180300785695
 20
197.9296678369142
 30
0.0
 40
42.5
 41
539.5
 46
112.8321387790864
 71
     9
 72
     1
  1
（%%c16×0.8m）
 73
     1
 44
1.0
  0
LINE
  5
2DEB3
330
17
100
AcDbEntity
  8
0
100
AcDbLine
 10
1163.175247001254
 20
652.2164605816709
 30
0.0
 11
1144.800247001254
 21
665.4131071353662
 31
0.0
  0
LINE
  5
2DEB4
330
17
100
AcDbEntity
  8
0
100
AcDbLine
 10
1195.175247001254
 20
652.2164605816713
 30
0.0
 11
1213.550247001254
 21
665.4131071353662
 31
0.0
  0
CIRCLE
  5
2DEB5
330
17
100
AcDbEntity
  8
0
100
AcDbCircle
 10
1179.175247001254
 20
671.5048536008728
 30
0.0
 40
17.0
  0
ARC
  5
2DEB6
330
17
100
AcDbEntity
  8
0
100
AcDbCircle
 10
1179.175247001254
 20
671.5048536008728
 30
0.0
 40
25.0
100
AcDbArc
 50
157.3316500000208
 51
202.6683499999792
  0
ARC
  5
2DEB7
330
17
100
AcDbEntity
  8
0
100
AcDbCircle
 10
1179.175247001254
 20
671.5048536008728
 30
0.0
 40
25.0
100
AcDbArc
 50
337.3316500000208
 51
22.66834999997922
  0
LINE
  5
2DEB8
330
17
100
AcDbEntity
  8
0
100
AcDbLine
 10
1448.175247001313
 20
726.0048536009544
 30
0.0
 11
1448.175247001313
 21
594.6048536009448
 31
0.0
  0
LINE
  5
2DEB9
330
17
100
AcDbEntity
  8
0
100
AcDbLine
 10
810.1752470013098
 20
726.0048536009417
 30
0.0
 11
810.1752470013098
 21
594.6048536009457
 31
0.0
  0
LINE
  5
2DEBA
330
17
100
AcDbEntity
  8
0
100
AcDbLine
 10
1199.175247001313
 20
595.0048536009444
 30
0.0
 11
1448.175247001313
 21
595.0048536009453
 31
0.0
  0
LINE
  5
2DEBB
330
17
100
AcDbEntity
  8
0
100
AcDbLine
 10
1444.175247001312
 20
595.0048536009444
 30
0.0
 11
814.1752470013098
 21
595.0048536009444
 31
0.0
  0
LINE
  5
2DEBC
330
17
100
AcDbEntity
  8
0
100
AcDbLine
 10
1087.17524700131
 20
495.5048536009453
 30
0.0
 11
1491.091875725106
 21
495.5048536009453
 31
0.0
  0
LINE
  5
2DEBD
330
17
100
AcDbEntity
  8
0
100
AcDbLine
 10
1087.17524700131
 20
479.5048536009444
 30
0.0
 11
1491.091875725106
 21
479.5048536009444
 31
0.0
  0
LINE
  5
2DEBE
330
17
100
AcDbEntity
  8
0
100
AcDbLine
 10
810.1752470013115
 20
595.0048536009453
 30
0.0
 11
1159.175247001313
 21
595.0048536009444
 31
0.0
  0
LINE
  5
2DEBF
330
17
100
AcDbEntity
  8
0
100
AcDbLine
 10
807.3163556765003
 20
475.0048536009443
 30
0.0
 11
927.0887690360224
 21
475.0048536009443
 31
0.0
  0
LINE
  5
2DEC0
330
17
100
AcDbEntity
  8
0
100
AcDbLine
 10
866.3736690681153
 20
595.0048536009453
 30
0.0
 11
844.8163556765003
 21
479.5048536009444
 31
0.0
  0
LINE
  5
2DEC1
330
17
100
AcDbEntity
  8
0
100
AcDbLine
 10
864.1236690681152
 20
595.0048536009453
 30
0.0
 11
842.5663556765002
 21
479.5048536009444
 31
0.0
  0
LINE
  5
2DEC2
330
17
100
AcDbEntity
  8
0
100
AcDbLine
 10
828.8736690681153
 20
595.0048536009453
 30
0.0
 11
807.3163556765003
 21
479.5048536009444
 31
0.0
  0
LINE
  5
2DEC3
330
17
100
AcDbEntity
  8
0
100
AcDbLine
 10
831.1236690681152
 20
595.0048536009453
 30
0.0
 11
809.5663556765002
 21
479.5048536009444
 31
0.0
  0
LINE
  5
2DEC4
330
17
100
AcDbEntity
  8
0
100
AcDbLine
 10
809.5663556765002
 20
479.5048536009444
 30
0.0
 11
842.5663556765002
 21
479.5048536009444
 31
0.0
  0
LINE
  5
2DEC5
330
17
100
AcDbEntity
  8
0
100
AcDbLine
 10
807.3163556765003
 20
479.5048536009444
 30
0.0
 11
807.3163556765003
 21
475.0048536009443
 31
0.0
  0
LINE
  5
2DEC6
330
17
100
AcDbEntity
  8
0
100
AcDbLine
 10
844.8163556765003
 20
479.5048536009444
 30
0.0
 11
844.8163556765003
 21
475.0048536009443
 31
0.0
  0
LINE
  5
2DEC7
330
17
100
AcDbEntity
  8
0
100
AcDbLine
 10
810.1752470013098
 20
595.0048536009453
 30
0.0
 11
838.5752470013095
 21
595.0048536009453
 31
0.0
  0
LINE
  5
2DEC8
330
17
100
AcDbEntity
  8
0
100
AcDbLine
 10
810.1752470013098
 20
594.6048536009457
 30
0.0
 11
815.5752470013094
 21
594.6048536009457
 31
0.0
  0
LINE
  5
2DEC9
330
17
100
AcDbEntity
  8
0
100
AcDbLine
 10
809.5752470013094
 20
594.0048536009453
 30
0.0
 11
815.5752470013094
 21
594.0048536009453
 31
0.0
  0
LINE
  5
2DECA
330
17
100
AcDbEntity
  8
0
100
AcDbLine
 10
815.5752470013094
 20
594.6048536009457
 30
0.0
 11
815.5752470013094
 21
594.0048536009453
 31
0.0
  0
LINE
  5
2DECB
330
17
100
AcDbEntity
  8
0
100
AcDbLine
 10
927.0887690360204
 20
595.0048536009453
 30
0.0
 11
927.0887690360204
 21
475.0048536009443
 31
0.0
  0
LINE
  5
2DECC
330
17
100
AcDbEntity
  8
0
100
AcDbLine
 10
1099.675247001313
 20
475.0048536009443
 30
0.0
 11
1158.675247001313
 21
475.0048536009443
 31
0.0
  0
ARC
  5
2DECD
330
17
100
AcDbEntity
  8
0
100
AcDbCircle
 10
1087.17524700131
 20
545.5048536009453
 30
0.0
 40
66.0
100
AcDbArc
 50
180.0
 51
270.0
  0
ARC
  5
2DECE
330
17
100
AcDbEntity
  8
0
100
AcDbCircle
 10
1087.17524700131
 20
545.5048536009453
 30
0.0
 40
50.0
100
AcDbArc
 50
180.0
 51
270.0
  0
LINE
  5
2DECF
330
17
100
AcDbEntity
  8
0
100
AcDbLine
 10
1021.17524700131
 20
580.0048536009444
 30
0.0
 11
1021.17524700131
 21
545.5048536009453
 31
0.0
  0
LINE
  5
2DED0
330
17
100
AcDbEntity
  8
0
100
AcDbLine
 10
1037.17524700131
 20
580.0048536009444
 30
0.0
 11
1037.17524700131
 21
545.5048536009453
 31
0.0
  0
LINE
  5
2DED1
330
17
100
AcDbEntity
  8
0
100
AcDbLine
 10
1048.17524700131
 20
587.0048536009444
 30
0.0
 11
1010.17524700131
 21
587.0048536009444
 31
0.0
  0
LINE
  5
2DED2
330
17
100
AcDbEntity
  8
0
100
AcDbLine
 10
1048.17524700131
 20
590.0048536009444
 30
0.0
 11
1010.17524700131
 21
590.0048536009444
 31
0.0
  0
LINE
  5
2DED3
330
17
100
AcDbEntity
  8
0
100
AcDbLine
 10
1049.175247001306
 20
590.0048536009444
 30
0.0
 11
1009.175247001313
 21
590.0048536009444
 31
0.0
  0
LINE
  5
2DED4
330
17
100
AcDbEntity
  8
0
100
AcDbLine
 10
1021.17524700131
 20
580.0048536009444
 30
0.0
 11
1037.17524700131
 21
580.0048536009444
 31
0.0
  0
ARC
  5
2DED5
330
17
100
AcDbEntity
  8
0
100
AcDbCircle
 10
1021.48390405022
 20
581.0048536009444
 30
0.0
 40
1.0
100
AcDbArc
 50
270.0
 51
0.0
  0
LINE
  5
2DED6
330
17
100
AcDbEntity
  8
0
100
AcDbLine
 10
1012.48390405022
 20
581.0048536009444
 30
0.0
 11
1012.48390405022
 21
587.0048536009444
 31
0.0
  0
LINE
  5
2DED7
330
17
100
AcDbEntity
  8
0
100
AcDbLine
 10
1021.48390405022
 20
580.0048536009444
 30
0.0
 11
1013.48390405022
 21
580.0048536009444
 31
0.0
  0
ARC
  5
2DED8
330
17
100
AcDbEntity
  8
0
100
AcDbCircle
 10
1013.48390405022
 20
581.0048536009444
 30
0.0
 40
1.0
100
AcDbArc
 50
180.0
 51
270.0
  0
LINE
  5
2DED9
330
17
100
AcDbEntity
  8
0
100
AcDbLine
 10
1010.17524700131
 20
590.0048536009444
 30
0.0
 11
1010.17524700131
 21
587.0048536009444
 31
0.0
  0
ARC
  5
2DEDA
330
17
100
AcDbEntity
  8
0
100
AcDbCircle
 10
1009.175247001313
 20
594.0048536009444
 30
0.0
 40
4.0
100
AcDbArc
 50
196.6015495990554
 51
270.0
  0
ARC
  5
2DEDB
330
17
100
AcDbEntity
  8
0
100
AcDbCircle
 10
1002.467043068814
 20
592.0048536009444
 30
0.0
 40
3.0
100
AcDbArc
 50
16.60154959905546
 51
90.0
  0
LINE
  5
2DEDC
330
17
100
AcDbEntity
  8
0
100
AcDbLine
 10
1022.48390405022
 20
581.0048536009444
 30
0.0
 11
1022.48390405022
 21
587.0048536009444
 31
0.0
  0
LINE
  5
2DEDD
330
17
100
AcDbEntity
  8
0
100
AcDbLine
 10
1022.425247001309
 20
580.6674021993585
 30
0.0
 11
1022.425247001309
 21
580.0048536009444
 31
0.0
  0
LINE
  5
2DEDE
330
17
100
AcDbEntity
  8
0
100
AcDbLine
 10
1036.866589952399
 20
580.0048536009444
 30
0.0
 11
1044.866589952399
 21
580.0048536009444
 31
0.0
  0
LINE
  5
2DEDF
330
17
100
AcDbEntity
  8
0
100
AcDbLine
 10
1035.866589952399
 20
587.0048536009444
 30
0.0
 11
1035.866589952399
 21
581.0048536009444
 31
0.0
  0
ARC
  5
2DEE0
330
17
100
AcDbEntity
  8
0
100
AcDbCircle
 10
1036.866589952399
 20
581.0048536009444
 30
0.0
 40
1.0
100
AcDbArc
 50
180.0
 51
270.0
  0
LINE
  5
2DEE1
330
17
100
AcDbEntity
  8
0
100
AcDbLine
 10
1035.92524700131
 20
580.6674021993567
 30
0.0
 11
1035.92524700131
 21
580.0048536009444
 31
0.0
  0
LINE
  5
2DEE2
330
17
100
AcDbEntity
  8
0
100
AcDbLine
 10
1048.17524700131
 20
590.0048536009444
 30
0.0
 11
1048.17524700131
 21
587.0048536009444
 31
0.0
  0
LINE
  5
2DEE3
330
17
100
AcDbEntity
  8
0
100
AcDbLine
 10
1045.866589952399
 20
587.0048536009444
 30
0.0
 11
1045.866589952399
 21
581.0048536009444
 31
0.0
  0
ARC
  5
2DEE4
330
17
100
AcDbEntity
  8
0
100
AcDbCircle
 10
1044.866589952399
 20
581.0048536009444
 30
0.0
 40
1.0
100
AcDbArc
 50
270.0
 51
0.0
  0
ARC
  5
2DEE5
330
17
100
AcDbEntity
  8
0
100
AcDbCircle
 10
1049.175247001306
 20
594.0048536009444
 30
0.0
 40
4.0
100
AcDbArc
 50
270.0
 51
343.3984504009445
  0
ARC
  5
2DEE6
330
17
100
AcDbEntity
  8
0
100
AcDbCircle
 10
1055.883450933805
 20
592.0048536009444
 30
0.0
 40
3.0
100
AcDbArc
 50
90.0
 51
163.3984504009445
  0
LINE
  5
2DEE7
330
17
100
AcDbEntity
  8
0
100
AcDbLine
 10
1091.675247001313
 20
592.0048536009453
 30
0.0
 11
1091.675247001313
 21
495.5048536009453
 31
0.0
  0
LINE
  5
2DEE8
330
17
100
AcDbEntity
  8
0
100
AcDbLine
 10
1096.175247001313
 20
592.0048536009453
 30
0.0
 11
1096.175247001313
 21
495.5048536009453
 31
0.0
  0
ARC
  5
2DEE9
330
17
100
AcDbEntity
  8
0
100
AcDbCircle
 10
1099.675247001313
 20
483.0048536009453
 30
0.0
 40
8.0
100
AcDbArc
 50
205.9444797723773
 51
270.0
  0
ARC
  5
2DEEA
330
17
100
AcDbEntity
  8
0
100
AcDbCircle
 10
1099.675247001313
 20
592.0048536009453
 30
0.0
 40
8.0
100
AcDbArc
 50
157.9756871629772
 51
180.0
  0
ARC
  5
2DEEB
330
17
100
AcDbEntity
  8
0
100
AcDbCircle
 10
1099.675247001313
 20
592.0048536009453
 30
0.0
 40
3.5
100
AcDbArc
 50
121.0027191339325
 51
180.0
  0
ARC
  5
2DEEC
330
17
100
AcDbEntity
  8
0
100
AcDbCircle
 10
1211.878937001253
 20
638.801173600873
 30
0.0
 40
25.0
100
AcDbArc
 50
112.6683500000215
 51
157.3316500000208
  0
LINE
  5
2DEED
330
17
100
AcDbEntity
  8
0
100
AcDbLine
 10
1166.675247001313
 20
595.0048536009444
 30
0.0
 11
1166.675247001313
 21
495.5048536009453
 31
0.0
  0
LINE
  5
2DEEE
330
17
100
AcDbEntity
  8
0
100
AcDbLine
 10
1162.175247001313
 20
595.0048536009444
 30
0.0
 11
1162.175247001313
 21
495.5048536009453
 31
0.0
  0
ARC
  5
2DEEF
330
17
100
AcDbEntity
  8
0
100
AcDbCircle
 10
1158.675247001313
 20
483.0048536009453
 30
0.0
 40
7.999999999999886
100
AcDbArc
 50
270.0
 51
334.0555202276227
  0
ARC
  5
2DEF0
330
17
100
AcDbEntity
  8
0
100
AcDbCircle
 10
1146.471557001253
 20
638.801173600873
 30
0.0
 40
25.0
100
AcDbArc
 50
22.66834999997922
 51
67.33164999997844
  0
LINE
  5
2DEF1
330
17
100
AcDbEntity
  8
0
100
AcDbLine
 10
1195.175247001254
 20
648.5048536008727
 30
0.0
 11
1192.595247001254
 21
648.5048536008727
 31
0.0
  0
LINE
  5
2DEF2
330
17
100
AcDbEntity
  8
0
100
AcDbLine
 10
1195.175247001254
 20
648.5048536008727
 30
0.0
 11
1192.595247001254
 21
648.5048536008727
 31
0.0
  0
LINE
  5
2DEF3
330
17
100
AcDbEntity
  8
0
100
AcDbLine
 10
1192.595247001254
 20
641.5048536008728
 30
0.0
 11
1195.175247001254
 21
641.5048536008728
 31
0.0
  0
LINE
  5
2DEF4
330
17
100
AcDbEntity
  8
0
100
AcDbLine
 10
1195.175247001254
 20
640.5048536008727
 30
0.0
 11
1194.175247001254
 21
639.5048536008728
 31
0.0
  0
LINE
  5
2DEF5
330
17
100
AcDbEntity
  8
0
100
AcDbLine
 10
1179.175247001254
 20
639.5048536008728
 30
0.0
 11
1194.175247001254
 21
639.5048536008728
 31
0.0
  0
LINE
  5
2DEF6
330
17
100
AcDbEntity
  8
0
100
AcDbLine
 10
1192.595247001254
 20
641.5048536008728
 30
0.0
 11
1192.595247001254
 21
648.5048536008727
 31
0.0
  0
LINE
  5
2DEF7
330
17
100
AcDbEntity
  8
0
100
AcDbLine
 10
1195.175247001254
 20
640.5048536008727
 30
0.0
 11
1195.175247001254
 21
657.4018936008727
 31
0.0
  0
LINE
  5
2DEF8
330
17
100
AcDbEntity
  8
0
100
AcDbLine
 10
1163.175247001254
 20
648.5048536008727
 30
0.0
 11
1165.755247001254
 21
648.5048536008727
 31
0.0
  0
LINE
  5
2DEF9
330
17
100
AcDbEntity
  8
0
100
AcDbLine
 10
1163.175247001254
 20
648.5048536008727
 30
0.0
 11
1165.755247001254
 21
648.5048536008727
 31
0.0
  0
LINE
  5
2DEFA
330
17
100
AcDbEntity
  8
0
100
AcDbLine
 10
1165.755247001254
 20
641.5048536008728
 30
0.0
 11
1163.175247001254
 21
641.5048536008728
 31
0.0
  0
LINE
  5
2DEFB
330
17
100
AcDbEntity
  8
0
100
AcDbLine
 10
1163.175247001254
 20
640.5048536008727
 30
0.0
 11
1164.175247001254
 21
639.5048536008728
 31
0.0
  0
LINE
  5
2DEFC
330
17
100
AcDbEntity
  8
0
100
AcDbLine
 10
1163.175247001254
 20
640.5048536008727
 30
0.0
 11
1163.175247001254
 21
657.4018936008727
 31
0.0
  0
LINE
  5
2DEFD
330
17
100
AcDbEntity
  8
0
100
AcDbLine
 10
1165.755247001254
 20
641.5048536008728
 30
0.0
 11
1165.755247001254
 21
648.5048536008727
 31
0.0
  0
LINE
  5
2DEFE
330
17
100
AcDbEntity
  8
0
100
AcDbLine
 10
1179.175247001254
 20
639.5048536008728
 30
0.0
 11
1164.175247001254
 21
639.5048536008728
 31
0.0
  0
ARC
  5
2DEFF
330
17
100
AcDbEntity
  8
0
100
AcDbCircle
 10
1179.175247001254
 20
671.5048536008728
 30
0.0
 40
25.0
100
AcDbArc
 50
247.3316499999785
 51
292.6683500000215
  0
LINE
  5
2DF00
330
17
100
AcDbEntity
  8
0
100
AcDbLine
 10
1451.034138325606
 20
475.0048536009443
 30
0.0
 11
1331.261724966086
 21
475.0048536009443
 31
0.0
  0
LINE
  5
2DF01
330
17
100
AcDbEntity
  8
0
100
AcDbLine
 10
1391.976824933991
 20
595.0048536009453
 30
0.0
 11
1410.547843829798
 21
495.5048536009453
 31
0.0
  0
LINE
  5
2DF02
330
17
100
AcDbEntity
  8
0
100
AcDbLine
 10
1394.226824933991
 20
595.0048536009453
 30
0.0
 11
1412.797843829799
 21
495.5048536009453
 31
0.0
  0
LINE
  5
2DF03
330
17
100
AcDbEntity
  8
0
100
AcDbLine
 10
1331.261724966088
 20
595.0048536009453
 30
0.0
 11
1331.261724966088
 21
495.5048536009453
 31
0.0
  0
LINE
  5
2DF04
330
17
100
AcDbEntity
  8
0
100
AcDbLine
 10
1331.261724966088
 20
479.5048536009444
 30
0.0
 11
1331.261724966088
 21
475.0048536009443
 31
0.0
  0
LINE
  5
2DF05
330
17
100
AcDbEntity
  8
0
100
AcDbLine
 10
1429.476824933991
 20
595.0048536009453
 30
0.0
 11
1448.047843829799
 21
495.5048536009453
 31
0.0
  0
LINE
  5
2DF06
330
17
100
AcDbEntity
  8
0
100
AcDbLine
 10
1427.226824933991
 20
595.0048536009453
 30
0.0
 11
1445.797843829798
 21
495.5048536009453
 31
0.0
  0
LINE
  5
2DF07
330
17
100
AcDbEntity
  8
0
100
AcDbLine
 10
1413.534138325608
 20
479.5048536009444
 30
0.0
 11
1413.534138325608
 21
475.0048536009443
 31
0.0
  0
LINE
  5
2DF08
330
17
100
AcDbEntity
  8
0
100
AcDbLine
 10
1451.034138325608
 20
479.5048536009444
 30
0.0
 11
1451.034138325606
 21
475.0048536009443
 31
0.0
  0
LINE
  5
2DF09
330
17
100
AcDbEntity
  8
0
100
AcDbLine
 10
1448.175247001313
 20
595.0048536009444
 30
0.0
 11
1419.775247001312
 21
595.0048536009444
 31
0.0
  0
LINE
  5
2DF0A
330
17
100
AcDbEntity
  8
0
100
AcDbLine
 10
1448.775247001312
 20
594.0048536009444
 30
0.0
 11
1442.775247001312
 21
594.0048536009444
 31
0.0
  0
LINE
  5
2DF0B
330
17
100
AcDbEntity
  8
0
100
AcDbLine
 10
1448.175247001313
 20
594.6048536009448
 30
0.0
 11
1442.775247001312
 21
594.6048536009448
 31
0.0
  0
LINE
  5
2DF0C
330
17
100
AcDbEntity
  8
0
100
AcDbLine
 10
1442.775247001312
 20
594.6048536009448
 30
0.0
 11
1442.775247001312
 21
594.0048536009444
 31
0.0
  0
LINE
  5
2DF0D
330
17
100
AcDbEntity
  8
0
100
AcDbLine
 10
1491.091875725106
 20
495.5048536009453
 30
0.0
 11
1491.091875725106
 21
479.5048536009444
 31
0.0
  0
LINE
  5
2DF0E
330
17
100
AcDbEntity
  8
0
100
AcDbLine
 10
834.6752470013116
 20
722.0048536009544
 30
0.0
 11
1423.67524700131
 21
722.0048536009544
 31
0.0
  0
ARC
  5
2DF0F
330
17
100
AcDbEntity
  8
0
100
AcDbCircle
 10
859.6736577994096
 20
1361.612134689888
 30
0.0
 40
90.8333333333333
100
AcDbArc
 50
56.60151153200273
 51
123.3984884679972
  0
ARC
  5
2DF10
330
17
100
AcDbEntity
  8
0
100
AcDbCircle
 10
959.6736577994096
 20
1513.278801356554
 30
0.0
 40
90.83333333333326
100
AcDbArc
 50
236.6015115320009
 51
303.3984884679973
  0
ARC
  5
2DF11
330
17
100
AcDbEntity
  8
0
100
AcDbCircle
 10
959.6736577994096
 20
1336.562896608533
 30
0.0
 40
90.83333333333326
100
AcDbArc
 50
236.6015115320009
 51
303.3984884679973
  0
LINE
  5
2DF12
330
17
100
AcDbEntity
  8
0
100
AcDbLine
 10
810.1752470013153
 20
725.004853600939
 30
0.0
 11
834.675247001317
 21
725.004853600939
 31
0.0
  0
LINE
  5
2DF13
330
17
100
AcDbEntity
  8
0
100
AcDbLine
 10
809.5752470013094
 20
726.0048536009417
 30
0.0
 11
834.6752470013116
 21
726.0048536009417
 31
0.0
  0
ARC
  5
2DF14
330
17
100
AcDbEntity
  8
0
100
AcDbCircle
 10
827.1752470011838
 20
723.0048536008694
 30
0.0
 40
1.0
100
AcDbArc
 50
180.0
 51
270.0
1001
GENIUS_GENODEF_13
1002
{
1000
HIER
1070
     0
1002
}
1002
{
1000
MANEDIT
1070
     0
1002
}
1002
{
1000
NOSEL
1070
     0
1002
}
1002
{
1000
BEHIND
1070
     0
1002
}
1002
{
1000
OTHER
1070
     0
1002
}
1002
{
1000
REACTOR
1002
}
1001
GENIUS_GENOBJ-N-FIL_13
1002
{
1000
OWNER
1000
GEN
1002
}
  0
LINE
  5
2DF15
330
17
100
AcDbEntity
  8
0
100
AcDbLine
 10
826.1752470011838
 20
725.0048536008692
 30
0.0
 11
826.1752470011838
 21
723.0048536008694
 31
0.0
  0
LINE
  5
2DF16
330
17
100
AcDbEntity
  8
0
100
AcDbLine
 10
834.6752470013116
 20
722.0048536008694
 30
0.0
 11
827.1752470011838
 21
722.0048536008694
 31
0.0
  0
LINE
  5
2DF17
330
17
100
AcDbEntity
  8
0
100
AcDbLine
 10
834.6752470013116
 20
725.0048536008692
 30
0.0
 11
826.1752470011838
 21
725.0048536008692
 31
0.0
  0
LINE
  5
2DF18
330
17
100
AcDbEntity
  8
0
100
AcDbLine
 10
834.6752470013116
 20
722.0048536009544
 30
0.0
 11
834.6752470013116
 21
726.0048536009544
 31
0.0
  0
CIRCLE
  5
2DF19
330
17
100
AcDbEntity
  8
0
100
AcDbCircle
 10
929.1752470013117
 20
738.0048536009544
 30
0.0
 40
6.0
  0
CIRCLE
  5
2DF1A
330
17
100
AcDbEntity
  8
0
100
AcDbCircle
 10
929.1752470013117
 20
738.0048536009544
 30
0.0
 40
10.4
  0
CIRCLE
  5
2DF1B
330
17
100
AcDbEntity
  8
0
100
AcDbCircle
 10
929.1752470013134
 20
738.0048536009417
 30
0.0
 40
1.6
  0
CIRCLE
  5
2DF1C
330
17
100
AcDbEntity
  8
0
100
AcDbCircle
 10
929.1752470013117
 20
738.0048536009544
 30
0.0
 40
3.0
  0
ARC
  5
2DF1D
330
17
100
AcDbEntity
  8
0
100
AcDbCircle
 10
859.6736577994096
 20
1184.896229941866
 30
0.0
 40
90.8333333333333
100
AcDbArc
 50
56.60151153200273
 51
123.3984884679972
  0
LINE
  5
2DF1E
330
17
100
AcDbEntity
  8
0
100
AcDbLine
 10
834.5752470013062
 20
1449.24587251034
 30
0.0
 11
834.5752470013058
 21
1272.221452211517
 31
0.0
  0
LINE
  5
2DF1F
330
17
100
AcDbEntity
  8
0
100
AcDbLine
 10
823.5752470013066
 20
1445.31546089725
 30
0.0
 11
823.5752470013057
 21
1268.291040598426
 31
0.0
  0
LINE
  5
2DF20
330
17
100
AcDbEntity
  8
0
100
AcDbLine
 10
843.5752470013067
 20
1451.333705464434
 30
0.0
 11
843.5752470013067
 21
1274.309285165611
 31
0.0
  0
LINE
  5
2DF21
330
17
100
AcDbEntity
  8
0
100
AcDbLine
 10
940.6752470015751
 20
1247.717612859458
 30
0.0
 11
940.6752470015751
 21
1424.45450945619
 31
0.0
  0
LINE
  5
2DF22
330
17
100
AcDbEntity
  8
0
100
AcDbLine
 10
956.6752470015726
 20
1245.775868656047
 30
0.0
 11
956.6752470015712
 21
1422.80028895487
 31
0.0
  0
LINE
  5
2DF23
330
17
100
AcDbEntity
  8
0
100
AcDbLine
 10
1193.758580334587
 20
691.8106751525574
 30
0.0
 11
1213.550247001254
 21
677.5966000663778
 31
0.0
  0
ARC
  5
2DF24
330
17
100
AcDbEntity
  8
0
100
AcDbCircle
 10
1211.878937001253
 20
704.2085436008731
 30
0.0
 40
25.0
100
AcDbArc
 50
202.6683499999792
 51
247.3316499999785
  0
LINE
  5
2DF25
330
17
100
AcDbEntity
  8
0
100
AcDbLine
 10
1164.59191366792
 20
691.8106751525574
 30
0.0
 11
1144.800247001254
 21
677.5966000663778
 31
0.0
  0
ARC
  5
2DF26
330
17
100
AcDbEntity
  8
0
100
AcDbCircle
 10
1146.471557001253
 20
704.2085436008731
 30
0.0
 40
25.0
100
AcDbArc
 50
292.6683500000215
 51
337.3316500000208
  0
CIRCLE
  5
2DF27
330
17
100
AcDbEntity
  8
0
100
AcDbCircle
 10
1149.175247001254
 20
671.5048536008721
 30
0.0
 40
2.5
  0
ARC
  5
2DF28
330
17
100
AcDbEntity
  8
0
100
AcDbCircle
 10
1149.175247001254
 20
671.5048536008721
 30
0.0
 40
7.5
100
AcDbArc
 50
125.6853347126348
 51
234.3146652873652
  0
ARC
  5
2DF29
330
17
100
AcDbEntity
  8
0
100
AcDbCircle
 10
1179.175247001254
 20
671.5048536008721
 30
0.0
 40
25.0
100
AcDbArc
 50
112.6683608344126
 51
125.6853347126348
  0
ARC
  5
2DF2A
330
17
100
AcDbEntity
  8
0
100
AcDbCircle
 10
1179.175247001254
 20
671.5048536008721
 30
0.0
 40
25.0
100
AcDbArc
 50
54.31466528736521
 51
67.33163916558734
  0
LINE
  5
2DF2B
330
17
100
AcDbEntity
  8
0
100
AcDbLine
 10
1190.049757001253
 20
678.6284136008728
 30
0.0
 11
1189.213257001253
 21
678.0804536008729
 31
0.0
  0
LINE
  5
2DF2C
330
17
100
AcDbEntity
  8
0
100
AcDbLine
 10
1188.834507001253
 20
674.093043600873
 30
0.0
 11
1190.049757001253
 21
678.6284136008728
 31
0.0
  0
TEXT
  5
2DF2D
330
17
100
AcDbEntity
  8
0
100
AcDbText
 10
1189.175247001254
 20
674.0048536008728
 30
0.0
 40
5.0
  1
閉
 50
270.0
 41
1.153846153846153
 72
     5
 11
1189.175247001254
 21
669.0048536008728
 31
0.0
100
AcDbText
  0
LINE
  5
2DF2E
330
17
100
AcDbEntity
  8
0
100
AcDbLine
 10
1181.763437001253
 20
681.1641136008732
 30
0.0
 11
1182.281077001253
 21
683.0959636008731
 31
0.0
  0
ARC
  5
2DF2F
330
17
100
AcDbEntity
  8
0
100
AcDbCircle
 10
1179.175247001254
 20
671.5048536008728
 30
0.0
 40
10.0
100
AcDbArc
 50
14.99999999999445
 51
75.00000000000555
  0
ARC
  5
2DF30
330
17
100
AcDbEntity
  8
0
100
AcDbCircle
 10
1179.175247001254
 20
671.5048536008728
 30
0.0
 40
12.0
100
AcDbArc
 50
33.2275899999998
 51
75.00000000000555
  0
TEXT
  5
2DF31
330
17
100
AcDbEntity
  8
0
100
AcDbText
 10
1169.175247001254
 20
669.0048536008728
 30
0.0
 40
5.0
  1
開
 50
90.0
 41
1.153846153846153
 72
     5
 11
1169.175247001254
 21
674.0048536008728
 31
0.0
100
AcDbText
  0
LINE
  5
2DF32
330
17
100
AcDbEntity
  8
0
100
AcDbLine
 10
1176.069417001253
 20
683.0959636008731
 30
0.0
 11
1176.587057001253
 21
681.1641136008732
 31
0.0
  0
LINE
  5
2DF33
330
17
100
AcDbEntity
  8
0
100
AcDbLine
 10
1168.300737001253
 20
678.6284136008728
 30
0.0
 11
1169.137237001254
 21
678.0804536008729
 31
0.0
  0
LINE
  5
2DF34
330
17
100
AcDbEntity
  8
0
100
AcDbLine
 10
1169.515987001253
 20
674.093043600873
 30
0.0
 11
1168.300737001253
 21
678.6284136008728
 31
0.0
  0
ARC
  5
2DF35
330
17
100
AcDbEntity
  8
0
100
AcDbCircle
 10
1179.175247001254
 20
671.5048536008728
 30
0.0
 40
10.0
100
AcDbArc
 50
104.9999999999944
 51
165.0000000000055
  0
ARC
  5
2DF36
330
17
100
AcDbEntity
  8
0
100
AcDbCircle
 10
1179.175247001254
 20
671.5048536008728
 30
0.0
 40
12.0
100
AcDbArc
 50
104.9999999999944
 51
146.7724100000002
  0
ARC
  5
2DF37
330
17
100
AcDbEntity
  8
0
100
AcDbCircle
 10
1179.175247001254
 20
671.5048536008728
 30
0.0
 40
25.0
100
AcDbArc
 50
67.33164999997844
 51
112.6683500000215
  0
LINE
  5
2DF38
330
17
100
AcDbEntity
  8
0
100
AcDbLine
 10
1171.17365779941
 20
695.1902921655974
 30
0.0
 11
1171.17365779941
 21
722.0048536009544
 31
0.0
  0
LINE
  5
2DF39
330
17
100
AcDbEntity
  8
0
100
AcDbLine
 10
1187.17365779941
 20
695.1902921655974
 30
0.0
 11
1187.17365779941
 21
722.0048536009544
 31
0.0
  0
ARC
  5
2DF3A
330
17
100
AcDbEntity
  8
0
100
AcDbCircle
 10
1209.175247001254
 20
671.5048536008721
 30
0.0
 40
7.5
100
AcDbArc
 50
305.6853347126348
 51
54.31466528736521
  0
CIRCLE
  5
2DF3B
330
17
100
AcDbEntity
  8
0
100
AcDbCircle
 10
1209.175247001254
 20
671.5048536008721
 30
0.0
 40
2.5
  0
ARC
  5
2DF3C
330
17
100
AcDbEntity
  8
0
100
AcDbCircle
 10
1159.67365779941
 20
1336.562896608533
 30
0.0
 40
90.83333333333326
100
AcDbArc
 50
236.6015115320009
 51
250.380034846746
  0
ARC
  5
2DF3D
330
17
100
AcDbEntity
  8
0
100
AcDbCircle
 10
1059.67365779941
 20
1184.896229941866
 30
0.0
 40
90.83333333333326
100
AcDbArc
 50
56.60151153200273
 51
123.3984884679972
  0
LINE
  5
2DF3E
330
17
100
AcDbEntity
  8
0
100
AcDbLine
 10
1129.17365779941
 20
1251.003300744338
 30
0.0
 11
1129.17365779941
 21
1427.719205492359
 31
0.0
  0
LINE
  5
2DF3F
330
17
100
AcDbEntity
  8
0
100
AcDbLine
 10
940.6752470013115
 20
2490.004853600954
 30
0.0
 11
1071.675247001312
 21
2490.004853600954
 31
0.0
  0
LINE
  5
2DF40
330
17
100
AcDbEntity
  8
0
100
AcDbLine
 10
1072.336000606418
 20
2500.004853600954
 30
0.0
 11
940.0144933962028
 21
2500.004853600954
 31
0.0
  0
LINE
  5
2DF41
330
17
100
AcDbEntity
  8
0
100
AcDbLine
 10
1033.336000606418
 20
1808.004853600954
 30
0.0
 11
901.0144933962028
 21
1808.004853600954
 31
0.0
  0
LINE
  5
2DF42
330
17
100
AcDbEntity
  8
0
100
AcDbLine
 10
901.6752470013116
 20
1818.004853600954
 30
0.0
 11
1032.675247001311
 21
1818.004853600954
 31
0.0
  0
LINE
  5
2DF43
330
17
100
AcDbEntity
  8
0
100
AcDbLine
 10
1033.336000606418
 20
1708.004853600954
 30
0.0
 11
901.0144933962028
 21
1708.004853600954
 31
0.0
  0
LINE
  5
2DF44
330
17
100
AcDbEntity
  8
0
100
AcDbLine
 10
901.6752470013116
 20
1698.004853600954
 30
0.0
 11
1032.675247001311
 21
1698.004853600954
 31
0.0
  0
LINE
  5
2DF45
330
17
100
AcDbEntity
  8
0
100
AcDbLine
 10
919.1752470013115
 20
1713.004853600954
 30
0.0
 11
1015.175247001312
 21
1713.004853600954
 31
0.0
  0
LINE
  5
2DF46
330
17
100
AcDbEntity
  8
0
100
AcDbLine
 10
919.1752470013115
 20
1802.004853600954
 30
0.0
 11
1015.175247001312
 21
1802.004853600954
 31
0.0
  0
CIRCLE
  5
2DF47
330
17
100
AcDbEntity
  8
0
100
AcDbCircle
 10
851.1752470013115
 20
1469.004853600954
 30
0.0
 40
6.0
  0
CIRCLE
  5
2DF48
330
17
100
AcDbEntity
  8
0
100
AcDbCircle
 10
851.1752470013115
 20
1469.004853600954
 30
0.0
 40
10.4
  0
CIRCLE
  5
2DF49
330
17
100
AcDbEntity
  8
0
100
AcDbCircle
 10
851.1752470013115
 20
1469.004853600954
 30
0.0
 40
3.0
  0
ARC
  5
2DF4A
330
17
100
AcDbEntity
  8
0
100
AcDbCircle
 10
919.1752470013115
 20
1719.004853600954
 30
0.0
 40
6.0
100
AcDbArc
 50
180.0
 51
270.0
  0
ARC
  5
2DF4B
330
17
100
AcDbEntity
  8
0
100
AcDbCircle
 10
919.1752470013115
 20
1796.004853600954
 30
0.0
 40
6.0
100
AcDbArc
 50
90.0
 51
180.0
  0
LINE
  5
2DF4C
330
17
100
AcDbEntity
  8
0
100
AcDbLine
 10
913.1752470013116
 20
1796.004853600954
 30
0.0
 11
913.1752470013116
 21
1719.004853600954
 31
0.0
  0
LINE
  5
2DF4D
330
17
100
AcDbEntity
  8
0
100
AcDbLine
 10
889.6752470013115
 20
1806.004853600954
 30
0.0
 11
889.6752470013115
 21
1710.004853600954
 31
0.0
  0
LINE
  5
2DF4E
330
17
100
AcDbEntity
  8
0
100
AcDbLine
 10
898.1752470013116
 20
1805.164853600954
 30
0.0
 11
898.1752470013116
 21
1710.844853600954
 31
0.0
  0
ARC
  5
2DF4F
330
17
100
AcDbEntity
  8
0
100
AcDbCircle
 10
901.6752470013116
 20
1710.004853600954
 30
0.0
 40
12.0
100
AcDbArc
 50
180.0
 51
270.0
  0
ARC
  5
2DF50
330
17
100
AcDbEntity
  8
0
100
AcDbCircle
 10
901.0144933962028
 20
1710.844853600954
 30
0.0
 40
2.839246394892143
100
AcDbArc
 50
180.0
 51
270.0
  0
ARC
  5
2DF51
330
17
100
AcDbEntity
  8
0
100
AcDbCircle
 10
901.6752470013116
 20
1806.004853600954
 30
0.0
 40
12.0
100
AcDbArc
 50
90.0
 51
180.0
  0
ARC
  5
2DF52
330
17
100
AcDbEntity
  8
0
100
AcDbCircle
 10
901.0144933962028
 20
1805.164853600954
 30
0.0
 40
2.839246394892143
100
AcDbArc
 50
90.0
 51
180.0
  0
LINE
  5
2DF53
330
17
100
AcDbEntity
  8
0
100
AcDbLine
 10
929.6752470013116
 20
1710.004853600954
 30
0.0
 11
929.6752470013116
 21
1710.004853600954
 31
0.0
  0
CIRCLE
  5
2DF54
330
17
100
AcDbEntity
  8
0
100
AcDbCircle
 10
851.1752470013115
 20
2415.004853600954
 30
0.0
 40
9.0
  0
CIRCLE
  5
2DF55
330
17
100
AcDbEntity
  8
0
100
AcDbCircle
 10
851.1752470013115
 20
2415.004853600954
 30
0.0
 40
6.0
  0
CIRCLE
  5
2DF56
330
17
100
AcDbEntity
  8
0
100
AcDbCircle
 10
851.1752470013115
 20
2415.004853600954
 30
0.0
 40
3.0
  0
ARC
  5
2DF57
330
17
100
AcDbEntity
  8
0
100
AcDbCircle
 10
940.0144933962028
 20
2502.844853600954
 30
0.0
 40
2.839246394892143
100
AcDbArc
 50
180.0
 51
270.0
  0
ARC
  5
2DF58
330
17
100
AcDbEntity
  8
0
100
AcDbCircle
 10
940.6752470013115
 20
2502.004853600954
 30
0.0
 40
12.0
100
AcDbArc
 50
180.0
 51
270.0
  0
LINE
  5
2DF59
330
17
100
AcDbEntity
  8
0
100
AcDbLine
 10
1021.175247001312
 20
1796.004853600954
 30
0.0
 11
1021.175247001312
 21
1719.004853600954
 31
0.0
  0
LINE
  5
2DF5A
330
17
100
AcDbEntity
  8
0
100
AcDbLine
 10
1036.175247001311
 20
1805.164853600954
 30
0.0
 11
1036.175247001311
 21
1710.844853600954
 31
0.0
  0
LINE
  5
2DF5B
330
17
100
AcDbEntity
  8
0
100
AcDbLine
 10
1044.675247001311
 20
1806.004853600954
 30
0.0
 11
1044.675247001311
 21
1710.004853600954
 31
0.0
  0
ARC
  5
2DF5C
330
17
100
AcDbEntity
  8
0
100
AcDbCircle
 10
1015.175247001312
 20
1719.004853600954
 30
0.0
 40
6.0
100
AcDbArc
 50
270.0
 51
0.0
  0
ARC
  5
2DF5D
330
17
100
AcDbEntity
  8
0
100
AcDbCircle
 10
1032.675247001311
 20
1710.004853600954
 30
0.0
 40
12.0
100
AcDbArc
 50
270.0
 51
0.0
  0
ARC
  5
2DF5E
330
17
100
AcDbEntity
  8
0
100
AcDbCircle
 10
1033.336000606418
 20
1710.844853600954
 30
0.0
 40
2.839246394892143
100
AcDbArc
 50
270.0
 51
0.0
  0
ARC
  5
2DF5F
330
17
100
AcDbEntity
  8
0
100
AcDbCircle
 10
1015.175247001312
 20
1796.004853600954
 30
0.0
 40
6.0
100
AcDbArc
 50
0.0
 51
90.0
  0
ARC
  5
2DF60
330
17
100
AcDbEntity
  8
0
100
AcDbCircle
 10
1032.675247001311
 20
1806.004853600954
 30
0.0
 40
12.0
100
AcDbArc
 50
0.0
 51
90.0
  0
ARC
  5
2DF61
330
17
100
AcDbEntity
  8
0
100
AcDbCircle
 10
1033.336000606418
 20
1805.164853600954
 30
0.0
 40
2.839246394892143
100
AcDbArc
 50
0.0
 51
90.0
  0
CIRCLE
  5
2DF62
330
17
100
AcDbEntity
  8
0
100
AcDbCircle
 10
1029.425247001311
 20
1758.004853600954
 30
0.0
 40
6.0
  0
ARC
  5
2DF63
330
17
100
AcDbEntity
  8
0
100
AcDbCircle
 10
1072.336000606418
 20
2502.844853600954
 30
0.0
 40
2.839246394892143
100
AcDbArc
 50
270.0
 51
0.0
  0
CIRCLE
  5
2DF64
330
17
100
AcDbEntity
  8
0
100
AcDbCircle
 10
1068.425247001312
 20
2550.048807095124
 30
0.0
 40
6.0
  0
ARC
  5
2DF65
330
17
100
AcDbEntity
  8
0
100
AcDbCircle
 10
1071.675247001312
 20
2502.004853600954
 30
0.0
 40
12.0
100
AcDbArc
 50
270.0
 51
0.0
  0
LEADER
  5
2DF66
330
17
100
AcDbEntity
  8
DIM
100
AcDbLeader
  3
STANDARD
 73
     0
 74
     0
 75
     1
 40
42.5
 41
154.1333333333333
 76
     3
 10
1369.506400886094
 20
903.0048536009426
 30
0.0
 10
1477.402913414417
 20
1097.937954769716
 30
0.0
 10
1511.402913414417
 20
1097.937954769716
 30
0.0
340
2DF67
1001
ACAD
1000
DSTYLE
1002
{
1070
    41
1040
2.0
1070
   147
1040
1.0
1070
    77
1070
     1
1070
    43
1040
10.0
1070
    73
1070
     0
1070
    74
1070
     0
1070
   172
1070
     1
1070
   179
1070
     1
1070
   271
1070
     1
1070
   272
1070
     1
1070
   341
1005
4A
1070
   342
1005
0
1002
}
  0
MTEXT
  5
2DF67
102
{ACAD_REACTORS
330
2DF66
102
}
330
17
100
AcDbEntity
  8
DIM
100
AcDbMText
 10
1528.402913414417
 20
1136.187954769716
 30
0.0
 40
42.5
 41
539.5
 46
0.0
 71
     4
 72
     1
  1
型式銘板
 73
     1
 44
1.0
  0
LINE
  5
2DF68
330
17
100
AcDbEntity
  8
0
100
AcDbLine
 10
1405.119509522529
 20
903.0048536009408
 30
0.0
 11
1405.119509522529
 21
773.0048536009408
 31
0.0
  0
LINE
  5
2DF69
330
17
100
AcDbEntity
  8
0
100
AcDbLine
 10
1320.119509522529
 20
903.0048536009426
 30
0.0
 11
1320.119509522529
 21
773.0048536009408
 31
0.0
  0
CIRCLE
  5
2DF6A
330
17
100
AcDbEntity
  8
0
100
AcDbCircle
 10
1329.175247001311
 20
738.0048536009544
 30
0.0
 40
10.4
  0
LINE
  5
2DF6B
330
17
100
AcDbEntity
  8
0
100
AcDbLine
 10
1320.119509522529
 20
773.0048536009408
 30
0.0
 11
1405.119509522529
 21
773.0048536009408
 31
0.0
  0
CIRCLE
  5
2DF6C
330
17
100
AcDbEntity
  8
0
100
AcDbCircle
 10
1329.175247001311
 20
738.0048536009544
 30
0.0
 40
6.0
  0
CIRCLE
  5
2DF6D
330
17
100
AcDbEntity
  8
0
100
AcDbCircle
 10
1329.175247001313
 20
738.0048536009417
 30
0.0
 40
1.6
  0
CIRCLE
  5
2DF6E
330
17
100
AcDbEntity
  8
0
100
AcDbCircle
 10
1329.175247001311
 20
738.0048536009544
 30
0.0
 40
3.0
  0
LINE
  5
2DF6F
330
17
100
AcDbEntity
  8
0
100
AcDbLine
 10
1320.119509522529
 20
903.0048536009426
 30
0.0
 11
1405.119509522529
 21
903.0048536009426
 31
0.0
  0
LINE
  5
2DF70
330
17
100
AcDbEntity
  8
0
100
AcDbLine
 10
1448.175247001313
 20
725.004853600939
 30
0.0
 11
1423.675247001311
 21
725.004853600939
 31
0.0
  0
LINE
  5
2DF71
330
17
100
AcDbEntity
  8
0
100
AcDbLine
 10
1423.675247001311
 20
726.0048536009544
 30
0.0
 11
1448.675247001312
 21
726.0048536009544
 31
0.0
  0
LINE
  5
2DF72
330
17
100
AcDbEntity
  8
0
100
AcDbLine
 10
1423.67524700131
 20
722.0048536009544
 30
0.0
 11
1423.675247001311
 21
726.0048536009544
 31
0.0
  0
CIRCLE
  5
2DF73
330
17
100
AcDbEntity
  8
0
100
AcDbCircle
 10
1407.175247001311
 20
1469.004853600954
 30
0.0
 40
6.0
  0
CIRCLE
  5
2DF74
330
17
100
AcDbEntity
  8
0
100
AcDbCircle
 10
1407.175247001311
 20
1469.004853600954
 30
0.0
 40
10.4
  0
CIRCLE
  5
2DF75
330
17
100
AcDbEntity
  8
0
100
AcDbCircle
 10
1407.17524700131
 20
1469.004853600954
 30
0.0
 40
3.0
  0
CIRCLE
  5
2DF76
330
17
100
AcDbEntity
  8
0
100
AcDbCircle
 10
1407.175247001311
 20
2415.004853600954
 30
0.0
 40
6.0
  0
CIRCLE
  5
2DF77
330
17
100
AcDbEntity
  8
0
100
AcDbCircle
 10
1407.175247001311
 20
2415.004853600954
 30
0.0
 40
10.4
  0
CIRCLE
  5
2DF78
330
17
100
AcDbEntity
  8
0
100
AcDbCircle
 10
1407.175247001311
 20
2415.004853600954
 30
0.0
 40
3.0
  0
LINE
  5
2DF79
330
17
100
AcDbEntity
  8
0
100
AcDbLine
 10
1334.100457799411
 20
2551.984853600946
 30
0.0
 11
1343.370457799411
 21
2551.984853600946
 31
0.0
  0
LINE
  5
2DF7A
330
17
100
AcDbEntity
  8
0
100
AcDbLine
 10
1332.246457799411
 20
2570.524853600945
 30
0.0
 11
1336.325257799411
 21
2570.524853600945
 31
0.0
  0
LINE
  5
2DF7B
330
17
100
AcDbEntity
  8
0
100
AcDbLine
 10
1319.268457799412
 20
2561.254853600946
 30
0.0
 11
1326.313657799413
 21
2561.254853600946
 31
0.0
  0
ARC
  5
2DF7C
330
17
100
AcDbEntity
  8
0
100
AcDbCircle
 10
1319.268457799412
 20
2563.108853600946
 30
0.0
 40
1.853999999999998
100
AcDbArc
 50
180.0
 51
270.0
  0
LINE
  5
2DF7D
330
17
100
AcDbEntity
  8
0
100
AcDbLine
 10
1332.246457799411
 20
2570.524853600945
 30
0.0
 11
1332.246457799411
 21
2553.838853600945
 31
0.0
  0
ARC
  5
2DF7E
330
17
100
AcDbEntity
  8
0
100
AcDbCircle
 10
1322.60565779941
 20
2566.446053600946
 30
0.0
 40
1.112399999999998
100
AcDbArc
 50
180.0
 51
270.0
  0
LINE
  5
2DF7F
330
17
100
AcDbEntity
  8
0
100
AcDbLine
 10
1322.60565779941
 20
2565.333653600946
 30
0.0
 11
1326.313657799413
 21
2565.333653600946
 31
0.0
  0
ARC
  5
2DF80
330
17
100
AcDbEntity
  8
0
100
AcDbCircle
 10
1334.100457799411
 20
2553.838853600945
 30
0.0
 40
1.853999999999998
100
AcDbArc
 50
180.0
 51
270.0
  0
LINE
  5
2DF81
330
17
100
AcDbEntity
  8
0
100
AcDbLine
 10
1330.392457799412
 20
2553.097253600946
 30
0.0
 11
1330.392457799412
 21
2553.035894715545
 31
0.0
  0
LINE
  5
2DF82
330
17
100
AcDbEntity
  8
0
100
AcDbLine
 10
1330.392457799412
 20
2553.097253600946
 30
0.0
 11
1330.392457799412
 21
2553.035894715545
 31
0.0
  0
LINE
  5
2DF83
330
17
100
AcDbEntity
  8
0
100
AcDbLine
 10
1327.223131400825
 20
2543.872365457291
 30
0.0
 11
1326.313657799413
 21
2542.714853600946
 31
0.0
  0
ARC
  5
2DF84
330
17
100
AcDbEntity
  8
0
100
AcDbCircle
 10
1315.56045779941
 20
2553.035894715545
 30
0.0
 40
14.832
100
AcDbArc
 50
321.8427734125692
 51
0.0
  0
LINE
  5
2DF85
330
17
100
AcDbEntity
  8
0
100
AcDbLine
 10
1326.313657799413
 20
2561.254853600946
 30
0.0
 11
1326.313657799413
 21
2542.714853600946
 31
0.0
  0
ARC
  5
2DF86
330
17
100
AcDbEntity
  8
0
100
AcDbCircle
 10
1369.69725779941
 20
2565.333653600946
 30
0.0
 40
1.112399999999998
100
AcDbArc
 50
0.0
 51
90.0
  0
ARC
  5
2DF87
330
17
100
AcDbEntity
  8
0
100
AcDbCircle
 10
1369.69725779941
 20
2557.176053600945
 30
0.0
 40
1.112399999999998
100
AcDbArc
 50
270.0
 51
0.0
  0
LINE
  5
2DF88
330
17
100
AcDbEntity
  8
0
100
AcDbLine
 10
1373.034457799412
 20
2551.984853600946
 30
0.0
 11
1363.764457799411
 21
2551.984853600946
 31
0.0
  0
LINE
  5
2DF89
330
17
100
AcDbEntity
  8
0
100
AcDbLine
 10
1373.034457799412
 20
2570.524853600945
 30
0.0
 11
1363.764457799411
 21
2570.524853600945
 31
0.0
  0
ARC
  5
2DF8A
330
17
100
AcDbEntity
  8
0
100
AcDbCircle
 10
1358.20245779941
 20
2568.670853600946
 30
0.0
 40
1.853999999999998
100
AcDbArc
 50
0.0
 51
90.0
  0
LINE
  5
2DF8B
330
17
100
AcDbEntity
  8
0
100
AcDbLine
 10
1352.269657799411
 20
2566.446053600946
 30
0.0
 11
1354.865257799412
 21
2566.446053600946
 31
0.0
  0
ARC
  5
2DF8C
330
17
100
AcDbEntity
  8
0
100
AcDbCircle
 10
1352.269657799411
 20
2565.333653600946
 30
0.0
 40
1.112399999999998
100
AcDbArc
 50
90.0
 51
180.0
  0
ARC
  5
2DF8D
330
17
100
AcDbEntity
  8
0
100
AcDbCircle
 10
1354.865257799412
 20
2565.333653600946
 30
0.0
 40
1.112399999999998
100
AcDbArc
 50
0.0
 51
90.0
  0
LINE
  5
2DF8E
330
17
100
AcDbEntity
  8
0
100
AcDbLine
 10
1355.97765779941
 20
2551.984853600946
 30
0.0
 11
1360.056457799413
 21
2551.984853600946
 31
0.0
  0
LINE
  5
2DF8F
330
17
100
AcDbEntity
  8
0
100
AcDbLine
 10
1351.157257799413
 20
2551.984853600946
 30
0.0
 11
1351.157257799413
 21
2565.333653600946
 31
0.0
  0
LINE
  5
2DF90
330
17
100
AcDbEntity
  8
0
100
AcDbLine
 10
1360.056457799413
 20
2551.984853600946
 30
0.0
 11
1360.056457799413
 21
2568.670853600946
 31
0.0
  0
LINE
  5
2DF91
330
17
100
AcDbEntity
  8
0
100
AcDbLine
 10
1355.97765779941
 20
2551.984853600946
 30
0.0
 11
1355.97765779941
 21
2565.333653600946
 31
0.0
  0
LINE
  5
2DF92
330
17
100
AcDbEntity
  8
0
100
AcDbLine
 10
1348.932457799413
 20
2570.524853600945
 30
0.0
 11
1358.20245779941
 21
2570.524853600945
 31
0.0
  0
LINE
  5
2DF93
330
17
100
AcDbEntity
  8
0
100
AcDbLine
 10
1341.145657799411
 20
2570.524853600945
 30
0.0
 11
1341.145657799411
 21
2557.176053600945
 31
0.0
  0
LINE
  5
2DF94
330
17
100
AcDbEntity
  8
0
100
AcDbLine
 10
1336.325257799411
 20
2570.524853600945
 30
0.0
 11
1336.325257799411
 21
2557.176053600945
 31
0.0
  0
LINE
  5
2DF95
330
17
100
AcDbEntity
  8
0
100
AcDbLine
 10
1345.224457799411
 20
2570.524853600945
 30
0.0
 11
1345.224457799411
 21
2553.838853600945
 31
0.0
  0
ARC
  5
2DF96
330
17
100
AcDbEntity
  8
0
100
AcDbCircle
 10
1340.033257799413
 20
2557.176053600945
 30
0.0
 40
1.112399999999998
100
AcDbArc
 50
270.0
 51
0.0
  0
ARC
  5
2DF97
330
17
100
AcDbEntity
  8
0
100
AcDbCircle
 10
1343.370457799411
 20
2553.838853600945
 30
0.0
 40
1.853999999999998
100
AcDbArc
 50
270.0
 51
0.0
  0
ARC
  5
2DF98
330
17
100
AcDbEntity
  8
0
100
AcDbCircle
 10
1337.437657799412
 20
2557.176053600945
 30
0.0
 40
1.112399999999998
100
AcDbArc
 50
180.0
 51
270.0
  0
LINE
  5
2DF99
330
17
100
AcDbEntity
  8
0
100
AcDbLine
 10
1337.437657799412
 20
2556.063653600945
 30
0.0
 11
1340.033257799413
 21
2556.063653600945
 31
0.0
  0
LINE
  5
2DF9A
330
17
100
AcDbEntity
  8
0
100
AcDbLine
 10
1347.07845779941
 20
2551.984853600946
 30
0.0
 11
1347.07845779941
 21
2568.670853600946
 31
0.0
  0
LINE
  5
2DF9B
330
17
100
AcDbEntity
  8
0
100
AcDbLine
 10
1341.145657799411
 20
2570.524853600945
 30
0.0
 11
1345.224457799411
 21
2570.524853600945
 31
0.0
  0
ARC
  5
2DF9C
330
17
100
AcDbEntity
  8
0
100
AcDbCircle
 10
1348.932457799413
 20
2568.670853600946
 30
0.0
 40
1.853999999999998
100
AcDbArc
 50
90.0
 51
180.0
  0
LINE
  5
2DF9D
330
17
100
AcDbEntity
  8
0
100
AcDbLine
 10
1347.07845779941
 20
2551.984853600946
 30
0.0
 11
1351.157257799413
 21
2551.984853600946
 31
0.0
  0
ARC
  5
2DF9E
330
17
100
AcDbEntity
  8
0
100
AcDbCircle
 10
1363.764457799411
 20
2568.670853600946
 30
0.0
 40
1.853999999999998
100
AcDbArc
 50
90.0
 51
180.0
  0
ARC
  5
2DF9F
330
17
100
AcDbEntity
  8
0
100
AcDbCircle
 10
1363.764457799411
 20
2553.838853600945
 30
0.0
 40
1.853999999999998
100
AcDbArc
 50
180.0
 51
270.0
  0
LINE
  5
2DFA0
330
17
100
AcDbEntity
  8
0
100
AcDbLine
 10
1361.910457799412
 20
2553.838853600945
 30
0.0
 11
1361.910457799412
 21
2568.670853600946
 31
0.0
  0
ARC
  5
2DFA1
330
17
100
AcDbEntity
  8
0
100
AcDbCircle
 10
1367.101657799409
 20
2565.333653600946
 30
0.0
 40
1.112399999999998
100
AcDbArc
 50
90.0
 51
180.0
  0
LINE
  5
2DFA2
330
17
100
AcDbEntity
  8
0
100
AcDbLine
 10
1369.69725779941
 20
2566.446053600946
 30
0.0
 11
1367.101657799409
 21
2566.446053600946
 31
0.0
  0
ARC
  5
2DFA3
330
17
100
AcDbEntity
  8
0
100
AcDbCircle
 10
1367.101657799409
 20
2557.176053600945
 30
0.0
 40
1.112399999999998
100
AcDbArc
 50
180.0
 51
270.0
  0
LINE
  5
2DFA4
330
17
100
AcDbEntity
  8
0
100
AcDbLine
 10
1369.69725779941
 20
2556.063653600945
 30
0.0
 11
1367.101657799413
 21
2556.063653600945
 31
0.0
  0
LINE
  5
2DFA5
330
17
100
AcDbEntity
  8
0
100
AcDbLine
 10
1370.809657799412
 20
2557.176053600945
 30
0.0
 11
1370.809657799412
 21
2565.333653600946
 31
0.0
  0
LINE
  5
2DFA6
330
17
100
AcDbEntity
  8
0
100
AcDbLine
 10
1365.989257799411
 20
2557.176053600945
 30
0.0
 11
1365.989257799411
 21
2565.333653600946
 31
0.0
  0
LINE
  5
2DFA7
330
17
100
AcDbEntity
  8
0
100
AcDbLine
 10
1403.069257799413
 20
2551.984853600946
 30
0.0
 11
1393.799257799413
 21
2551.984853600946
 31
0.0
  0
LINE
  5
2DFA8
330
17
100
AcDbEntity
  8
0
100
AcDbLine
 10
1403.069257799413
 20
2570.524853600945
 30
0.0
 11
1391.94525779941
 21
2570.524853600945
 31
0.0
  0
LINE
  5
2DFA9
330
17
100
AcDbEntity
  8
0
100
AcDbLine
 10
1390.462057799411
 20
2570.524853600945
 30
0.0
 11
1386.012457799411
 21
2563.108853600946
 31
0.0
  0
LINE
  5
2DFAA
330
17
100
AcDbEntity
  8
0
100
AcDbLine
 10
1391.94525779941
 20
2570.524853600945
 30
0.0
 11
1391.94525779941
 21
2566.446053600946
 31
0.0
  0
LINE
  5
2DFAB
330
17
100
AcDbEntity
  8
0
100
AcDbLine
 10
1393.799257799413
 20
2563.108853600946
 30
0.0
 11
1400.844457799413
 21
2563.108853600946
 31
0.0
  0
LINE
  5
2DFAC
330
17
100
AcDbEntity
  8
0
100
AcDbLine
 10
1400.844457799413
 20
2566.446053600946
 30
0.0
 11
1391.94525779941
 21
2566.446053600946
 31
0.0
  0
LINE
  5
2DFAD
330
17
100
AcDbEntity
  8
0
100
AcDbLine
 10
1386.012457799411
 20
2563.108853600946
 30
0.0
 11
1388.237257799411
 21
2563.108853600946
 31
0.0
  0
ARC
  5
2DFAE
330
17
100
AcDbEntity
  8
0
100
AcDbCircle
 10
1388.237257799411
 20
2561.254853600946
 30
0.0
 40
1.853999999999998
100
AcDbArc
 50
0.0
 51
90.0
  0
ARC
  5
2DFAF
330
17
100
AcDbEntity
  8
0
100
AcDbCircle
 10
1393.799257799413
 20
2561.254853600946
 30
0.0
 40
1.853999999999998
100
AcDbArc
 50
90.0
 51
180.0
  0
LINE
  5
2DFB0
330
17
100
AcDbEntity
  8
0
100
AcDbLine
 10
1400.844457799413
 20
2566.446053600946
 30
0.0
 11
1400.844457799413
 21
2563.108853600946
 31
0.0
  0
LINE
  5
2DFB1
330
17
100
AcDbEntity
  8
0
100
AcDbLine
 10
1397.136457799411
 20
2559.030053600948
 30
0.0
 11
1400.844457799413
 21
2559.030053600948
 31
0.0
  0
LINE
  5
2DFB2
330
17
100
AcDbEntity
  8
0
100
AcDbLine
 10
1390.09125779941
 20
2551.984853600946
 30
0.0
 11
1386.012457799411
 21
2551.984853600946
 31
0.0
  0
LINE
  5
2DFB3
330
17
100
AcDbEntity
  8
0
100
AcDbLine
 10
1386.012457799411
 20
2557.917653600946
 30
0.0
 11
1386.012457799411
 21
2551.984853600946
 31
0.0
  0
ARC
  5
2DFB4
330
17
100
AcDbEntity
  8
0
100
AcDbCircle
 10
1393.799257799413
 20
2553.838853600945
 30
0.0
 40
1.853999999999998
100
AcDbArc
 50
180.0
 51
270.0
  0
LINE
  5
2DFB5
330
17
100
AcDbEntity
  8
0
100
AcDbLine
 10
1396.024057799412
 20
2557.917653600946
 30
0.0
 11
1396.024057799412
 21
2557.176053600945
 31
0.0
  0
ARC
  5
2DFB6
330
17
100
AcDbEntity
  8
0
100
AcDbCircle
 10
1397.136457799411
 20
2557.176053600945
 30
0.0
 40
1.112399999999998
100
AcDbArc
 50
180.0
 51
270.0
  0
LINE
  5
2DFB7
330
17
100
AcDbEntity
  8
0
100
AcDbLine
 10
1400.844457799413
 20
2556.063653600945
 30
0.0
 11
1397.136457799411
 21
2556.063653600945
 31
0.0
  0
LINE
  5
2DFB8
330
17
100
AcDbEntity
  8
0
100
AcDbLine
 10
1390.09125779941
 20
2561.254853600946
 30
0.0
 11
1390.09125779941
 21
2551.984853600946
 31
0.0
  0
LINE
  5
2DFB9
330
17
100
AcDbEntity
  8
0
100
AcDbLine
 10
1391.94525779941
 20
2561.254853600946
 30
0.0
 11
1391.94525779941
 21
2553.838853600945
 31
0.0
  0
LINE
  5
2DFBA
330
17
100
AcDbEntity
  8
0
100
AcDbLine
 10
1400.844457799413
 20
2559.030053600948
 30
0.0
 11
1400.844457799413
 21
2556.063653600945
 31
0.0
  0
ARC
  5
2DFBB
330
17
100
AcDbEntity
  8
0
100
AcDbCircle
 10
1397.136457799411
 20
2557.917653600946
 30
0.0
 40
1.112399999999998
100
AcDbArc
 50
90.0
 51
180.0
  0
ARC
  5
2DFBC
330
17
100
AcDbEntity
  8
0
100
AcDbCircle
 10
1403.069257799413
 20
2568.670853600946
 30
0.0
 40
1.853999999999998
100
AcDbArc
 50
0.0
 51
90.0
  0
ARC
  5
2DFBD
330
17
100
AcDbEntity
  8
0
100
AcDbCircle
 10
1403.069257799413
 20
2553.838853600945
 30
0.0
 40
1.853999999999998
100
AcDbArc
 50
270.0
 51
0.0
  0
LINE
  5
2DFBE
330
17
100
AcDbEntity
  8
0
100
AcDbLine
 10
1404.923257799412
 20
2568.670853600946
 30
0.0
 11
1404.923257799412
 21
2553.838853600945
 31
0.0
  0
LINE
  5
2DFBF
330
17
100
AcDbEntity
  8
0
100
AcDbLine
 10
1385.27085779941
 20
2570.524853600945
 30
0.0
 11
1380.82125779941
 21
2563.108853600946
 31
0.0
  0
ARC
  5
2DFC0
330
17
100
AcDbEntity
  8
0
100
AcDbCircle
 10
1373.034457799412
 20
2568.670853600946
 30
0.0
 40
1.853999999999998
100
AcDbArc
 50
0.0
 51
90.0
  0
LINE
  5
2DFC1
330
17
100
AcDbEntity
  8
0
100
AcDbLine
 10
1380.82125779941
 20
2559.030053600944
 30
0.0
 11
1384.900057799413
 21
2559.030053600948
 31
0.0
  0
LINE
  5
2DFC2
330
17
100
AcDbEntity
  8
0
100
AcDbLine
 10
1380.82125779941
 20
2551.984853600946
 30
0.0
 11
1376.74245779941
 21
2551.984853600946
 31
0.0
  0
ARC
  5
2DFC3
330
17
100
AcDbEntity
  8
0
100
AcDbCircle
 10
1373.034457799412
 20
2553.838853600945
 30
0.0
 40
1.853999999999998
100
AcDbArc
 50
270.0
 51
0.0
  0
LINE
  5
2DFC4
330
17
100
AcDbEntity
  8
0
100
AcDbLine
 10
1374.888457799411
 20
2553.838853600945
 30
0.0
 11
1374.888457799411
 21
2568.670853600946
 31
0.0
  0
LINE
  5
2DFC5
330
17
100
AcDbEntity
  8
0
100
AcDbLine
 10
1380.82125779941
 20
2551.984853600946
 30
0.0
 11
1380.82125779941
 21
2559.030053600944
 31
0.0
  0
ARC
  5
2DFC6
330
17
100
AcDbEntity
  8
0
100
AcDbCircle
 10
1384.900057799413
 20
2557.917653600946
 30
0.0
 40
1.112399999999998
100
AcDbArc
 50
0.0
 51
90.0
  0
LINE
  5
2DFC7
330
17
100
AcDbEntity
  8
0
100
AcDbLine
 10
1390.462057799411
 20
2570.524853600945
 30
0.0
 11
1385.27085779941
 21
2570.524853600945
 31
0.0
  0
LINE
  5
2DFC8
330
17
100
AcDbEntity
  8
0
100
AcDbLine
 10
811.7752470013375
 20
2646.504853600945
 30
0.0
 11
1446.575247001337
 21
2646.504853600945
 31
0.0
  0
LINE
  5
2DFC9
330
17
100
AcDbEntity
  8
0
100
AcDbLine
 10
808.175247001337
 20
2621.504853600944
 30
0.0
 11
1450.175247001337
 21
2621.504853601017
 31
0.0
  0
LINE
  5
2DFCA
330
17
100
AcDbEntity
  8
0
100
AcDbLine
 10
856.1752470013388
 20
2656.504853600945
 30
0.0
 11
1402.175247001337
 21
2656.504853600945
 31
0.0
  0
LINE
  5
2DFCB
330
17
100
AcDbEntity
  8
0
100
AcDbLine
 10
940.6752470013115
 20
2610.004853600954
 30
0.0
 11
1071.675247001312
 21
2610.004853600954
 31
0.0
  0
LINE
  5
2DFCC
330
17
100
AcDbEntity
  8
0
100
AcDbLine
 10
1072.336000606418
 20
2600.004853600954
 30
0.0
 11
940.0144933962028
 21
2600.004853600954
 31
0.0
  0
LINE
  5
2DFCD
330
17
100
AcDbEntity
  8
0
100
AcDbLine
 10
832.5498321035238
 20
2646.838298558038
 30
0.0
 11
850.5257448787169
 21
2656.104719652433
 31
0.0
  0
ARC
  5
2DFCE
330
17
100
AcDbEntity
  8
0
100
AcDbCircle
 10
811.7752470013375
 20
2642.904853600944
 30
0.0
 40
3.6
100
AcDbArc
 50
90.0
 51
180.0
  0
LINE
  5
2DFCF
330
17
100
AcDbEntity
  8
0
100
AcDbLine
 10
808.175247001337
 20
2641.004853600945
 30
0.0
 11
808.175247001337
 21
2629.183409737859
 31
0.0
  0
LINE
  5
2DFD0
330
17
100
AcDbEntity
  8
0
100
AcDbLine
 10
808.175247001337
 20
2642.904853600944
 30
0.0
 11
808.175247001337
 21
2621.504853600944
 31
0.0
  0
ARC
  5
2DFD1
330
17
100
AcDbEntity
  8
0
100
AcDbCircle
 10
831.1752470013388
 20
2649.504853600944
 30
0.0
 40
3.0
100
AcDbArc
 50
270.0
 51
297.2706975450829
  0
ARC
  5
2DFD2
330
17
100
AcDbEntity
  8
0
100
AcDbCircle
 10
852.1752470013389
 20
2652.904853600944
 30
0.0
 40
3.6
100
AcDbArc
 50
90.0
 51
117.2706975450828
  0
LINE
  5
2DFD3
330
17
100
AcDbEntity
  8
0
100
AcDbLine
 10
852.1752470013389
 20
2656.504853600945
 30
0.0
 11
856.1752470013388
 21
2656.504853600945
 31
0.0
  0
ARC
  5
2DFD4
330
17
100
AcDbEntity
  8
0
100
AcDbCircle
 10
940.0144933962028
 20
2597.164853600954
 30
0.0
 40
2.839246394892143
100
AcDbArc
 50
90.0
 51
180.0
  0
ARC
  5
2DFD5
330
17
100
AcDbEntity
  8
0
100
AcDbCircle
 10
940.6752470013115
 20
2598.004853600954
 30
0.0
 40
12.0
100
AcDbArc
 50
90.0
 51
180.0
  0
ARC
  5
2DFD6
330
17
100
AcDbEntity
  8
0
100
AcDbCircle
 10
1072.336000606418
 20
2597.164853600954
 30
0.0
 40
2.839246394892143
100
AcDbArc
 50
0.0
 51
90.0
  0
ARC
  5
2DFD7
330
17
100
AcDbEntity
  8
0
100
AcDbCircle
 10
1071.675247001312
 20
2598.004853600954
 30
0.0
 40
12.0
100
AcDbArc
 50
0.0
 51
90.0
  0
LINE
  5
2DFD8
330
17
100
AcDbEntity
  8
0
100
AcDbLine
 10
1406.175247001337
 20
2656.504853600945
 30
0.0
 11
1402.175247001337
 21
2656.504853600945
 31
0.0
  0
LINE
  5
2DFD9
330
17
100
AcDbEntity
  8
0
100
AcDbLine
 10
1317.414457799413
 20
2583.502853600946
 30
0.0
 11
1321.493257799412
 21
2583.502853600946
 31
0.0
  0
LINE
  5
2DFDA
330
17
100
AcDbEntity
  8
0
100
AcDbLine
 10
1326.313657799413
 20
2583.502853600946
 30
0.0
 11
1330.392457799412
 21
2583.502853600946
 31
0.0
  0
LINE
  5
2DFDB
330
17
100
AcDbEntity
  8
0
100
AcDbLine
 10
1376.74245779941
 20
2583.502853600946
 30
0.0
 11
1380.82125779941
 21
2583.502853600946
 31
0.0
  0
ARC
  5
2DFDC
330
17
100
AcDbEntity
  8
0
100
AcDbCircle
 10
1427.175247001337
 20
2649.504853600944
 30
0.0
 40
3.0
100
AcDbArc
 50
242.7293024549171
 51
270.0
  0
ARC
  5
2DFDD
330
17
100
AcDbEntity
  8
0
100
AcDbCircle
 10
1406.175247001337
 20
2652.904853600944
 30
0.0
 40
3.6
100
AcDbArc
 50
62.72930245491716
 51
90.0
  0
LINE
  5
2DFDE
330
17
100
AcDbEntity
  8
0
100
AcDbLine
 10
1425.800661899152
 20
2646.838298558038
 30
0.0
 11
1407.824749123959
 21
2656.104719652433
 31
0.0
  0
ARC
  5
2DFDF
330
17
100
AcDbEntity
  8
0
100
AcDbCircle
 10
1446.575247001337
 20
2642.904853600944
 30
0.0
 40
3.6
100
AcDbArc
 50
0.0
 51
90.0
  0
LINE
  5
2DFE0
330
17
100
AcDbEntity
  8
0
100
AcDbLine
 10
1450.175247001337
 20
2642.904853600944
 30
0.0
 11
1450.175247001337
 21
2621.504853601017
 31
0.0
  0
TEXT
  5
2DFE1
330
17
100
AcDbEntity
  8
DIM
100
AcDbText
 10
2158.93014719157
 20
480.2451514491498
 30
0.0
 40
51.2
  1
GL
 41
0.8
100
AcDbText
  0
HATCH
  5
2DFE3
330
17
100
AcDbEntity
  8
0
100
AcDbHatch
 10
0.0
 20
0.0
 30
0.0
210
0.0
220
0.0
230
1.0
  2
SOLID
 70
     1
 71
     0
 91
        8
 92
        7
 72
     1
 73
     1
 93
       14
 10
1330.392457799412
 20
2583.502853600946
 42
0.0
 10
1326.313657799413
 20
2583.502853600946
 42
0.0
 10
1326.313657799413
 20
2565.333653600946
 42
0.0
 10
1322.60565779941
 20
2565.333653600946
 42
-0.4142135623726161
 10
1321.493257799412
 20
2566.446053600946
 42
0.0
 10
1321.493257799412
 20
2583.502853600946
 42
0.0
 10
1317.414457799413
 20
2583.502853600946
 42
0.0
 10
1317.414457799413
 20
2563.108853600946
 42
0.4142135623730232
 10
1319.268457799413
 20
2561.254853600946
 42
0.0
 10
1326.313657799413
 20
2561.254853600946
 42
0.0
 10
1326.313657799413
 20
2542.714853600946
 42
0.0
 10
1327.223131400833
 20
2543.872365457302
 42
0.168047931855629
 10
1330.392457799412
 20
2553.035894715544
 42
0.0
 10
1330.392457799412
 20
2553.097253600946
 42
0.0
 97
        0
 92
        7
 72
     1
 73
     1
 93
       12
 10
1336.325257799411
 20
2570.524853600945
 42
0.0
 10
1332.246457799411
 20
2570.524853600945
 42
0.0
 10
1332.246457799411
 20
2553.838853600945
 42
0.4142135623730232
 10
1334.100457799411
 20
2551.984853600946
 42
0.0
 10
1343.370457799411
 20
2551.984853600946
 42
0.4142135623729873
 10
1345.224457799411
 20
2553.838853600946
 42
0.0
 10
1345.224457799411
 20
2570.524853600945
 42
0.0
 10
1341.145657799411
 20
2570.524853600945
 42
0.0
 10
1341.145657799411
 20
2557.176053600945
 42
-0.4142135623730951
 10
1340.033257799411
 20
2556.063653600945
 42
0.0
 10
1337.437657799412
 20
2556.063653600945
 42
-0.414213562373574
 10
1336.325257799411
 20
2557.176053600945
 42
0.0
 97
        0
 92
        7
 72
     1
 73
     1
 93
       12
 10
1360.056457799413
 20
2568.670853600946
 42
0.4142135623730232
 10
1358.202457799412
 20
2570.524853600945
 42
0.0
 10
1348.932457799413
 20
2570.524853600945
 42
0.4142135623735621
 10
1347.07845779941
 20
2568.670853600946
 42
0.0
 10
1347.07845779941
 20
2551.984853600946
 42
0.0
 10
1351.157257799413
 20
2551.984853600946
 42
0.0
 10
1351.157257799413
 20
2565.333653600946
 42
-0.4142135623730951
 10
1352.269657799413
 20
2566.446053600946
 42
0.0
 10
1354.865257799412
 20
2566.446053600946
 42
-0.4142135623726161
 10
1355.97765779941
 20
2565.333653600946
 42
0.0
 10
1355.97765779941
 20
2551.984853600946
 42
0.0
 10
1360.056457799413
 20
2551.984853600946
 42
0.0
 97
        0
 92
        7
 72
     1
 73
     1
 93
        8
 10
1374.888457799411
 20
2568.670853600946
 42
0.4142135623730232
 10
1373.034457799411
 20
2570.524853600945
 42
0.0
 10
1363.764457799411
 20
2570.524853600945
 42
0.4142135623729873
 10
1361.910457799412
 20
2568.670853600946
 42
0.0
 10
1361.910457799412
 20
2553.838853600945
 42
0.4142135623730232
 10
1363.764457799412
 20
2551.984853600946
 42
0.0
 10
1373.034457799412
 20
2551.984853600946
 42
0.4142135623729873
 10
1374.888457799411
 20
2553.838853600946
 42
0.0
 97
        0
 92
       22
 72
     1
 73
     1
 93
        8
 10
1367.101657799409
 20
2566.446053600946
 42
0.0
 10
1369.69725779941
 20
2566.446053600946
 42
-0.414213562373574
 10
1370.809657799412
 20
2565.333653600946
 42
0.0
 10
1370.809657799412
 20
2557.176053600945
 42
-0.4142135623730951
 10
1369.697257799412
 20
2556.063653600945
 42
0.0
 10
1367.101657799409
 20
2556.063653600945
 42
-0.4142135623726161
 10
1365.989257799411
 20
2557.176053600945
 42
0.0
 10
1365.989257799411
 20
2565.333653600946
 42
-0.4142135623726161
 97
        0
 92
        7
 72
     1
 73
     1
 93
       15
 10
1380.82125779941
 20
2583.502853600946
 42
0.0
 10
1376.74245779941
 20
2583.502853600946
 42
0.0
 10
1376.74245779941
 20
2551.984853600946
 42
0.0
 10
1380.82125779941
 20
2551.984853600946
 42
0.0
 10
1380.82125779941
 20
2559.030053600944
 42
0.0
 10
1384.900057799412
 20
2559.030053600948
 42
-0.414213562372736
 10
1386.012457799411
 20
2557.917653600946
 42
0.0
 10
1386.012457799411
 20
2551.984853600946
 42
0.0
 10
1390.09125779941
 20
2551.984853600946
 42
0.0
 10
1390.09125779941
 20
2561.254853600946
 42
0.4142135623730232
 10
1388.23725779941
 20
2563.108853600946
 42
0.0
 10
1386.012457799411
 20
2563.108853600946
 42
0.0
 10
1390.462057799411
 20
2570.524853600945
 42
0.0
 10
1385.27085779941
 20
2570.524853600945
 42
0.0
 10
1380.82125779941
 20
2563.108853600946
 42
0.0
 97
        0
 92
        7
 72
     1
 73
     1
 93
       12
 10
1404.923257799412
 20
2568.670853600946
 42
0.4142135623730232
 10
1403.069257799412
 20
2570.524853600945
 42
0.0
 10
1391.94525779941
 20
2570.524853600945
 42
0.0
 10
1391.94525779941
 20
2566.446053600946
 42
0.0
 10
1400.844457799413
 20
2566.446053600946
 42
0.0
 10
1400.844457799413
 20
2563.108853600946
 42
0.0
 10
1393.799257799413
 20
2563.108853600946
 42
0.4142135623735621
 10
1391.94525779941
 20
2561.254853600946
 42
0.0
 10
1391.94525779941
 20
2553.838853600945
 42
0.4142135623730232
 10
1393.79925779941
 20
2551.984853600946
 42
0.0
 10
1403.069257799413
 20
2551.984853600946
 42
0.4142135623729873
 10
1404.923257799412
 20
2553.838853600946
 42
0.0
 97
        0
 92
       22
 72
     1
 73
     1
 93
        6
 10
1400.844457799413
 20
2559.030053600948
 42
0.0
 10
1400.844457799413
 20
2556.063653600945
 42
0.0
 10
1397.136457799411
 20
2556.063653600945
 42
-0.4142135623726161
 10
1396.024057799412
 20
2557.176053600945
 42
0.0
 10
1396.024057799412
 20
2557.917653600946
 42
-0.4142135623730951
 10
1397.136457799412
 20
2559.030053600948
 42
0.0
 97
        0
 75
     0
 76
     1
 47
0.1735308709791136
 98
        8
 10
1327.968221341512
 20
2568.120330958536
 10
1334.737073988967
 20
2567.252689767584
 10
1349.142601728718
 20
2567.599757621373
 10
1363.548129468469
 20
2568.467398812325
 10
1363.548129468469
 20
2568.467398812325
 10
1379.168608631
 20
2570.896845345328
 10
1398.260280119512
 20
2567.773291548268
 10
1398.260280119512
 20
2567.773291548268
450
        0
451
        0
460
0.0
461
0.0
452
        0
462
0.0
453
        0
470

  0
LEADER
  5
2DFE4
330
17
100
AcDbEntity
  8
DIM
100
AcDbLeader
  3
STANDARD
 73
     0
 75
     1
 40
42.50000000000002
 41
376.2666666666668
 76
     3
 10
1253.821637405898
 20
2297.992820099963
 30
0.0
 10
681.5506961435926
 20
2576.14863902754
 30
0.0
 10
647.5506961435926
 20
2576.14863902754
 30
0.0
340
2DFE5
1001
ACAD
1000
DSTYLE
1002
{
1070
    41
1040
2.0
1070
   147
1040
1.0
1070
    77
1070
     1
1070
    43
1040
10.0
1070
    73
1070
     0
1070
    74
1070
     0
1070
   172
1070
     1
1070
   179
1070
     1
1070
   271
1070
     1
1070
   272
1070
     1
1070
   341
1005
4A
1070
   342
1005
0
1002
}
  0
MTEXT
  5
2DFE5
102
{ACAD_REACTORS
330
2DFE4
102
}
330
17
100
AcDbEntity
  8
DIM
100
AcDbMText
 10
630.5506961435926
 20
2593.14863902754
 30
0.0
 40
42.5
 41
539.5
 46
0.0
 71
     9
 72
     1
  1
給湯配管口　R3／4
 73
     1
 44
1.0
  0
LINE
  5
2DFE6
330
17
100
AcDbEntity
  8
0
100
AcDbLine
 10
1050.392143723058
 20
1388.0777400673
 30
0.0
 11
1035.619400706624
 21
1378.657948000328
 31
0.0
  0
LINE
  5
2DFE7
330
17
100
AcDbEntity
  8
0
100
AcDbLine
 10
1050.392143723058
 20
1395.53196713459
 30
0.0
 11
1035.619400706624
 21
1404.951759201562
 31
0.0
  0
LINE
  5
2DFE8
330
17
100
AcDbEntity
  8
0
100
AcDbLine
 10
1041.160609312681
 20
1376.304853600945
 30
0.0
 11
1058.705593201379
 21
1376.304853600945
 31
0.0
  0
LINE
  5
2DFE9
330
17
100
AcDbEntity
  8
0
100
AcDbLine
 10
1040.580970111246
 20
1350.66776087829
 30
0.0
 11
1054.197669523933
 21
1359.171703774866
 31
0.0
  0
LINE
  5
2DFEA
330
17
100
AcDbEntity
  8
0
100
AcDbLine
 10
1040.580970111246
 20
1374.941946323599
 30
0.0
 11
1054.197669523933
 21
1366.438003427023
 31
0.0
  0
LINE
  5
2DFEB
330
17
100
AcDbEntity
  8
0
100
AcDbLine
 10
1075.840856491629
 20
1411.620373998957
 30
0.0
 11
1045.651745624086
 21
1411.620373998958
 31
0.0
  0
ARC
  5
2DFEC
330
17
100
AcDbEntity
  8
0
100
AcDbCircle
 10
1059.673657799397
 20
1361.612134689893
 30
0.0
 40
90.83333333333326
100
AcDbArc
 50
56.60151153200096
 51
123.398488467999
  0
ELLIPSE
  5
2DFED
330
17
100
AcDbEntity
  8
0
100
AcDbEllipse
 10
1036.09085649163
 20
1391.804853600945
 30
0.0
 11
0.0
 21
-8.800000000000409
 31
0.0
210
0.0
220
0.0
230
1.0
 40
0.7272727272726521
 41
0.0
 42
6.283185307179586
  0
ELLIPSE
  5
2DFEE
330
17
100
AcDbEntity
  8
0
100
AcDbEllipse
 10
1032.490856491629
 20
1391.804853600945
 30
0.0
 11
0.0
 21
-8.800000000000409
 31
0.0
210
0.0
220
0.0
230
1.0
 40
0.7272727272726521
 41
3.141592653589793
 42
6.283185307179586
  0
LINE
  5
2DFEF
330
17
100
AcDbEntity
  8
0
100
AcDbLine
 10
1014.5895692602
 20
1388.0777400673
 30
0.0
 11
1029.362312276635
 21
1378.657948000328
 31
0.0
  0
LINE
  5
2DFF0
330
17
100
AcDbEntity
  8
0
100
AcDbLine
 10
1011.439569260199
 20
1388.0777400673
 30
0.0
 11
1014.233039555325
 21
1386.296492718986
 31
0.0
  0
SPLINE
  5
2DFF1
330
17
100
AcDbEntity
  8
0
100
AcDbSpline
210
0.0
220
0.0
230
1.0
 70
     8
 71
     3
 72
    18
 73
    14
 74
     0
 42
0.0000000001
 43
0.0000000001
 40
0.6632107530124897
 40
0.6632107530124897
 40
0.6632107530124897
 40
0.6632107530124897
 40
0.8823300790087184
 40
0.8823300790087184
 40
1.217886221126945
 40
1.217886221126945
 40
1.553442363245171
 40
1.553442363245171
 40
1.888998505363399
 40
1.888998505363399
 40
2.224554647481626
 40
2.224554647481626
 40
2.47838629607988
 40
2.47838629607988
 40
2.47838629607988
 40
2.47838629607988
 10
985.0299673591743
 20
1404.568887422766
 30
0.0
 10
984.2342840456767
 20
1403.850735443405
 30
0.0
 10
983.5030294520413
 20
1403.029148496569
 30
0.0
 10
981.865211238046
 20
1400.730557236902
 30
0.0
 10
981.0728679382874
 20
1399.137916440844
 30
0.0
 10
979.9850033940101
 20
1395.727498941084
 30
0.0
 10
979.6898993705344
 20
1393.910695435855
 30
0.0
 10
979.6350990116216
 20
1390.264744716652
 30
0.0
 10
979.8754216839151
 20
1388.436623311193
 30
0.0
 10
980.8607537081496
 20
1384.982523948154
 30
0.0
 10
981.6053916155452
 20
1383.357531547005
 30
0.0
 10
983.2732288530895
 20
1380.84385981416
 30
0.0
 10
984.1082861663307
 20
1379.87264528111
 30
0.0
 10
985.0299673591743
 20
1379.040630439354
 30
0.0
  0
ELLIPSE
  5
2DFF2
330
17
100
AcDbEntity
  8
0
100
AcDbEllipse
 10
1021.84085649163
 20
1391.804853600945
 30
0.0
 11
0.0
 21
-31.0
 31
0.0
210
0.0
220
0.0
230
1.0
 40
0.8101527970886836
 41
3.693647737311383
 42
5.121950921263657
  0
ELLIPSE
  5
2DFF3
330
17
100
AcDbEntity
  8
0
100
AcDbEllipse
 10
1018.84085649163
 20
1391.804853600945
 30
0.0
 11
0.0
 21
-31.0
 31
0.0
210
0.0
220
0.0
230
1.0
 40
0.8101527970886836
 41
3.644396961410063
 42
5.131397777794829
  0
LINE
  5
2DFF4
330
17
100
AcDbEntity
  8
0
100
AcDbLine
 10
985.0299673591743
 20
1411.804853600945
 30
0.0
 11
985.0299673591743
 21
1371.804853600945
 31
0.0
  0
LINE
  5
2DFF5
330
17
100
AcDbEntity
  8
0
100
AcDbLine
 10
984.5299673591744
 20
1411.804853600945
 30
0.0
 11
984.5299673591744
 21
1371.804853600945
 31
0.0
  0
ELLIPSE
  5
2DFF6
330
17
100
AcDbEntity
  8
0
100
AcDbEllipse
 10
992.5442074918946
 20
1391.804853600945
 30
0.0
 11
-0.0000000000009747
 21
20.13425223725221
 31
0.0
210
0.0
220
0.0
230
1.0
 40
0.3111235549702221
 41
0.3455858681091553
 42
2.796006785480506
  0
ELLIPSE
  5
2DFF7
330
17
100
AcDbEntity
  8
0
100
AcDbEllipse
 10
1036.09085649163
 20
1374.264087865916
 30
0.0
 11
-5.0
 21
0.0
 31
0.0
210
0.0
220
0.0
230
1.0
 40
0.3081531470059417
 41
3.597134616666659
 42
5.827643344102718
  0
LINE
  5
2DFF8
330
17
100
AcDbEntity
  8
0
100
AcDbLine
 10
1035.34085649163
 20
1375.804853600945
 30
0.0
 11
1036.09085649163
 21
1375.804853600945
 31
0.0
  0
ELLIPSE
  5
2DFF9
330
17
100
AcDbEntity
  8
0
100
AcDbEllipse
 10
1035.34085649163
 20
1374.264087865916
 30
0.0
 11
-5.0
 21
0.0
 31
0.0
210
0.0
220
0.0
230
1.0
 40
0.3081531470059417
 41
4.712388980384688
 42
5.827643344102718
  0
LINE
  5
2DFFA
330
17
100
AcDbEntity
  8
0
100
AcDbLine
 10
1016.349548283729
 20
1376.304853600945
 30
0.0
 11
1005.226119781881
 21
1376.304853600945
 31
0.0
  0
LINE
  5
2DFFB
330
17
100
AcDbEntity
  8
0
100
AcDbLine
 10
1036.09085649163
 20
1383.004853600944
 30
0.0
 11
1032.490856491629
 21
1383.004853600944
 31
0.0
  0
ELLIPSE
  5
2DFFC
330
17
100
AcDbEntity
  8
0
100
AcDbEllipse
 10
1032.490856491629
 20
1381.178648738287
 30
0.0
 11
-4.706945021173851
 21
0.0
 31
0.0
210
0.0
220
0.0
230
-1.0
 40
0.7167696079230881
 41
3.985342887398486
 42
5.439435073370891
  0
LINE
  5
2DFFD
330
17
100
AcDbEntity
  8
0
100
AcDbLine
 10
1014.233039555325
 20
1384.836798277968
 30
0.0
 11
1014.233039555325
 21
1378.396448014578
 31
0.0
  0
LINE
  5
2DFFE
330
17
100
AcDbEntity
  8
0
100
AcDbLine
 10
1041.160609312679
 20
1382.191281844334
 30
0.0
 11
1041.16060931268
 21
1376.304853600945
 31
0.0
  0
ELLIPSE
  5
2DFFF
330
17
100
AcDbEntity
  8
0
100
AcDbEllipse
 10
1021.84085649163
 20
1391.804853600945
 30
0.0
 11
0.0
 21
-31.0
 31
0.0
210
0.0
220
0.0
230
1.0
 40
0.8101527970886836
 41
7.330382858376178
 42
7.65107792606039
  0
LINE
  5
2E000
330
17
100
AcDbEntity
  8
0
100
AcDbLine
 10
1045.651745624085
 20
1381.946266647781
 30
0.0
 11
1045.651745624086
 21
1376.304853600945
 31
0.0
  0
LINE
  5
2E001
330
17
100
AcDbEntity
  8
0
100
AcDbLine
 10
1003.722949732928
 20
1376.304853600945
 30
0.0
 11
993.7261197818816
 21
1376.304853600945
 31
0.0
  0
ELLIPSE
  5
2E002
330
17
100
AcDbEntity
  8
0
100
AcDbEllipse
 10
1039.69085649163
 20
1362.804853600945
 30
0.0
 11
0.0
 21
-2.015999999999507
 31
0.0
210
0.0
220
0.0
230
1.0
 40
0.8591521862943896
 41
0.0
 42
6.283185307179586
  0
LINE
  5
2E003
330
17
100
AcDbEntity
  8
0
100
AcDbLine
 10
1039.69085649163
 20
1360.788853600945
 30
0.0
 11
1036.09085649163
 21
1360.788853600945
 31
0.0
  0
LINE
  5
2E004
330
17
100
AcDbEntity
  8
0
100
AcDbLine
 10
1039.69085649163
 20
1364.820853600944
 30
0.0
 11
1036.09085649163
 21
1364.820853600944
 31
0.0
  0
ELLIPSE
  5
2E005
330
17
100
AcDbEntity
  8
0
100
AcDbEllipse
 10
1036.09085649163
 20
1362.804853600945
 30
0.0
 11
0.0
 21
-2.015999999999507
 31
0.0
210
0.0
220
0.0
230
1.0
 40
0.8591521862943896
 41
3.141592653589793
 42
6.283185307179586
  0
LINE
  5
2E006
330
17
100
AcDbEntity
  8
0
100
AcDbLine
 10
1031.600742872013
 20
1350.66776087829
 30
0.0
 11
1017.984043459326
 21
1359.171703774866
 31
0.0
  0
ELLIPSE
  5
2E007
330
17
100
AcDbEntity
  8
0
100
AcDbEllipse
 10
1018.60528490648
 20
1362.804853600945
 30
0.0
 11
0.0
 21
3.822219999999106
 31
0.0
210
0.0
220
0.0
230
1.0
 40
0.5232561181722843
 41
0.3158459890366398
 42
2.825746664553153
  0
ELLIPSE
  5
2E008
330
17
100
AcDbEntity
  8
0
100
AcDbEllipse
 10
1017.85528490648
 20
1362.804853600945
 30
0.0
 11
0.0
 21
3.822219999999106
 31
0.0
210
0.0
220
0.0
230
1.0
 40
0.5232561181722843
 41
0.3158459890366398
 42
2.825746664553153
  0
LINE
  5
2E009
330
17
100
AcDbEntity
  8
0
100
AcDbLine
 10
1030.850742872013
 20
1350.66776087829
 30
0.0
 11
1017.234043459326
 21
1359.171703774866
 31
0.0
  0
LINE
  5
2E00A
330
17
100
AcDbEntity
  8
0
100
AcDbLine
 10
1035.34085649163
 20
1349.804853600945
 30
0.0
 11
1036.09085649163
 21
1349.804853600945
 31
0.0
  0
ELLIPSE
  5
2E00B
330
17
100
AcDbEntity
  8
0
100
AcDbEllipse
 10
1036.09085649163
 20
1351.345619335974
 30
0.0
 11
-5.0
 21
0.0
 31
0.0
210
0.0
220
0.0
230
-1.0
 40
0.3081531470059417
 41
3.597134616666659
 42
5.827643344102718
  0
ELLIPSE
  5
2E00C
330
17
100
AcDbEntity
  8
0
100
AcDbEllipse
 10
1035.34085649163
 20
1351.345619335974
 30
0.0
 11
-5.0
 21
0.0
 31
0.0
210
0.0
220
0.0
230
-1.0
 40
0.3081531470059417
 41
4.712388980384688
 42
5.827643344102718
  0
LINE
  5
2E00D
330
17
100
AcDbEntity
  8
0
100
AcDbLine
 10
1013.17923649163
 20
1324.989543600944
 30
0.0
 11
1012.494166491629
 21
1344.607353600945
 31
0.0
  0
LINE
  5
2E00E
330
17
100
AcDbEntity
  8
0
100
AcDbLine
 10
1014.36514649163
 20
1324.304853600945
 30
0.0
 11
1013.771496491629
 21
1341.304853600945
 31
0.0
  0
LINE
  5
2E00F
330
17
100
AcDbEntity
  8
0
100
AcDbLine
 10
1013.77150649163
 20
1341.304853600945
 30
0.0
 11
1012.49417649163
 21
1344.607353600945
 31
0.0
  0
LINE
  5
2E010
330
17
100
AcDbEntity
  8
0
100
AcDbLine
 10
1013.09085649163
 20
1347.013353600945
 30
0.0
 11
1013.09085649163
 21
1345.804853600945
 31
0.0
  0
ARC
  5
2E011
330
17
100
AcDbEntity
  8
0
100
AcDbCircle
 10
1011.59085649163
 20
1345.804853600945
 30
0.0
 40
1.5
100
AcDbArc
 50
307.0287199999651
 51
0.0
  0
ARC
  5
2E012
330
17
100
AcDbEntity
  8
0
100
AcDbCircle
 10
1011.59085649163
 20
1345.804853600945
 30
0.0
 40
1.5
100
AcDbArc
 50
307.0287199999651
 51
0.0
  0
LINE
  5
2E013
330
17
100
AcDbEntity
  8
0
100
AcDbLine
 10
1014.36514649163
 20
1324.304853600945
 30
0.0
 11
1013.17923649163
 21
1324.989543600944
 31
0.0
  0
LINE
  5
2E014
330
17
100
AcDbEntity
  8
0
100
AcDbLine
 10
1012.494166491629
 20
1344.607353600945
 30
0.0
 11
1039.687536491629
 21
1344.607353600945
 31
0.0
  0
LINE
  5
2E015
330
17
100
AcDbEntity
  8
0
100
AcDbLine
 10
1012.60949649163
 20
1341.304853600945
 30
0.0
 11
1039.572220485566
 21
1341.304853600945
 31
0.0
  0
LINE
  5
2E016
330
17
100
AcDbEntity
  8
0
100
AcDbLine
 10
1014.36515649163
 20
1324.304853600945
 30
0.0
 11
1037.816566491629
 21
1324.304853600945
 31
0.0
  0
LINE
  5
2E017
330
17
100
AcDbEntity
  8
0
100
AcDbLine
 10
1039.00247649163
 20
1324.989543600944
 30
0.0
 11
1039.68754649163
 21
1344.607353600945
 31
0.0
  0
LINE
  5
2E018
330
17
100
AcDbEntity
  8
0
100
AcDbLine
 10
1037.816566491629
 20
1324.304853600945
 30
0.0
 11
1038.41022649163
 21
1341.304853600945
 31
0.0
  0
LINE
  5
2E019
330
17
100
AcDbEntity
  8
0
100
AcDbLine
 10
1038.410206491629
 20
1341.304853600945
 30
0.0
 11
1039.687536491629
 21
1344.607353600945
 31
0.0
  0
LINE
  5
2E01A
330
17
100
AcDbEntity
  8
0
100
AcDbLine
 10
1039.09085649163
 20
1347.013353600945
 30
0.0
 11
1039.09085649163
 21
1345.804853600945
 31
0.0
  0
ARC
  5
2E01B
330
17
100
AcDbEntity
  8
0
100
AcDbCircle
 10
1040.59085649163
 20
1345.804853600945
 30
0.0
 40
1.5
100
AcDbArc
 50
180.0
 51
232.9712800000349
  0
ARC
  5
2E01C
330
17
100
AcDbEntity
  8
0
100
AcDbCircle
 10
1040.59085649163
 20
1345.804853600945
 30
0.0
 40
1.5
100
AcDbArc
 50
180.0
 51
232.9712800000349
  0
LINE
  5
2E01D
330
17
100
AcDbEntity
  8
0
100
AcDbLine
 10
1037.816566491629
 20
1324.304853600945
 30
0.0
 11
1039.00247649163
 21
1324.989543600944
 31
0.0
  0
LINE
  5
2E01E
330
17
100
AcDbEntity
  8
0
100
AcDbLine
 10
1015.597159755883
 20
1369.304857863509
 30
0.0
 11
1005.226119781881
 21
1369.304857863509
 31
0.0
  0
ELLIPSE
  5
2E01F
330
17
100
AcDbEntity
  8
0
100
AcDbEllipse
 10
1013.891919198804
 20
1365.860830760369
 30
0.0
 11
-0.8679725078059576
 21
17.95922830681291
 31
0.0
210
0.0
220
0.0
230
-1.0
 40
0.7190469609725391
 41
3.270638671782761
 42
4.599233869711473
  0
LINE
  5
2E020
330
17
100
AcDbEntity
  8
0
100
AcDbLine
 10
1013.09085649163
 20
1345.804853600945
 30
0.0
 11
1013.09085649163
 21
1350.113367772342
 31
0.0
  0
LINE
  5
2E021
330
17
100
AcDbEntity
  8
0
100
AcDbLine
 10
1039.09085649163
 20
1345.804853600945
 30
0.0
 11
1039.09085649163
 21
1350.11300674795
 31
0.0
  0
ELLIPSE
  5
2E022
330
17
100
AcDbEntity
  8
0
100
AcDbEllipse
 10
998.020348415941
 20
1371.804853600945
 30
0.0
 11
0.0
 21
-15.0
 31
0.0
210
0.0
220
0.0
230
-1.0
 40
0.8660254037844424
 41
0.0
 42
1.570796326794895
  0
ELLIPSE
  5
2E023
330
17
100
AcDbEntity
  8
0
100
AcDbEllipse
 10
997.5203484159408
 20
1371.804853600945
 30
0.0
 11
0.0
 21
-15.0
 31
0.0
210
0.0
220
0.0
230
-1.0
 40
0.8660254037844424
 41
0.0
 42
1.570796326794895
  0
LINE
  5
2E024
330
17
100
AcDbEntity
  8
0
100
AcDbLine
 10
997.5203484159408
 20
1356.804853600945
 30
0.0
 11
998.020348415941
 21
1356.804853600945
 31
0.0
  0
ARC
  5
2E025
330
17
100
AcDbEntity
  8
0
100
AcDbCircle
 10
988.9089474151814
 20
1371.553310826415
 30
0.0
 40
2.0
100
AcDbArc
 50
306.6950794066177
 51
40.83193513725277
  0
ELLIPSE
  5
2E026
330
17
100
AcDbEntity
  8
0
100
AcDbEllipse
 10
991.1386469953175
 20
1365.818683600953
 30
0.0
 11
0.0
 21
-4.499999999999545
 31
0.0
210
0.0
220
0.0
230
-1.0
 40
0.5797065858110911
 41
0.0
 42
2.733788927252467
  0
LINE
  5
2E027
330
17
100
AcDbEntity
  8
0
100
AcDbLine
 10
1003.722949732927
 20
1369.304857863509
 30
0.0
 11
993.7261197818816
 21
1369.304857863509
 31
0.0
  0
LINE
  5
2E028
330
17
100
AcDbEntity
  8
0
100
AcDbLine
 10
991.1386469953175
 20
1361.318683600953
 30
0.0
 11
1001.481978382822
 21
1361.31868360095
 31
0.0
  0
LINE
  5
2E029
330
17
100
AcDbEntity
  8
0
100
AcDbLine
 10
1002.929886171227
 20
1356.804853600945
 30
0.0
 11
998.020348415941
 21
1356.804853600945
 31
0.0
  0
LINE
  5
2E02A
330
17
100
AcDbEntity
  8
0
100
AcDbLine
 10
1031.600742872013
 20
1374.941946323599
 30
0.0
 11
1017.984043459326
 21
1366.438003427023
 31
0.0
  0
LINE
  5
2E02B
330
17
100
AcDbEntity
  8
0
100
AcDbLine
 10
1030.850742872013
 20
1374.941946323599
 30
0.0
 11
1017.234043459326
 21
1366.438003427023
 31
0.0
  0
LINE
  5
2E02C
330
17
100
AcDbEntity
  8
0
100
AcDbLine
 10
1005.226119781881
 20
1376.304853600945
 30
0.0
 11
1005.226119781881
 21
1369.304857863509
 31
0.0
  0
LINE
  5
2E02D
330
17
100
AcDbEntity
  8
0
100
AcDbLine
 10
1008.47611978188
 20
1376.304853600945
 30
0.0
 11
1008.476119781881
 21
1369.304857863509
 31
0.0
  0
LINE
  5
2E02E
330
17
100
AcDbEntity
  8
0
100
AcDbLine
 10
996.7261197818816
 20
1376.304853600945
 30
0.0
 11
996.7261197818816
 21
1369.304857863509
 31
0.0
  0
LINE
  5
2E02F
330
17
100
AcDbEntity
  8
0
100
AcDbLine
 10
993.7261197818816
 20
1376.304853600945
 30
0.0
 11
993.7261197818816
 21
1369.304857863509
 31
0.0
  0
LINE
  5
2E030
330
17
100
AcDbEntity
  8
0
100
AcDbLine
 10
1011.09085649163
 20
1438.36111423708
 30
0.0
 11
1011.09085649163
 21
1436.804853600945
 31
0.0
  0
LINE
  5
2E031
330
17
100
AcDbEntity
  8
0
100
AcDbLine
 10
1012.614802387767
 20
1439.304853600945
 30
0.0
 11
1041.09085649163
 21
1439.304853600945
 31
0.0
  0
LINE
  5
2E032
330
17
100
AcDbEntity
  8
0
100
AcDbLine
 10
1011.799044573139
 20
1438.804853600945
 30
0.0
 11
1041.09085649163
 21
1438.804853600945
 31
0.0
  0
LINE
  5
2E033
330
17
100
AcDbEntity
  8
0
100
AcDbLine
 10
1012.614802387767
 20
1439.304853600945
 30
0.0
 11
1040.59085649163
 21
1439.304853600945
 31
0.0
  0
LINE
  5
2E034
330
17
100
AcDbEntity
  8
0
100
AcDbLine
 10
1041.09085649163
 20
1436.804853600945
 30
0.0
 11
1011.09085649163
 21
1436.804853600945
 31
0.0
  0
LINE
  5
2E035
330
17
100
AcDbEntity
  8
0
100
AcDbLine
 10
1040.59085649163
 20
1439.304853600945
 30
0.0
 11
1026.09085649163
 21
1439.304853600945
 31
0.0
  0
LINE
  5
2E036
330
17
100
AcDbEntity
  8
0
100
AcDbLine
 10
1040.59085649163
 20
1436.304853600945
 30
0.0
 11
1011.59085649163
 21
1436.304853600945
 31
0.0
  0
LINE
  5
2E037
330
17
100
AcDbEntity
  8
0
100
AcDbLine
 10
1038.59085649163
 20
1436.304853600945
 30
0.0
 11
1038.59085649163
 21
1429.304853600945
 31
0.0
  0
LINE
  5
2E038
330
17
100
AcDbEntity
  8
0
100
AcDbLine
 10
1041.09085649163
 20
1438.804853600945
 30
0.0
 11
1041.09085649163
 21
1436.804853600945
 31
0.0
  0
LINE
  5
2E039
330
17
100
AcDbEntity
  8
0
100
AcDbLine
 10
1040.59085649163
 20
1439.304853600945
 30
0.0
 11
1041.09085649163
 21
1438.804853600945
 31
0.0
  0
LINE
  5
2E03A
330
17
100
AcDbEntity
  8
0
100
AcDbLine
 10
1041.09085649163
 20
1436.804853600945
 30
0.0
 11
1040.59085649163
 21
1436.304853600945
 31
0.0
  0
LINE
  5
2E03B
330
17
100
AcDbEntity
  8
0
100
AcDbLine
 10
1011.09085649163
 20
1436.804853600945
 30
0.0
 11
1011.59085649163
 21
1436.304853600945
 31
0.0
  0
LINE
  5
2E03C
330
17
100
AcDbEntity
  8
0
100
AcDbLine
 10
1013.59085649163
 20
1436.304853600945
 30
0.0
 11
1013.59085649163
 21
1429.304853600945
 31
0.0
  0
LINE
  5
2E03D
330
17
100
AcDbEntity
  8
0
100
AcDbLine
 10
1036.09085649163
 20
1400.604853600945
 30
0.0
 11
1032.490856491629
 21
1400.604853600945
 31
0.0
  0
LINE
  5
2E03E
330
17
100
AcDbEntity
  8
0
100
AcDbLine
 10
1014.5895692602
 20
1395.53196713459
 30
0.0
 11
1029.362312276635
 21
1404.951759201562
 31
0.0
  0
ELLIPSE
  5
2E03F
330
17
100
AcDbEntity
  8
0
100
AcDbEllipse
 10
1015.413911187927
 20
1391.804853600945
 30
0.0
 11
0.0
 21
3.966658014797872
 31
0.0
210
0.0
220
0.0
230
1.0
 40
0.6072180340382412
 41
0.3493058667721709
 42
2.792286786817621
  0
ELLIPSE
  5
2E040
330
17
100
AcDbEntity
  8
0
100
AcDbEllipse
 10
1012.263911187926
 20
1391.804853600945
 30
0.0
 11
0.0
 21
3.966658014797872
 31
0.0
210
0.0
220
0.0
230
1.0
 40
0.6072180340382412
 41
0.3493058667721709
 42
2.792286786817621
  0
LINE
  5
2E041
330
17
100
AcDbEntity
  8
0
100
AcDbLine
 10
1011.439569260199
 20
1395.53196713459
 30
0.0
 11
1014.233039555325
 21
1397.313214482904
 31
0.0
  0
ELLIPSE
  5
2E042
330
17
100
AcDbEntity
  8
0
100
AcDbEllipse
 10
1026.090856491629
 20
1397.313214482904
 30
0.0
 11
0.0
 21
-15.72196648595286
 31
0.0
210
0.0
220
0.0
230
1.0
 40
0.7542197057154546
 41
-2.945090338853026
 42
-1.720057908898253
  0
ELLIPSE
  5
2E043
330
17
100
AcDbEntity
  8
0
100
AcDbEllipse
 10
1030.325436047748
 20
1397.313214482904
 30
0.0
 11
0.0
 21
-15.72196648595286
 31
0.0
210
0.0
220
0.0
230
-1.0
 40
0.7542197057154546
 41
-2.945090338853026
 42
-1.80581093177489
  0
LINE
  5
2E044
330
17
100
AcDbEntity
  8
0
100
AcDbLine
 10
1045.651745624085
 20
1411.804853600945
 30
0.0
 11
1045.651745624085
 21
1401.663440554108
 31
0.0
  0
ELLIPSE
  5
2E045
330
17
100
AcDbEntity
  8
0
100
AcDbEllipse
 10
1032.661364567319
 20
1411.804853600945
 30
0.0
 11
0.0
 21
15.0
 31
0.0
210
0.0
220
0.0
230
-1.0
 40
0.8660254037844424
 41
0.9272952180016256
 42
1.570796326794895
  0
LINE
  5
2E046
330
17
100
AcDbEntity
  8
0
100
AcDbLine
 10
1042.09085649163
 20
1428.304853600945
 30
0.0
 11
1026.09085649163
 21
1428.304853600945
 31
0.0
  0
LINE
  5
2E047
330
17
100
AcDbEntity
  8
0
100
AcDbLine
 10
1041.09085649163
 20
1429.304853600945
 30
0.0
 11
1026.09085649163
 21
1429.304853600945
 31
0.0
  0
LINE
  5
2E048
330
17
100
AcDbEntity
  8
0
100
AcDbLine
 10
1040.59085649163
 20
1419.304853600945
 30
0.0
 11
1026.09085649163
 21
1419.304853600945
 31
0.0
  0
LINE
  5
2E049
330
17
100
AcDbEntity
  8
0
100
AcDbLine
 10
1010.09085649163
 20
1427.804853600945
 30
0.0
 11
1010.09085649163
 21
1428.304853600945
 31
0.0
  0
LINE
  5
2E04A
330
17
100
AcDbEntity
  8
0
100
AcDbLine
 10
1011.09085649163
 20
1429.304853600945
 30
0.0
 11
1010.09085649163
 21
1428.304853600945
 31
0.0
  0
ARC
  5
2E04B
330
17
100
AcDbEntity
  8
0
100
AcDbCircle
 10
1011.59085649163
 20
1420.804853600945
 30
0.0
 40
1.5
100
AcDbArc
 50
180.0
 51
270.0
  0
LINE
  5
2E04C
330
17
100
AcDbEntity
  8
0
100
AcDbLine
 10
1010.09085649163
 20
1428.304853600945
 30
0.0
 11
1026.09085649163
 21
1428.304853600945
 31
0.0
  0
LINE
  5
2E04D
330
17
100
AcDbEntity
  8
0
100
AcDbLine
 10
1011.09085649163
 20
1429.304853600945
 30
0.0
 11
1026.09085649163
 21
1429.304853600945
 31
0.0
  0
LINE
  5
2E04E
330
17
100
AcDbEntity
  8
0
100
AcDbLine
 10
1011.59085649163
 20
1419.304853600945
 30
0.0
 11
1026.09085649163
 21
1419.304853600945
 31
0.0
  0
LINE
  5
2E04F
330
17
100
AcDbEntity
  8
0
100
AcDbLine
 10
1041.09085649163
 20
1429.304853600945
 30
0.0
 11
1042.09085649163
 21
1428.304853600945
 31
0.0
  0
ARC
  5
2E050
330
17
100
AcDbEntity
  8
0
100
AcDbCircle
 10
1040.59085649163
 20
1420.804853600945
 30
0.0
 40
1.5
100
AcDbArc
 50
270.0
 51
0.0
  0
LINE
  5
2E051
330
17
100
AcDbEntity
  8
0
100
AcDbLine
 10
1042.09085649163
 20
1420.804853600945
 30
0.0
 11
1042.09085649163
 21
1428.304853600945
 31
0.0
  0
LINE
  5
2E052
330
17
100
AcDbEntity
  8
0
100
AcDbLine
 10
1014.59085649163
 20
1409.929153600944
 30
0.0
 11
1014.59085649163
 21
1417.804853600945
 31
0.0
  0
ARC
  5
2E053
330
17
100
AcDbEntity
  8
0
100
AcDbCircle
 10
1013.09085649163
 20
1417.804853600945
 30
0.0
 40
1.5
100
AcDbArc
 50
0.0
 51
90.0
  0
LINE
  5
2E054
330
17
100
AcDbEntity
  8
0
100
AcDbLine
 10
1037.59085649163
 20
1409.929153600944
 30
0.0
 11
1037.59085649163
 21
1417.804853600945
 31
0.0
  0
ARC
  5
2E055
330
17
100
AcDbEntity
  8
0
100
AcDbCircle
 10
1039.09085649163
 20
1417.804853600945
 30
0.0
 40
1.5
100
AcDbArc
 50
90.0
 51
180.0
  0
LINE
  5
2E056
330
17
100
AcDbEntity
  8
0
100
AcDbLine
 10
1007.984450031079
 20
1427.804853600945
 30
0.0
 11
1007.984450031079
 21
1420.804853600945
 31
0.0
  0
LINE
  5
2E057
330
17
100
AcDbEntity
  8
0
100
AcDbLine
 10
1016.484450031077
 20
1427.804853600945
 30
0.0
 11
1016.484450031078
 21
1420.804853600945
 31
0.0
  0
LINE
  5
2E058
330
17
100
AcDbEntity
  8
0
100
AcDbLine
 10
1018.161923068488
 20
1427.804853600945
 30
0.0
 11
1007.984450031079
 21
1427.804853600945
 31
0.0
  0
LINE
  5
2E059
330
17
100
AcDbEntity
  8
0
100
AcDbLine
 10
1018.161923068489
 20
1420.804853600945
 30
0.0
 11
1007.984450031079
 21
1420.804853600945
 31
0.0
  0
LINE
  5
2E05A
330
17
100
AcDbEntity
  8
0
100
AcDbLine
 10
1044.197262952181
 20
1427.804853600945
 30
0.0
 11
1044.197262952181
 21
1420.804853600945
 31
0.0
  0
LINE
  5
2E05B
330
17
100
AcDbEntity
  8
0
100
AcDbLine
 10
1044.197262952181
 20
1427.804853600945
 30
0.0
 11
1042.09085649163
 21
1427.804853600945
 31
0.0
  0
LINE
  5
2E05C
330
17
100
AcDbEntity
  8
0
100
AcDbLine
 10
1044.197262952182
 20
1420.804853600945
 30
0.0
 11
1042.09085649163
 21
1420.804853600945
 31
0.0
  0
ELLIPSE
  5
2E05D
330
17
100
AcDbEntity
  8
0
100
AcDbEllipse
 10
1032.490856491629
 20
1402.431058463603
 30
0.0
 11
-4.706945021173851
 21
0.0
 31
0.0
210
0.0
220
0.0
230
1.0
 40
0.7167696079230881
 41
3.985342887398486
 42
5.439435073370891
  0
ELLIPSE
  5
2E05E
330
17
100
AcDbEntity
  8
0
100
AcDbEllipse
 10
1021.84085649163
 20
1391.804853600945
 30
0.0
 11
0.0
 21
-31.0
 31
0.0
210
0.0
220
0.0
230
1.0
 40
0.8101527970886836
 41
8.056885341888573
 42
8.746925324490071
  0
ELLIPSE
  5
2E05F
330
17
100
AcDbEntity
  8
0
100
AcDbEllipse
 10
998.020348415941
 20
1411.804853600945
 30
0.0
 11
0.0
 21
15.0
 31
0.0
210
0.0
220
0.0
230
1.0
 40
0.8660254037844424
 41
0.0
 42
1.570796326794895
  0
ELLIPSE
  5
2E060
330
17
100
AcDbEntity
  8
0
100
AcDbEllipse
 10
997.5203484159408
 20
1411.804853600945
 30
0.0
 11
0.0
 21
15.0
 31
0.0
210
0.0
220
0.0
230
1.0
 40
0.8660254037844424
 41
0.0
 42
1.570796326794895
  0
LINE
  5
2E061
330
17
100
AcDbEntity
  8
0
100
AcDbLine
 10
997.5203484159408
 20
1426.804853600945
 30
0.0
 11
998.020348415941
 21
1426.804853600945
 31
0.0
  0
ARC
  5
2E062
330
17
100
AcDbEntity
  8
0
100
AcDbCircle
 10
988.9089474151814
 20
1412.056396375475
 30
0.0
 40
2.0
100
AcDbArc
 50
319.1680648627466
 51
53.30492059338225
  0
ELLIPSE
  5
2E063
330
17
100
AcDbEntity
  8
0
100
AcDbEllipse
 10
991.1386469953175
 20
1417.791023600937
 30
0.0
 11
0.0
 21
4.499999999999545
 31
0.0
210
0.0
220
0.0
230
1.0
 40
0.5797065858110911
 41
0.0
 42
2.733788927252467
  0
LINE
  5
2E064
330
17
100
AcDbEntity
  8
0
100
AcDbLine
 10
1007.984450031079
 20
1426.804853600945
 30
0.0
 11
998.020348415941
 21
1426.804853600945
 31
0.0
  0
LINE
  5
2E065
330
17
100
AcDbEntity
  8
0
100
AcDbLine
 10
991.1386469953175
 20
1422.291023600937
 30
0.0
 11
1007.984450031079
 21
1422.291023600942
 31
0.0
  0
LINE
  5
2E066
330
17
100
AcDbEntity
  8
0
100
AcDbLine
 10
1041.09085649163
 20
1441.304853600945
 30
0.0
 11
1016.087364116538
 21
1441.304853600945
 31
0.0
  0
LINE
  5
2E067
330
17
100
AcDbEntity
  8
0
100
AcDbLine
 10
1038.59085649163
 20
1446.304853600945
 30
0.0
 11
1026.843217535856
 21
1446.304853600945
 31
0.0
  0
LINE
  5
2E068
330
17
100
AcDbEntity
  8
0
100
AcDbLine
 10
1034.09085649163
 20
1446.304853600945
 30
0.0
 11
1034.09085649163
 21
1448.768400796764
 31
0.0
  0
LINE
  5
2E069
330
17
100
AcDbEntity
  8
0
100
AcDbLine
 10
1041.09085649163
 20
1441.304853600945
 30
0.0
 11
1041.09085649163
 21
1439.304853600945
 31
0.0
  0
LINE
  5
2E06A
330
17
100
AcDbEntity
  8
0
100
AcDbLine
 10
1038.59085649163
 20
1446.304853600945
 30
0.0
 11
1038.59085649163
 21
1441.304853600945
 31
0.0
  0
LINE
  5
2E06B
330
17
100
AcDbEntity
  8
0
100
AcDbLine
 10
1077.840856491629
 20
1450.610153410095
 30
0.0
 11
1077.840856491629
 21
1361.620373998957
 31
0.0
  0
LINE
  5
2E06C
330
17
100
AcDbEntity
  8
0
100
AcDbLine
 10
1107.840856491629
 20
1438.622623680598
 30
0.0
 11
1107.840856491629
 21
1361.620373998957
 31
0.0
  0
ELLIPSE
  5
2E06D
330
17
100
AcDbEntity
  8
0
100
AcDbEllipse
 10
1053.57642807678
 20
1362.804853600945
 30
0.0
 11
0.0
 21
3.822219999999106
 31
0.0
210
0.0
220
0.0
230
-1.0
 40
0.5232561181722843
 41
0.3158459890366398
 42
2.825746664553153
  0
LINE
  5
2E06E
330
17
100
AcDbEntity
  8
0
100
AcDbLine
 10
1049.607199480058
 20
1369.304857863509
 30
0.0
 11
1058.70559320138
 21
1369.304857863509
 31
0.0
  0
LINE
  5
2E06F
330
17
100
AcDbEntity
  8
0
100
AcDbLine
 10
1058.705593201379
 20
1376.304853600945
 30
0.0
 11
1058.705593201379
 21
1369.304857863509
 31
0.0
  0
LINE
  5
2E070
330
17
100
AcDbEntity
  8
0
100
AcDbLine
 10
1107.840856491629
 20
1361.620373998957
 30
0.0
 11
1055.47797088935
 21
1361.620373998957
 31
0.0
  0
ELLIPSE
  5
2E071
330
17
100
AcDbEntity
  8
0
100
AcDbEllipse
 10
1049.567801795331
 20
1391.804853600945
 30
0.0
 11
0.0
 21
3.966658014797872
 31
0.0
210
0.0
220
0.0
230
-1.0
 40
0.6072180340382412
 41
0.3493058667721709
 42
2.792286786817621
  0
LINE
  5
2E072
330
17
100
AcDbEntity
  8
0
100
AcDbLine
 10
1075.840856491629
 20
1450.995109192257
 30
0.0
 11
1075.840856491629
 21
1411.620373998957
 31
0.0
  0
ARC
  5
2E073
330
17
100
AcDbEntity
  8
0
100
AcDbCircle
 10
1159.673657799397
 20
1513.278801356559
 30
0.0
 40
90.83333333333326
100
AcDbArc
 50
236.6015115320009
 51
250.380034846746
  0
DIMENSION
  5
2E074
330
17
100
AcDbEntity
  8
DIM
100
AcDbDimension
  2
*D6
 10
1673.295119255099
 20
475.0048536009442
 30
0.0
 11
1673.295119255099
 21
343.1425947649397
 31
0.0
 70
   160
  1
165
 71
     5
 42
164.4999999999283
 73
     0
 74
     0
 75
     0
  3
STANDARD
100
AcDbAlignedDimension
 13
1194.175247001254
 23
639.5048536008728
 33
0.0
 14
1451.034138325606
 24
475.0048536009443
 34
0.0
 50
90.0
100
AcDbRotatedDimension
1001
ACAD
1000
DSTYLE
1002
{
1070
    41
1040
3.0
1070
    42
1040
2.0
1070
    43
1040
10.0
1070
    44
1040
2.0
1070
    45
1040
1.0
1070
    73
1070
     0
1070
    74
1070
     0
1070
    77
1070
     1
1070
    78
1070
     8
1070
    79
1070
     2
1070
   140
1040
2.5
1070
   147
1040
0.9999999999999996
1070
   172
1070
     1
1070
   179
1070
     8
1070
   271
1070
     8
1070
   272
1070
     8
1070
   341
1005
4A
1070
   342
1005
4A
1002
}
  0
DIMENSION
  5
2E075
330
17
100
AcDbEntity
  8
DIM
100
AcDbDimension
  2
*D7
 10
1763.361809380319
 20
725.0048536009387
 30
0.0
 11
1763.361809380319
 21
317.4832070097446
 31
0.0
 70
   160
 71
     5
 42
249.9999999999945
 73
     0
 74
     0
 75
     0
  3
STANDARD
100
AcDbAlignedDimension
 13
1451.034138325606
 23
475.0048536009443
 33
0.0
 14
1448.175247001313
 24
725.004853600939
 34
0.0
 50
90.0
100
AcDbRotatedDimension
1001
ACAD
1000
DSTYLE
1002
{
1070
    41
1040
3.0
1070
    42
1040
2.0
1070
    43
1040
10.0
1070
    44
1040
2.0
1070
    45
1040
1.0
1070
    73
1070
     0
1070
    74
1070
     0
1070
    77
1070
     1
1070
    78
1070
     8
1070
    79
1070
     2
1070
   140
1040
2.5
1070
   147
1040
0.9999999999999996
1070
   172
1070
     1
1070
   179
1070
     8
1070
   271
1070
     8
1070
   272
1070
     8
1070
   341
1005
4A
1070
   342
1005
4A
1002
}
  0
LINE
  5
2E076
330
17
100
AcDbEntity
  8
0
100
AcDbLine
 10
1254.188527810456
 20
2290.992134867198
 30
0.0
 11
1253.45474700134
 21
2304.993505332727
 31
0.0
  0
LINE
  5
2E077
330
17
100
AcDbEntity
  8
0
100
AcDbLine
 10
1255.350527824405
 20
2290.992134867198
 30
0.0
 11
1254.61674700134
 21
2304.993505332727
 31
0.0
  0
LINE
  5
2E078
330
17
100
AcDbEntity
  8
0
100
AcDbLine
 10
1255.240863772113
 20
2289.993505332727
 30
0.0
 11
1278.10963023057
 21
2289.993505332727
 31
0.0
  0
LINE
  5
2E079
330
17
100
AcDbEntity
  8
0
100
AcDbLine
 10
1254.188527810456
 20
2290.992134867198
 30
0.0
 11
1266.675247001342
 21
2290.992134867198
 31
0.0
  0
LINE
  5
2E07A
330
17
100
AcDbEntity
  8
0
100
AcDbLine
 10
1255.240863772113
 20
2289.993505332727
 30
0.0
 11
1254.188527810456
 21
2290.992134867198
 31
0.0
  0
LINE
  5
2E07B
330
17
100
AcDbEntity
  8
0
100
AcDbLine
 10
1253.849277637316
 20
2329.993505332728
 30
0.0
 11
1259.501029145549
 21
2329.993505332728
 31
0.0
  0
LINE
  5
2E07C
330
17
100
AcDbEntity
  8
0
100
AcDbLine
 10
1273.849277637316
 20
2329.993505332728
 30
0.0
 11
1279.501029145549
 21
2329.993505332728
 31
0.0
  0
LINE
  5
2E07D
330
17
100
AcDbEntity
  8
0
100
AcDbLine
 10
1253.45474700134
 20
2304.993505332727
 30
0.0
 11
1266.675247001342
 21
2304.993505332727
 31
0.0
  0
LINE
  5
2E07E
330
17
100
AcDbEntity
  8
0
100
AcDbLine
 10
1266.675247001342
 20
2314.993505332727
 30
0.0
 11
1253.684866001342
 21
2314.993505332727
 31
0.0
  0
ARC
  5
2E07F
330
17
100
AcDbEntity
  8
0
100
AcDbCircle
 10
1266.675247001342
 20
2336.653759332728
 30
0.0
 40
28.660254
100
AcDbArc
 50
252.4120460000488
 51
270.0
  0
ARC
  5
2E080
330
17
100
AcDbEntity
  8
0
100
AcDbCircle
 10
1266.675247001342
 20
2286.333251332727
 30
0.0
 40
28.660254
100
AcDbArc
 50
90.0
 51
107.5879539999512
  0
LINE
  5
2E081
330
17
100
AcDbEntity
  8
0
100
AcDbLine
 10
1253.45474700134
 20
2307.993505332727
 30
0.0
 11
1266.675247001342
 21
2307.993505332727
 31
0.0
  0
LINE
  5
2E082
330
17
100
AcDbEntity
  8
0
100
AcDbLine
 10
1258.014993001341
 20
2309.333251332727
 30
0.0
 11
1258.014993001341
 21
2313.653759332728
 31
0.0
  0
LINE
  5
2E083
330
17
100
AcDbEntity
  8
0
100
AcDbLine
 10
1249.354739001341
 20
2309.333251332727
 30
0.0
 11
1249.354739001341
 21
2313.653759332728
 31
0.0
  0
LINE
  5
2E084
330
17
100
AcDbEntity
  8
0
100
AcDbLine
 10
1253.45474700134
 20
2307.006148332727
 30
0.0
 11
1254.61674700134
 21
2304.993505332727
 31
0.0
  0
ARC
  5
2E085
330
17
100
AcDbEntity
  8
0
100
AcDbCircle
 10
1253.684866001342
 20
2315.660973832727
 30
0.0
 40
7.667467999999998
100
AcDbArc
 50
235.6157530000607
 51
304.3842469999393
  0
LINE
  5
2E086
330
17
100
AcDbEntity
  8
0
100
AcDbLine
 10
1253.45474700134
 20
2304.993505332727
 30
0.0
 11
1253.45474700134
 21
2307.993505332727
 31
0.0
  0
ARC
  5
2E087
330
17
100
AcDbEntity
  8
0
100
AcDbCircle
 10
1253.684866001342
 20
2307.326037332728
 30
0.0
 40
7.667467999999998
100
AcDbArc
 50
55.61575300006067
 51
124.3842469999393
  0
LINE
  5
2E088
330
17
100
AcDbEntity
  8
0
100
AcDbLine
 10
1253.675153391432
 20
2339.993505332728
 30
0.0
 11
1259.675153391432
 21
2339.993505332728
 31
0.0
  0
LINE
  5
2E089
330
17
100
AcDbEntity
  8
0
100
AcDbLine
 10
1273.675153391432
 20
2339.993505332728
 30
0.0
 11
1279.675153391432
 21
2339.993505332727
 31
0.0
  0
CIRCLE
  5
2E08A
330
17
100
AcDbEntity
  8
HID
100
AcDbCircle
 10
1256.675247001342
 20
2334.993505332727
 30
0.0
 40
2.000000000000453
  0
CIRCLE
  5
2E08B
330
17
100
AcDbEntity
  8
0
100
AcDbCircle
 10
1256.675247001342
 20
2334.993505332727
 30
0.0
 40
1.500000000000454
  0
CIRCLE
  5
2E08C
330
17
100
AcDbEntity
  8
HID
100
AcDbCircle
 10
1276.675247001342
 20
2334.993505332727
 30
0.0
 40
2.000000000000453
  0
CIRCLE
  5
2E08D
330
17
100
AcDbEntity
  8
0
100
AcDbCircle
 10
1276.675247001342
 20
2334.993505332727
 30
0.0
 40
1.500000000000454
  0
LINE
  5
2E08E
330
17
100
AcDbEntity
  8
0
100
AcDbLine
 10
1258.735247001341
 20
2324.00069261536
 30
0.0
 11
1258.735247001339
 21
2314.993505332728
 31
0.0
  0
LINE
  5
2E08F
330
17
100
AcDbEntity
  8
0
100
AcDbLine
 10
1274.61524700134
 20
2324.00069261536
 30
0.0
 11
1274.61524700134
 21
2308.993505332727
 31
0.0
  0
ARC
  5
2E090
330
17
100
AcDbEntity
  8
0
100
AcDbCircle
 10
1276.675153391432
 20
2341.000692615359
 30
0.0
 40
3.0
100
AcDbArc
 50
0.0
 51
180.0
  0
ARC
  5
2E091
330
17
100
AcDbEntity
  8
0
100
AcDbCircle
 10
1276.675153391432
 20
2331.000692615359
 30
0.0
 40
3.0
100
AcDbArc
 50
180.0
 51
0.0
  0
LINE
  5
2E092
330
17
100
AcDbEntity
  8
0
100
AcDbLine
 10
1254.175247001308
 20
2324.00069261536
 30
0.0
 11
1279.175247001308
 21
2324.00069261536
 31
0.0
  0
LINE
  5
2E093
330
17
100
AcDbEntity
  8
0
100
AcDbLine
 10
1249.175247001308
 20
2329.000692615359
 30
0.0
 11
1249.175247001308
 21
2358.886086708888
 31
0.0
  0
LINE
  5
2E094
330
17
100
AcDbEntity
  8
0
100
AcDbLine
 10
1259.675153391432
 20
2341.000692615359
 30
0.0
 11
1259.675153391432
 21
2331.000692615359
 31
0.0
  0
LINE
  5
2E095
330
17
100
AcDbEntity
  8
0
100
AcDbLine
 10
1253.675153391432
 20
2341.000692615359
 30
0.0
 11
1253.675153391432
 21
2331.000692615359
 31
0.0
  0
ARC
  5
2E096
330
17
100
AcDbEntity
  8
0
100
AcDbCircle
 10
1254.175247001308
 20
2329.000692615359
 30
0.0
 40
5.0
100
AcDbArc
 50
180.0
 51
270.0
  0
ARC
  5
2E097
330
17
100
AcDbEntity
  8
0
100
AcDbCircle
 10
1256.675153391432
 20
2331.000692615359
 30
0.0
 40
3.0
100
AcDbArc
 50
180.0
 51
0.0
  0
ARC
  5
2E098
330
17
100
AcDbEntity
  8
0
100
AcDbCircle
 10
1256.675153391432
 20
2341.000692615359
 30
0.0
 40
3.0
100
AcDbArc
 50
0.0
 51
180.0
  0
LINE
  5
2E099
330
17
100
AcDbEntity
  8
0
100
AcDbLine
 10
1273.675153391432
 20
2341.000692615359
 30
0.0
 11
1273.675153391432
 21
2331.000692615359
 31
0.0
  0
LINE
  5
2E09A
330
17
100
AcDbEntity
  8
0
100
AcDbLine
 10
1284.175247001309
 20
2329.00069261536
 30
0.0
 11
1284.175247001309
 21
2372.44282292811
 31
0.0
  0
LINE
  5
2E09B
330
17
100
AcDbEntity
  8
0
100
AcDbLine
 10
1279.675153391432
 20
2341.000692615359
 30
0.0
 11
1279.675153391432
 21
2331.000692615359
 31
0.0
  0
ARC
  5
2E09C
330
17
100
AcDbEntity
  8
0
100
AcDbCircle
 10
1279.175247001308
 20
2329.00069261536
 30
0.0
 40
5.0
100
AcDbArc
 50
270.0
 51
0.0
  0
ARC
  5
2E09D
330
17
100
AcDbEntity
  8
0
100
AcDbCircle
 10
1398.775247001323
 20
2322.818712618753
 30
0.0
 40
90.8333333333333
100
AcDbArc
 50
236.6015115319985
 51
303.3984884680015
  0
ARC
  5
2E09E
330
17
100
AcDbEntity
  8
0
100
AcDbCircle
 10
1398.775247001323
 20
2434.45719210919
 30
0.0
 40
90.8333333333333
100
AcDbArc
 50
236.6015115319985
 51
303.3984884680015
  0
LINE
  5
2E09F
330
17
100
AcDbEntity
  8
0
100
AcDbLine
 10
1148.775247001298
 20
2358.623858775873
 30
0.0
 11
1148.775247001316
 21
2246.985379285429
 31
0.0
  0
ARC
  5
2E0A0
330
17
100
AcDbEntity
  8
0
100
AcDbCircle
 10
1198.775247001323
 20
2322.818712618753
 30
0.0
 40
90.83333333333326
100
AcDbArc
 50
236.6015115319985
 51
303.3984884680015
  0
ARC
  5
2E0A1
330
17
100
AcDbEntity
  8
0
100
AcDbCircle
 10
1298.775247001323
 20
2171.152045952087
 30
0.0
 40
90.83333333333326
100
AcDbArc
 50
56.60151153199854
 51
123.3984884680014
  0
ARC
  5
2E0A2
330
17
100
AcDbEntity
  8
0
100
AcDbCircle
 10
1198.775247001323
 20
2434.45719210919
 30
0.0
 40
90.83333333333326
100
AcDbArc
 50
236.6015115319985
 51
303.3984884680015
  0
ARC
  5
2E0A3
330
17
100
AcDbEntity
  8
0
100
AcDbCircle
 10
1298.775247001323
 20
2282.790525442524
 30
0.0
 40
90.83333333333326
100
AcDbArc
 50
56.60151153199854
 51
123.3984884680014
  0
LINE
  5
2E0A4
330
17
100
AcDbEntity
  8
0
100
AcDbLine
 10
1423.775247001323
 20
2347.131969839537
 30
0.0
 11
1423.775247001323
 21
2235.493490349099
 31
0.0
  0
LINE
  5
2E0A5
330
17
100
AcDbEntity
  8
0
100
AcDbLine
 10
1434.775247001323
 20
2351.062381452624
 30
0.0
 11
1434.775247001323
 21
2239.423901962187
 31
0.0
  0
LINE
  5
2E0A6
330
17
100
AcDbEntity
  8
0
100
AcDbLine
 10
1279.161966192227
 20
2290.992134867198
 30
0.0
 11
1279.895747001343
 21
2304.993505332727
 31
0.0
  0
LINE
  5
2E0A7
330
17
100
AcDbEntity
  8
0
100
AcDbLine
 10
1277.999966178278
 20
2290.992134867198
 30
0.0
 11
1278.733747001342
 21
2304.993505332727
 31
0.0
  0
LINE
  5
2E0A8
330
17
100
AcDbEntity
  8
0
100
AcDbLine
 10
1279.161966192227
 20
2290.992134867198
 30
0.0
 11
1266.675247001342
 21
2290.992134867198
 31
0.0
  0
LINE
  5
2E0A9
330
17
100
AcDbEntity
  8
0
100
AcDbLine
 10
1278.10963023057
 20
2289.993505332727
 30
0.0
 11
1279.161966192227
 21
2290.992134867198
 31
0.0
  0
LINE
  5
2E0AA
330
17
100
AcDbEntity
  8
0
100
AcDbLine
 10
1279.895747001343
 20
2304.993505332727
 30
0.0
 11
1266.675247001342
 21
2304.993505332727
 31
0.0
  0
LINE
  5
2E0AB
330
17
100
AcDbEntity
  8
0
100
AcDbLine
 10
1266.675247001342
 20
2314.993505332727
 30
0.0
 11
1279.665628001341
 21
2314.993505332727
 31
0.0
  0
ARC
  5
2E0AC
330
17
100
AcDbEntity
  8
0
100
AcDbCircle
 10
1266.675247001342
 20
2336.653759332728
 30
0.0
 40
28.660254
100
AcDbArc
 50
270.0
 51
287.5879539999512
  0
ARC
  5
2E0AD
330
17
100
AcDbEntity
  8
0
100
AcDbCircle
 10
1266.675247001342
 20
2286.333251332727
 30
0.0
 40
28.660254
100
AcDbArc
 50
72.41204600004881
 51
90.0
  0
LINE
  5
2E0AE
330
17
100
AcDbEntity
  8
0
100
AcDbLine
 10
1279.895747001343
 20
2307.993505332727
 30
0.0
 11
1266.675247001342
 21
2307.993505332727
 31
0.0
  0
LINE
  5
2E0AF
330
17
100
AcDbEntity
  8
0
100
AcDbLine
 10
1275.335501001342
 20
2309.333251332727
 30
0.0
 11
1275.335501001342
 21
2313.653759332728
 31
0.0
  0
LINE
  5
2E0B0
330
17
100
AcDbEntity
  8
0
100
AcDbLine
 10
1283.995755001342
 20
2309.333251332727
 30
0.0
 11
1283.995755001342
 21
2313.653759332728
 31
0.0
  0
LINE
  5
2E0B1
330
17
100
AcDbEntity
  8
0
100
AcDbLine
 10
1279.895747001343
 20
2307.006148332727
 30
0.0
 11
1278.733747001342
 21
2304.993505332727
 31
0.0
  0
ARC
  5
2E0B2
330
17
100
AcDbEntity
  8
0
100
AcDbCircle
 10
1279.665628001341
 20
2315.660973832727
 30
0.0
 40
7.667467999999997
100
AcDbArc
 50
235.6157530000607
 51
304.3842469999393
  0
LINE
  5
2E0B3
330
17
100
AcDbEntity
  8
0
100
AcDbLine
 10
1279.895747001343
 20
2304.993505332727
 30
0.0
 11
1279.895747001343
 21
2307.993505332727
 31
0.0
  0
ARC
  5
2E0B4
330
17
100
AcDbEntity
  8
0
100
AcDbCircle
 10
1279.665628001341
 20
2307.326037332728
 30
0.0
 40
7.667467999999997
100
AcDbArc
 50
55.61575300006067
 51
124.3842469999393
  0
LWPOLYLINE
  5
2E0B6
330
17
100
AcDbEntity
  8
0
100
AcDbPolyline
 90
        4
 70
     1
 43
0.0
 10
931.1752470017099
 20
1793.002672158813
 10
963.1752470009097
 20
1793.002672158813
 10
963.1752470009097
 20
1723.002672160563
 10
931.1752470017099
 20
1723.002672160563
  0
LINE
  5
2E0B7
330
17
100
AcDbEntity
  8
0
100
AcDbLine
 10
873.1752470013397
 20
3206.525718582643
 30
0.0
 11
1357.175247001337
 21
3206.525718582643
 31
0.0
  0
LINE
  5
2E0B8
330
17
100
AcDbEntity
  8
0
100
AcDbLine
 10
817.7752470013382
 20
3174.525718582643
 30
0.0
 11
1412.575247001337
 21
3174.525718582643
 31
0.0
  0
LINE
  5
2E0B9
330
17
100
AcDbEntity
  8
0
100
AcDbLine
 10
1367.183955853757
 20
3460.158594057795
 30
0.0
 11
1138.175247001339
 21
3460.158594057795
 31
0.0
  0
LINE
  5
2E0BA
330
17
100
AcDbEntity
  8
0
100
AcDbLine
 10
1367.183955853757
 20
3462.158594057795
 30
0.0
 11
1138.175247001339
 21
3462.158594057795
 31
0.0
  0
LINE
  5
2E0BB
330
17
100
AcDbEntity
  8
0
100
AcDbLine
 10
874.3107347596431
 20
3240.158594057795
 30
0.0
 11
1357.175247001337
 21
3240.158594057795
 31
0.0
  0
LINE
  5
2E0BC
330
17
100
AcDbEntity
  8
0
100
AcDbLine
 10
873.1752470013397
 20
3227.525718582643
 30
0.0
 11
1357.175247001337
 21
3227.525718582643
 31
0.0
  0
LINE
  5
2E0BD
330
17
100
AcDbEntity
  8
0
100
AcDbLine
 10
873.1752470013397
 20
3231.525718582643
 30
0.0
 11
1357.175247001337
 21
3231.525718582643
 31
0.0
  0
LINE
  5
2E0BE
330
17
100
AcDbEntity
  8
0
100
AcDbLine
 10
863.1752470013397
 20
3457.525718582644
 30
0.0
 11
851.9911734517426
 21
3262.52571858265
 31
0.0
  0
LINE
  5
2E0BF
330
17
100
AcDbEntity
  8
0
100
AcDbLine
 10
842.1752470013434
 20
3262.525718582643
 30
0.0
 11
842.1752470013434
 21
3451.525718582643
 31
0.0
  0
LINE
  5
2E0C0
330
17
100
AcDbEntity
  8
0
100
AcDbLine
 10
1113.175247001339
 20
3329.525718582643
 30
0.0
 11
1113.175247001339
 21
3679.525718582643
 31
0.0
  0
LINE
  5
2E0C1
330
17
100
AcDbEntity
  8
0
100
AcDbLine
 10
1117.175247001339
 20
3329.525718582643
 30
0.0
 11
1117.175247001339
 21
3679.525718582643
 31
0.0
  0
LINE
  5
2E0C2
330
17
100
AcDbEntity
  8
0
100
AcDbLine
 10
1099.547205433287
 20
3328.991880902306
 30
0.0
 11
1092.175247001339
 21
3457.525718582644
 31
0.0
  0
LINE
  5
2E0C3
330
17
100
AcDbEntity
  8
0
100
AcDbLine
 10
1130.803288569393
 20
3328.991880902306
 30
0.0
 11
1138.175247001339
 21
3457.525718582644
 31
0.0
  0
LINE
  5
2E0C4
330
17
100
AcDbEntity
  8
0
100
AcDbLine
 10
838.1752470013433
 20
3262.525718582643
 30
0.0
 11
838.1752470013433
 21
3451.525718582643
 31
0.0
  0
LINE
  5
2E0C5
330
17
100
AcDbEntity
  8
0
100
AcDbLine
 10
817.1752470013434
 20
3262.525718582643
 30
0.0
 11
817.1752470013434
 21
3461.525718582644
 31
0.0
  0
ARC
  5
2E0C8
330
17
100
AcDbEntity
  8
0
100
AcDbCircle
 10
873.1752470013429
 20
3262.525718582643
 30
0.0
 40
35.0
100
AcDbArc
 50
180.0
 51
270.0
  0
ARC
  5
2E0C9
330
17
100
AcDbEntity
  8
0
100
AcDbCircle
 10
873.1752470013429
 20
3262.525718582643
 30
0.0
 40
56.0
100
AcDbArc
 50
180.0
 51
270.0
  0
ARC
  5
2E0CA
330
17
100
AcDbEntity
  8
0
100
AcDbCircle
 10
817.7752470013377
 20
3198.125718582643
 30
0.0
 40
23.6
100
AcDbArc
 50
180.0
 51
270.0
  0
ELLIPSE
  5
2E0CB
330
17
100
AcDbEntity
  8
0
100
AcDbEllipse
 10
873.1752470013432
 20
3262.525718582643
 30
0.0
 11
0.0
 21
-22.3671245248471
 31
0.0
210
0.0
220
0.0
230
-1.0
 40
0.9471075965115272
 41
0.0
 42
1.691763084935387
  0
ARC
  5
2E0CC
330
17
100
AcDbEntity
  8
0
100
AcDbCircle
 10
873.1752470013429
 20
3262.525718582643
 30
0.0
 40
31.0
100
AcDbArc
 50
180.0
 51
270.0
  0
ARC
  5
2E0D1
330
17
100
AcDbEntity
  8
0
100
AcDbCircle
 10
1108.410045145111
 20
3543.681937091607
 30
0.0
 40
255.8356956936135
100
AcDbArc
 50
269.7946098882149
 51
273.5285175739347
  0
LINE
  5
2E0D2
330
17
100
AcDbEntity
  8
0
100
AcDbLine
 10
1110.025446605182
 20
3284.264605073429
 30
0.0
 11
1115.52014574952
 21
3284.215369937052
 31
0.0
  0
ARC
  5
2E0D3
330
17
100
AcDbEntity
  8
0
100
AcDbCircle
 10
1129.325061222338
 20
3272.010100265992
 30
0.0
 40
17.60285096126781
100
AcDbArc
 50
139.7143125587224
 51
170.7635016627942
  0
ARC
  5
2E0D4
330
17
100
AcDbEntity
  8
0
100
AcDbCircle
 10
1125.162339262582
 20
3272.085480512385
 30
0.0
 40
13.49060708771084
100
AcDbArc
 50
169.1030116609468
 51
231.8551132816318
  0
ELLIPSE
  5
2E0D5
330
17
100
AcDbEntity
  8
0
100
AcDbEllipse
 10
1115.175247001339
 20
3329.525718582643
 30
0.0
 11
-15.64334299999996
 21
0.0
 31
0.0
210
0.0
220
0.0
230
1.0
 40
0.7717375499597516
 41
0.0442335360008527
 42
3.097359117588939
  0
ARC
  5
2E0D6
330
17
100
AcDbEntity
  8
0
100
AcDbCircle
 10
1043.801612008684
 20
3274.287712863511
 30
0.0
 40
14.83237895574246
100
AcDbArc
 50
256.5720137259174
 51
297.1411212152152
  0
ARC
  5
2E0D7
330
17
100
AcDbEntity
  8
0
100
AcDbCircle
 10
1043.616186069167
 20
3273.387160297323
 30
0.0
 40
11.1134528274799
100
AcDbArc
 50
256.4402732669433
 51
303.3161870488861
  0
ARC
  5
2E0D8
330
17
100
AcDbEntity
  8
0
100
AcDbCircle
 10
1050.983449836423
 20
3261.169444450486
 30
0.0
 40
14.07593637463589
100
AcDbArc
 50
115.0243549754701
 51
146.2752900288704
  0
ARC
  5
2E0D9
330
17
100
AcDbEntity
  8
0
100
AcDbCircle
 10
1048.080238698099
 20
3266.813936001383
 30
0.0
 40
10.83636683022981
100
AcDbArc
 50
106.8136262035835
 51
135.1560002023194
  0
ARC
  5
2E0DA
330
17
100
AcDbEntity
  8
0
100
AcDbCircle
 10
1032.587719634671
 20
3242.051981623655
 30
0.0
 40
45.33070528610178
100
AcDbArc
 50
67.74938045211161
 51
80.0654168636233
  0
ARC
  5
2E0DB
330
17
100
AcDbEntity
  8
0
100
AcDbCircle
 10
1043.801612008684
 20
3274.287712863511
 30
0.0
 40
14.83237895574246
100
AcDbArc
 50
256.5720137260245
 51
297.1411212152152
  0
ARC
  5
2E0DC
330
17
100
AcDbEntity
  8
0
100
AcDbCircle
 10
1043.616186069167
 20
3273.387160297323
 30
0.0
 40
11.1134528274799
100
AcDbArc
 50
256.4402732669433
 51
303.3161870487613
  0
ARC
  5
2E0DD
330
17
100
AcDbEntity
  8
0
100
AcDbCircle
 10
1032.599707137183
 20
3234.218391938358
 30
0.0
 40
56.05458199643472
100
AcDbArc
 50
71.01301092166405
 51
81.49725951500197
  0
ARC
  5
2E0E3
330
17
100
AcDbEntity
  8
0
100
AcDbCircle
 10
937.3525623519102
 20
3289.718378609248
 30
0.0
 40
83.92919236650326
100
AcDbArc
 50
343.3818211169885
 51
355.2689035730787
  0
ARC
  5
2E0E4
330
17
100
AcDbEntity
  8
0
100
AcDbCircle
 10
1016.771812128228
 20
3264.352736170836
 30
0.0
 40
3.157413733141899
100
AcDbArc
 50
223.4705628227053
 51
341.4086820971192
  0
ARC
  5
2E0E5
330
17
100
AcDbEntity
  8
0
100
AcDbCircle
 10
1016.771812128226
 20
3264.352736170836
 30
0.0
 40
3.157413733141899
100
AcDbArc
 50
223.4705628227053
 51
341.4086820971192
  0
ARC
  5
2E0E6
330
17
100
AcDbEntity
  8
0
100
AcDbCircle
 10
1016.263903386068
 20
3281.844691345521
 30
0.0
 40
1.436915767056349
100
AcDbArc
 50
323.5575518284246
 51
143.5575518284246
  0
ARC
  5
2E0E7
330
17
100
AcDbEntity
  8
0
100
AcDbCircle
 10
1016.530488913971
 20
3266.087056672604
 30
0.0
 40
1.300000000000139
100
AcDbArc
 50
218.0974153561235
 51
343.3818211169885
  0
ARC
  5
2E0E8
330
17
100
AcDbEntity
  8
0
100
AcDbCircle
 10
1022.822922181195
 20
3270.089119484962
 30
0.0
 40
11.49540068442298
100
AcDbArc
 50
186.7452391817431
 51
223.4705628227053
  0
ARC
  5
2E0E9
330
17
100
AcDbEntity
  8
0
100
AcDbCircle
 10
984.3798861160331
 20
3266.364284068631
 30
0.0
 40
30.00000000000061
100
AcDbArc
 50
3.897601544284577
 51
5.744712693410701
  0
ARC
  5
2E0EA
330
17
100
AcDbEntity
  8
0
100
AcDbCircle
 10
1030.891665235887
 20
3271.043438325829
 30
0.0
 40
19.62038308025999
100
AcDbArc
 50
143.5575518284246
 51
186.7452391817431
  0
ARC
  5
2E0EB
330
17
100
AcDbEntity
  8
0
100
AcDbCircle
 10
1019.977473917957
 20
3268.789587072149
 30
0.0
 40
5.68011143444639
100
AcDbArc
 50
183.8976015442845
 51
218.0974153561235
  0
ARC
  5
2E0EC
330
17
100
AcDbEntity
  8
0
100
AcDbCircle
 10
1030.891665235889
 20
3271.043438325829
 30
0.0
 40
16.74655154615057
100
AcDbArc
 50
143.5575518284246
 51
185.7447126934107
  0
ARC
  5
2E0ED
330
17
100
AcDbEntity
  8
0
100
AcDbCircle
 10
1011.120170581785
 20
3273.879869215498
 30
0.0
 40
19.27322399996572
100
AcDbArc
 50
341.6344357212042
 51
4.802742798761215
  0
ARC
  5
2E0EE
330
17
100
AcDbEntity
  8
0
100
AcDbCircle
 10
1022.090946153822
 20
3270.237699726536
 30
0.0
 40
7.713668851175999
100
AcDbArc
 50
279.4748201797997
 51
341.6344357212042
  0
ARC
  5
2E0EF
330
17
100
AcDbEntity
  8
0
100
AcDbCircle
 10
1018.914189317654
 20
3274.534726993704
 30
0.0
 40
11.45174288928129
100
AcDbArc
 50
4.802742798761215
 51
34.84846876783054
  0
ARC
  5
2E0F0
330
17
100
AcDbEntity
  8
0
100
AcDbCircle
 10
1022.63702345658
 20
3269.824167470896
 30
0.0
 40
9.920981632020447
100
AcDbArc
 50
276.329086258467
 51
335.947550761663
  0
ARC
  5
2E0F1
330
17
100
AcDbEntity
  8
0
100
AcDbCircle
 10
1029.560213844566
 20
3281.94727084421
 30
0.0
 40
1.520675719533908
100
AcDbArc
 50
33.16591440255062
 51
214.8484687678305
  0
ARC
  5
2E0F2
330
17
100
AcDbEntity
  8
0
100
AcDbCircle
 10
942.9913064483599
 20
3289.170173958315
 30
0.0
 40
80.99999999999099
100
AcDbArc
 50
341.4086820971192
 51
354.9472316209001
  0
ARC
  5
2E0F3
330
17
100
AcDbEntity
  8
0
100
AcDbCircle
 10
1020.470143607204
 20
3285.061430014839
 30
0.0
 40
1.416206957708759
100
AcDbArc
 50
105.4393598824411
 51
262.959845104199
  0
ARC
  5
2E0F4
330
17
100
AcDbEntity
  8
0
100
AcDbCircle
 10
1023.582310204628
 20
3261.301536246972
 30
0.0
 40
1.346087462628309
100
AcDbArc
 50
99.47482017979965
 51
276.329086258467
  0
ARC
  5
2E0F5
330
17
100
AcDbEntity
  8
0
100
AcDbCircle
 10
1023.324010484695
 20
3277.914480778181
 30
0.0
 40
9.104592965425348
100
AcDbArc
 50
74.57621941298545
 51
110.7850750102112
  0
ARC
  5
2E0F6
330
17
100
AcDbEntity
  8
0
100
AcDbCircle
 10
1025.31812968941
 20
3285.142366054762
 30
0.0
 40
1.60667078829576
100
AcDbArc
 50
269.9345920120815
 51
74.57621941298545
  0
ARC
  5
2E0F7
330
17
100
AcDbEntity
  8
0
100
AcDbCircle
 10
1025.314418469131
 20
3281.891430299721
 30
0.0
 40
1.644267085081509
100
AcDbArc
 50
89.93459201208148
 51
174.9472316209001
  0
ARC
  5
2E0F8
330
17
100
AcDbEntity
  8
0
100
AcDbCircle
 10
1020.198514368439
 20
3282.861932154861
 30
0.0
 40
0.7999999999997101
100
AcDbArc
 50
355.2689035730787
 51
82.95984510419897
  0
ARC
  5
2E0F9
330
17
100
AcDbEntity
  8
0
100
AcDbCircle
 10
1023.582310204626
 20
3261.301536246972
 30
0.0
 40
1.346087462628309
100
AcDbArc
 50
99.47482017979965
 51
276.329086258467
  0
LINE
  5
2E0FA
330
17
100
AcDbEntity
  8
0
100
AcDbLine
 10
1030.833156151796
 20
3282.779179809449
 30
0.0
 11
1031.677699240359
 21
3281.486905446953
 31
0.0
  0
ARC
  5
2E0FB
330
17
100
AcDbEntity
  8
0
100
AcDbCircle
 10
1030.38527808081
 20
3280.64226642177
 30
0.0
 40
1.54394544426795
100
AcDbArc
 50
23.25879879874818
 51
33.16591440255062
  0
ARC
  5
2E0FC
330
17
100
AcDbEntity
  8
0
100
AcDbCircle
 10
1040.682300224021
 20
3261.22252381078
 30
0.0
 40
1.399982632140609
100
AcDbArc
 50
76.44027326694332
 51
256.5720137259174
  0
ARC
  5
2E0FD
330
17
100
AcDbEntity
  8
0
100
AcDbCircle
 10
1039.446782652446
 20
3283.197346231534
 30
0.0
 40
1.40785896848522
100
AcDbArc
 50
345.3682181242679
 51
165.3682181241467
  0
ARC
  5
2E0FE
330
17
100
AcDbEntity
  8
0
100
AcDbCircle
 10
1080.657626440319
 20
3272.438311333369
 30
0.0
 40
41.18428206302799
100
AcDbArc
 50
165.3682181242679
 51
176.6607264305826
  0
ARC
  5
2E0FF
330
17
100
AcDbEntity
  8
0
100
AcDbCircle
 10
1080.657626440324
 20
3272.438311333369
 30
0.0
 40
44.00000000000969
100
AcDbArc
 50
165.3682181242679
 51
183.6133228217067
  0
ARC
  5
2E100
330
17
100
AcDbEntity
  8
0
100
AcDbCircle
 10
1014.090717235403
 20
3273.6386061888
 30
0.0
 40
19.27989678059442
100
AcDbArc
 50
335.947550761663
 51
23.25879879874818
  0
ARC
  5
2E101
330
17
100
AcDbEntity
  8
0
100
AcDbCircle
 10
1038.125715414529
 20
3269.752501189548
 30
0.0
 40
1.383371418728339
100
AcDbArc
 50
183.6133228217067
 51
326.2752900288704
  0
ARC
  5
2E102
330
17
100
AcDbEntity
  8
0
100
AcDbCircle
 10
1040.042421217216
 20
3274.808102815581
 30
0.0
 40
0.5000000000003802
100
AcDbArc
 50
176.6607264305826
 51
315.1560002023194
  0
ARC
  5
2E103
330
17
100
AcDbEntity
  8
0
100
AcDbCircle
 10
1040.682300224021
 20
3261.22252381078
 30
0.0
 40
1.399982632140609
100
AcDbArc
 50
76.44027326694332
 51
256.5720137260245
  0
ARC
  5
2E104
330
17
100
AcDbEntity
  8
0
100
AcDbCircle
 10
1040.66650212948
 20
3288.17692277973
 30
0.0
 40
1.496390750689569
100
AcDbArc
 50
81.49725951500197
 51
260.0654168637291
  0
ARC
  5
2E10A
330
17
100
AcDbEntity
  8
0
100
AcDbCircle
 10
1077.809551532087
 20
3262.620634796587
 30
0.0
 40
1.508759478175899
100
AcDbArc
 50
227.5053252625597
 51
36.95255904899858
  0
ARC
  5
2E10B
330
17
100
AcDbEntity
  8
0
100
AcDbCircle
 10
1078.17870579223
 20
3277.849873710438
 30
0.0
 40
1.59838475520062
100
AcDbArc
 50
225.7123204150284
 51
42.29462124486778
  0
ARC
  5
2E10C
330
17
100
AcDbEntity
  8
0
100
AcDbCircle
 10
1060.567982156047
 20
3249.650549000185
 30
0.0
 40
23.08408891052884
100
AcDbArc
 50
36.95255904899858
 51
50.41935307805171
  0
ARC
  5
2E10D
330
17
100
AcDbEntity
  8
0
100
AcDbCircle
 10
1069.914324322524
 20
3270.331283261812
 30
0.0
 40
12.77108377607171
100
AcDbArc
 50
42.29462124486778
 51
54.43602554543236
  0
ARC
  5
2E10E
330
17
100
AcDbEntity
  8
0
100
AcDbCircle
 10
1077.809551532085
 20
3262.620634796587
 30
0.0
 40
1.508759478175899
100
AcDbArc
 50
227.5053252625597
 51
36.95255904899858
  0
ARC
  5
2E10F
330
17
100
AcDbEntity
  8
0
100
AcDbCircle
 10
1160.089843429408
 20
3285.994595456104
 30
0.0
 40
86.92591254146107
100
AcDbArc
 50
185.5155054881011
 51
192.1343375077355
  0
ARC
  5
2E110
330
17
100
AcDbEntity
  8
0
100
AcDbCircle
 10
1066.756519761745
 20
3265.734904192082
 30
0.0
 40
7.999999999980129
100
AcDbArc
 50
306.8045183714034
 51
340.5113935452359
  0
ARC
  5
2E111
330
17
100
AcDbEntity
  8
0
100
AcDbCircle
 10
1044.94259232033
 20
3243.776907995852
 30
0.0
 40
46.00000000000163
100
AcDbArc
 50
45.71232041502837
 51
48.56121676227489
  0
ARC
  5
2E112
330
17
100
AcDbEntity
  8
0
100
AcDbCircle
 10
1088.928547809862
 20
3274.757154400639
 30
0.0
 40
17.96862540487014
100
AcDbArc
 50
219.9458009431884
 51
227.5053252625597
  0
ARC
  5
2E113
330
17
100
AcDbEntity
  8
0
100
AcDbCircle
 10
1117.631632056048
 20
3279.398235233431
 30
0.0
 40
46.75738212627013
100
AcDbArc
 50
182.3798083519408
 51
190.5097119724606
  0
ARC
  5
2E114
330
17
100
AcDbEntity
  8
0
100
AcDbCircle
 10
1076.427292413933
 20
3279.440596198528
 30
0.0
 40
1.572943951138179
100
AcDbArc
 50
54.43602554543236
 51
228.5612167622748
  0
ARC
  5
2E115
330
17
100
AcDbEntity
  8
0
100
AcDbCircle
 10
1072.242982098554
 20
3277.511910472276
 30
0.0
 40
1.32955182317279
100
AcDbArc
 50
5.515505488101178
 51
182.3798083519408
  0
ARC
  5
2E116
330
17
100
AcDbEntity
  8
0
100
AcDbCircle
 10
1075.034783816756
 20
3285.821942189762
 30
0.0
 40
1.698497634432039
100
AcDbArc
 50
276.0399308943378
 51
96.62942936441437
  0
ARC
  5
2E117
330
17
100
AcDbEntity
  8
0
100
AcDbCircle
 10
1075.59490735017
 20
3267.827478580016
 30
0.0
 40
0.49999999999931
100
AcDbArc
 50
192.1343375077355
 51
230.4193530780516
  0
ARC
  5
2E118
330
17
100
AcDbEntity
  8
0
100
AcDbCircle
 10
1074.769536500121
 20
3262.899139259982
 30
0.0
 40
0.49999999999974
100
AcDbArc
 50
39.94580094318836
 51
160.5113935451183
  0
ARC
  5
2E119
330
17
100
AcDbEntity
  8
0
100
AcDbCircle
 10
1070.231222869368
 20
3261.090936242835
 30
0.0
 40
2.199999999999878
100
AcDbArc
 50
290.5691554438941
 51
306.8045183714034
  0
ARC
  5
2E11A
330
17
100
AcDbEntity
  8
0
100
AcDbCircle
 10
1071.167039609641
 20
3270.778385222094
 30
0.0
 40
0.50000000000019
100
AcDbArc
 50
244.3869931393927
 51
10.50971197246071
  0
ARC
  5
2E11B
330
17
100
AcDbEntity
  8
0
100
AcDbCircle
 10
1066.756519761743
 20
3265.734904192082
 30
0.0
 40
7.999999999980129
100
AcDbArc
 50
306.8045183714034
 51
340.5113935452359
  0
ARC
  5
2E11C
330
17
100
AcDbEntity
  8
0
100
AcDbCircle
 10
1088.928547809862
 20
3274.757154400639
 30
0.0
 40
17.96862540487014
100
AcDbArc
 50
219.9458009431884
 51
227.5053252625597
  0
ARC
  5
2E11D
330
17
100
AcDbEntity
  8
0
100
AcDbCircle
 10
1074.769536500121
 20
3262.899139259982
 30
0.0
 40
0.49999999999974
100
AcDbArc
 50
39.94580094318836
 51
160.5113935451183
  0
ARC
  5
2E11E
330
17
100
AcDbEntity
  8
0
100
AcDbCircle
 10
1070.231222869368
 20
3261.090936242835
 30
0.0
 40
2.199999999999878
100
AcDbArc
 50
290.5691554438941
 51
306.8045183714034
  0
ARC
  5
2E11F
330
17
100
AcDbEntity
  8
0
100
AcDbCircle
 10
1059.783918114831
 20
3265.305707357661
 30
0.0
 40
1.48156975236383
100
AcDbArc
 50
160.2811069395489
 51
341.2328116893805
  0
ARC
  5
2E120
330
17
100
AcDbEntity
  8
0
100
AcDbCircle
 10
950.4953492795896
 20
3304.477342563576
 30
0.0
 40
114.614977495006
100
AcDbArc
 50
340.2811069395489
 51
349.093501332935
  0
ARC
  5
2E121
330
17
100
AcDbEntity
  8
0
100
AcDbCircle
 10
1060.231110997117
 20
3285.218614632349
 30
0.0
 40
1.63657827691559
100
AcDbArc
 50
88.51590272984662
 51
265.3401060224037
  0
ARC
  5
2E122
330
17
100
AcDbEntity
  8
0
100
AcDbCircle
 10
1047.375354642166
 20
3269.383857666527
 30
0.0
 40
5.01182944459679
100
AcDbArc
 50
15.84511254355551
 51
43.19946961498239
  0
ARC
  5
2E123
330
17
100
AcDbEntity
  8
0
100
AcDbCircle
 10
1047.305316479288
 20
3269.37839788661
 30
0.0
 40
8.15738022964307
100
AcDbArc
 50
91.57397095084794
 51
106.8136262035835
  0
ARC
  5
2E124
330
17
100
AcDbEntity
  8
0
100
AcDbCircle
 10
1046.42473129384
 20
3269.114049774604
 30
0.0
 40
6.00000000111757
100
AcDbArc
 50
303.3169227853081
 51
15.84511254355551
  0
ARC
  5
2E125
330
17
100
AcDbEntity
  8
0
100
AcDbCircle
 10
1047.263599884006
 20
3269.137843407627
 30
0.0
 40
5.282037034284348
100
AcDbArc
 50
91.16927715008369
 51
115.0243549754701
  0
ARC
  5
2E126
330
17
100
AcDbEntity
  8
0
100
AcDbCircle
 10
1050.396440663227
 20
3285.580951035486
 30
0.0
 40
1.700366599718029
100
AcDbArc
 50
247.7493804521116
 51
74.97453310918235
  0
ARC
  5
2E127
330
17
100
AcDbEntity
  8
0
100
AcDbCircle
 10
1047.124031822802
 20
3275.975872092543
 30
0.0
 40
1.557415834144979
100
AcDbArc
 50
271.1692771500836
 51
91.57397095084794
  0
ARC
  5
2E128
330
17
100
AcDbEntity
  8
0
100
AcDbCircle
 10
1052.155341896595
 20
3273.872481208273
 30
0.0
 40
1.545305559012188
100
AcDbArc
 50
42.8185052486497
 51
223.1994696149823
  0
ARC
  5
2E129
330
17
100
AcDbEntity
  8
0
100
AcDbCircle
 10
1046.436593802199
 20
3269.147607123899
 30
0.0
 40
9.05623698496702
100
AcDbArc
 50
297.1411212152152
 51
14.87791842074391
  0
ARC
  5
2E12A
330
17
100
AcDbEntity
  8
0
100
AcDbCircle
 10
1047.305316479288
 20
3269.37839788661
 30
0.0
 40
8.15738022964574
100
AcDbArc
 50
14.87791842074391
 51
42.8185052486497
  0
LINE
  5
2E12B
330
17
100
AcDbEntity
  8
0
100
AcDbLine
 10
1060.098153970049
 20
3283.587446067971
 30
0.0
 11
1062.589717874276
 21
3283.384357964944
 31
0.0
  0
ARC
  5
2E12C
330
17
100
AcDbEntity
  8
0
100
AcDbCircle
 10
934.9508112888718
 20
3307.722605600682
 30
0.0
 40
133.3242707879771
100
AcDbArc
 50
341.2328116893805
 51
349.3649013598442
  0
ARC
  5
2E12D
330
17
100
AcDbEntity
  8
0
100
AcDbCircle
 10
1068.23657000352
 20
3263.514796536846
 30
0.0
 40
4.517008828766729
100
AcDbArc
 50
196.2492694422311
 51
225.0949546243087
  0
ARC
  5
2E12E
330
17
100
AcDbEntity
  8
0
100
AcDbCircle
 10
1068.050102259863
 20
3266.861300617705
 30
0.0
 40
3.957955426828589
100
AcDbArc
 50
105.7360571231477
 51
152.3308486542979
  0
ARC
  5
2E12F
330
17
100
AcDbEntity
  8
0
100
AcDbCircle
 10
1072.218912841928
 20
3264.67548853083
 30
0.0
 40
8.66505178746803
100
AcDbArc
 50
152.3308486542979
 51
196.2492694422311
  0
ARC
  5
2E130
330
17
100
AcDbEntity
  8
0
100
AcDbCircle
 10
1062.942330777428
 20
3389.865871280437
 30
0.0
 40
103.0457938621791
100
AcDbArc
 50
268.5159027297424
 51
270.2072470594103
  0
ARC
  5
2E131
330
17
100
AcDbEntity
  8
0
100
AcDbCircle
 10
1067.224444792181
 20
3287.409522827112
 30
0.0
 40
0.49999999999974
100
AcDbArc
 50
171.2693707931436
 51
272.3932568136527
  0
ARC
  5
2E132
330
17
100
AcDbEntity
  8
0
100
AcDbCircle
 10
1063.313252825631
 20
3287.320748258136
 30
0.0
 40
0.5000000000000701
100
AcDbArc
 50
270.2072470594103
 51
351.3530908298923
  0
ARC
  5
2E133
330
17
100
AcDbEntity
  8
0
100
AcDbCircle
 10
1062.549097444158
 20
3282.886010715872
 30
0.0
 40
0.4999999999999301
100
AcDbArc
 50
349.093501332935
 51
85.34010602250836
  0
ARC
  5
2E134
330
17
100
AcDbEntity
  8
0
100
AcDbCircle
 10
1066.476312795106
 20
3283.02487482501
 30
0.0
 40
0.5
100
AcDbArc
 50
91.90987726159269
 51
169.3649013598442
  0
ARC
  5
2E135
330
17
100
AcDbEntity
  8
0
100
AcDbCircle
 10
1068.23657000352
 20
3263.514796536846
 30
0.0
 40
4.517008828766729
100
AcDbArc
 50
196.2492694422311
 51
225.0949546243087
  0
ARC
  5
2E136
330
17
100
AcDbEntity
  8
0
100
AcDbCircle
 10
1065.483734420742
 20
3288.836913180368
 30
0.0
 40
1.432218716802859
100
AcDbArc
 50
351.7674893860299
 51
172.2543065993026
  0
ARC
  5
2E137
330
17
100
AcDbEntity
  8
0
100
AcDbCircle
 10
934.9508112888718
 20
3307.722605600682
 30
0.0
 40
133.3242707879764
100
AcDbArc
 50
351.2693707931437
 51
351.7674893860299
  0
ARC
  5
2E138
330
17
100
AcDbEntity
  8
0
100
AcDbCircle
 10
950.4953492795896
 20
3304.477342563576
 30
0.0
 40
114.6149774950051
100
AcDbArc
 50
351.3530908298923
 51
352.2543065993027
  0
ARC
  5
2E139
330
17
100
AcDbEntity
  8
0
100
AcDbCircle
 10
1069.024849806641
 20
3264.305693465903
 30
0.0
 40
5.633656937873628
100
AcDbArc
 50
225.0949546243087
 51
290.5691554438941
  0
ARC
  5
2E13A
330
17
100
AcDbEntity
  8
0
100
AcDbCircle
 10
1068.50878632617
 20
3265.23341335276
 30
0.0
 40
5.649229508709489
100
AcDbArc
 50
64.38699313939267
 51
105.7360571231477
  0
ARC
  5
2E13B
330
17
100
AcDbEntity
  8
0
100
AcDbCircle
 10
1062.942330777428
 20
3389.865871280437
 30
0.0
 40
103.0457938621788
100
AcDbArc
 50
272.3932568136527
 51
276.6294293644143
  0
ARC
  5
2E13C
330
17
100
AcDbEntity
  8
0
100
AcDbCircle
 10
1062.401681410397
 20
3405.217390399168
 30
0.0
 40
121.7604330241878
100
AcDbArc
 50
271.9098772614884
 51
276.0399308943378
  0
ARC
  5
2E13D
330
17
100
AcDbEntity
  8
0
100
AcDbCircle
 10
1069.024849806641
 20
3264.305693465903
 30
0.0
 40
5.633656937873628
100
AcDbArc
 50
225.0949546243087
 51
290.5691554438941
  0
ARC
  5
2E13E
330
17
100
AcDbEntity
  8
0
100
AcDbCircle
 10
1100.874290151288
 20
3263.775218979113
 30
0.0
 40
1.44224150061386
100
AcDbArc
 50
177.6421261176972
 51
355.6185784361422
  0
ARC
  5
2E13F
330
17
100
AcDbEntity
  8
0
100
AcDbCircle
 10
1056.071537397803
 20
3267.20798976287
 30
0.0
 40
46.37631064107124
100
AcDbArc
 50
355.6185784361422
 51
25.22058032542877
  0
ARC
  5
2E140
330
17
100
AcDbEntity
  8
0
100
AcDbCircle
 10
1100.874290151288
 20
3263.775218979113
 30
0.0
 40
1.44224150061386
100
AcDbArc
 50
177.6421261176972
 51
355.6185784361422
  0
ARC
  5
2E141
330
17
100
AcDbEntity
  8
0
100
AcDbCircle
 10
1089.987071179904
 20
3270.334651453369
 30
0.0
 40
1.270127722315129
100
AcDbArc
 50
350.4940833534047
 51
166.7769809815951
  0
ARC
  5
2E142
330
17
100
AcDbEntity
  8
0
100
AcDbCircle
 10
1111.629663483234
 20
3272.191697716862
 30
0.0
 40
26.15556005639287
100
AcDbArc
 50
183.5167016871965
 51
194.8030098755126
  0
ARC
  5
2E143
330
17
100
AcDbEntity
  8
0
100
AcDbCircle
 10
1228.567227834018
 20
3277.129878589219
 30
0.0
 40
145.989524726829
100
AcDbArc
 50
181.9490721119744
 51
183.3182230897275
  0
ARC
  5
2E144
330
17
100
AcDbEntity
  8
0
100
AcDbCircle
 10
1086.630095366659
 20
3261.787983269492
 30
0.0
 40
1.839299936698199
100
AcDbArc
 50
208.146975733909
 51
333.6487643014411
  0
ARC
  5
2E145
330
17
100
AcDbEntity
  8
0
100
AcDbCircle
 10
1058.850516626187
 20
3275.548429142764
 30
0.0
 40
32.84018485357495
100
AcDbArc
 50
333.6487643014411
 51
350.4940833534047
  0
ARC
  5
2E146
330
17
100
AcDbEntity
  8
0
100
AcDbCircle
 10
1029.526226619547
 20
3284.541243834963
 30
0.0
 40
60.83736773561575
100
AcDbArc
 50
341.7410274264994
 51
346.7769809815951
  0
ARC
  5
2E147
330
17
100
AcDbEntity
  8
0
100
AcDbCircle
 10
1101.540316367361
 20
3269.765016614161
 30
0.0
 40
18.74928962539017
100
AcDbArc
 50
183.3182230897275
 51
208.146975733909
  0
ARC
  5
2E148
330
17
100
AcDbEntity
  8
0
100
AcDbCircle
 10
1175.512180065026
 20
3276.117611525262
 30
0.0
 40
90.15859689101082
100
AcDbArc
 50
173.187049528749
 51
183.5167016871965
  0
ARC
  5
2E149
330
17
100
AcDbEntity
  8
0
100
AcDbCircle
 10
1188.111241783151
 20
3275.753126849726
 30
0.0
 40
105.5101194359899
100
AcDbArc
 50
173.8104036719959
 51
181.9490721119744
  0
ARC
  5
2E14A
330
17
100
AcDbEntity
  8
0
100
AcDbCircle
 10
1086.825612282673
 20
3265.636790711653
 30
0.0
 40
0.50000000000333
100
AcDbArc
 50
194.8030098755126
 51
341.7410274264994
  0
ARC
  5
2E14B
330
17
100
AcDbEntity
  8
0
100
AcDbCircle
 10
1086.630095366659
 20
3261.787983269492
 30
0.0
 40
1.839299936698199
100
AcDbArc
 50
208.146975733909
 51
333.6487643014411
  0
ARC
  5
2E14C
330
17
100
AcDbEntity
  8
0
100
AcDbCircle
 10
1048.27587717137
 20
3265.941006476534
 30
0.0
 40
51.20074173067726
100
AcDbArc
 50
357.6421261176972
 51
22.85045344180089
  0
ARC
  5
2E14D
330
17
100
AcDbEntity
  8
0
100
AcDbCircle
 10
1084.604062701015
 20
3286.978588767204
 30
0.0
 40
1.39601320219498
100
AcDbArc
 50
353.187049528749
 51
173.8104036719959
  0
ARC
  5
2E14E
330
17
100
AcDbEntity
  8
0
100
AcDbCircle
 10
1096.754571306779
 20
3286.36982430349
 30
0.0
 40
1.406485747032869
100
AcDbArc
 50
25.22058032542877
 51
202.8504534418008
  0
ARC
  5
2E14F
330
17
100
AcDbEntity
  8
0
100
AcDbCircle
 10
1110.5058928264
 20
3337.882968602674
 30
0.0
 40
53.62051600018374
100
AcDbArc
 50
266.7721264100586
 51
269.4866161096133
  0
ARC
  5
2E150
330
17
100
AcDbEntity
  8
0
100
AcDbCircle
 10
1105.041205465784
 20
3275.959103306912
 30
0.0
 40
7.00000000000061
100
AcDbArc
 50
349.1030116609468
 51
350.7635016627942
  0
ARC
  5
2E151
330
17
100
AcDbEntity
  8
0
100
AcDbCircle
 10
1107.486670327685
 20
3286.097709265945
 30
0.0
 40
1.750187160234349
100
AcDbArc
 50
89.79460988831913
 51
270.000000000938
  0
LINE
  5
2E152
330
17
100
AcDbEntity
  8
0
100
AcDbLine
 10
1179.17204377018
 20
3280.484993067213
 30
0.0
 11
1187.216356995617
 21
3280.273102352179
 31
0.0
  0
ARC
  5
2E153
330
17
100
AcDbEntity
  8
0
100
AcDbCircle
 10
1185.278524762501
 20
3267.855458196687
 30
0.0
 40
5.617305160256669
100
AcDbArc
 50
211.4261509153831
 51
264.0839395123948
  0
ARC
  5
2E154
330
17
100
AcDbEntity
  8
0
100
AcDbCircle
 10
1184.829586290241
 20
3267.181187076377
 30
0.0
 40
7.898530250434009
100
AcDbArc
 50
208.2192809474533
 51
260.1757398944156
  0
ARC
  5
2E155
330
17
100
AcDbEntity
  8
0
100
AcDbCircle
 10
1181.395835783865
 20
3325.80469443874
 30
0.0
 40
42.28415870897504
100
AcDbArc
 50
267.1449662842808
 51
275.7431237728484
  0
ARC
  5
2E156
330
17
100
AcDbEntity
  8
0
100
AcDbCircle
 10
1184.829586290241
 20
3267.181187076377
 30
0.0
 40
7.898530250434009
100
AcDbArc
 50
208.2192809474533
 51
260.1757398944156
  0
ARC
  5
2E157
330
17
100
AcDbEntity
  8
0
100
AcDbCircle
 10
1128.419319947923
 20
3272.26174837558
 30
0.0
 40
13.94061844876689
100
AcDbArc
 50
142.6707381437208
 51
190.2073746071734
  0
ARC
  5
2E158
330
17
100
AcDbEntity
  8
0
100
AcDbCircle
 10
1122.421556866576
 20
3261.366839330478
 30
0.0
 40
1.72245720366535
100
AcDbArc
 50
263.3791684782481
 51
88.25999634384823
  0
ARC
  5
2E159
330
17
100
AcDbEntity
  8
0
100
AcDbCircle
 10
1122.721356419038
 20
3271.235765766562
 30
0.0
 40
8.151021857595308
100
AcDbArc
 50
190.2073746071734
 51
268.2599963438482
  0
ARC
  5
2E15A
330
17
100
AcDbEntity
  8
0
100
AcDbCircle
 10
1157.476650973121
 20
3287.690604662834
 30
0.0
 40
33.17104344998111
100
AcDbArc
 50
191.0048735541397
 51
197.3582324805438
  0
ARC
  5
2E15B
330
17
100
AcDbEntity
  8
0
100
AcDbCircle
 10
1157.476650973121
 20
3287.690604662834
 30
0.0
 40
30.49489490310125
100
AcDbArc
 50
191.0048735541397
 51
197.3582324805438
  0
ARC
  5
2E15C
330
17
100
AcDbEntity
  8
0
100
AcDbCircle
 10
1126.229059865816
 20
3281.613929865929
 30
0.0
 40
1.338074273472009
100
AcDbArc
 50
11.00487355413975
 51
191.0048735541397
  0
ARC
  5
2E15D
330
17
100
AcDbEntity
  8
0
100
AcDbCircle
 10
1127.093416652883
 20
3278.193394607459
 30
0.0
 40
1.33807427344576
100
AcDbArc
 50
197.3582324805438
 51
17.35823248054378
  0
ARC
  5
2E15E
330
17
100
AcDbEntity
  8
0
100
AcDbCircle
 10
1122.922124973106
 20
3277.136436683242
 30
0.0
 40
1.33807427344576
100
AcDbArc
 50
197.3582324805438
 51
17.35823248054378
  0
ARC
  5
2E15F
330
17
100
AcDbEntity
  8
0
100
AcDbCircle
 10
1122.057768186035
 20
3280.55697194171
 30
0.0
 40
1.338074273472918
100
AcDbArc
 50
11.00487355413975
 51
191.0048735539938
  0
ARC
  5
2E160
330
17
100
AcDbEntity
  8
0
100
AcDbCircle
 10
1153.305359293342
 20
3286.633646738615
 30
0.0
 40
30.49489490310125
100
AcDbArc
 50
191.0048735541397
 51
197.3582324805438
  0
ARC
  5
2E161
330
17
100
AcDbEntity
  8
0
100
AcDbCircle
 10
1134.745383707066
 20
3274.579126959985
 30
0.0
 40
4.795535120086979
100
AcDbArc
 50
125.3279955183855
 51
232.0818430853753
  0
ARC
  5
2E162
330
17
100
AcDbEntity
  8
0
100
AcDbCircle
 10
1134.518396924804
 20
3274.627734791931
 30
0.0
 40
1.686705324051148
100
AcDbArc
 50
124.4835142518083
 51
234.6308474606038
  0
ARC
  5
2E163
330
17
100
AcDbEntity
  8
0
100
AcDbCircle
 10
1153.305359293342
 20
3286.633646738615
 30
0.0
 40
33.17104344998199
100
AcDbArc
 50
191.0048735541397
 51
197.3582324805438
  0
ARC
  5
2E164
330
17
100
AcDbEntity
  8
0
100
AcDbCircle
 10
1123.797823810118
 20
3273.223808208204
 30
0.0
 40
13.65903215910447
100
AcDbArc
 50
239.3269963706474
 51
263.3791684782481
  0
ARC
  5
2E165
330
17
100
AcDbEntity
  8
0
100
AcDbCircle
 10
1125.487434539345
 20
3274.497613774931
 30
0.0
 40
10.25347237991509
100
AcDbArc
 50
95.79689503911223
 51
142.6707381437208
  0
ARC
  5
2E166
330
17
100
AcDbEntity
  8
0
100
AcDbCircle
 10
1115.515665689863
 20
3283.71539000839
 30
0.0
 40
0.49999999999944
100
AcDbArc
 50
319.7143125585686
 51
89.48661610971752
  0
ARC
  5
2E167
330
17
100
AcDbEntity
  8
0
100
AcDbCircle
 10
1122.421556866576
 20
3261.366839330478
 30
0.0
 40
1.72245720366535
100
AcDbArc
 50
263.3791684782481
 51
88.25999634384823
  0
ARC
  5
2E168
330
17
100
AcDbEntity
  8
0
100
AcDbCircle
 10
1123.797823810118
 20
3273.223808208204
 30
0.0
 40
13.65903215910447
100
AcDbArc
 50
239.3269963706474
 51
263.3791684782481
  0
ARC
  5
2E169
330
17
100
AcDbEntity
  8
0
100
AcDbCircle
 10
1124.267714568673
 20
3286.512009028416
 30
0.0
 40
1.82267808758924
100
AcDbArc
 50
275.7968950391122
 51
93.52851757393466
  0
ARC
  5
2E16A
330
17
100
AcDbEntity
  8
0
100
AcDbCircle
 10
1115.175247001339
 20
3329.525718582643
 30
0.0
 40
2.0
100
AcDbArc
 50
180.0
 51
0.0
  0
ARC
  5
2E16B
330
17
100
AcDbEntity
  8
0
100
AcDbCircle
 10
1062.323368939234
 20
3181.609748387958
 30
0.0
 40
113.0528996387356
100
AcDbArc
 50
43.76298582398603
 51
52.0818430853771
  0
ARC
  5
2E16C
330
17
100
AcDbEntity
  8
0
100
AcDbCircle
 10
1080.141845395009
 20
3198.025184697444
 30
0.0
 40
92.2534886147152
100
AcDbArc
 50
44.05995006623611
 51
54.63084746060388
  0
ARC
  5
2E16D
330
17
100
AcDbEntity
  8
0
100
AcDbCircle
 10
1088.747294775382
 20
3341.266169639548
 30
0.0
 40
79.15681507747992
100
AcDbArc
 50
304.4835142518083
 51
316.3727757342589
  0
ARC
  5
2E16E
330
17
100
AcDbEntity
  8
0
100
AcDbCircle
 10
1096.200000558046
 20
3328.962360442107
 30
0.0
 40
61.86241748930285
100
AcDbArc
 50
305.3279955183854
 51
319.7643575690573
  0
ARC
  5
2E16F
330
17
100
AcDbEntity
  8
0
100
AcDbCircle
 10
1145.206750623625
 20
3260.989333032734
 30
0.0
 40
1.71109043575421
100
AcDbArc
 50
223.7629858239855
 51
44.05995006623611
  0
ARC
  5
2E170
330
17
100
AcDbEntity
  8
0
100
AcDbCircle
 10
1145.206750623623
 20
3260.989333032734
 30
0.0
 40
1.71109043575421
100
AcDbArc
 50
223.7629858239861
 51
44.05995006623611
  0
ARC
  5
2E171
330
17
100
AcDbEntity
  8
0
100
AcDbCircle
 10
1144.769779362488
 20
3287.865896632391
 30
0.0
 40
1.761027488290249
100
AcDbArc
 50
316.3727757342589
 51
139.7643575690572
  0
ARC
  5
2E172
330
17
100
AcDbEntity
  8
0
100
AcDbCircle
 10
1174.679194485228
 20
3289.126253607137
 30
0.0
 40
1.253147030119198
100
AcDbArc
 50
29.3277489657093
 51
203.920881505445
  0
ARC
  5
2E173
330
17
100
AcDbEntity
  8
0
100
AcDbCircle
 10
977.0257443512614
 20
3304.34127205111
 30
0.0
 40
182.9581315231924
100
AcDbArc
 50
346.0899791517441
 51
353.0469408782256
  0
LINE
  5
2E174
330
17
100
AcDbEntity
  8
0
100
AcDbLine
 10
1153.89164803644
 20
3282.460532249726
 30
0.0
 11
1155.469140026352
 21
3282.330618929209
 31
0.0
  0
ARC
  5
2E175
330
17
100
AcDbEntity
  8
0
100
AcDbCircle
 10
1153.769109039678
 20
3358.05172178198
 30
0.0
 40
72.32330795966797
100
AcDbArc
 50
270.199010475267
 51
271.7528596815847
  0
ARC
  5
2E176
330
17
100
AcDbEntity
  8
0
100
AcDbCircle
 10
1155.966069166901
 20
3286.262022434031
 30
0.0
 40
0.4999999999999301
100
AcDbArc
 50
271.7528596815847
 51
353.7539942938938
  0
ARC
  5
2E177
330
17
100
AcDbEntity
  8
0
100
AcDbCircle
 10
1155.428101783954
 20
3281.832305912461
 30
0.0
 40
0.4999999999997202
100
AcDbArc
 50
352.3972409332344
 51
85.29206783029684
  0
ARC
  5
2E178
330
17
100
AcDbEntity
  8
0
100
AcDbCircle
 10
1153.290619190622
 20
3260.687407950159
 30
0.0
 40
1.368027296448359
100
AcDbArc
 50
165.9888479223282
 51
346.0899791517441
  0
ARC
  5
2E179
330
17
100
AcDbEntity
  8
0
100
AcDbCircle
 10
968.6386202736043
 20
3306.764498903933
 30
0.0
 40
188.9460788933249
100
AcDbArc
 50
345.9888479223283
 51
352.3972409332344
  0
ARC
  5
2E17A
330
17
100
AcDbEntity
  8
0
100
AcDbCircle
 10
1154.026001112872
 20
3284.091934642103
 30
0.0
 40
1.63692532358557
100
AcDbArc
 50
90.19901047526699
 51
265.2920678302968
  0
ARC
  5
2E17B
330
17
100
AcDbEntity
  8
0
100
AcDbCircle
 10
1153.290619190622
 20
3260.687407950159
 30
0.0
 40
1.368027296448359
100
AcDbArc
 50
165.9888479223282
 51
346.0899791517441
  0
ARC
  5
2E17C
330
17
100
AcDbEntity
  8
0
100
AcDbCircle
 10
1171.790616470641
 20
3285.048110406123
 30
0.0
 40
1.33460802839509
100
AcDbArc
 50
202.9645193137159
 51
24.74294691821359
  0
ARC
  5
2E17D
330
17
100
AcDbEntity
  8
0
100
AcDbCircle
 10
1177.903654983343
 20
3268.744564986744
 30
0.0
 40
1.454979849537179
100
AcDbArc
 50
1.213266395066942
 51
182.0804958872085
  0
ARC
  5
2E17E
330
17
100
AcDbEntity
  8
0
100
AcDbCircle
 10
1187.050662726154
 20
3268.938286343745
 30
0.0
 40
7.694079042567659
100
AcDbArc
 50
181.2132663950669
 51
211.4261509153831
  0
ARC
  5
2E17F
330
17
100
AcDbEntity
  8
0
100
AcDbCircle
 10
1160.640150289505
 20
3268.849206912655
 30
0.0
 40
1.273045927318559
100
AcDbArc
 50
344.1576826940451
 51
160.4759530822875
  0
ARC
  5
2E180
330
17
100
AcDbEntity
  8
0
100
AcDbCircle
 10
1164.524596607092
 20
3265.945354697485
 30
0.0
 40
3.00485059496365
100
AcDbArc
 50
180.686030076942
 51
265.7386583237002
  0
ARC
  5
2E181
330
17
100
AcDbEntity
  8
0
100
AcDbCircle
 10
1170.616246563294
 20
3266.018296454174
 30
0.0
 40
9.09693723987316
100
AcDbArc
 50
164.157682694045
 51
180.686030076942
  0
ARC
  5
2E182
330
17
100
AcDbEntity
  8
0
100
AcDbCircle
 10
1188.457360102127
 20
3269.127954402751
 30
0.0
 40
12.01564645637775
100
AcDbArc
 50
182.0804958872085
 51
208.2192809474533
  0
ARC
  5
2E183
330
17
100
AcDbEntity
  8
0
100
AcDbCircle
 10
1171.215812111151
 20
3261.683420871635
 30
0.0
 40
1.64581203649205
100
AcDbArc
 50
281.5324765795712
 51
100.37647161695
  0
ARC
  5
2E184
330
17
100
AcDbEntity
  8
0
100
AcDbCircle
 10
1166.234179639257
 20
3288.889118518362
 30
0.0
 40
26.01221838030931
100
AcDbArc
 50
265.7386583237002
 51
280.37647161695
  0
ARC
  5
2E185
330
17
100
AcDbEntity
  8
0
100
AcDbCircle
 10
1165.485886933314
 20
3267.1351639042
 30
0.0
 40
7.519613561215808
100
AcDbArc
 50
215.0629126740682
 51
252.5326827039821
  0
ARC
  5
2E186
330
17
100
AcDbEntity
  8
0
100
AcDbCircle
 10
1169.735447130124
 20
3265.624096776611
 30
0.0
 40
10.92321483806658
100
AcDbArc
 50
160.4759530822875
 51
190.7200801305046
  0
ARC
  5
2E187
330
17
100
AcDbEntity
  8
0
100
AcDbCircle
 10
1167.044744527709
 20
3282.125556461104
 30
0.0
 40
22.50914619581421
100
AcDbArc
 50
260.9793597840598
 51
281.5324765795712
  0
ARC
  5
2E188
330
17
100
AcDbEntity
  8
0
100
AcDbCircle
 10
1161.507355649262
 20
3276.903039207165
 30
0.0
 40
1.449209799190408
100
AcDbArc
 50
116.8745786468
 51
288.4303757988559
  0
ARC
  5
2E189
330
17
100
AcDbEntity
  8
0
100
AcDbCircle
 10
1170.205204587777
 20
3278.367503775507
 30
0.0
 40
1.709074605568948
100
AcDbArc
 50
267.3645295616609
 51
85.49075348144761
  0
ARC
  5
2E18A
330
17
100
AcDbEntity
  8
0
100
AcDbCircle
 10
1169.090374964645
 20
3254.147927475589
 30
0.0
 40
22.53614597986052
100
AcDbArc
 50
87.3645295616609
 51
108.4303757988559
  0
ARC
  5
2E18B
330
17
100
AcDbEntity
  8
0
100
AcDbCircle
 10
1168.933975162349
 20
3262.248260980586
 30
0.0
 40
17.87836687624638
100
AcDbArc
 50
85.49075348144761
 51
116.8745786468
  0
ARC
  5
2E18C
330
17
100
AcDbEntity
  8
0
100
AcDbCircle
 10
1028.531259652052
 20
3224.342792190031
 30
0.0
 40
154.2558125500993
100
AcDbArc
 50
22.96451931371585
 51
23.92088150544505
  0
ARC
  5
2E18D
330
17
100
AcDbEntity
  8
0
100
AcDbCircle
 10
1166.836544790301
 20
3285.191151437839
 30
0.0
 40
1.69980051294277
100
AcDbArc
 50
278.9121697735339
 51
100.1678142298995
  0
ARC
  5
2E18E
330
17
100
AcDbEntity
  8
0
100
AcDbCircle
 10
1153.519108904649
 20
3370.116499240265
 30
0.0
 40
87.66298331774233
100
AcDbArc
 50
273.6519351875344
 51
278.9121697735339
  0
ARC
  5
2E18F
330
17
100
AcDbEntity
  8
0
100
AcDbCircle
 10
1153.769109039678
 20
3358.05172178198
 30
0.0
 40
72.32330795967055
100
AcDbArc
 50
274.7160175428016
 51
280.1678142298996
  0
ARC
  5
2E190
330
17
100
AcDbEntity
  8
0
100
AcDbCircle
 10
1179.21273197137
 20
3282.029698010477
 30
0.0
 40
1.545240722805949
100
AcDbArc
 50
87.14496628428078
 51
268.4911530962519
  0
ARC
  5
2E191
330
17
100
AcDbEntity
  8
0
100
AcDbCircle
 10
1159.134662908667
 20
3282.132539448081
 30
0.0
 40
0.4999999999999
100
AcDbArc
 50
93.65193518742991
 51
173.0469408782255
  0
ARC
  5
2E192
330
17
100
AcDbEntity
  8
0
100
AcDbCircle
 10
1159.674214873311
 20
3286.471575851958
 30
0.0
 40
0.5000000000003802
100
AcDbArc
 50
173.9364444301345
 51
274.7160175429061
  0
ARC
  5
2E193
330
17
100
AcDbEntity
  8
0
100
AcDbCircle
 10
1163.829110174361
 20
3261.870068972848
 30
0.0
 40
2.000000000000258
100
AcDbArc
 50
252.5326827039821
 51
260.9793597840598
  0
ARC
  5
2E194
330
17
100
AcDbEntity
  8
0
100
AcDbCircle
 10
1160.96796321184
 20
3263.964280886475
 30
0.0
 40
2.00000000000071
100
AcDbArc
 50
190.7200801305046
 51
215.0629126740682
  0
ARC
  5
2E195
330
17
100
AcDbEntity
  8
0
100
AcDbCircle
 10
1171.215812111151
 20
3261.683420871635
 30
0.0
 40
1.64581203649205
100
AcDbArc
 50
281.5324765795712
 51
100.37647161695
  0
ARC
  5
2E196
330
17
100
AcDbEntity
  8
0
100
AcDbCircle
 10
1166.234179639257
 20
3288.889118518362
 30
0.0
 40
26.01221838030931
100
AcDbArc
 50
265.7386583237002
 51
280.37647161695
  0
ARC
  5
2E197
330
17
100
AcDbEntity
  8
0
100
AcDbCircle
 10
1165.485886933314
 20
3267.1351639042
 30
0.0
 40
7.519613561215808
100
AcDbArc
 50
215.0629126740682
 51
252.5326827040913
  0
ARC
  5
2E198
330
17
100
AcDbEntity
  8
0
100
AcDbCircle
 10
1167.044744527709
 20
3282.125556461104
 30
0.0
 40
22.50914619581421
100
AcDbArc
 50
260.9793597840598
 51
281.5324765795712
  0
ARC
  5
2E199
330
17
100
AcDbEntity
  8
0
100
AcDbCircle
 10
1163.829110174361
 20
3261.870068972848
 30
0.0
 40
2.000000000000258
100
AcDbArc
 50
252.5326827040913
 51
260.9793597840598
  0
ARC
  5
2E19A
330
17
100
AcDbEntity
  8
0
100
AcDbCircle
 10
1160.96796321184
 20
3263.964280886475
 30
0.0
 40
2.00000000000071
100
AcDbArc
 50
190.7200801305046
 51
215.0629126740682
  0
ARC
  5
2E19B
330
17
100
AcDbEntity
  8
0
100
AcDbCircle
 10
1158.070034402609
 20
3288.832810718941
 30
0.0
 40
1.332154491595169
100
AcDbArc
 50
354.5924613118788
 51
174.592461311882
  0
ARC
  5
2E19C
330
17
100
AcDbEntity
  8
0
100
AcDbCircle
 10
968.6386202736043
 20
3306.764498903933
 30
0.0
 40
188.9460788933247
100
AcDbArc
 50
353.7539942938938
 51
354.5924613118788
  0
ARC
  5
2E19D
330
17
100
AcDbEntity
  8
0
100
AcDbCircle
 10
1032.527484118465
 20
3226.071295441907
 30
0.0
 40
154.2558125500983
100
AcDbArc
 50
22.96451931371585
 51
23.92088150544505
  0
ARC
  5
2E19E
330
17
100
AcDbEntity
  8
0
100
AcDbCircle
 10
1146.348338637597
 20
3273.209671994676
 30
0.0
 40
33.74891542054643
100
AcDbArc
 50
24.74294691821359
 51
29.3277489657093
  0
ARC
  5
2E19F
330
17
100
AcDbEntity
  8
0
100
AcDbCircle
 10
1175.786840937052
 20
3286.776613657999
 30
0.0
 40
1.334608028395299
100
AcDbArc
 50
202.9645193137159
 51
24.74294691821359
  0
ARC
  5
2E1A0
330
17
100
AcDbEntity
  8
0
100
AcDbCircle
 10
1170.682970018815
 20
3287.39775035526
 30
0.0
 40
1.253147030119138
100
AcDbArc
 50
29.3277489657093
 51
203.920881505445
  0
ARC
  5
2E1A1
330
17
100
AcDbEntity
  8
0
100
AcDbCircle
 10
1142.352114171184
 20
3271.481168742801
 30
0.0
 40
33.74891542054637
100
AcDbArc
 50
24.74294691821359
 51
29.3277489657093
  0
ARC
  5
2E1A2
330
17
100
AcDbEntity
  8
0
100
AcDbCircle
 10
968.638620279545
 20
3306.764498903339
 30
0.0
 40
191.610387870524
100
AcDbArc
 50
353.9364444301345
 51
354.5924613118788
  0
ARC
  5
2E1A3
330
17
100
AcDbEntity
  8
0
100
AcDbCircle
 10
1217.505653959462
 20
3263.775218979113
 30
0.0
 40
1.44224150061386
100
AcDbArc
 50
177.6421261176972
 51
355.6185784361422
  0
ARC
  5
2E1A4
330
17
100
AcDbEntity
  8
0
100
AcDbCircle
 10
1217.505653959462
 20
3263.775218979113
 30
0.0
 40
1.44224150061386
100
AcDbArc
 50
177.6421261176972
 51
355.6185784361422
  0
ARC
  5
2E1A5
330
17
100
AcDbEntity
  8
0
100
AcDbCircle
 10
1172.702901205977
 20
3267.20798976287
 30
0.0
 40
46.37631064107124
100
AcDbArc
 50
355.6185784361422
 51
25.22058032542877
  0
ARC
  5
2E1A6
330
17
100
AcDbEntity
  8
0
100
AcDbCircle
 10
1164.907240979544
 20
3265.941006476534
 30
0.0
 40
51.20074173067726
100
AcDbArc
 50
357.6421261176972
 51
22.85045344180089
  0
ARC
  5
2E1A7
330
17
100
AcDbEntity
  8
0
100
AcDbCircle
 10
1213.385935114952
 20
3286.36982430349
 30
0.0
 40
1.406485747032869
100
AcDbArc
 50
25.22058032542877
 51
202.8504534418008
  0
ARC
  5
2E1A8
330
17
100
AcDbEntity
  8
0
100
AcDbCircle
 10
1186.235739273366
 20
3288.833287746685
 30
0.0
 40
1.47100853643563
100
AcDbArc
 50
18.81271537439409
 51
195.4537605652656
  0
ARC
  5
2E1A9
330
17
100
AcDbEntity
  8
0
100
AcDbCircle
 10
1304.742605591324
 20
3275.753126849726
 30
0.0
 40
105.5101194359899
100
AcDbArc
 50
173.8104036719959
 51
181.9490721119744
  0
ARC
  5
2E1AA
330
17
100
AcDbEntity
  8
0
100
AcDbCircle
 10
1292.143543873199
 20
3276.117611525262
 30
0.0
 40
90.15859689101082
100
AcDbArc
 50
173.187049528749
 51
183.5167016871965
  0
ARC
  5
2E1AB
330
17
100
AcDbEntity
  8
0
100
AcDbCircle
 10
1218.171680175535
 20
3269.765016614161
 30
0.0
 40
18.74928962539017
100
AcDbArc
 50
183.3182230897275
 51
208.146975733909
  0
ARC
  5
2E1AC
330
17
100
AcDbEntity
  8
0
100
AcDbCircle
 10
1146.157590427721
 20
3284.541243834963
 30
0.0
 40
60.83736773561575
100
AcDbArc
 50
341.7410274264994
 51
346.7769809815951
  0
ARC
  5
2E1AD
330
17
100
AcDbEntity
  8
0
100
AcDbCircle
 10
1203.261459174834
 20
3261.787983269492
 30
0.0
 40
1.839299936698199
100
AcDbArc
 50
208.146975733909
 51
333.6487643014411
  0
ARC
  5
2E1AE
330
17
100
AcDbEntity
  8
0
100
AcDbCircle
 10
1345.198591642192
 20
3277.129878589219
 30
0.0
 40
145.989524726829
100
AcDbArc
 50
181.9490721119744
 51
183.3182230897275
  0
ARC
  5
2E1AF
330
17
100
AcDbEntity
  8
0
100
AcDbCircle
 10
1228.261027291407
 20
3272.191697716862
 30
0.0
 40
26.15556005639377
100
AcDbArc
 50
183.5167016871965
 51
194.8030098755126
  0
ARC
  5
2E1B0
330
17
100
AcDbEntity
  8
0
100
AcDbCircle
 10
1193.543378518888
 20
3261.642290195548
 30
0.0
 40
1.648283815342769
100
AcDbArc
 50
287.0752941841784
 51
108.7496141533351
  0
ARC
  5
2E1B1
330
17
100
AcDbEntity
  8
0
100
AcDbCircle
 10
1187.357644560573
 20
3281.780225891322
 30
0.0
 40
22.71483926918481
100
AcDbArc
 50
260.1757398944156
 51
287.0752941841784
  0
ARC
  5
2E1B2
330
17
100
AcDbEntity
  8
0
100
AcDbCircle
 10
1186.718219389718
 20
3281.74900548263
 30
0.0
 40
19.58524619682166
100
AcDbArc
 50
264.0839395123948
 51
288.7496141532251
  0
ARC
  5
2E1B3
330
17
100
AcDbEntity
  8
0
100
AcDbCircle
 10
1193.959505691756
 20
3270.564372733242
 30
0.0
 40
1.614980525366418
100
AcDbArc
 50
209.5562664017433
 51
27.85200678923331
  0
ARC
  5
2E1B4
330
17
100
AcDbEntity
  8
0
100
AcDbCircle
 10
1194.492741219872
 20
3284.145286686076
 30
0.0
 40
1.68306688108219
100
AcDbArc
 50
284.8595525712485
 51
109.3556684507968
  0
ARC
  5
2E1B5
330
17
100
AcDbEntity
  8
0
100
AcDbCircle
 10
1305.293512214391
 20
3329.393345924647
 30
0.0
 40
124.3060625738285
100
AcDbArc
 50
202.9339896371062
 51
207.8520067892333
  0
ARC
  5
2E1B6
330
17
100
AcDbEntity
  8
0
100
AcDbCircle
 10
1264.170083568154
 20
3310.378676787511
 30
0.0
 40
82.32869716054286
100
AcDbArc
 50
201.6849312997119
 51
209.5562664017433
  0
ARC
  5
2E1B7
330
17
100
AcDbEntity
  8
0
100
AcDbCircle
 10
1177.99826630312
 20
3346.312662341349
 30
0.0
 40
66.00141806208696
100
AcDbArc
 50
281.5151732500215
 51
284.8595525712485
  0
ARC
  5
2E1B8
330
17
100
AcDbEntity
  8
0
100
AcDbCircle
 10
1179.920629499012
 20
3325.627457387321
 30
0.0
 40
42.28415870897529
100
AcDbArc
 50
283.5596184596433
 51
289.3556684507969
  0
ARC
  5
2E1B9
330
17
100
AcDbEntity
  8
0
100
AcDbCircle
 10
1203.456976090846
 20
3265.636790711653
 30
0.0
 40
0.50000000000333
100
AcDbArc
 50
194.8030098755126
 51
341.7410274264994
  0
ARC
  5
2E1BA
330
17
100
AcDbEntity
  8
0
100
AcDbCircle
 10
1189.717219065121
 20
3285.007970045775
 30
0.0
 40
0.5000000000006402
100
AcDbArc
 50
201.0085518099663
 51
283.5596184596433
  0
ARC
  5
2E1BB
330
17
100
AcDbEntity
  8
0
100
AcDbCircle
 10
1191.273773760914
 20
3281.149793266955
 30
0.0
 40
0.49999999999996
100
AcDbArc
 50
101.515173249915
 51
202.9339896371062
  0
ARC
  5
2E1BC
330
17
100
AcDbEntity
  8
0
100
AcDbCircle
 10
1185.577120217827
 20
3284.230269854639
 30
0.0
 40
0.5000000000001102
100
AcDbArc
 50
275.7431237728484
 51
18.40263060385831
  0
ARC
  5
2E1BD
330
17
100
AcDbEntity
  8
0
100
AcDbCircle
 10
1187.203191344275
 20
3279.77327571661
 30
0.0
 40
0.5000000000000902
100
AcDbArc
 50
21.6849312997119
 51
88.49115309625187
  0
ARC
  5
2E1BE
330
17
100
AcDbEntity
  8
0
100
AcDbCircle
 10
1203.261459174834
 20
3261.787983269492
 30
0.0
 40
1.839299936698199
100
AcDbArc
 50
208.146975733909
 51
333.6487643014411
  0
ARC
  5
2E1BF
330
17
100
AcDbEntity
  8
0
100
AcDbCircle
 10
1193.543378518888
 20
3261.642290195548
 30
0.0
 40
1.648283815342769
100
AcDbArc
 50
287.0752941841784
 51
108.7496141532251
  0
ARC
  5
2E1C0
330
17
100
AcDbEntity
  8
0
100
AcDbCircle
 10
1187.357644560573
 20
3281.780225891322
 30
0.0
 40
22.71483926918481
100
AcDbArc
 50
260.1757398944156
 51
287.0752941841784
  0
ARC
  5
2E1C1
330
17
100
AcDbEntity
  8
0
100
AcDbCircle
 10
1186.718219389718
 20
3281.74900548263
 30
0.0
 40
19.58524619682166
100
AcDbArc
 50
264.0839395123948
 51
288.7496141532251
  0
ARC
  5
2E1C2
330
17
100
AcDbEntity
  8
0
100
AcDbCircle
 10
1201.235426509188
 20
3286.978588767204
 30
0.0
 40
1.39601320219498
100
AcDbArc
 50
353.187049528749
 51
173.8104036719959
  0
ARC
  5
2E1C3
330
17
100
AcDbEntity
  8
0
100
AcDbCircle
 10
1305.293512214391
 20
3329.393345924647
 30
0.0
 40
124.3060625738283
100
AcDbArc
 50
198.812715374394
 51
201.0085518100087
  0
ARC
  5
2E1C4
330
17
100
AcDbEntity
  8
0
100
AcDbCircle
 10
1264.170083568154
 20
3310.378676787511
 30
0.0
 40
82.32869716053626
100
AcDbArc
 50
195.4537605652656
 51
198.4026306038583
  0
ARC
  5
2E1C5
330
17
100
AcDbEntity
  8
0
100
AcDbCircle
 10
1175.481880434361
 20
3275.548429142764
 30
0.0
 40
32.84018485357495
100
AcDbArc
 50
333.6487643014411
 51
350.4940833534047
  0
ARC
  5
2E1C6
330
17
100
AcDbEntity
  8
0
100
AcDbCircle
 10
1206.618434988078
 20
3270.334651453369
 30
0.0
 40
1.270127722315129
100
AcDbArc
 50
350.4940833534047
 51
166.7769809815951
  0
LINE
  5
2E1C7
330
17
100
AcDbEntity
  8
0
100
AcDbLine
 10
1092.175247001339
 20
3460.158594057795
 30
0.0
 11
863.1752470013397
 21
3460.158594057795
 31
0.0
  0
LINE
  5
2E1C8
330
17
100
AcDbEntity
  8
0
100
AcDbLine
 10
1092.175247001339
 20
3462.158594057795
 30
0.0
 11
863.1752470013397
 21
3462.158594057795
 31
0.0
  0
ARC
  5
2E1C9
330
17
100
AcDbEntity
  8
0
100
AcDbCircle
 10
840.1752470013391
 20
3461.525718582644
 30
0.0
 40
23.0
100
AcDbArc
 50
0.0
 51
180.0
  0
LINE
  5
2E1CA
330
17
100
AcDbEntity
  8
0
100
AcDbLine
 10
863.1752470013397
 20
3461.525718582644
 30
0.0
 11
863.1752470013397
 21
3457.525718582644
 31
0.0
  0
ARC
  5
2E1CB
330
17
100
AcDbEntity
  8
0
100
AcDbCircle
 10
840.1752470013429
 20
3451.525718582643
 30
0.0
 40
2.0
100
AcDbArc
 50
0.0
 51
180.0
  0
ARC
  5
2E1CC
330
17
100
AcDbEntity
  8
0
100
AcDbCircle
 10
1115.175247001339
 20
3689.525718582643
 30
0.0
 40
23.0
100
AcDbArc
 50
0.0
 51
180.0
  0
LINE
  5
2E1CD
330
17
100
AcDbEntity
  8
0
100
AcDbLine
 10
1092.175247001339
 20
3689.525718582643
 30
0.0
 11
1092.175247001339
 21
3457.525718582644
 31
0.0
  0
LINE
  5
2E1CE
330
17
100
AcDbEntity
  8
0
100
AcDbLine
 10
1138.175247001339
 20
3689.525718582643
 30
0.0
 11
1138.175247001339
 21
3457.525718582644
 31
0.0
  0
ARC
  5
2E1CF
330
17
100
AcDbEntity
  8
0
100
AcDbCircle
 10
1115.175247001339
 20
3679.525718582643
 30
0.0
 40
2.0
100
AcDbArc
 50
0.0
 51
180.0
  0
LINE
  5
2E1D0
330
17
100
AcDbEntity
  8
0
100
AcDbLine
 10
1413.175247001337
 20
3262.525718582643
 30
0.0
 11
1413.175247001337
 21
3461.525718582644
 31
0.0
  0
LINE
  5
2E1D1
330
17
100
AcDbEntity
  8
0
100
AcDbLine
 10
1367.17524700134
 20
3457.525718582644
 30
0.0
 11
1378.359320550939
 21
3262.52571858265
 31
0.0
  0
LINE
  5
2E1D2
330
17
100
AcDbEntity
  8
0
100
AcDbLine
 10
1392.175247001337
 20
3262.525718582643
 30
0.0
 11
1392.175247001337
 21
3451.525718582643
 31
0.0
  0
LINE
  5
2E1D3
330
17
100
AcDbEntity
  8
0
100
AcDbLine
 10
1388.175247001337
 20
3262.525718582643
 30
0.0
 11
1388.175247001337
 21
3451.525718582643
 31
0.0
  0
ARC
  5
2E1D4
330
17
100
AcDbEntity
  8
0
100
AcDbCircle
 10
1357.175247001337
 20
3262.525718582643
 30
0.0
 40
31.0
100
AcDbArc
 50
270.0
 51
0.0
  0
ARC
  5
2E1D5
330
17
100
AcDbEntity
  8
0
100
AcDbCircle
 10
1357.175247001337
 20
3262.525718582643
 30
0.0
 40
35.0
100
AcDbArc
 50
270.0
 51
0.0
  0
ARC
  5
2E1D6
330
17
100
AcDbEntity
  8
0
100
AcDbCircle
 10
1357.175247001337
 20
3262.525718582643
 30
0.0
 40
56.0
100
AcDbArc
 50
270.0
 51
0.0
  0
ELLIPSE
  5
2E1D7
330
17
100
AcDbEntity
  8
0
100
AcDbEllipse
 10
1357.175247001337
 20
3262.525718582643
 30
0.0
 11
0.0
 21
-22.3671245248471
 31
0.0
210
0.0
220
0.0
230
1.0
 40
0.9471075965115272
 41
0.0
 42
1.691763084935387
  0
ARC
  5
2E1D8
330
17
100
AcDbEntity
  8
0
100
AcDbCircle
 10
1412.575247001337
 20
3198.125718582643
 30
0.0
 40
23.6
100
AcDbArc
 50
270.0
 51
0.0
  0
ARC
  5
2E1D9
330
17
100
AcDbEntity
  8
0
100
AcDbCircle
 10
1390.175247001337
 20
3451.525718582643
 30
0.0
 40
2.0
100
AcDbArc
 50
0.0
 51
180.0
  0
ARC
  5
2E1DA
330
17
100
AcDbEntity
  8
0
100
AcDbCircle
 10
1390.175247001341
 20
3461.525718582644
 30
0.0
 40
23.0
100
AcDbArc
 50
0.0
 51
178.4232316921732
  0
LINE
  5
2E1DB
330
17
100
AcDbEntity
  8
DIM
100
AcDbLine
 10
1367.183955853757
 20
3462.158594057795
 30
0.0
 11
1367.183955853757
 21
3455.361256945283
 31
0.0
  0
DIMENSION
  5
2E620
330
17
100
AcDbEntity
  8
DIM
100
AcDbDimension
  2
*D11
 10
2094.672111406284
 20
475.0048536009451
 30
0.0
 11
2056.422111406284
 21
1565.754853600945
 31
0.0
 70
    32
 71
     5
 42
2181.499999999999
 73
     0
 74
     0
 75
     0
  3
STANDARD
100
AcDbAlignedDimension
 13
1402.175247001337
 23
2656.504853600945
 33
0.0
 14
2160.678123069678
 24
475.0048536009451
 34
0.0
 50
90.0
100
AcDbRotatedDimension
1001
ACAD
1000
DSTYLE
1002
{
1070
    41
1040
3.0
1070
    42
1040
2.0
1070
    43
1040
10.0
1070
    44
1040
2.0
1070
    45
1040
1.0
1070
    73
1070
     0
1070
    74
1070
     0
1070
    77
1070
     1
1070
    78
1070
     8
1070
    79
1070
     2
1070
   140
1040
2.5
1070
   147
1040
0.9999999999999996
1070
   172
1070
     1
1070
   179
1070
     8
1070
   271
1070
     8
1070
   272
1070
     8
1070
   341
1005
4A
1070
   342
1005
4A
1002
}
  0
DIMENSION
  5
2E62D
330
17
100
AcDbEntity
  8
DIM
100
AcDbDimension
  2
*D12
 10
1992.672111406284
 20
475.0048536009447
 30
0.0
 11
1954.422111406284
 21
1382.499179466836
 31
0.0
 70
    32
  1
<>
 71
     5
 42
1814.988651731782
 73
     0
 74
     0
 75
     0
  3
STANDARD
100
AcDbAlignedDimension
 13
1278.10963023057
 23
2289.993505332727
 33
0.0
 14
2049.405393545844
 24
475.0048536009447
 34
0.0
 50
90.0
100
AcDbRotatedDimension
1001
ACAD
1000
DSTYLE
1002
{
1070
     3
1000
（<>）
1070
    41
1040
3.0
1070
    42
1040
2.0
1070
    43
1040
10.0
1070
    44
1040
2.0
1070
    45
1040
1.0
1070
    73
1070
     0
1070
    74
1070
     0
1070
    77
1070
     1
1070
    78
1070
     8
1070
    79
1070
     2
1070
   140
1040
2.5
1070
   147
1040
0.9999999999999996
1070
   172
1070
     1
1070
   179
1070
     8
1070
   271
1070
     8
1070
   272
1070
     8
1070
   341
1005
4A
1070
   342
1005
4A
1002
}
  0
DIMENSION
  5
2E71A
330
17
100
AcDbEntity
  8
DIM
100
AcDbDimension
  2
*D13
 10
1522.304833041777
 20
3174.525718582642
 30
0.0
 11
1484.054833041777
 21
3535.525718582643
 31
0.0
 70
    32
  1
（730）
 71
     5
 42
722.0
 73
     0
 74
     0
 75
     0
  3
STANDARD
100
AcDbAlignedDimension
 13
1412.575247001337
 23
3896.525718582642
 33
0.0
 14
1412.575247001337
 24
3174.525718582642
 34
0.0
 50
90.0
100
AcDbRotatedDimension
1001
ACAD
1000
DSTYLE
1002
{
1070
    41
1040
3.0
1070
    42
1040
2.0
1070
    43
1040
10.0
1070
    44
1040
2.0
1070
    45
1040
1.0
1070
    73
1070
     0
1070
    74
1070
     0
1070
    77
1070
     1
1070
    78
1070
     8
1070
    79
1070
     2
1070
   140
1040
2.5
1070
   147
1040
0.9999999999999996
1070
   172
1070
     1
1070
   179
1070
     8
1070
   271
1070
     8
1070
   272
1070
     8
1070
   341
1005
4A
1070
   342
1005
4A
1002
}
  0
DIMENSION
  5
2E739
330
17
100
AcDbEntity
  8
DIM
100
AcDbDimension
  2
*D14
 10
1436.175247001336
 20
4053.90931599807
 30
0.0
 11
1115.175247001338
 21
4092.15931599807
 31
0.0
 70
    32
  1
（650）
 71
     5
 42
641.9999999999969
 73
     0
 74
     0
 75
     0
  3
STANDARD
100
AcDbAlignedDimension
 13
794.1752470013397
 23
3872.925718582644
 33
0.0
 14
1436.175247001336
 24
3872.925718582644
 34
0.0
100
AcDbRotatedDimension
1001
ACAD
1000
DSTYLE
1002
{
1070
    41
1040
3.0
1070
    42
1040
2.0
1070
    43
1040
10.0
1070
    44
1040
2.0
1070
    45
1040
1.0
1070
    73
1070
     0
1070
    74
1070
     0
1070
    77
1070
     1
1070
    78
1070
     8
1070
    79
1070
     2
1070
   140
1040
2.5
1070
   147
1040
0.9999999999999996
1070
   172
1070
     1
1070
   179
1070
     8
1070
   271
1070
     8
1070
   272
1070
     8
1070
   341
1005
4A
1070
   342
1005
4A
1002
}
  0
DIMENSION
  5
2F026
330
17
100
AcDbEntity
  8
DIM
100
AcDbDimension
  2
*D15
 10
2203.29574415587
 20
3900.525718582641
 30
0.0
 11
2165.045744155869
 21
3559.475715834266
 31
0.0
 70
    32
 71
     5
 42
682.1000054967526
 73
     0
 74
     0
 75
     0
  3
STANDARD
100
AcDbAlignedDimension
 13
2616.290288939776
 23
3218.425713085889
 33
0.0
 14
2460.390288938985
 24
3900.525718582641
 34
0.0
 50
90.0
100
AcDbRotatedDimension
1001
ACAD
1000
DSTYLE
1002
{
1070
    41
1040
3.0
1070
    42
1040
2.0
1070
    43
1040
10.0
1070
    44
1040
2.0
1070
    45
1040
1.0
1070
    73
1070
     0
1070
    74
1070
     0
1070
    77
1070
     1
1070
    78
1070
     8
1070
    79
1070
     2
1070
   140
1040
2.5
1070
   147
1040
0.9999999999999996
1070
   172
1070
     1
1070
   179
1070
     8
1070
   271
1070
     8
1070
   272
1070
     8
1070
   341
1005
4A
1070
   342
1005
4A
1002
}
  0
DIMENSION
  5
2F027
330
17
100
AcDbEntity
  8
DIM
100
AcDbDimension
  2
*D16
 10
2088.224786137093
 20
3205.425718582644
 30
0.0
 11
2049.974786137093
 21
3552.975718582643
 31
0.0
 70
    32
 71
     5
 42
695.0999999999976
 73
     0
 74
     0
 75
     0
  3
STANDARD
100
AcDbAlignedDimension
 13
2460.390288938985
 23
3900.525718582641
 33
0.0
 14
2585.623622273109
 24
3205.425718582644
 34
0.0
 50
90.0
100
AcDbRotatedDimension
1001
ACAD
1000
DSTYLE
1002
{
1070
    41
1040
3.0
1070
    42
1040
2.0
1070
    43
1040
10.0
1070
    44
1040
2.0
1070
    45
1040
1.0
1070
    73
1070
     0
1070
    74
1070
     0
1070
    77
1070
     1
1070
    78
1070
     8
1070
    79
1070
     2
1070
   140
1040
2.5
1070
   147
1040
0.9999999999999996
1070
   172
1070
     1
1070
   179
1070
     8
1070
   271
1070
     8
1070
   272
1070
     8
1070
   341
1005
4A
1070
   342
1005
4A
1002
}
  0
DIMENSION
  5
2F028
330
17
100
AcDbEntity
  8
DIM
100
AcDbDimension
  2
*D17
 10
3039.248545169737
 20
4063.092385249307
 30
0.0
 11
2757.790288939787
 21
4101.342385249306
 31
0.0
 70
    32
 71
     5
 42
562.9165124598999
 73
     0
 74
     0
 75
     0
  3
STANDARD
100
AcDbAlignedDimension
 13
2476.332032709837
 23
3401.925718582608
 33
0.0
 14
3039.248545169737
 24
3403.925718582635
 34
0.0
100
AcDbRotatedDimension
1001
ACAD
1000
DSTYLE
1002
{
1070
    41
1040
3.0
1070
    42
1040
2.0
1070
    43
1040
10.0
1070
    44
1040
2.0
1070
    45
1040
1.0
1070
    73
1070
     0
1070
    74
1070
     0
1070
    77
1070
     1
1070
    78
1070
     8
1070
    79
1070
     2
1070
   140
1040
2.5
1070
   147
1040
0.9999999999999996
1070
   172
1070
     1
1070
   179
1070
     8
1070
   271
1070
     8
1070
   272
1070
     8
1070
   341
1005
4A
1070
   342
1005
4A
1002
}
  0
DIMENSION
  5
2F029
330
17
100
AcDbEntity
  8
DIM
100
AcDbDimension
  2
*D18
 10
3183.190288938981
 20
3227.855718582654
 30
0.0
 11
3144.940288938981
 21
3564.190718582648
 31
0.0
 70
    32
 71
     5
 42
672.6699999999873
 73
     0
 74
     0
 75
     0
  3
STANDARD
100
AcDbAlignedDimension
 13
3055.190288938984
 23
3900.525718582641
 33
0.0
 14
2828.390288926801
 24
3227.855718582654
 34
0.0
 50
90.0
100
AcDbRotatedDimension
1001
ACAD
1000
DSTYLE
1002
{
1070
    41
1040
3.0
1070
    42
1040
2.0
1070
    43
1040
10.0
1070
    44
1040
2.0
1070
    45
1040
1.0
1070
    73
1070
     0
1070
    74
1070
     0
1070
    77
1070
     1
1070
    78
1070
     8
1070
    79
1070
     2
1070
   140
1040
2.5
1070
   147
1040
0.9999999999999996
1070
   172
1070
     1
1070
   179
1070
     8
1070
   271
1070
     8
1070
   272
1070
     8
1070
   341
1005
4A
1070
   342
1005
4A
1002
}
  0
DIMENSION
  5
2F02A
330
17
100
AcDbEntity
  8
DIM
100
AcDbDimension
  2
*D19
 10
3295.190288938981
 20
3900.525718582641
 30
0.0
 11
3256.94028893898
 21
3559.475715834266
 31
0.0
 70
    32
 71
     5
 42
682.1000054967526
 73
     0
 74
     0
 75
     0
  3
STANDARD
100
AcDbAlignedDimension
 13
2931.790316448381
 23
3218.425713085889
 33
0.0
 14
3055.190288938984
 24
3900.525718582641
 34
0.0
 50
90.0
100
AcDbRotatedDimension
1001
ACAD
1000
DSTYLE
1002
{
1070
    41
1040
3.0
1070
    42
1040
2.0
1070
    43
1040
10.0
1070
    44
1040
2.0
1070
    45
1040
1.0
1070
    73
1070
     0
1070
    74
1070
     0
1070
    77
1070
     1
1070
    78
1070
     8
1070
    79
1070
     2
1070
   140
1040
2.5
1070
   147
1040
0.9999999999999996
1070
   172
1070
     1
1070
   179
1070
     8
1070
   271
1070
     8
1070
   272
1070
     8
1070
   341
1005
4A
1070
   342
1005
4A
1002
}
  0
DIMENSION
  5
2F02B
330
17
100
AcDbEntity
  8
DIM
100
AcDbDimension
  2
*D20
 10
2392.390288938982
 20
3900.525718582641
 30
0.0
 11
2354.140288938981
 21
3573.975718582643
 31
0.0
 70
    32
 71
     5
 42
653.0999999999967
 73
     0
 74
     0
 75
     0
  3
STANDARD
100
AcDbAlignedDimension
 13
2496.623622273109
 23
3247.425718582645
 33
0.0
 14
2460.390288938985
 24
3900.525718582641
 34
0.0
 50
90.0
100
AcDbRotatedDimension
1001
ACAD
1000
DSTYLE
1002
{
1070
    41
1040
3.0
1070
    42
1040
2.0
1070
    43
1040
10.0
1070
    44
1040
2.0
1070
    45
1040
1.0
1070
    73
1070
     0
1070
    74
1070
     0
1070
    77
1070
     1
1070
    78
1070
     8
1070
    79
1070
     2
1070
   140
1040
2.5
1070
   147
1040
0.9999999999999996
1070
   172
1070
     1
1070
   179
1070
     8
1070
   271
1070
     8
1070
   272
1070
     8
1070
   341
1005
4A
1070
   342
1005
4A
1002
}
  0
LINE
  5
2F02C
330
17
100
AcDbEntity
  8
CEN
100
AcDbLine
 10
2757.790288939796
 20
3126.565473554696
 30
0.0
 11
2757.790288939796
 21
3931.982079648202
 31
0.0
  0
DIMENSION
  5
2F02F
330
17
100
AcDbEntity
  8
DIM
100
AcDbDimension
  2
*D21
 10
3082.790288938983
 20
2959.89880688803
 30
0.0
 11
2989.040302693682
 21
2998.14880688803
 31
0.0
 70
    32
  1
（<>）
 71
     5
 42
187.4999724906029
 73
     0
 74
     0
 75
     0
  3
STANDARD
100
AcDbAlignedDimension
 13
2895.29031644838
 23
3181.92571308589
 33
0.0
 14
3082.790288938983
 24
3198.125718582643
 34
0.0
100
AcDbRotatedDimension
1001
ACAD
1000
DSTYLE
1002
{
1070
    41
1040
3.0
1070
    42
1040
2.0
1070
    43
1040
10.0
1070
    44
1040
2.0
1070
    45
1040
1.0
1070
    73
1070
     0
1070
    74
1070
     0
1070
    77
1070
     1
1070
    78
1070
     8
1070
    79
1070
     2
1070
   140
1040
2.5
1070
   147
1040
0.9999999999999996
1070
   172
1070
     1
1070
   179
1070
     8
1070
   271
1070
     8
1070
   272
1070
     8
1070
   341
1005
4A
1070
   342
1005
4A
1002
}
  0
DIMENSION
  5
2F030
330
17
100
AcDbEntity
  8
DIM
100
AcDbDimension
  2
*D22
 10
2432.790288938984
 20
2837.139726390704
 30
0.0
 11
2247.681336558032
 21
2837.139726390704
 31
0.0
 70
   160
  1
（<>）
 71
     5
 42
84.00000000079172
 73
     0
 74
     0
 75
     0
  3
STANDARD
100
AcDbAlignedDimension
 13
2516.790288939776
 23
3227.259051915978
 33
0.0
 14
2432.790288938984
 24
3198.125718582643
 34
0.0
100
AcDbRotatedDimension
1001
ACAD
1000
DSTYLE
1002
{
1070
    41
1040
3.0
1070
    42
1040
2.0
1070
    43
1040
10.0
1070
    44
1040
2.0
1070
    45
1040
1.0
1070
    73
1070
     0
1070
    74
1070
     0
1070
    77
1070
     1
1070
    78
1070
     8
1070
    79
1070
     2
1070
   140
1040
2.5
1070
   147
1040
0.9999999999999996
1070
   172
1070
     1
1070
   179
1070
     8
1070
   271
1070
     8
1070
   272
1070
     8
1070
   341
1005
4A
1070
   342
1005
4A
1002
}
  0
DIMENSION
  5
2F032
330
17
100
AcDbEntity
  8
DIM
100
AcDbDimension
  2
*D23
 10
2516.790288939776
 20
2837.139726390704
 30
0.0
 11
2637.290288939786
 21
2875.389726390706
 31
0.0
 70
    32
 71
     5
 42
241.0000000000209
 73
     0
 74
     0
 75
     0
  3
STANDARD
100
AcDbAlignedDimension
 13
2757.790288939796
 23
3126.565473554696
 33
0.0
 14
2516.790288939776
 24
3227.259051915978
 34
0.0
100
AcDbRotatedDimension
1001
ACAD
1000
DSTYLE
1002
{
1070
    41
1040
3.0
1070
    42
1040
2.0
1070
    43
1040
10.0
1070
    44
1040
2.0
1070
    45
1040
1.0
1070
    73
1070
     0
1070
    74
1070
     0
1070
    77
1070
     1
1070
    78
1070
     8
1070
    79
1070
     2
1070
   140
1040
2.5
1070
   147
1040
0.9999999999999996
1070
   172
1070
     1
1070
   179
1070
     8
1070
   271
1070
     8
1070
   272
1070
     8
1070
   341
1005
4A
1070
   342
1005
4A
1002
}
  0
LINE
  5
2F033
330
17
100
AcDbEntity
  8
0
100
AcDbLine
 10
2442.290288939776
 20
3266.925718582645
 30
0.0
 11
3073.290288939776
 21
3266.925718582645
 31
0.0
  0
LINE
  5
2F034
330
17
100
AcDbEntity
  8
0
100
AcDbLine
 10
3075.790288939776
 20
3266.925718582645
 30
0.0
 11
2439.790288939776
 21
3266.925718582645
 31
0.0
  0
LINE
  5
2F038
330
17
100
AcDbEntity
  8
CEN
100
AcDbLine
 10
2605.790288939776
 20
3267.425718582645
 30
0.0
 11
2605.790288939776
 21
3185.925718582644
 31
0.0
  0
LINE
  5
2F039
330
17
100
AcDbEntity
  8
CEN
100
AcDbLine
 10
2652.790288939776
 20
3182.425718582644
 30
0.0
 11
2652.790288939776
 21
3255.425718582644
 31
0.0
  0
CIRCLE
  5
2F03A
330
17
100
AcDbEntity
  8
0
100
AcDbCircle
 10
2652.790288939776
 20
3218.925718582644
 30
0.0
 40
29.5
  0
DIMENSION
  5
2F03D
330
17
100
AcDbEntity
  8
DIM
100
AcDbDimension
  2
*D24
 10
2807.790288939793
 20
3062.565473554696
 30
0.0
 11
2962.664208951231
 21
3062.565473554696
 31
0.0
 70
   160
 71
     5
 42
49.99999999999636
 73
     0
 74
     0
 75
     0
  3
STANDARD
100
AcDbAlignedDimension
 13
2757.790288939796
 23
3126.565473554696
 33
0.0
 14
2807.790288939793
 24
3209.791763958112
 34
0.0
100
AcDbRotatedDimension
1001
ACAD
1000
DSTYLE
1002
{
1070
   344
1005
4A
1070
   173
1070
     1
1070
   343
1005
5132
1070
    41
1040
3.0
1070
    42
1040
2.0
1070
    43
1040
10.0
1070
    44
1040
2.0
1070
    45
1040
1.0
1070
    73
1070
     0
1070
    74
1070
     0
1070
    77
1070
     1
1070
    78
1070
     8
1070
    79
1070
     2
1070
   140
1040
2.5
1070
   147
1040
0.9999999999999996
1070
   172
1070
     1
1070
   179
1070
     8
1070
   271
1070
     8
1070
   272
1070
     8
1070
   341
1005
4A
1070
   342
1005
0
1002
}
  0
DIMENSION
  5
2F03E
330
17
100
AcDbEntity
  8
DIM
100
AcDbDimension
  2
*D25
 10
2895.29031644838
 20
2959.89880688803
 30
0.0
 11
2826.540302694088
 21
2959.89880688803
 31
0.0
 70
   160
 71
     5
 42
137.500027508584
 73
     0
 74
     0
 75
     0
  3
STANDARD
100
AcDbAlignedDimension
 13
2757.790288939796
 23
3126.565473554696
 33
0.0
 14
2895.29031644838
 24
3181.92571308589
 34
0.0
100
AcDbRotatedDimension
1001
ACAD
1000
DSTYLE
1002
{
1070
    41
1040
3.0
1070
    42
1040
2.0
1070
    43
1040
10.0
1070
    44
1040
2.0
1070
    45
1040
1.0
1070
    73
1070
     0
1070
    74
1070
     0
1070
    77
1070
     1
1070
    78
1070
     8
1070
    79
1070
     2
1070
   140
1040
2.5
1070
   147
1040
0.9999999999999996
1070
   172
1070
     1
1070
   179
1070
     8
1070
   271
1070
     8
1070
   272
1070
     8
1070
   341
1005
4A
1070
   342
1005
4A
1002
}
  0
DIMENSION
  5
2F03F
330
17
100
AcDbEntity
  8
DIM
100
AcDbDimension
  2
*D26
 10
2605.790288939776
 20
2959.89880688803
 30
0.0
 11
2681.790288939786
 21
2998.14880688803
 31
0.0
 70
    32
 71
     5
 42
152.0000000000209
 73
     0
 74
     0
 75
     0
  3
STANDARD
100
AcDbAlignedDimension
 13
2757.790288939796
 23
3126.565473554696
 33
0.0
 14
2605.790288939776
 24
3185.259051915978
 34
0.0
100
AcDbRotatedDimension
1001
ACAD
1000
DSTYLE
1002
{
1070
    41
1040
3.0
1070
    42
1040
2.0
1070
    43
1040
10.0
1070
    44
1040
2.0
1070
    45
1040
1.0
1070
    73
1070
     0
1070
    74
1070
     0
1070
    77
1070
     1
1070
    78
1070
     8
1070
    79
1070
     2
1070
   140
1040
2.5
1070
   147
1040
0.9999999999999996
1070
   172
1070
     1
1070
   179
1070
     8
1070
   271
1070
     8
1070
   272
1070
     8
1070
   341
1005
4A
1070
   342
1005
4A
1002
}
  0
ARC
  5
2F041
330
17
100
AcDbEntity
  8
HID
100
AcDbCircle
 10
2519.633302899057
 20
3428.925718582608
 30
0.0
 40
6.999999999999825
100
AcDbArc
 50
120.0000000000337
 51
300.0000000000337
  0
LINE
  5
2F042
330
17
100
AcDbEntity
  8
HID
100
AcDbLine
 10
2435.931397615227
 20
3423.901671224523
 30
0.0
 11
2518.203810974744
 21
3471.401671224524
 31
0.0
  0
LINE
  5
2F043
330
17
100
AcDbEntity
  8
HID
100
AcDbLine
 10
2473.431397615228
 20
3358.949765940693
 30
0.0
 11
2555.703810974745
 21
3406.449765940694
 31
0.0
  0
LINE
  5
2F044
330
17
100
AcDbEntity
  8
HID
100
AcDbLine
 10
2454.681397615227
 20
3391.425718582607
 30
0.0
 11
2435.931397615227
 21
3423.901671224523
 31
0.0
  0
CIRCLE
  5
2F045
330
17
100
AcDbEntity
  8
HID
100
AcDbCircle
 10
2476.332032709837
 20
3403.925718582609
 30
0.0
 40
8.499999999999719
  0
LINE
  5
2F046
330
17
100
AcDbEntity
  8
HID
100
AcDbLine
 10
2454.681397615227
 20
3391.425718582607
 30
0.0
 11
2473.431397615228
 21
3358.949765940693
 31
0.0
  0
LINE
  5
2F047
330
17
100
AcDbEntity
  8
HID
100
AcDbLine
 10
2555.703810974745
 20
3406.449765940694
 30
0.0
 11
2542.953810974745
 21
3428.533413737196
 31
0.0
  0
LINE
  5
2F048
330
17
100
AcDbEntity
  8
HID
100
AcDbLine
 10
2523.133302899057
 20
3422.863540756118
 30
0.0
 11
2536.123683955822
 21
3430.363540756118
 31
0.0
  0
LINE
  5
2F049
330
17
100
AcDbEntity
  8
HID
100
AcDbLine
 10
2529.123683955822
 20
3442.4878964091
 30
0.0
 11
2530.953810974744
 21
3449.318023428022
 31
0.0
  0
LINE
  5
2F04A
330
17
100
AcDbEntity
  8
HID
100
AcDbLine
 10
2516.133302899057
 20
3434.9878964091
 30
0.0
 11
2529.123683955822
 21
3442.4878964091
 31
0.0
  0
LINE
  5
2F04B
330
17
100
AcDbEntity
  8
HID
100
AcDbLine
 10
2536.123683955822
 20
3430.363540756118
 30
0.0
 11
2542.953810974745
 21
3428.533413737196
 31
0.0
  0
LINE
  5
2F04C
330
17
100
AcDbEntity
  8
HID
100
AcDbLine
 10
2530.953810974744
 20
3449.318023428022
 30
0.0
 11
2518.203810974744
 21
3471.401671224524
 31
0.0
  0
DIMENSION
  5
2F04D
330
17
100
AcDbEntity
  8
DIM
100
AcDbDimension
  2
*D27
 10
3407.190288938982
 20
3170.525718582642
 30
0.0
 11
3368.940288938981
 21
3287.225718582639
 31
0.0
 70
    32
  1
（<>）
 71
     5
 42
233.3999999999924
 73
     0
 74
     0
 75
     0
  3
STANDARD
100
AcDbAlignedDimension
 13
3039.248545169737
 23
3403.925718582635
 33
0.0
 14
3055.190288938984
 24
3170.525718582642
 34
0.0
 50
90.0
100
AcDbRotatedDimension
1001
ACAD
1000
DSTYLE
1002
{
1070
    41
1040
3.0
1070
    42
1040
2.0
1070
    43
1040
10.0
1070
    44
1040
2.0
1070
    45
1040
1.0
1070
    73
1070
     0
1070
    74
1070
     0
1070
    77
1070
     1
1070
    78
1070
     8
1070
    79
1070
     2
1070
   140
1040
2.5
1070
   147
1040
0.9999999999999996
1070
   172
1070
     1
1070
   179
1070
     8
1070
   271
1070
     8
1070
   272
1070
     8
1070
   341
1005
4A
1070
   342
1005
4A
1002
}
  0
LINE
  5
2F04F
330
17
100
AcDbEntity
  8
HID
100
AcDbLine
 10
3060.899180264347
 20
3391.425718582635
 30
0.0
 11
3079.649180264347
 21
3423.901671224549
 31
0.0
  0
LINE
  5
2F050
330
17
100
AcDbEntity
  8
HID
100
AcDbLine
 10
3042.149180264347
 20
3358.949765940721
 30
0.0
 11
2959.876766904827
 21
3406.449765940723
 31
0.0
  0
CIRCLE
  5
2F051
330
17
100
AcDbEntity
  8
HID
100
AcDbCircle
 10
3039.248545169737
 20
3403.925718582635
 30
0.0
 40
8.499999999999696
  0
LINE
  5
2F052
330
17
100
AcDbEntity
  8
HID
100
AcDbLine
 10
3060.899180264347
 20
3391.425718582635
 30
0.0
 11
3042.149180264347
 21
3358.949765940721
 31
0.0
  0
LINE
  5
2F053
330
17
100
AcDbEntity
  8
HID
100
AcDbLine
 10
3079.649180264347
 20
3423.901671224549
 30
0.0
 11
2997.376766904827
 21
3471.401671224551
 31
0.0
  0
LINE
  5
2F054
330
17
100
AcDbEntity
  8
HID
100
AcDbLine
 10
2959.876766904827
 20
3406.449765940723
 30
0.0
 11
2972.626766904827
 21
3428.533413737224
 31
0.0
  0
LINE
  5
2F055
330
17
100
AcDbEntity
  8
HID
100
AcDbLine
 10
2992.447274980515
 20
3422.863540756145
 30
0.0
 11
2979.456893923749
 21
3430.363540756146
 31
0.0
  0
ARC
  5
2F056
330
17
100
AcDbEntity
  8
HID
100
AcDbCircle
 10
2995.947274980516
 20
3428.925718582636
 30
0.0
 40
6.999999999999655
100
AcDbArc
 50
239.9999999999663
 51
59.99999999996628
  0
LINE
  5
2F057
330
17
100
AcDbEntity
  8
HID
100
AcDbLine
 10
2979.456893923749
 20
3430.363540756146
 30
0.0
 11
2972.626766904827
 21
3428.533413737224
 31
0.0
  0
LINE
  5
2F058
330
17
100
AcDbEntity
  8
HID
100
AcDbLine
 10
2986.456893923749
 20
3442.487896409128
 30
0.0
 11
2984.626766904827
 21
3449.318023428049
 31
0.0
  0
LINE
  5
2F059
330
17
100
AcDbEntity
  8
HID
100
AcDbLine
 10
2999.447274980516
 20
3434.987896409127
 30
0.0
 11
2986.456893923749
 21
3442.487896409128
 31
0.0
  0
LINE
  5
2F05A
330
17
100
AcDbEntity
  8
HID
100
AcDbLine
 10
2984.626766904827
 20
3449.318023428049
 30
0.0
 11
2997.376766904827
 21
3471.401671224551
 31
0.0
  0
DIMENSION
  5
2F05B
330
17
100
AcDbEntity
  8
DIM
100
AcDbDimension
  2
*D28
 10
2764.790288939797
 20
3954.425718582641
 30
0.0
 11
2908.885527035035
 21
3992.675718582641
 31
0.0
 70
    32
 71
     5
 42
14.0
 73
     0
 74
     0
 75
     0
  3
STANDARD
100
AcDbAlignedDimension
 13
2750.790288939797
 23
3886.425718582641
 33
0.0
 14
2764.790288939797
 24
3886.425718582641
 34
0.0
100
AcDbRotatedDimension
1001
ACAD
1000
DSTYLE
1002
{
1070
    41
1040
3.0
1070
    42
1040
2.0
1070
    43
1040
10.0
1070
    44
1040
2.0
1070
    45
1040
1.0
1070
    73
1070
     0
1070
    74
1070
     0
1070
    77
1070
     1
1070
    78
1070
     8
1070
    79
1070
     2
1070
   140
1040
2.5
1070
   147
1040
0.9999999999999996
1070
   172
1070
     1
1070
   179
1070
     8
1070
   271
1070
     8
1070
   272
1070
     8
1070
   341
1005
4A
1070
   342
1005
4A
1002
}
  0
LINE
  5
2F05D
330
17
100
AcDbEntity
  8
HID
100
AcDbLine
 10
2720.290288939797
 20
3796.425718582642
 30
0.0
 11
2720.290288939797
 21
3891.425718582643
 31
0.0
  0
LINE
  5
2F05E
330
17
100
AcDbEntity
  8
HID
100
AcDbLine
 10
2795.290288939797
 20
3796.425718582643
 30
0.0
 11
2795.290288939797
 21
3891.425718582641
 31
0.0
  0
LINE
  5
2F05F
330
17
100
AcDbEntity
  8
HID
100
AcDbLine
 10
2757.790288939796
 20
3796.425718582642
 30
0.0
 11
2795.290288939797
 21
3796.425718582643
 31
0.0
  0
LINE
  5
2F060
330
17
100
AcDbEntity
  8
HID
100
AcDbLine
 10
2757.790288939796
 20
3796.425718582642
 30
0.0
 11
2720.290288939797
 21
3796.425718582642
 31
0.0
  0
CIRCLE
  5
2F061
330
17
100
AcDbEntity
  8
HID
100
AcDbCircle
 10
2757.790288939796
 20
3821.425718582641
 30
0.0
 40
8.5
  0
LINE
  5
2F063
330
17
100
AcDbEntity
  8
HID
100
AcDbLine
 10
2769.790288939796
 20
3891.425718582641
 30
0.0
 11
2795.290288939797
 21
3891.425718582641
 31
0.0
  0
LINE
  5
2F064
330
17
100
AcDbEntity
  8
HID
100
AcDbLine
 10
2764.790288939797
 20
3871.425718582641
 30
0.0
 11
2764.790288939797
 21
3886.425718582641
 31
0.0
  0
LINE
  5
2F065
330
17
100
AcDbEntity
  8
HID
100
AcDbLine
 10
2764.790288939797
 20
3886.425718582641
 30
0.0
 11
2769.790288939796
 21
3891.425718582641
 31
0.0
  0
LINE
  5
2F066
330
17
100
AcDbEntity
  8
HID
100
AcDbLine
 10
2750.790288939797
 20
3871.425718582641
 30
0.0
 11
2750.790288939797
 21
3886.425718582641
 31
0.0
  0
LINE
  5
2F067
330
17
100
AcDbEntity
  8
HID
100
AcDbLine
 10
2720.290288939797
 20
3891.425718582643
 30
0.0
 11
2745.69328758366
 21
3891.425718582641
 31
0.0
  0
LINE
  5
2F068
330
17
100
AcDbEntity
  8
HID
100
AcDbLine
 10
2750.790288939797
 20
3886.425718582641
 30
0.0
 11
2745.790288939796
 21
3891.425718582641
 31
0.0
  0
ARC
  5
2F069
330
17
100
AcDbEntity
  8
HID
100
AcDbCircle
 10
2757.790288939796
 20
3871.425718582641
 30
0.0
 40
7.0
100
AcDbArc
 50
180.0
 51
0.0
  0
LINE
  5
2F06B
330
17
100
AcDbEntity
  8
0
100
AcDbLine
 10
2460.390288938985
 20
3900.525718582641
 30
0.0
 11
3055.190288938984
 21
3900.525718582641
 31
0.0
  0
LINE
  5
2F06C
330
17
100
AcDbEntity
  8
0
100
AcDbLine
 10
3082.790288938983
 20
3872.925718582644
 30
0.0
 11
3082.790288938983
 21
3198.125718582643
 31
0.0
  0
LINE
  5
2F06D
330
17
100
AcDbEntity
  8
0
100
AcDbLine
 10
2432.790288938984
 20
3872.925718582644
 30
0.0
 11
2432.790288938984
 21
3198.125718582643
 31
0.0
  0
LINE
  5
2F06E
330
17
100
AcDbEntity
  8
0
100
AcDbLine
 10
2460.390288938985
 20
3170.525718582642
 30
0.0
 11
3055.190288938984
 21
3170.525718582642
 31
0.0
  0
DIMENSION
  5
2F070
330
17
100
AcDbEntity
  8
DIM
100
AcDbDimension
  2
*D29
 10
3407.190288938978
 20
3403.925718582634
 30
0.0
 11
3368.940288938977
 21
3637.675718582638
 31
0.0
 70
    32
 71
     5
 42
467.5000000000062
 73
     0
 74
     0
 75
     0
  3
STANDARD
100
AcDbAlignedDimension
 13
2829.290288939797
 23
3871.425718582641
 33
0.0
 14
3039.248545169737
 24
3403.925718582635
 34
0.0
 50
90.0
100
AcDbRotatedDimension
1001
ACAD
1000
DSTYLE
1002
{
1070
    41
1040
3.0
1070
    42
1040
2.0
1070
    43
1040
10.0
1070
    44
1040
2.0
1070
    45
1040
1.0
1070
    73
1070
     0
1070
    74
1070
     0
1070
    77
1070
     1
1070
    78
1070
     8
1070
    79
1070
     2
1070
   140
1040
2.5
1070
   147
1040
0.9999999999999996
1070
   172
1070
     1
1070
   179
1070
     8
1070
   271
1070
     8
1070
   272
1070
     8
1070
   341
1005
4A
1070
   342
1005
4A
1002
}
  0
CIRCLE
  5
2F071
330
17
100
AcDbEntity
  8
0
100
AcDbCircle
 10
2807.790288926801
 20
3227.855718582654
 30
0.0
 40
13.6
  0
LINE
  5
2F072
330
17
100
AcDbEntity
  8
CEN
100
AcDbLine
 10
2787.1902889268
 20
3227.855718582654
 30
0.0
 11
2828.390288926801
 21
3227.855718582654
 31
0.0
  0
LINE
  5
2F073
330
17
100
AcDbEntity
  8
CEN
100
AcDbLine
 10
2807.790288939797
 20
3248.455718582655
 30
0.0
 11
2807.790288939796
 21
3207.255718582654
 31
0.0
  0
ARC
  5
2F074
330
17
100
AcDbEntity
  8
0
100
AcDbCircle
 10
2460.390288938985
 20
3872.925718582644
 30
0.0
 40
27.6
100
AcDbArc
 50
90.0
 51
180.0
  0
ARC
  5
2F075
330
17
100
AcDbEntity
  8
0
100
AcDbCircle
 10
3055.190288938984
 20
3872.925718582644
 30
0.0
 40
27.6
100
AcDbArc
 50
0.0
 51
90.0
  0
ARC
  5
2F076
330
17
100
AcDbEntity
  8
0
100
AcDbCircle
 10
3055.190288938984
 20
3198.125718582643
 30
0.0
 40
27.6
100
AcDbArc
 50
270.0
 51
0.0
  0
ARC
  5
2F077
330
17
100
AcDbEntity
  8
0
100
AcDbCircle
 10
2460.390288938985
 20
3198.125718582643
 30
0.0
 40
27.6
100
AcDbArc
 50
180.0
 51
270.0
  0
LINE
  5
2F078
330
17
100
AcDbEntity
  8
CEN
100
AcDbLine
 10
2582.790288939776
 20
3244.425718582645
 30
0.0
 11
2628.790288939776
 21
3244.425718582645
 31
0.0
  0
CIRCLE
  5
2F079
330
17
100
AcDbEntity
  8
0
100
AcDbCircle
 10
2605.790288939776
 20
3244.425718582645
 30
0.0
 40
16.0
  0
CIRCLE
  5
2F07A
330
17
100
AcDbEntity
  8
0
100
AcDbCircle
 10
2605.790288939776
 20
3205.425718582644
 30
0.0
 40
12.5
  0
LINE
  5
2F07B
330
17
100
AcDbEntity
  8
CEN
100
AcDbLine
 10
2586.290288939776
 20
3205.425718582644
 30
0.0
 11
2625.290288939776
 21
3205.425718582644
 31
0.0
  0
CIRCLE
  5
2F07C
330
17
100
AcDbEntity
  8
0
100
AcDbCircle
 10
2516.790288939776
 20
3247.425718582645
 30
0.0
 40
12.5
  0
LINE
  5
2F07D
330
17
100
AcDbEntity
  8
CEN
100
AcDbLine
 10
2497.290288939776
 20
3247.425718582645
 30
0.0
 11
2535.986780437795
 21
3247.425718582645
 31
0.0
  0
LINE
  5
2F07E
330
17
100
AcDbEntity
  8
CEN
100
AcDbLine
 10
2516.790288939776
 20
3266.925718582645
 30
0.0
 11
2516.790288939776
 21
3227.925718582645
 31
0.0
  0
CIRCLE
  5
2F07F
330
17
100
AcDbEntity
  8
0
100
AcDbCircle
 10
2895.29031644838
 20
3218.425713085889
 30
0.0
 40
29.5
  0
LINE
  5
2F080
330
17
100
AcDbEntity
  8
CEN
100
AcDbLine
 10
2931.790316448381
 20
3218.425713085889
 30
0.0
 11
2858.790316448381
 21
3218.425713085889
 31
0.0
  0
LINE
  5
2F081
330
17
100
AcDbEntity
  8
CEN
100
AcDbLine
 10
2895.29031644838
 20
3254.925713085889
 30
0.0
 11
2895.29031644838
 21
3181.92571308589
 31
0.0
  0
LINE
  5
2F23C
330
17
100
AcDbEntity
  8
WAKU
100
AcDbLine
 10
2482.274964076799
 20
2006.121490297729
 30
0.0
 11
2482.274964076799
 21
1446.121490297729
 31
0.0
  0
LINE
  5
2F23D
330
17
100
AcDbEntity
  8
WAKU
100
AcDbLine
 10
2382.274964076799
 20
2006.121490297729
 30
0.0
 11
2382.274964076799
 21
1446.121490297729
 31
0.0
  0
LINE
  5
2F23E
330
17
100
AcDbEntity
  8
WAKU
100
AcDbLine
 10
3173.05269978257
 20
1446.121490297729
 30
0.0
 11
2382.274964076799
 21
1446.121490297729
 31
0.0
  0
LINE
  5
2F23F
330
17
100
AcDbEntity
  8
WAKU
100
AcDbLine
 10
3173.05269978257
 20
1526.121490297729
 30
0.0
 11
2382.274964076799
 21
1526.121490297729
 31
0.0
  0
LINE
  5
2F240
330
17
100
AcDbEntity
  8
WAKU
100
AcDbLine
 10
3173.05269978257
 20
1606.121490297728
 30
0.0
 11
2382.274964076799
 21
1606.121490297729
 31
0.0
  0
LINE
  5
2F241
330
17
100
AcDbEntity
  8
WAKU
100
AcDbLine
 10
3173.05269978257
 20
1686.121490297729
 30
0.0
 11
2382.274964076799
 21
1686.121490297729
 31
0.0
  0
LINE
  5
2F242
330
17
100
AcDbEntity
  8
WAKU
100
AcDbLine
 10
3173.05269978257
 20
1766.121490297729
 30
0.0
 11
2382.274964076799
 21
1766.121490297729
 31
0.0
  0
LINE
  5
2F243
330
17
100
AcDbEntity
  8
WAKU
100
AcDbLine
 10
3173.05269978257
 20
1846.121490297729
 30
0.0
 11
2382.274964076799
 21
1846.121490297729
 31
0.0
  0
LINE
  5
2F244
330
17
100
AcDbEntity
  8
WAKU
100
AcDbLine
 10
3173.05269978257
 20
1926.121490297729
 30
0.0
 11
2382.274964076799
 21
1926.121490297729
 31
0.0
  0
LINE
  5
2F245
330
17
100
AcDbEntity
  8
WAKU
100
AcDbLine
 10
3173.05269978257
 20
2006.121490297729
 30
0.0
 11
2382.274964076799
 21
2006.121490297729
 31
0.0
  0
TEXT
  5
2F246
330
17
100
AcDbEntity
  8
DIMTEXT
100
AcDbText
 10
2507.174102163463
 20
1702.121490297729
 30
0.0
 40
48.0
  1
100V／200V補助電源引込口
 41
0.8
 11
2507.174102163463
 21
1726.121490297729
 31
0.0
100
AcDbText
 73
     2
  0
TEXT
  5
2F247
330
17
100
AcDbEntity
  8
DIMTEXT
100
AcDbText
 10
2507.174102163463
 20
1622.121490297729
 30
0.0
 40
48.0
  1
給湯配管口
 41
0.8
 11
2507.174102163463
 21
1646.121490297729
 31
0.0
100
AcDbText
 73
     2
  0
TEXT
  5
2F248
330
17
100
AcDbEntity
  8
DIMTEXT
100
AcDbText
 10
2507.174102163463
 20
1542.121490297729
 30
0.0
 40
48.0
  1
給水配管口
 41
0.8
 11
2507.174102163463
 21
1566.121490297729
 31
0.0
100
AcDbText
 73
     2
  0
TEXT
  5
2F249
330
17
100
AcDbEntity
  8
DIMTEXT
100
AcDbText
 10
2507.174102163463
 20
1462.121490297729
 30
0.0
 40
48.0
  1
排水栓配管口
 41
0.8
 11
2507.174102163463
 21
1486.121490297729
 31
0.0
100
AcDbText
 73
     2
  0
TEXT
  5
2F24A
330
17
100
AcDbEntity
  8
DIMTEXT
100
AcDbText
 10
2420.389249791085
 20
1462.121490297729
 30
0.0
 40
48.0
  1
6
 41
0.8
 72
     1
 11
2432.274964076799
 21
1486.121490297729
 31
0.0
100
AcDbText
 73
     2
  0
TEXT
  5
2F24B
330
17
100
AcDbEntity
  8
DIMTEXT
100
AcDbText
 10
2418.560678362513
 20
1622.121490297729
 30
0.0
 40
48.0
  1
4
 41
0.8
 72
     1
 11
2432.274964076799
 21
1646.121490297729
 31
0.0
100
AcDbText
 73
     2
  0
TEXT
  5
2F24C
330
17
100
AcDbEntity
  8
DIMTEXT
100
AcDbText
 10
2419.474964076799
 20
1542.121490297729
 30
0.0
 40
48.0
  1
5
 41
0.8
 72
     1
 11
2432.274964076799
 21
1566.121490297729
 31
0.0
100
AcDbText
 73
     2
  0
TEXT
  5
2F24D
330
17
100
AcDbEntity
  8
DIMTEXT
100
AcDbText
 10
2419.474964076799
 20
1702.121490297729
 30
0.0
 40
48.0
  1
3
 41
0.8
 72
     1
 11
2432.274964076799
 21
1726.121490297729
 31
0.0
100
AcDbText
 73
     2
  0
TEXT
  5
2F24E
330
17
100
AcDbEntity
  8
DIMTEXT
100
AcDbText
 10
2507.174102163463
 20
1862.121490297729
 30
0.0
 40
48.0
  1
リモコンケーブル引込口
 41
0.8
 11
2507.174102163463
 21
1886.121490297729
 31
0.0
100
AcDbText
 73
     2
  0
TEXT
  5
2F24F
330
17
100
AcDbEntity
  8
DIMTEXT
100
AcDbText
 10
2507.174102163463
 20
1782.121490297729
 30
0.0
 40
48.0
  1
200V電源引込口
 41
0.8
 11
2507.174102163463
 21
1806.121490297729
 31
0.0
100
AcDbText
 73
     2
  0
TEXT
  5
2F250
330
17
100
AcDbEntity
  8
DIMTEXT
100
AcDbText
 10
2427.70353550537
 20
1862.121490297729
 30
0.0
 40
48.0
  1
1
 41
0.8
 72
     1
 11
2432.274964076799
 21
1886.121490297729
 31
0.0
100
AcDbText
 73
     2
  0
TEXT
  5
2F251
330
17
100
AcDbEntity
  8
DIMTEXT
100
AcDbText
 10
2419.474964076799
 20
1782.121490297729
 30
0.0
 40
48.0
  1
2
 41
0.8
 72
     1
 11
2432.274964076799
 21
1806.121490297729
 31
0.0
100
AcDbText
 73
     2
  0
TEXT
  5
2F252
330
17
100
AcDbEntity
  8
DIMTEXT
100
AcDbText
 10
2391.314964076799
 20
1942.121490297729
 30
0.0
 40
48.0
  1
番号
 41
0.8
 72
     1
 11
2432.274964076799
 21
1966.121490297729
 31
0.0
100
AcDbText
 73
     2
  0
TEXT
  5
2F253
330
17
100
AcDbEntity
  8
DIMTEXT
100
AcDbText
 10
2669.924197727192
 20
1942.121490297729
 30
0.0
 40
48.0
  1
名　　称
 41
0.8
 72
     1
 11
2756.964197727192
 21
1966.121490297729
 31
0.0
100
AcDbText
 73
     2
  0
LINE
  5
2F255
330
17
100
AcDbEntity
  8
WAKU
100
AcDbLine
 10
3173.05269978257
 20
2006.121490297729
 30
0.0
 11
3173.05269978257
 21
1446.121490297729
 31
0.0
  0
LINE
  5
2F38F
330
17
100
AcDbEntity
  8
WAKU
100
AcDbLine
 10
3388.386895278329
 20
4846.400284698806
 30
0.0
 11
1838.386895278325
 21
4846.400284698806
 31
0.0
  0
LINE
  5
2F390
330
17
100
AcDbEntity
  8
WAKU
100
AcDbLine
 10
2838.386895278326
 20
4846.400284698806
 30
0.0
 11
2838.386895278326
 21
4446.400284698806
 31
0.0
  0
LINE
  5
2F391
330
17
100
AcDbEntity
  8
WAKU
100
AcDbLine
 10
3388.386895278328
 20
4846.400284698806
 30
0.0
 11
3388.386895278328
 21
4446.400284698806
 31
0.0
  0
TEXT
  5
2F392
330
17
100
AcDbEntity
  8
DIMTEXT
100
AcDbText
 10
3003.30689527833
 20
4622.400284698806
 30
0.0
 40
48.0
  1
高圧タイプ
 41
0.8
 72
     1
 11
3113.38689527833
 21
4646.400284698806
 31
0.0
100
AcDbText
 73
     2
  0
TEXT
  5
2F393
330
17
100
AcDbEntity
  8
DIMTEXT
100
AcDbText
 10
3072.244038135473
 20
4462.40028469881
 30
0.0
 40
48.0
  1
541
 41
0.8
 72
     1
 11
3113.38689527833
 21
4486.40028469881
 31
0.0
100
AcDbText
 73
     2
  0
TEXT
  5
2F394
330
17
100
AcDbEntity
  8
DIMTEXT
100
AcDbText
 10
3090.529752421188
 20
4542.400284698809
 30
0.0
 40
48.0
  1
81
 41
0.8
 72
     1
 11
3113.38689527833
 21
4566.400284698809
 31
0.0
100
AcDbText
 73
     2
  0
TEXT
  5
2F395
330
17
100
AcDbEntity
  8
DIMTEXT
100
AcDbText
 10
3100.586895278329
 20
4702.400284698806
 30
0.0
 40
48.0
  1
2
 41
0.8
 72
     1
 11
3113.386895278329
 21
4726.400284698806
 31
0.0
100
AcDbText
 73
     2
  0
TEXT
  5
2F396
330
17
100
AcDbEntity
  8
DIMTEXT
100
AcDbText
 10
2891.2154667069
 20
4775.539949759696
 30
0.0
 40
48.0
  1
YU46NNC2-J22
 41
0.8
 72
     1
 11
3113.386895278329
 21
4799.539949759696
 31
0.0
100
AcDbText
 73
     2
  0
INSERT
  5
2F69D
330
17
100
AcDbEntity
  8
DIM
100
AcDbBlockReference
 66
     1
  2
SSE_BALOON1
 10
2330.290888735472
 20
2972.175729252149
 30
0.0
 41
42.5
 42
42.5
 43
42.5
1001
SSE_BALOON
1005
2E8FB
  0
ATTRIB
  5
2F69E
330
2F69D
100
AcDbEntity
  8
DIMTEXT
100
AcDbText
 10
2316.124222068806
 20
2950.925729252149
 30
0.0
 40
42.5
  1
3
 72
     4
 11
2330.290888735472
 21
2972.175729252149
 31
0.0
100
AcDbAttribute
  2
BAL_NUM
 70
     0
280
     0
  0
SEQEND
  5
2F69F
330
2F69D
100
AcDbEntity
  8
DIM
  0
INSERT
  5
2F6A0
330
17
100
AcDbEntity
  8
DIM
100
AcDbBlockReference
 66
     1
  2
SSE_BALOON1
 10
2988.769464715477
 20
3567.875915874985
 30
0.0
 41
42.5
 42
42.5
 43
42.5
1001
SSE_BALOON
1005
2E903
  0
ATTRIB
  5
2F6A1
330
2F6A0
100
AcDbEntity
  8
DIMTEXT
100
AcDbText
 10
2973.590893286906
 20
3546.625915874985
 30
0.0
 40
42.5
  1
4
 72
     4
 11
2988.769464715477
 21
3567.875915874985
 31
0.0
100
AcDbAttribute
  2
BAL_NUM
 70
     0
280
     0
  0
SEQEND
  5
2F6A2
330
2F6A0
100
AcDbEntity
  8
DIM
  0
LEADER
  5
2F6A3
330
17
100
AcDbEntity
  8
DIM
100
AcDbLeader
  3
STANDARD
 76
     2
 10
2596.784647436956
 20
3196.756899696048
 30
0.0
 10
2362.789675982248
 20
2999.563296276051
 30
0.0
1001
SSE_BALOON
1005
2E8F5
1001
ACAD
1000
DSTYLE
1002
{
1070
    41
1040
3.0
1070
    43
1040
10.0
1070
    73
1070
     0
1070
    74
1070
     0
1070
   172
1070
     1
1070
   272
1070
     1
1070
   341
1005
4A
1070
   342
1005
4A
1002
}
  0
LEADER
  5
2F6A4
330
17
100
AcDbEntity
  8
DIM
100
AcDbLeader
  3
STANDARD
 76
     2
 10
2508.084281428573
 20
3238.456023326472
 30
0.0
 10
2257.649819016318
 20
3001.39252088316
 30
0.0
1001
SSE_BALOON
1005
2E8FD
1001
ACAD
1000
DSTYLE
1002
{
1070
    41
1040
3.0
1070
    43
1040
10.0
1070
    73
1070
     0
1070
    74
1070
     0
1070
   172
1070
     1
1070
   272
1070
     1
1070
   341
1005
4A
1070
   342
1005
4A
1002
}
  0
INSERT
  5
2F6A5
330
17
100
AcDbEntity
  8
DIM
100
AcDbBlockReference
 66
     1
  2
SSE_BALOON1
 10
2226.785129048815
 20
2972.175729252149
 30
0.0
 41
42.5
 42
42.5
 43
42.5
1001
SSE_BALOON
1005
2E8FC
  0
ATTRIB
  5
2F6A6
330
2F6A5
100
AcDbEntity
  8
DIMTEXT
100
AcDbText
 10
2221.725605239291
 20
2950.925729252149
 30
0.0
 40
42.5
  1
1
 72
     4
 11
2226.785129048815
 21
2972.175729252149
 31
0.0
100
AcDbAttribute
  2
BAL_NUM
 70
     0
280
     0
  0
SEQEND
  5
2F6A7
330
2F6A5
100
AcDbEntity
  8
DIM
  0
LEADER
  5
2F6A8
330
17
100
AcDbEntity
  8
DIM
100
AcDbLeader
  3
STANDARD
 76
     2
 10
2608.666957783121
 20
3260.164993548172
 30
0.0
 10
2609.941708110107
 20
3525.375915874985
 30
0.0
1001
SSE_BALOON
1005
2E907
1001
ACAD
1000
DSTYLE
1002
{
1070
    41
1040
3.0
1070
    43
1040
10.0
1070
    73
1070
     0
1070
    74
1070
     0
1070
   172
1070
     1
1070
   272
1070
     1
1070
   341
1005
4A
1070
   342
1005
4A
1002
}
  0
LEADER
  5
2F6A9
330
17
100
AcDbEntity
  8
DIM
100
AcDbLeader
  3
STANDARD
 76
     2
 10
2661.614036930808
 20
3247.075167451495
 30
0.0
 10
2707.477072343468
 20
3525.939289374658
 30
0.0
1001
SSE_BALOON
1005
2E904
1001
ACAD
1000
DSTYLE
1002
{
1070
    41
1040
3.0
1070
    43
1040
10.0
1070
    73
1070
     0
1070
    74
1070
     0
1070
   172
1070
     1
1070
   272
1070
     1
1070
   341
1005
4A
1070
   342
1005
4A
1002
}
  0
LEADER
  5
2F6AA
330
17
100
AcDbEntity
  8
DIM
100
AcDbLeader
  3
STANDARD
 76
     2
 10
2811.192337567617
 20
3241.023332836342
 30
0.0
 10
2885.00815286182
 20
3526.727121332208
 30
0.0
1001
SSE_BALOON
1005
2E90A
1001
ACAD
1000
DSTYLE
1002
{
1070
    41
1040
3.0
1070
    43
1040
10.0
1070
    73
1070
     0
1070
    74
1070
     0
1070
   172
1070
     1
1070
   272
1070
     1
1070
   341
1005
4A
1070
   342
1005
4A
1002
}
  0
LEADER
  5
2F6AB
330
17
100
AcDbEntity
  8
DIM
100
AcDbLeader
  3
STANDARD
 76
     2
 10
2902.913626826136
 20
3246.923697914305
 30
0.0
 10
2977.786729462934
 20
3526.819497054384
 30
0.0
1001
SSE_BALOON
1005
2E8F8
1001
ACAD
1000
DSTYLE
1002
{
1070
    41
1040
3.0
1070
    43
1040
10.0
1070
    73
1070
     0
1070
    74
1070
     0
1070
   172
1070
     1
1070
   272
1070
     1
1070
   341
1005
4A
1070
   342
1005
4A
1002
}
  0
INSERT
  5
2F6AC
330
17
100
AcDbEntity
  8
DIM
100
AcDbBlockReference
 66
     1
  2
SSE_BALOON1
 10
2714.374126625703
 20
3567.875915874985
 30
0.0
 41
42.5
 42
42.5
 43
42.5
1001
SSE_BALOON
1005
2E901
  0
ATTRIB
  5
2F6AD
330
2F6AC
100
AcDbEntity
  8
DIMTEXT
100
AcDbText
 10
2700.207459959036
 20
3546.625915874985
 30
0.0
 40
42.5
  1
5
 72
     4
 11
2714.374126625703
 21
3567.875915874985
 31
0.0
100
AcDbAttribute
  2
BAL_NUM
 70
     0
280
     0
  0
SEQEND
  5
2F6AE
330
2F6AC
100
AcDbEntity
  8
DIM
  0
INSERT
  5
2F6AF
330
17
100
AcDbEntity
  8
DIM
100
AcDbBlockReference
 66
     1
  2
SSE_BALOON1
 10
2609.941708110107
 20
3567.875915874985
 30
0.0
 41
42.5
 42
42.5
 43
42.5
1001
SSE_BALOON
1005
2E900
  0
ATTRIB
  5
2F6B0
330
2F6AF
100
AcDbEntity
  8
DIMTEXT
100
AcDbText
 10
2595.77504144344
 20
3546.625915874985
 30
0.0
 40
42.5
  1
2
 72
     4
 11
2609.941708110107
 21
3567.875915874985
 31
0.0
100
AcDbAttribute
  2
BAL_NUM
 70
     0
280
     0
  0
SEQEND
  5
2F6B1
330
2F6AF
100
AcDbEntity
  8
DIM
  0
INSERT
  5
2F6B2
330
17
100
AcDbEntity
  8
DIM
100
AcDbBlockReference
 66
     1
  2
SSE_BALOON1
 10
2895.639554823759
 20
3567.875915874985
 30
0.0
 41
42.5
 42
42.5
 43
42.5
1001
SSE_BALOON
1005
2E902
  0
ATTRIB
  5
2F6B3
330
2F6B2
100
AcDbEntity
  8
DIMTEXT
100
AcDbText
 10
2882.484792918997
 20
3546.625915874985
 30
0.0
 40
42.5
  1
6
 72
     4
 11
2895.639554823759
 21
3567.875915874985
 31
0.0
100
AcDbAttribute
  2
BAL_NUM
 70
     0
280
     0
  0
SEQEND
  5
2F6B4
330
2F6B2
100
AcDbEntity
  8
DIM
  0
LINE
  5
2F84F
330
17
100
AcDbEntity
  8
DIM
100
AcDbLine
 10
2757.790288939796
 20
3096.565473554696
 30
0.0
 11
2757.790288939796
 21
3032.565473554696
 31
0.0
  0
LINE
  5
2F851
330
17
100
AcDbEntity
  8
DIM
100
AcDbLine
 10
2802.790288939797
 20
3062.565473554696
 30
0.0
 11
2847.790288939797
 21
3062.565473554696
 31
0.0
  0
LINE
  5
2F853
330
17
100
AcDbEntity
  8
DIM
100
AcDbLine
 10
2757.790288939796
 20
3062.565473554696
 30
0.0
 11
2652.790288939776
 21
3062.565473554696
 31
0.0
  0
LEADER
  5
2F874
330
17
100
AcDbEntity
  8
DIM
100
AcDbLeader
  3
STANDARD
 73
     0
 75
     1
 40
128.0
 41
498.4685714285715
 76
     3
 10
2476.184878154894
 20
3403.539094943655
 30
0.0
 10
2402.755540333061
 20
3962.301691725406
 30
0.0
 10
2351.755540333061
 20
3962.301691725406
 30
0.0
340
2F875
213
-52.92971272987461
223
0.0
233
0.0
1001
ACAD
1000
DSTYLE
1002
{
1070
    41
1040
3.0
1070
    42
1040
2.0
1070
    43
1040
10.0
1070
    44
1040
2.0
1070
    73
1070
     0
1070
    74
1070
     0
1070
    77
1070
     1
1070
    78
1070
     8
1070
    79
1070
     2
1070
   140
1040
3.2
1070
   147
1040
0.9999999999999996
1070
   172
1070
     1
1070
   179
1070
     4
1070
   271
1070
     2
1070
   272
1070
     2
1070
   341
1005
5132
1070
   342
1005
4A
1002
}
  0
MTEXT
  5
2F875
102
{ACAD_REACTORS
330
2F874
102
}
330
17
100
AcDbEntity
  8
DIM
100
AcDbMText
 10
2389.685253062936
 20
3977.301691725407
 30
0.0
 40
48.0
 41
561.0549491525679
 46
0.0
 71
     9
 72
     1
  1
\A1;3-M12アンカーボルト\P（穴φ17）
 73
     1
 44
1.0
  0
DIMENSION
  5
2F946
330
17
100
AcDbEntity
  8
DIM
100
AcDbDimension
  2
*D30
 10
2304.589646606634
 20
3244.425718582645
 30
0.0
 11
2266.339646606633
 21
3572.475718582643
 31
0.0
 70
    32
 71
     5
 42
656.0999999999967
 73
     0
 74
     0
 75
     0
  3
STANDARD
100
AcDbAlignedDimension
 13
2430.390288938983
 23
3900.525718582641
 33
0.0
 14
2582.790288939776
 24
3244.425718582645
 34
0.0
 50
90.0
100
AcDbRotatedDimension
1001
ACAD
1000
DSTYLE
1002
{
1070
    41
1040
3.0
1070
    42
1040
2.0
1070
    43
1040
10.0
1070
    44
1040
2.0
1070
    45
1040
1.0
1070
    73
1070
     0
1070
    74
1070
     0
1070
    77
1070
     1
1070
    78
1070
     8
1070
    79
1070
     2
1070
   140
1040
2.5
1070
   147
1040
0.9999999999999996
1070
   172
1070
     1
1070
   179
1070
     8
1070
   271
1070
     8
1070
   272
1070
     8
1070
   341
1005
4A
1070
   342
1005
4A
1002
}
  0
TEXT
  5
2F9DF
330
17
100
AcDbEntity
  8
DIM
100
AcDbText
 10
226.040915959261
 20
4781.718207772432
 30
0.0
 40
96.0
  1
『電気温水器
 41
0.8
100
AcDbText
  0
INSERT
  5
2FCC1
330
17
100
AcDbEntity
  8
Defpoints
100
AcDbBlockReference
  2
waku0
 10
0.0
 20
0.0
 30
0.0
 41
3570.0
 42
5049.0
 43
3570.0
  0
LINE
  5
2FFB5
330
17
100
AcDbEntity
  8
DIM
100
AcDbLine
 10
2652.790288939776
 20
3148.425718582644
 30
0.0
 11
2652.790288939776
 21
3028.565473554696
 31
0.0
  0
LINE
  5
2FFB6
330
17
100
AcDbEntity
  8
DIM
100
AcDbLine
 10
2757.790288939796
 20
3030.565473554696
 30
0.0
 11
2757.790288939796
 21
3028.565473554696
 31
0.0
  0
LINE
  5
2FFB7
330
17
100
AcDbEntity
  8
DIM
100
AcDbLine
 10
2601.790288939776
 20
3062.565473554696
 30
0.0
 11
2550.790288939776
 21
3062.565473554696
 31
0.0
  0
LINE
  5
2FFB8
330
17
100
AcDbEntity
  8
DIM
100
AcDbLine
 10
2808.790288939797
 20
3062.565473554696
 30
0.0
 11
2859.790288939797
 21
3062.565473554696
 31
0.0
  0
LINE
  5
2FFB9
330
17
100
AcDbEntity
  8
DIM
100
AcDbLine
 10
2652.790288939776
 20
3062.565473554696
 30
0.0
 11
2757.790288939796
 21
3062.565473554696
 31
0.0
  0
INSERT
  5
2FFBA
330
17
100
AcDbEntity
  8
DIM
100
AcDbBlockReference
  2
_Open30
 10
2652.790288939776
 20
3062.565473554696
 30
0.0
 41
51.0
 42
51.0
 43
51.0
  0
MTEXT
  5
2FFBC
330
17
100
AcDbEntity
  8
DIM
100
AcDbMText
 10
2705.290288939786
 20
3100.815473554696
 30
0.0
 40
42.5
 41
0.0
 46
0.0
 71
     5
 72
     1
  1
\A1;105
 73
     1
 44
1.0
  0
LINE
  5
3006B
330
17
100
AcDbEntity
  8
CEN
100
AcDbLine
 10
2689.290288939776
 20
3218.425713085889
 30
0.0
 11
2616.290288939776
 21
3218.425713085889
 31
0.0
  0
TEXT
  5
30088
330
17
100
AcDbEntity
  8
DIM
100
AcDbText
 10
2868.963635574789
 20
155.7417855595699
 30
0.0
 40
66.03660537500275
  1
E34-000387
 41
0.8
100
AcDbText
  0
LWPOLYLINE
  5
30098
330
17
100
AcDbEntity
  8
0
100
AcDbPolyline
 90
        4
 70
     1
 43
0.0
 10
107.7098773807502
 20
4915.845978532737
 10
3482.189333586318
 20
4915.845978532737
 10
3482.189333586318
 20
119.1368236109677
 10
107.7098773807502
 20
119.1368236109677
  0
LINE
  5
30159
330
17
100
AcDbEntity
  8
DIM
370
    18
100
AcDbLine
 10
2446.39860948113
 20
2556.327991040134
 30
0.0
 11
3266.138784766486
 21
2556.32799104013
 31
0.0
  0
TEXT
  5
3015A
330
17
100
AcDbEntity
  8
DIM
370
    18
100
AcDbText
 10
2457.830889143193
 20
2569.318683799352
 30
0.0
 40
48.0
  1
基礎ボルトおよび配管位置図（上空図）
 41
0.8
 72
     1
 11
2857.190889143192
 21
2569.318683799352
 31
0.0
100
AcDbText
  0
DIMENSION
  5
30231
330
17
100
AcDbEntity
  8
DIM
100
AcDbDimension
  2
*D31
 10
3407.190288938978
 20
3900.52571858264
 30
0.0
 11
3368.940288938977
 21
4046.240004296927
 31
0.0
 70
    32
 71
     5
 42
29.09999999999991
 73
     0
 74
     0
 75
     0
  3
STANDARD
100
AcDbAlignedDimension
 13
2795.290288939797
 23
3871.425718582641
 33
0.0
 14
3089.190288938984
 24
3900.525718582641
 34
0.0
 50
90.0
100
AcDbRotatedDimension
1001
ACAD
1000
DSTYLE
1002
{
1070
    41
1040
3.0
1070
    42
1040
2.0
1070
    43
1040
10.0
1070
    44
1040
2.0
1070
    45
1040
1.0
1070
    73
1070
     0
1070
    74
1070
     0
1070
    77
1070
     1
1070
    78
1070
     8
1070
    79
1070
     2
1070
   140
1040
2.5
1070
   147
1040
0.9999999999999996
1070
   172
1070
     1
1070
   179
1070
     8
1070
   271
1070
     8
1070
   272
1070
     8
1070
   341
1005
4A
1070
   342
1005
4A
1002
}
  0
ENDSEC
  0
SECTION
  2
OBJECTS
  0
DICTIONARY
  5
C
330
0
100
AcDbDictionary
281
     1
  3
ACAD_COLOR
350
2D84B
  3
ACAD_GROUP
350
D
  3
ACAD_LAYOUT
350
34
  3
ACAD_MATERIAL
350
2D821
  3
ACAD_MLEADERSTYLE
350
2D870
  3
ACAD_MLINESTYLE
350
1A
  3
ACAD_PLOTSETTINGS
350
35
  3
ACAD_PLOTSTYLENAME
350
32
  3
ACAD_SCALELIST
350
2D84E
  3
ACAD_TABLESTYLE
350
2D84C
  3
ACAD_VISUALSTYLE
350
2D83A
  3
AcadDim
350
2C65E
  3
ACDB_RECOMPOSE_DATA
350
2EECC
  3
AcDbVariableDictionary
350
44
  0
DICTIONARY
  5
2C31C
330
2
100
AcDbDictionary
280
     1
281
     1
  3
ACAD_LAYERSTATES
360
2C31D
  0
DICTIONARY
  5
2EEBC
330
E
100
AcDbDictionary
280
     1
281
     1
  3
ADSK_XREC_LAYER_RECONCILED
360
2EEBD
  0
DICTIONARY
  5
2EEBE
330
21
100
AcDbDictionary
280
     1
281
     1
  3
ADSK_XREC_LAYER_RECONCILED
360
2EEBF
  0
DICTIONARY
  5
2EEC0
330
22
100
AcDbDictionary
280
     1
281
     1
  3
ADSK_XREC_LAYER_RECONCILED
360
2EEC1
  0
DICTIONARY
  5
2EEC2
330
23
100
AcDbDictionary
280
     1
281
     1
  3
ADSK_XREC_LAYER_RECONCILED
360
2EEC3
  0
DICTIONARY
  5
2EEC4
330
24
100
AcDbDictionary
280
     1
281
     1
  3
ADSK_XREC_LAYER_RECONCILED
360
2EEC5
  0
DICTIONARY
  5
2EEC6
330
27
100
AcDbDictionary
280
     1
281
     1
  3
ADSK_XREC_LAYER_RECONCILED
360
2EEC7
  0
DICTIONARY
  5
2F857
330
17
100
AcDbDictionary
280
     1
281
     1
  3
ACAD_SORTENTS
360
2F858
  0
DICTIONARY
  5
302C0
330
2DEAB
100
AcDbDictionary
280
     1
281
     1
  3
ACAD_MTEXT_2008_RT
360
302C1
  0
DICTIONARY
  5
2D84B
102
{ACAD_REACTORS
330
C
102
}
330
C
100
AcDbDictionary
281
     1
  0
DICTIONARY
  5
D
102
{ACAD_REACTORS
330
C
102
}
330
C
100
AcDbDictionary
281
     1
  3
*A1
350
3917
  3
*A10
350
14E82
  3
*A2
350
17876
  3
*A3
350
3E2F
  3
*A4
350
14154
  3
*A5
350
14C46
  3
*A6
350
14C48
  3
*A7
350
14DF1
  3
*A8
350
14DF3
  3
*A9
350
14E80
  0
DICTIONARY
  5
34
102
{ACAD_REACTORS
330
C
102
}
330
C
100
AcDbDictionary
281
     1
  3
Model
350
36
  3
ﾚｲｱｳﾄ1
350
37
  0
DICTIONARY
  5
2D821
102
{ACAD_REACTORS
330
C
102
}
330
C
100
AcDbDictionary
281
     1
  3
ByBlock
350
2D82A
  3
ByLayer
350
2D822
  3
Global
350
2D832
  0
DICTIONARY
  5
2D870
102
{ACAD_REACTORS
330
C
102
}
330
C
100
AcDbDictionary
281
     1
  3
Standard
350
2D871
  0
DICTIONARY
  5
1A
102
{ACAD_REACTORS
330
C
102
}
330
C
100
AcDbDictionary
281
     1
  3
STANDARD
350
1B
  0
DICTIONARY
  5
35
102
{ACAD_REACTORS
330
C
102
}
330
C
100
AcDbDictionary
281
     1
  0
ACDBDICTIONARYWDFLT
  5
32
102
{ACAD_REACTORS
330
C
102
}
330
C
100
AcDbDictionary
281
     1
  3
Normal
350
33
100
AcDbDictionaryWithDefault
340
33
  0
DICTIONARY
  5
2D84E
102
{ACAD_REACTORS
330
C
102
}
330
C
100
AcDbDictionary
281
     1
  3
A0
350
2D84F
  3
A1
350
2D850
  3
A2
350
2D851
  3
A3
350
2D852
  3
A4
350
2D853
  3
A5
350
2D854
  3
A6
350
2D855
  3
A7
350
2D856
  3
A8
350
2D857
  3
A9
350
2D858
  3
B0
350
2D859
  3
B1
350
2D85A
  3
B2
350
2D85B
  3
B3
350
2D85C
  3
B4
350
2D85D
  3
B5
350
2D85E
  3
B6
350
2D85F
  3
B7
350
2D860
  3
B8
350
2D861
  3
B9
350
2D862
  3
C0
350
2D863
  3
C1
350
2D864
  3
C2
350
2D865
  3
C3
350
2D866
  3
C4
350
2D867
  3
C5
350
2D868
  3
C6
350
2D869
  3
C7
350
2D86A
  3
C8
350
2D86B
  3
C9
350
2D86C
  3
D0
350
2D86D
  3
D1
350
2D86E
  3
D2
350
2D86F
  0
DICTIONARY
  5
2D84C
102
{ACAD_REACTORS
330
C
102
}
330
C
100
AcDbDictionary
281
     1
  3
Standard
350
2D84D
  0
DICTIONARY
  5
2D83A
102
{ACAD_REACTORS
330
C
102
}
330
C
100
AcDbDictionary
281
     1
  3
2dWireframe
350
2D840
  3
3D Hidden
350
2D842
  3
3dWireframe
350
2D841
  3
Basic
350
2D83F
  3
Brighten
350
2D846
  3
ColorChange
350
2D84A
  3
Conceptual
350
2D843
  3
Dim
350
2D845
  3
Facepattern
350
2D849
  3
Flat
350
2D83B
  3
FlatWithEdges
350
2D83C
  3
Gouraud
350
2D83D
  3
GouraudWithEdges
350
2D83E
  3
Linepattern
350
2D848
  3
Realistic
350
2D844
  3
Thicken
350
2D847
  0
XRECORD
  5
2C65E
102
{ACAD_REACTORS
330
C
102
}
330
C
100
AcDbXrecord
280
     1
 90
   990106
  3

 60
     0
 61
     0
 62
     4
 63
     4
 64
     1
 65
     0
 66
     0
 67
     2
 68
     1
 69
     0
 70
     0
 71
     0
 72
     0
 40
526.885071185168
170
     2
340
0
  0
XRECORD
  5
2EECC
102
{ACAD_REACTORS
330
C
102
}
330
C
100
AcDbXrecord
280
     1
 90
        1
330
2D84D
330
2DEAB
  0
DICTIONARY
  5
44
102
{ACAD_REACTORS
330
C
102
}
330
C
100
AcDbDictionary
281
     1
  3
CANNOSCALE
350
2EED0
  3
CMLEADERSTYLE
350
2EECE
  3
CTABLESTYLE
350
2EECD
  3
DIMASSOC
350
45
  3
LIGHTINGUNITS
350
2EED1
  3
MSLTSCALE
350
2EECF
  3
SORTENTS
350
6F8C
  0
DICTIONARY
  5
2C31D
102
{ACAD_REACTORS
330
2C31C
102
}
330
2C31C
100
AcDbDictionary
281
     1
  0
XRECORD
  5
2EEBD
102
{ACAD_REACTORS
330
2EEBC
102
}
330
2EEBC
100
AcDbXrecord
280
     1
290
     1
  0
XRECORD
  5
2EEBF
102
{ACAD_REACTORS
330
2EEBE
102
}
330
2EEBE
100
AcDbXrecord
280
     1
290
     1
  0
XRECORD
  5
2EEC1
102
{ACAD_REACTORS
330
2EEC0
102
}
330
2EEC0
100
AcDbXrecord
280
     1
290
     1
  0
XRECORD
  5
2EEC3
102
{ACAD_REACTORS
330
2EEC2
102
}
330
2EEC2
100
AcDbXrecord
280
     1
290
     1
  0
XRECORD
  5
2EEC5
102
{ACAD_REACTORS
330
2EEC4
102
}
330
2EEC4
100
AcDbXrecord
280
     1
290
     1
  0
XRECORD
  5
2EEC7
102
{ACAD_REACTORS
330
2EEC6
102
}
330
2EEC6
100
AcDbXrecord
280
     1
290
     1
  0
SORTENTSTABLE
  5
2F858
102
{ACAD_REACTORS
330
2F857
102
}
330
2F857
100
AcDbSortentsTable
330
17
331
2F04B
  5
2F053
331
2F033
  5
2F033
331
2DEA1
  5
2DEA1
331
25323
  5
25323
331
2DEE0
  5
2DEE0
331
2DF95
  5
2DF95
331
2DFD4
  5
2DFD4
331
2DEE8
  5
2DEE8
331
2DF1F
  5
2DF1F
331
2DEA9
  5
2DEA9
331
2DF5E
  5
2DF5E
331
2DF9D
  5
2DF9D
331
2DFDC
  5
2DFDC
331
2DEF0
  5
2DEF0
331
2DF27
  5
2DF27
331
2DEB1
  5
2DEB1
331
2DF66
  5
2DF66
331
2DF6E
  5
2DF6E
331
2DFA5
  5
2DFA5
331
2DEB9
  5
2DEB9
331
2DEF8
  5
2DEF8
331
2DE7A
  5
2DE7A
331
2DF2F
  5
2DF2F
331
2DFE4
  5
2DFE4
331
2DFEC
  5
2DFEC
331
2DF37
  5
2DF37
331
2DF76
  5
2DF76
331
2DFAD
  5
2DFAD
331
2E072
  5
2E072
331
2FCC1
  5
2FCC1
331
2E009
  5
2E009
331
2E048
  5
2E048
331
2F069
  5
2F071
331
2E144
  5
2E144
331
2E17B
  5
2E17B
331
2E1BA
  5
2E1BA
331
2E011
  5
2E011
331
2E050
  5
2E050
331
2E08F
  5
2E08F
331
2F079
  5
2F081
331
2E14C
  5
2E14C
331
2E183
  5
2E183
331
2E097
  5
2E097
331
2E0D6
  5
2E0D6
331
2E019
  5
2E019
331
2E058
  5
2E058
331
2E10D
  5
2E10D
331
2E1C2
  5
2E1C2
331
2E1CA
  5
2E1CA
331
2E115
  5
2E115
331
2E060
  5
2E060
331
2E09F
  5
2E09F
331
2E154
  5
2E154
331
2E021
  5
2E021
331
2E18B
  5
2E18B
331
2E193
  5
2E193
331
2E1D2
  5
2E1D2
331
2E0E6
  5
2E0E6
331
2E11D
  5
2E11D
331
2E0A7
  5
2E0A7
331
2E15C
  5
2E15C
331
2F241
  5
2F249
331
2F6A9
  5
2F851
331
2F02C
  5
2F02C
331
2F074
  5
2F07C
331
2DE82
  5
2DE82
331
2DEC1
  5
2DEC1
331
2CAAB
  5
2CAAB
331
2DF00
  5
2DF00
331
2DFB5
  5
2DFB5
331
2DFF4
  5
2DFF4
331
2DF3F
  5
2DF3F
331
2DF7E
  5
2DF7E
331
2DE8A
  5
2DE8A
331
2DEC9
  5
2DEC9
331
2DF08
  5
2DF08
331
2DFBD
  5
2DFBD
331
2DFFC
  5
2DFFC
331
2DF10
  5
2DF10
331
2DF47
  5
2DF47
331
2DE9A
  5
2DE9A
331
2DED1
  5
2DED1
331
2DF86
  5
2DF86
331
2DF8E
  5
2DF8E
331
2DFC5
  5
2DFC5
331
2DED9
  5
2DED9
331
2DF4F
  5
2DF4F
331
2E004
  5
2E004
331
2DF57
  5
2DF57
331
2DFCD
  5
2DFCD
331
2DE63
  5
2DE63
331
2E068
  5
2E068
331
2E029
  5
2E029
331
2F249
  5
2F251
331
2E19B
  5
2E19B
331
2F042
  5
2F04A
331
2E0EE
  5
2E0EE
331
2E125
  5
2E125
331
2E031
  5
2E031
331
2E078
  5
2E078
331
2E0AF
  5
2E0AF
331
2E164
  5
2E164
331
2F251
  5
2F390
331
2E16C
  5
2E16C
331
2E1A3
  5
2E1A3
331
2E0B7
  5
2E0B7
331
2E0F6
  5
2E0F6
331
2E039
  5
2E039
331
2E080
  5
2E080
331
2E12D
  5
2E12D
331
2F052
  5
2F05A
331
2E135
  5
2E135
331
2E174
  5
2E174
331
2E0BF
  5
2E0BF
331
2E041
  5
2E041
331
2E0FE
  5
2E0FE
331
2E1AB
  5
2E1AB
331
2E1B3
  5
2E1B3
331
2E13D
  5
2E13D
331
2F391
  5
2F6A3
331
2F04C
  5
2F054
331
2F034
  5
2F034
331
2DEE1
  5
2DEE1
331
2DF18
  5
2DF18
331
2DEA2
  5
2DEA2
331
2DF5F
  5
2DF5F
331
2DF96
  5
2DF96
331
2DEAA
  5
2DEAA
331
2DEE9
  5
2DEE9
331
2DF20
  5
2DF20
331
2DFD5
  5
2DFD5
331
2DFDD
  5
2DFDD
331
2DF28
  5
2DF28
331
2DF67
  5
2DF67
331
2DEB2
  5
2DEB2
331
2DEF1
  5
2DEF1
331
2DF9E
  5
2DF9E
331
2DFA6
  5
2DFA6
331
2DFE5
  5
2DFE5
331
2DEF9
  5
2DEF9
331
2DF30
  5
2DF30
331
2DE7B
  5
2DE7B
331
2DEBA
  5
2DEBA
331
2DF6F
  5
2DF6F
331
2DFAE
  5
2DFAE
331
2DFED
  5
2DFED
331
2DF77
  5
2DF77
331
2E073
  5
2E073
331
2DE93
  5
2DE93
331
2E088
  5
2E088
331
2E00A
  5
2E00A
331
2E049
  5
2E049
331
2E1BB
  5
2E1BB
331
2E051
  5
2E051
331
2E090
  5
2E090
331
2E145
  5
2E145
331
2E012
  5
2E012
331
2E17C
  5
2E17C
331
2E184
  5
2E184
331
2E1C3
  5
2E1C3
331
2E0D7
  5
2E0D7
331
2E10E
  5
2E10E
331
2E01A
  5
2E01A
331
2E059
  5
2E059
331
2E098
  5
2E098
331
2E14D
  5
2E14D
331
2F07A
  5
2F23C
331
2E155
  5
2E155
331
2E18C
  5
2E18C
331
2E116
  5
2E116
331
2E1CB
  5
2E1CB
331
2E022
  5
2E022
331
2E061
  5
2E061
331
2E0A0
  5
2E0A0
331
2F242
  5
2F24A
331
2E1D8
  5
2E1D8
331
2E15D
  5
2E15D
331
2E194
  5
2E194
331
2E0E7
  5
2E0E7
331
2E11E
  5
2E11E
331
2E1D3
  5
2E1D3
331
2F6AA
  5
2F852
331
2F6B2
  5
2F856
331
2F05D
  5
2F065
331
1549A
  5
1549A
331
2F075
  5
2F07D
331
2DF01
  5
2DF01
331
2DF38
  5
2DF38
331
2CAAC
  5
2CAAC
331
2DE83
  5
2DE83
331
2DEC2
  5
2DEC2
331
2DF7F
  5
2DF7F
331
2DFB6
  5
2DFB6
331
2DECA
  5
2DECA
331
2DF09
  5
2DF09
331
2DE8B
  5
2DE8B
331
2DF40
  5
2DF40
331
2DFF5
  5
2DFF5
331
2DFFD
  5
2DFFD
331
2DF48
  5
2DF48
331
2DF87
  5
2DF87
331
2DE9B
  5
2DE9B
331
2DED2
  5
2DED2
331
2DF11
  5
2DF11
331
2DFBE
  5
2DFBE
331
2DFC6
  5
2DFC6
331
2E005
  5
2E005
331
2DF50
  5
2DF50
331
2DEDA
  5
2DEDA
331
2DF8F
  5
2DF8F
331
2CDBC
  5
2CDBC
331
2DFCE
  5
2DFCE
331
2F853
  5
2F041
331
2E0A8
  5
2E0A8
331
2E02A
  5
2E02A
331
2E069
  5
2E069
331
2F043
  5
2F04B
331
2F24A
  5
2F252
331
2E126
  5
2E126
331
2E165
  5
2E165
331
2E079
  5
2E079
331
2E0B0
  5
2E0B0
331
2E032
  5
2E032
331
2E0EF
  5
2E0EF
331
2E19C
  5
2E19C
331
2E1A4
  5
2E1A4
331
2F053
  5
2F05B
331
2E0F7
  5
2E0F7
331
2E12E
  5
2E12E
331
2E081
  5
2E081
331
2E0B8
  5
2E0B8
331
2E16D
  5
2E16D
331
2F252
  5
2F391
331
2E03A
  5
2E03A
331
2E1AC
  5
2E1AC
331
2F063
  5
2F06B
331
2E0FF
  5
2E0FF
331
2E136
  5
2E136
331
2E042
  5
2E042
331
2E0C0
  5
2E0C0
331
2E175
  5
2E175
331
2F392
  5
2F6A4
331
2E1B4
  5
2E1B4
331
2E13E
  5
2E13E
331
2F080
  5
2F242
331
2F04D
  5
2F055
331
2F03D
  5
2F045
331
2DF19
  5
2DF19
331
2DF58
  5
2DF58
331
2DEA3
  5
2DEA3
331
2DEE2
  5
2DEE2
331
2DF97
  5
2DF97
331
2DFD6
  5
2DFD6
331
2DEEA
  5
2DEEA
331
2DF21
  5
2DF21
331
2DEAB
  5
2DEAB
331
2DF60
  5
2DF60
331
2DF68
  5
2DF68
331
2DF9F
  5
2DF9F
331
2DEF2
  5
2DEF2
331
2DF29
  5
2DF29
331
2DFDE
  5
2DFDE
331
2DE74
  5
2DE74
331
2DEB3
  5
2DEB3
331
2DF70
  5
2DF70
331
2DFA7
  5
2DFA7
331
2DEBB
  5
2DEBB
331
2DEFA
  5
2DEFA
331
2CAA5
  5
2CAA5
331
2DE7C
  5
2DE7C
331
2DF31
  5
2DF31
331
2DFE6
  5
2DFE6
331
2DFEE
  5
2DFEE
331
2DFAF
  5
2DFAF
331
2E074
  5
2E074
331
2E0C8
  5
2E0C8
331
2E00B
  5
2E00B
331
2E04A
  5
2E04A
331
2E089
  5
2E089
331
2F06B
  5
2F073
331
2E091
  5
2E091
331
2E146
  5
2E146
331
2E17D
  5
2E17D
331
2E013
  5
2E013
331
2E052
  5
2E052
331
2E1BC
  5
2E1BC
331
2E1C4
  5
2E1C4
331
2F07B
  5
2F23D
331
2E14E
  5
2E14E
331
2E185
  5
2E185
331
2E099
  5
2E099
331
2E0D8
  5
2E0D8
331
2E01B
  5
2E01B
331
2E05A
  5
2E05A
331
2E10F
  5
2E10F
331
2E1CC
  5
2E1CC
331
2E117
  5
2E117
331
2E062
  5
2E062
331
2E0A1
  5
2E0A1
331
2E156
  5
2E156
331
2E023
  5
2E023
331
2E18D
  5
2E18D
331
2E1D9
  5
2E1D9
331
2F6A3
  5
2F6AF
331
2E195
  5
2E195
331
2E1D4
  5
2E1D4
331
2E11F
  5
2E11F
331
2E15E
  5
2E15E
331
2F243
  5
2F24B
331
2F6AB
  5
2F853
331
2F05E
  5
2F066
331
2F076
  5
2F07E
331
2DF39
  5
2DF39
331
2DF78
  5
2DF78
331
2DE84
  5
2DE84
331
2DEC3
  5
2DEC3
331
2CAAD
  5
2CAAD
331
2DF02
  5
2DF02
331
2DFB7
  5
2DFB7
331
2DFF6
  5
2DFF6
331
2DF0A
  5
2DF0A
331
2DF41
  5
2DF41
331
2DE8C
  5
2DE8C
331
2DECB
  5
2DECB
331
2DF80
  5
2DF80
331
2DFBF
  5
2DFBF
331
2DFFE
  5
2DFFE
331
2DF12
  5
2DF12
331
2DF49
  5
2DF49
331
2CAC5
  5
2CAC5
331
2DE9C
  5
2DE9C
331
2DED3
  5
2DED3
331
2DF88
  5
2DF88
331
2DFC7
  5
2DFC7
331
2DEDB
  5
2DEDB
331
2CDBD
  5
2CDBD
331
2DF51
  5
2DF51
331
2E006
  5
2E006
331
2DFCF
  5
2DFCF
331
2FFB8
  5
2FFB8
331
2E0E8
  5
2E0E8
331
2E02B
  5
2E02B
331
2E06A
  5
2E06A
331
2E0A9
  5
2E0A9
331
2F24B
  5
2F253
331
2E166
  5
2E166
331
2E19D
  5
2E19D
331
2E0F0
  5
2E0F0
331
2E127
  5
2E127
331
2F044
  5
2F04C
331
2E033
  5
2E033
331
2E07A
  5
2E07A
331
2E0B1
  5
2E0B1
331
2F253
  5
2F392
331
2E16E
  5
2E16E
331
2E1A5
  5
2E1A5
331
2E0B9
  5
2E0B9
331
2E0F8
  5
2E0F8
331
2E03B
  5
2E03B
331
2E082
  5
2E082
331
2E12F
  5
2E12F
331
2F054
  5
2F05C
331
2F064
  5
2F06C
331
2E137
  5
2E137
331
2E0C1
  5
2E0C1
331
2E176
  5
2E176
331
2E043
  5
2E043
331
2E1AD
  5
2E1AD
331
2E1B5
  5
2E1B5
331
2E13F
  5
2E13F
331
2F393
  5
2F6A5
331
2F081
  5
2F243
331
2F03E
  5
2F046
331
2DF59
  5
2DF59
331
2DF90
  5
2DF90
331
2DEA4
  5
2DEA4
331
2DEE3
  5
2DEE3
331
2D645
  5
2D645
331
2DF1A
  5
2DF1A
331
2DFD7
  5
2DFD7
331
2DF61
  5
2DF61
331
2DF98
  5
2DF98
331
2DEAC
  5
2DEAC
331
2CA36
  5
2CA36
331
2DEEB
  5
2DEEB
331
2DF22
  5
2DF22
331
2DFDF
  5
2DFDF
331
2DF2A
  5
2DF2A
331
2DF69
  5
2DF69
331
2DE75
  5
2DE75
331
2DEB4
  5
2DEB4
331
2DEF3
  5
2DEF3
331
2DFA0
  5
2DFA0
331
2DFA8
  5
2DFA8
331
2DFE7
  5
2DFE7
331
2DEFB
  5
2DEFB
331
2DF32
  5
2DF32
331
2CAA6
  5
2CAA6
331
2DE7D
  5
2DE7D
331
2DEBC
  5
2DEBC
331
2DF71
  5
2DF71
331
2E62D
  5
2E62D
331
2DFEF
  5
2DFEF
331
2E075
  5
2E075
331
2DE95
  5
2DE95
331
2F946
  5
2F946
331
2E100
  5
2E100
331
2E08A
  5
2E08A
331
2E0C9
  5
2E0C9
331
2E00C
  5
2E00C
331
2F026
  5
2F026
331
2E04B
  5
2E04B
331
2E1BD
  5
2E1BD
331
2F06C
  5
2F074
331
2E147
  5
2E147
331
2E053
  5
2E053
331
2E092
  5
2E092
331
2E014
  5
2E014
331
2E0D1
  5
2E0D1
331
2E17E
  5
2E17E
331
2F07C
  5
2F23E
331
2E186
  5
2E186
331
2E1C5
  5
2E1C5
331
2E0D9
  5
2E0D9
331
2E110
  5
2E110
331
2E01C
  5
2E01C
331
2E05B
  5
2E05B
331
2E09A
  5
2E09A
331
2E14F
  5
2E14F
331
2F23C
  5
2F244
331
2E157
  5
2E157
331
2E18E
  5
2E18E
331
2E0A2
  5
2E0A2
331
2E024
  5
2E024
331
2E063
  5
2E063
331
2E118
  5
2E118
331
2E1CD
  5
2E1CD
331
2E1DA
  5
2E1DA
331
2E1D5
  5
2E1D5
331
2F244
  5
2F24C
331
2E15F
  5
2E15F
331
2E196
  5
2E196
331
2F6A4
  5
2F6B2
331
2F6AC
  5
2F854
331
2F02F
  5
2F02F
331
2F05F
  5
2F067
331
2F077
  5
2F07F
331
2DF79
  5
2DF79
331
2DFB0
  5
2DFB0
331
2DF03
  5
2DF03
331
2DF3A
  5
2DF3A
331
2CAAE
  5
2CAAE
331
2DE85
  5
2DE85
331
2DEC4
  5
2DEC4
331
2DF81
  5
2DF81
331
2DFB8
  5
2DFB8
331
2DECC
  5
2DECC
331
2DF0B
  5
2DF0B
331
2DF42
  5
2DF42
331
2DFF7
  5
2DFF7
331
2DFFF
  5
2DFFF
331
2DF4A
  5
2DF4A
331
2DF89
  5
2DF89
331
2DE9D
  5
2DE9D
331
2DED4
  5
2DED4
331
2CAC6
  5
2CAC6
331
2DF13
  5
2DF13
331
2DFC0
  5
2DFC0
331
2DFC8
  5
2DFC8
331
2DF52
  5
2DF52
331
2E007
  5
2E007
331
2DEDC
  5
2DEDC
331
2FFB9
  5
2FFB9
331
2E0AA
  5
2E0AA
331
2E0E9
  5
2E0E9
331
2E02C
  5
2E02C
331
2E06B
  5
2E06B
331
2E120
  5
2E120
331
2F045
  5
2F04D
331
2F24C
  5
2F254
331
2E128
  5
2E128
331
2E167
  5
2E167
331
2E07B
  5
2E07B
331
2E0B2
  5
2E0B2
331
2E034
  5
2E034
331
2E0F1
  5
2E0F1
331
2E19E
  5
2E19E
331
2E1A6
  5
2E1A6
331
2F055
  5
2F05D
331
2E0F9
  5
2E0F9
331
2E130
  5
2E130
331
2E03C
  5
2E03C
331
2E083
  5
2E083
331
2E0BA
  5
2E0BA
331
2E16F
  5
2E16F
331
2E177
  5
2E177
331
2E1AE
  5
2E1AE
331
2E138
  5
2E138
331
2F065
  5
2F06D
331
2E044
  5
2E044
331
2E0C2
  5
2E0C2
331
2F394
  5
2F6A8
331
2E1B6
  5
2E1B6
331
2F04F
  5
2F057
331
2F03F
  5
2F047
331
2DFD0
  5
2DFD0
331
2DF1B
  5
2DF1B
331
2DF5A
  5
2DF5A
331
2DEA5
  5
2DEA5
331
2DEE4
  5
2DEE4
331
2DF91
  5
2DF91
331
2DF99
  5
2DF99
331
2DFD8
  5
2DFD8
331
2DEEC
  5
2DEEC
331
2DF23
  5
2DF23
331
2CA37
  5
2CA37
331
2DE5E
  5
2DE5E
331
2DEAD
  5
2DEAD
331
2DF62
  5
2DF62
331
2DF6A
  5
2DF6A
331
2DFA1
  5
2DFA1
331
2DEB5
  5
2DEB5
331
2DEF4
  5
2DEF4
331
2DF2B
  5
2DF2B
331
2DFE0
  5
2DFE0
331
2DFE8
  5
2DFE8
331
2DF72
  5
2DF72
331
2DFA9
  5
2DFA9
331
2DEBD
  5
2DEBD
331
2DEFC
  5
2DEFC
331
2CAA7
  5
2CAA7
331
2DE7E
  5
2DE7E
331
2DF33
  5
2DF33
331
2E076
  5
2E076
331
2DE96
  5
2DE96
331
2E0CA
  5
2E0CA
331
2E101
  5
2E101
331
2E00D
  5
2E00D
331
2F027
  5
2F027
331
2E04C
  5
2E04C
331
2E08B
  5
2E08B
331
2E140
  5
2E140
331
2F06D
  5
2F075
331
2E148
  5
2E148
331
2E093
  5
2E093
331
2E0D2
  5
2E0D2
331
2E17F
  5
2E17F
331
2E015
  5
2E015
331
2E054
  5
2E054
331
2E1BE
  5
2E1BE
331
2E1C6
  5
2E1C6
331
2F07D
  5
2F23F
331
2E111
  5
2E111
331
2E150
  5
2E150
331
2E09B
  5
2E09B
331
2E0DA
  5
2E0DA
331
2E187
  5
2E187
331
2F874
  5
2F874
331
2E01D
  5
2E01D
331
2E05C
  5
2E05C
331
2F69D
  5
2F6AB
331
2E1CE
  5
2E1CE
331
2F23D
  5
2F245
331
2E119
  5
2E119
331
2E064
  5
2E064
331
2E0A3
  5
2E0A3
331
2E158
  5
2E158
331
2E025
  5
2E025
331
2E18F
  5
2E18F
331
2E1DB
  5
2E1DB
331
2F245
  5
2F24D
331
2F6A5
  5
2F84F
331
2E197
  5
2E197
331
2E1D6
  5
2E1D6
331
2F028
  5
2F028
331
2F058
  5
2F060
331
2F070
  5
2F078
331
2DFF0
  5
2DFF0
331
2DF3B
  5
2DF3B
331
2DF7A
  5
2DF7A
331
2DE86
  5
2DE86
331
2DEC5
  5
2DEC5
331
2DF04
  5
2DF04
331
2DFB1
  5
2DFB1
331
2DFB9
  5
2DFB9
331
2DFF8
  5
2DFF8
331
2DF0C
  5
2DF0C
331
2DF43
  5
2DF43
331
2DE8E
  5
2DE8E
331
2DECD
  5
2DECD
331
2DF82
  5
2DF82
331
2DF8A
  5
2DF8A
331
2DFC1
  5
2DFC1
331
2DF14
  5
2DF14
331
2DF4B
  5
2DF4B
331
2E000
  5
2E000
331
2CAC7
  5
2CAC7
331
2DE9E
  5
2DE9E
331
2DED5
  5
2DED5
331
2DFC9
  5
2DFC9
331
2DEDD
  5
2DEDD
331
2DF53
  5
2DF53
331
2FFBA
  5
2FFBA
331
2E0EA
  5
2E0EA
331
2E121
  5
2E121
331
2E02D
  5
2E02D
331
2E06C
  5
2E06C
331
2E0AB
  5
2E0AB
331
2E160
  5
2E160
331
2F24D
  5
2F255
331
2E168
  5
2E168
331
2E19F
  5
2E19F
331
2E0B3
  5
2E0B3
331
2E0F2
  5
2E0F2
331
2E035
  5
2E035
331
2E07C
  5
2E07C
331
2E129
  5
2E129
331
2F046
  5
2F04E
331
2F056
  5
2F05E
331
2F255
  5
2F394
331
2E170
  5
2E170
331
2E1A7
  5
2E1A7
331
2E0BB
  5
2E0BB
331
2E0FA
  5
2E0FA
331
2E03D
  5
2E03D
331
2E084
  5
2E084
331
2E131
  5
2E131
331
2F066
  5
2F06E
331
2E139
  5
2E139
331
2E0C3
  5
2E0C3
331
2E045
  5
2E045
331
2E1AF
  5
2E1AF
331
2E1B7
  5
2E1B7
331
2F395
  5
2F6A9
331
2F048
  5
2F050
331
2F038
  5
2F038
331
2F030
  5
2F030
331
2DF5B
  5
2DF5B
331
2DF92
  5
2DF92
331
2DEA6
  5
2DEA6
331
2DEE5
  5
2DEE5
331
2DF1C
  5
2DF1C
331
2DFD1
  5
2DFD1
331
2DFD9
  5
2DFD9
331
2DF24
  5
2DF24
331
2DF63
  5
2DF63
331
2DEAE
  5
2DEAE
331
2DEED
  5
2DEED
331
2DF9A
  5
2DF9A
331
2CA38
  5
2CA38
331
2DE5F
  5
2DE5F
331
2DFE1
  5
2DFE1
331
2DF2C
  5
2DF2C
331
2DF6B
  5
2DF6B
331
2DEB6
  5
2DEB6
331
2DEF5
  5
2DEF5
331
2DFA2
  5
2DFA2
331
2DFAA
  5
2DFAA
331
2DFE9
  5
2DFE9
331
2DEFD
  5
2DEFD
331
2DF34
  5
2DF34
331
2DE7F
  5
2DE7F
331
2DEBE
  5
2DEBE
331
2DF73
  5
2DF73
331
2E077
  5
2E077
331
2DE97
  5
2DE97
331
2E102
  5
2E102
331
2E141
  5
2E141
331
2E04D
  5
2E04D
331
2E08C
  5
2E08C
331
2E00E
  5
2E00E
331
2E0CB
  5
2E0CB
331
2E178
  5
2E178
331
2E180
  5
2E180
331
2E1BF
  5
2E1BF
331
2E10A
  5
2E10A
331
2E149
  5
2E149
331
2F06E
  5
2F076
331
2E055
  5
2E055
331
2E094
  5
2E094
331
2E016
  5
2E016
331
2E0D3
  5
2E0D3
331
2F07E
  5
2F240
331
2F875
  5
2F875
331
2E188
  5
2E188
331
2E1C7
  5
2E1C7
331
2E0DB
  5
2E0DB
331
2E112
  5
2E112
331
2E01E
  5
2E01E
331
2E05D
  5
2E05D
331
2E09C
  5
2E09C
331
2E151
  5
2E151
331
2F23E
  5
2F246
331
2E159
  5
2E159
331
2E190
  5
2E190
331
2E0A4
  5
2E0A4
331
2E0E3
  5
2E0E3
331
2E026
  5
2E026
331
2E065
  5
2E065
331
2E11A
  5
2E11A
331
2E1CF
  5
2E1CF
331
2E1D7
  5
2E1D7
331
2F246
  5
2F24E
331
2FFB5
  5
2FFB5
331
2F029
  5
2F029
331
2F059
  5
2F061
331
2F071
  5
2F079
331
2CAA8
  5
2CAA8
331
2DF7B
  5
2DF7B
331
2DFB2
  5
2DFB2
331
2DEC6
  5
2DEC6
331
2DF05
  5
2DF05
331
2DE87
  5
2DE87
331
2DF3C
  5
2DF3C
331
2DFF1
  5
2DFF1
331
2DFF9
  5
2DFF9
331
2DF83
  5
2DF83
331
2DFBA
  5
2DFBA
331
2DECE
  5
2DECE
331
2DF0D
  5
2DF0D
331
2DF44
  5
2DF44
331
2E001
  5
2E001
331
2DF4C
  5
2DF4C
331
2DF8B
  5
2DF8B
331
2DE9F
  5
2DE9F
331
2DED6
  5
2DED6
331
2DF15
  5
2DF15
331
2DFC2
  5
2DFC2
331
2DFCA
  5
2DFCA
331
2DF54
  5
2DF54
331
2DEDE
  5
2DEDE
331
2DE60
  5
2DE60
331
2E620
  5
2E620
331
2E122
  5
2E122
331
2E161
  5
2E161
331
2E0AC
  5
2E0AC
331
2E0EB
  5
2E0EB
331
2E198
  5
2E198
331
2E02E
  5
2E02E
331
2E06D
  5
2E06D
331
2F047
  5
2F04F
331
2F24E
  5
2F257
331
2E12A
  5
2E12A
331
2E169
  5
2E169
331
2E07D
  5
2E07D
331
2E0B4
  5
2E0B4
331
2E036
  5
2E036
331
2E0F3
  5
2E0F3
331
2E1A0
  5
2E1A0
331
2E1A8
  5
2E1A8
331
2F057
  5
2F05F
331
2E0FB
  5
2E0FB
331
2E132
  5
2E132
331
2E03E
  5
2E03E
331
2E085
  5
2E085
331
2E0BC
  5
2E0BC
331
2E171
  5
2E171
331
2E1B0
  5
2E1B0
331
2E0C4
  5
2E0C4
331
2E046
  5
2E046
331
2E13A
  5
2E13A
331
2F067
  5
2F06F
331
2F396
  5
2F6AA
331
2F049
  5
2F051
331
2F039
  5
2F039
331
2DF93
  5
2DF93
331
2DFD2
  5
2DFD2
331
2DF1D
  5
2DF1D
331
2DF5C
  5
2DF5C
331
2DEA7
  5
2DEA7
331
2DEE6
  5
2DEE6
331
2DF9B
  5
2DF9B
331
2DFDA
  5
2DFDA
331
2DEEE
  5
2DEEE
331
2DF25
  5
2DF25
331
2CA39
  5
2CA39
331
2DEAF
  5
2DEAF
331
2DF64
  5
2DF64
331
2DF6C
  5
2DF6C
331
2DFA3
  5
2DFA3
331
2DEB7
  5
2DEB7
331
2DEF6
  5
2DEF6
331
2DF2D
  5
2DF2D
331
2DFEA
  5
2DFEA
331
2DF35
  5
2DF35
331
2DF74
  5
2DF74
331
2DEBF
  5
2DEBF
331
2DEFE
  5
2DEFE
331
2DFAB
  5
2DFAB
331
2E070
  5
2E070
331
2E179
  5
2E179
331
2E1B8
  5
2E1B8
331
2E0CC
  5
2E0CC
331
2E103
  5
2E103
331
2E00F
  5
2E00F
331
2E04E
  5
2E04E
331
2E08D
  5
2E08D
331
2E142
  5
2E142
331
2E14A
  5
2E14A
331
2E181
  5
2E181
331
2E095
  5
2E095
331
2E0D4
  5
2E0D4
331
2E017
  5
2E017
331
2E056
  5
2E056
331
2E10B
  5
2E10B
331
2E1C0
  5
2E1C0
331
2E1C8
  5
2E1C8
331
2F07F
  5
2F241
331
2E113
  5
2E113
331
2E152
  5
2E152
331
2E05E
  5
2E05E
331
2E09D
  5
2E09D
331
2E01F
  5
2E01F
331
2E0DC
  5
2E0DC
331
2E189
  5
2E189
331
2E191
  5
2E191
331
2E1D0
  5
2E1D0
331
2E11B
  5
2E11B
331
2E15A
  5
2E15A
331
2F23F
  5
2F247
331
2E066
  5
2E066
331
2E0A5
  5
2E0A5
331
2E027
  5
2E027
331
2E0E4
  5
2E0E4
331
2F247
  5
2F24F
331
2FFB6
  5
2FFB6
331
2F6AF
  5
2F855
331
2F02A
  5
2F02A
331
2F05A
  5
2F062
331
2F072
  5
2F07A
331
15497
  5
15497
331
2CAA9
  5
2CAA9
331
2DE80
  5
2DE80
331
2DFF2
  5
2DFF2
331
2DF3D
  5
2DF3D
331
2DF7C
  5
2DF7C
331
2DE88
  5
2DE88
331
2DEC7
  5
2DEC7
331
2CAB1
  5
2CAB1
331
2DF06
  5
2DF06
331
2DFB3
  5
2DFB3
331
2DFBB
  5
2DFBB
331
2DFFA
  5
2DFFA
331
2DF0E
  5
2DF0E
331
2DF45
  5
2DF45
331
2DE98
  5
2DE98
331
2DECF
  5
2DECF
331
2DF84
  5
2DF84
331
2DF8C
  5
2DF8C
331
2DFC3
  5
2DFC3
331
2DED7
  5
2DED7
331
2DF16
  5
2DF16
331
2DF4D
  5
2DF4D
331
2E002
  5
2E002
331
2DFCB
  5
2DFCB
331
2DEDF
  5
2DEDF
331
2DF55
  5
2DF55
331
2E739
  5
2E739
331
2FFBC
  5
2FFBC
331
2E199
  5
2E199
331
2E0EC
  5
2E0EC
331
2E123
  5
2E123
331
2E02F
  5
2E02F
331
2E06E
  5
2E06E
331
2E0AD
  5
2E0AD
331
2E162
  5
2E162
331
2F24F
  5
2F258
331
2E16A
  5
2E16A
331
2E1A1
  5
2E1A1
331
2E0F4
  5
2E0F4
331
2E037
  5
2E037
331
2E07E
  5
2E07E
331
2E12B
  5
2E12B
331
2F050
  5
2F058
331
2F060
  5
2F068
331
2E133
  5
2E133
331
2E172
  5
2E172
331
2E0BD
  5
2E0BD
331
2E0FC
  5
2E0FC
331
2E1A9
  5
2E1A9
331
2E03F
  5
2E03F
331
2E086
  5
2E086
331
2F38F
  5
2F69D
331
2E13B
  5
2E13B
331
2E0C5
  5
2E0C5
331
2E047
  5
2E047
331
2E1B1
  5
2E1B1
331
2F04A
  5
2F052
331
2F03A
  5
2F03A
331
2F032
  5
2F032
331
2DEA0
  5
2DEA0
331
2DF5D
  5
2DF5D
331
2DF94
  5
2DF94
331
2DEA8
  5
2DEA8
331
2DEE7
  5
2DEE7
331
2DF1E
  5
2DF1E
331
2DFD3
  5
2DFD3
331
2DFDB
  5
2DFDB
331
2DF26
  5
2DF26
331
2DF65
  5
2DF65
331
2DEB0
  5
2DEB0
331
2DEEF
  5
2DEEF
331
2DF9C
  5
2DF9C
331
2DFA4
  5
2DFA4
331
2DFE3
  5
2DFE3
331
2DF2E
  5
2DF2E
331
2DF6D
  5
2DF6D
331
2DEB8
  5
2DEB8
331
2DEF7
  5
2DEF7
331
2DFAC
  5
2DFAC
331
2DFEB
  5
2DFEB
331
2DEFF
  5
2DEFF
331
2DF36
  5
2DF36
331
2DF75
  5
2DF75
331
2E071
  5
2E071
331
2E008
  5
2E008
331
2E1B9
  5
2E1B9
331
2F068
  5
2F070
331
2E104
  5
2E104
331
2E04F
  5
2E04F
331
2E08E
  5
2E08E
331
2E143
  5
2E143
331
2E010
  5
2E010
331
2E17A
  5
2E17A
331
2F84F
  5
2F03D
331
2E182
  5
2E182
331
2E1C1
  5
2E1C1
331
2E0D5
  5
2E0D5
331
2E10C
  5
2E10C
331
2E057
  5
2E057
331
2E096
  5
2E096
331
2E14B
  5
2E14B
331
2F078
  5
2F080
331
2E018
  5
2E018
331
2E18A
  5
2E18A
331
2E1C9
  5
2E1C9
331
2E0DD
  5
2E0DD
331
2E114
  5
2E114
331
2E020
  5
2E020
331
2E05F
  5
2E05F
331
2E09E
  5
2E09E
331
2E153
  5
2E153
331
2F240
  5
2F248
331
2F9DF
  5
2F9DF
331
2F6A0
  5
2F6AC
331
2E15B
  5
2E15B
331
2E192
  5
2E192
331
2E0A6
  5
2E0A6
331
2E0E5
  5
2E0E5
331
2E067
  5
2E067
331
2E11C
  5
2E11C
331
2E1D1
  5
2E1D1
331
2FFB7
  5
2FFB7
331
2F6A8
  5
2F850
331
2F02B
  5
2F02B
331
2F05B
  5
2F063
331
2F073
  5
2F07B
331
2CAAA
  5
2CAAA
331
2DE81
  5
2DE81
331
2DEC0
  5
2DEC0
331
2DF7D
  5
2DF7D
331
2DFB4
  5
2DFB4
331
2DEC8
  5
2DEC8
331
2DF07
  5
2DF07
331
2DE89
  5
2DE89
331
2DF3E
  5
2DF3E
331
2DFF3
  5
2DFF3
331
2DFFB
  5
2DFFB
331
2DF46
  5
2DF46
331
2DF85
  5
2DF85
331
2DED0
  5
2DED0
331
2DF0F
  5
2DF0F
331
2DFBC
  5
2DFBC
331
2DE99
  5
2DE99
331
2E003
  5
2E003
331
2DF4E
  5
2DF4E
331
2DF8D
  5
2DF8D
331
2DED8
  5
2DED8
331
2DF17
  5
2DF17
331
2DFC4
  5
2DFC4
331
2E71A
  5
2E71A
331
2DFCC
  5
2DFCC
331
2F851
  5
2F03F
331
2DF56
  5
2DF56
331
2DE62
  5
2DE62
331
2E028
  5
2E028
331
2F041
  5
2F049
331
2F248
  5
2F250
331
2E124
  5
2E124
331
2E163
  5
2E163
331
2E06F
  5
2E06F
331
2E0AE
  5
2E0AE
331
2E030
  5
2E030
331
2E0ED
  5
2E0ED
331
2E19A
  5
2E19A
331
2E1A2
  5
2E1A2
331
2F051
  5
2F059
331
2E12C
  5
2E12C
331
2E16B
  5
2E16B
331
2F250
  5
2F38F
331
2E07F
  5
2E07F
331
2E0B6
  5
2E0B6
331
2E038
  5
2E038
331
2E0F5
  5
2E0F5
331
2E1AA
  5
2E1AA
331
2F061
  5
2F069
331
2E0FD
  5
2E0FD
331
2E134
  5
2E134
331
2E040
  5
2E040
331
2E087
  5
2E087
331
2E0BE
  5
2E0BE
331
2E173
  5
2E173
331
2F390
  5
2F6A0
331
2E1B2
  5
2E1B2
331
2E13C
  5
2E13C
  0
XRECORD
  5
302C1
102
{ACAD_REACTORS
330
302C0
102
}
330
302C0
100
AcDbXrecord
280
     1
 40
6207437.0
  1
\pxql;排水栓　Rc3／4\P（膨張水・排水兼用）
  0
GROUP
  5
3917
102
{ACAD_REACTORS
330
D
102
}
330
D
100
AcDbGroup
300
SSE_Dim15
 70
     1
 71
     1
  0
GROUP
  5
14E82
102
{ACAD_REACTORS
330
D
102
}
330
D
100
AcDbGroup
300

 70
     1
 71
     1
  0
GROUP
  5
17876
102
{ACAD_REACTORS
330
D
102
}
330
D
100
AcDbGroup
300

 70
     1
 71
     1
  0
GROUP
  5
3E2F
102
{ACAD_REACTORS
330
D
102
}
330
D
100
AcDbGroup
300

 70
     1
 71
     1
  0
GROUP
  5
14154
102
{ACAD_REACTORS
330
D
102
}
330
D
100
AcDbGroup
300

 70
     1
 71
     1
  0
GROUP
  5
14C46
102
{ACAD_REACTORS
330
D
102
}
330
D
100
AcDbGroup
300

 70
     1
 71
     1
  0
GROUP
  5
14C48
102
{ACAD_REACTORS
330
D
102
}
330
D
100
AcDbGroup
300

 70
     1
 71
     1
  0
GROUP
  5
14DF1
102
{ACAD_REACTORS
330
D
102
}
330
D
100
AcDbGroup
300

 70
     1
 71
     1
  0
GROUP
  5
14DF3
102
{ACAD_REACTORS
330
D
102
}
330
D
100
AcDbGroup
300

 70
     1
 71
     1
  0
GROUP
  5
14E80
102
{ACAD_REACTORS
330
D
102
}
330
D
100
AcDbGroup
300

 70
     1
 71
     1
  0
LAYOUT
  5
36
102
{ACAD_REACTORS
330
34
102
}
330
34
100
AcDbPlotSettings
  1

  2
Docu3050② - 技術開発部 熱利用技術G（裏A4）.pc3
  4
A4
  6

 40
0.0
 41
0.0
 42
1.015670776367187
 43
1.010650634765625
 44
210.0156707763672
 45
297.0106506347656
 46
-0.0000000000000003
 47
0.2071428571428567
 48
-146.8466723106355
 49
-64.40253034048168
140
6384.6204135816
141
4550.539056607019
142
1.0
143
17.08133971291866
 70
 11956
 72
     1
 73
     0
 74
     2
  7
monochrome.ctb
 75
     0
147
0.0585434173669468
 76
     0
 77
     2
 78
   300
148
0.0
149
0.0
100
AcDbLayout
  1
Model
 70
     1
 71
     0
 10
0.0
 20
0.0
 11
12.0
 21
9.0
 12
0.0
 22
0.0
 32
0.0
 14
0.0
 24
0.0
 34
0.0
 15
0.0
 25
0.0
 35
0.0
146
0.0
 13
0.0
 23
0.0
 33
0.0
 16
1.0
 26
0.0
 36
0.0
 17
0.0
 27
1.0
 37
0.0
 76
     0
330
17
331
2D81C
1001
ACAD_PSEXT
1000
Docu3050② - 技術開発部 熱利用技術G（裏A4）.pc3
1000
FX DocuPrint 3050
1000
192.168.3.90
1000

1070
     0
  0
LAYOUT
  5
37
102
{ACAD_REACTORS
330
34
102
}
330
34
100
AcDbPlotSettings
  1

  2
EPSON LP-8300C
  4

  6

 40
0.0
 41
0.0
 42
0.0
 43
0.0
 44
0.0
 45
0.0
 46
0.0
 47
0.0
 48
0.0
 49
0.0
140
0.0
141
0.0
142
1.0
143
1.0
 70
   688
 72
     0
 73
     0
 74
     5
  7
monochrome.ctb
 75
    16
147
1.0
 76
     0
 77
     2
 78
   300
148
0.0
149
0.0
100
AcDbLayout
  1
ﾚｲｱｳﾄ1
 70
     0
 71
     1
 10
0.0
 20
0.0
 11
12.0
 21
9.0
 12
0.0
 22
0.0
 32
0.0
 14
1.000000000000000E+20
 24
1.000000000000000E+20
 34
1.000000000000000E+20
 15
-1.000000000000000E+20
 25
-1.000000000000000E+20
 35
-1.000000000000000E+20
146
0.0
 13
0.0
 23
0.0
 33
0.0
 16
1.0
 26
0.0
 36
0.0
 17
0.0
 27
1.0
 37
0.0
 76
     0
330
14
  0
MATERIAL
  5
2D82A
102
{ACAD_XDICTIONARY
360
2D82B
102
}
102
{ACAD_REACTORS
330
2D821
102
}
330
2D821
100
AcDbMaterial
  1
ByBlock
 72
     0
 43
0.0208333333333333
 43
0.0
 43
0.0
 43
0.0
 43
0.0
 43
0.0208333333333333
 43
0.0
 43
0.0
 43
0.0
 43
0.0
 43
1.0
 43
0.0
 43
0.0
 43
0.0
 43
0.0
 43
1.0
 77
     0
 47
0.0208333333333333
 47
0.0
 47
0.0
 47
0.0
 47
0.0
 47
0.0208333333333333
 47
0.0
 47
0.0
 47
0.0
 47
0.0
 47
1.0
 47
0.0
 47
0.0
 47
0.0
 47
0.0
 47
1.0
171
     0
 49
0.0208333333333333
 49
0.0
 49
0.0
 49
0.0
 49
0.0
 49
0.0208333333333333
 49
0.0
 49
0.0
 49
0.0
 49
0.0
 49
1.0
 49
0.0
 49
0.0
 49
0.0
 49
0.0
 49
1.0
175
     0
142
0.0208333333333333
142
0.0
142
0.0
142
0.0
142
0.0
142
0.0208333333333333
142
0.0
142
0.0
142
0.0
142
0.0
142
1.0
142
0.0
142
0.0
142
0.0
142
0.0
142
1.0
179
     0
144
0.0208333333333333
144
0.0
144
0.0
144
0.0
144
0.0
144
0.0208333333333333
144
0.0
144
0.0
144
0.0
144
0.0
144
1.0
144
0.0
144
0.0
144
0.0
144
0.0
144
1.0
147
0.0208333333333333
147
0.0
147
0.0
147
0.0
147
0.0
147
0.0208333333333333
147
0.0
147
0.0
147
0.0
147
0.0
147
1.0
147
0.0
147
0.0
147
0.0
147
0.0
147
1.0
  0
MATERIAL
  5
2D822
102
{ACAD_XDICTIONARY
360
2D823
102
}
102
{ACAD_REACTORS
330
2D821
102
}
330
2D821
100
AcDbMaterial
  1
ByLayer
 72
     0
 43
0.0208333333333333
 43
0.0
 43
0.0
 43
0.0
 43
0.0
 43
0.0208333333333333
 43
0.0
 43
0.0
 43
0.0
 43
0.0
 43
1.0
 43
0.0
 43
0.0
 43
0.0
 43
0.0
 43
1.0
 77
     0
 47
0.0208333333333333
 47
0.0
 47
0.0
 47
0.0
 47
0.0
 47
0.0208333333333333
 47
0.0
 47
0.0
 47
0.0
 47
0.0
 47
1.0
 47
0.0
 47
0.0
 47
0.0
 47
0.0
 47
1.0
171
     0
 49
0.0208333333333333
 49
0.0
 49
0.0
 49
0.0
 49
0.0
 49
0.0208333333333333
 49
0.0
 49
0.0
 49
0.0
 49
0.0
 49
1.0
 49
0.0
 49
0.0
 49
0.0
 49
0.0
 49
1.0
175
     0
142
0.0208333333333333
142
0.0
142
0.0
142
0.0
142
0.0
142
0.0208333333333333
142
0.0
142
0.0
142
0.0
142
0.0
142
1.0
142
0.0
142
0.0
142
0.0
142
0.0
142
1.0
179
     0
144
0.0208333333333333
144
0.0
144
0.0
144
0.0
144
0.0
144
0.0208333333333333
144
0.0
144
0.0
144
0.0
144
0.0
144
1.0
144
0.0
144
0.0
144
0.0
144
0.0
144
1.0
147
0.0208333333333333
147
0.0
147
0.0
147
0.0
147
0.0
147
0.0208333333333333
147
0.0
147
0.0
147
0.0
147
0.0
147
1.0
147
0.0
147
0.0
147
0.0
147
0.0
147
1.0
  0
MATERIAL
  5
2D832
102
{ACAD_XDICTIONARY
360
2D833
102
}
102
{ACAD_REACTORS
330
2D821
102
}
330
2D821
100
AcDbMaterial
  1
Global
 72
     0
 43
0.0208333333333333
 43
0.0
 43
0.0
 43
0.0
 43
0.0
 43
0.0208333333333333
 43
0.0
 43
0.0
 43
0.0
 43
0.0
 43
1.0
 43
0.0
 43
0.0
 43
0.0
 43
0.0
 43
1.0
 77
     0
 47
0.0208333333333333
 47
0.0
 47
0.0
 47
0.0
 47
0.0
 47
0.0208333333333333
 47
0.0
 47
0.0
 47
0.0
 47
0.0
 47
1.0
 47
0.0
 47
0.0
 47
0.0
 47
0.0
 47
1.0
171
     0
 49
0.0208333333333333
 49
0.0
 49
0.0
 49
0.0
 49
0.0
 49
0.0208333333333333
 49
0.0
 49
0.0
 49
0.0
 49
0.0
 49
1.0
 49
0.0
 49
0.0
 49
0.0
 49
0.0
 49
1.0
175
     0
142
0.0208333333333333
142
0.0
142
0.0
142
0.0
142
0.0
142
0.0208333333333333
142
0.0
142
0.0
142
0.0
142
0.0
142
1.0
142
0.0
142
0.0
142
0.0
142
0.0
142
1.0
179
     0
144
0.0208333333333333
144
0.0
144
0.0
144
0.0
144
0.0
144
0.0208333333333333
144
0.0
144
0.0
144
0.0
144
0.0
144
1.0
144
0.0
144
0.0
144
0.0
144
0.0
144
1.0
147
0.0208333333333333
147
0.0
147
0.0
147
0.0
147
0.0
147
0.0208333333333333
147
0.0
147
0.0
147
0.0
147
0.0
147
1.0
147
0.0
147
0.0
147
0.0
147
0.0
147
1.0
  0
MLEADERSTYLE
  5
2D871
102
{ACAD_REACTORS
330
2D870
102
}
330
2D870
100
AcDbMLeaderStyle
170
     2
171
     1
172
     0
 90
        2
 40
0.0
 41
0.0
173
     1
 91
-1056964608
340
11
 92
       -2
290
     1
 42
2.0
291
     1
 43
0.36
  3
Standard
 44
4.0
300

342
F
174
     1
178
     6
175
     1
176
     0
 93
-1056964608
 45
4.0
292
     0
297
     0
 46
4.0
 94
-1056964608
 47
1.0
 49
1.0
140
1.0
293
     1
141
0.0
294
     1
177
     0
142
1.0
295
     0
296
     0
143
0.125
1001
ACAD_MLEADERVER
1070
     2
  0
MLINESTYLE
  5
1B
102
{ACAD_REACTORS
330
1A
102
}
330
1A
100
AcDbMlineStyle
  2
STANDARD
 70
     0
  3

 62
   256
 51
90.0
 52
90.0
 71
     2
 49
0.5
 62
   256
  6
BYLAYER
 49
-0.5
 62
   256
  6
BYLAYER
  0
ACDBPLACEHOLDER
  5
33
102
{ACAD_REACTORS
330
32
102
}
330
32
  0
SCALE
  5
2D84F
102
{ACAD_REACTORS
330
2D84E
102
}
330
2D84E
100
AcDbScale
 70
     0
300
1:1
140
1.0
141
1.0
290
     1
  0
SCALE
  5
2D850
102
{ACAD_REACTORS
330
2D84E
102
}
330
2D84E
100
AcDbScale
 70
     0
300
1:2
140
1.0
141
2.0
290
     0
  0
SCALE
  5
2D851
102
{ACAD_REACTORS
330
2D84E
102
}
330
2D84E
100
AcDbScale
 70
     0
300
1:4
140
1.0
141
4.0
290
     0
  0
SCALE
  5
2D852
102
{ACAD_REACTORS
330
2D84E
102
}
330
2D84E
100
AcDbScale
 70
     0
300
1:5
140
1.0
141
5.0
290
     0
  0
SCALE
  5
2D853
102
{ACAD_REACTORS
330
2D84E
102
}
330
2D84E
100
AcDbScale
 70
     0
300
1:8
140
1.0
141
8.0
290
     0
  0
SCALE
  5
2D854
102
{ACAD_REACTORS
330
2D84E
102
}
330
2D84E
100
AcDbScale
 70
     0
300
1:10
140
1.0
141
10.0
290
     0
  0
SCALE
  5
2D855
102
{ACAD_REACTORS
330
2D84E
102
}
330
2D84E
100
AcDbScale
 70
     0
300
1:16
140
1.0
141
16.0
290
     0
  0
SCALE
  5
2D856
102
{ACAD_REACTORS
330
2D84E
102
}
330
2D84E
100
AcDbScale
 70
     0
300
1:20
140
1.0
141
20.0
290
     0
  0
SCALE
  5
2D857
102
{ACAD_REACTORS
330
2D84E
102
}
330
2D84E
100
AcDbScale
 70
     0
300
1:30
140
1.0
141
30.0
290
     0
  0
SCALE
  5
2D858
102
{ACAD_REACTORS
330
2D84E
102
}
330
2D84E
100
AcDbScale
 70
     0
300
1:40
140
1.0
141
40.0
290
     0
  0
SCALE
  5
2D859
102
{ACAD_REACTORS
330
2D84E
102
}
330
2D84E
100
AcDbScale
 70
     0
300
1:50
140
1.0
141
50.0
290
     0
  0
SCALE
  5
2D85A
102
{ACAD_REACTORS
330
2D84E
102
}
330
2D84E
100
AcDbScale
 70
     0
300
1:100
140
1.0
141
100.0
290
     0
  0
SCALE
  5
2D85B
102
{ACAD_REACTORS
330
2D84E
102
}
330
2D84E
100
AcDbScale
 70
     0
300
2:1
140
2.0
141
1.0
290
     0
  0
SCALE
  5
2D85C
102
{ACAD_REACTORS
330
2D84E
102
}
330
2D84E
100
AcDbScale
 70
     0
300
4:1
140
4.0
141
1.0
290
     0
  0
SCALE
  5
2D85D
102
{ACAD_REACTORS
330
2D84E
102
}
330
2D84E
100
AcDbScale
 70
     0
300
8:1
140
8.0
141
1.0
290
     0
  0
SCALE
  5
2D85E
102
{ACAD_REACTORS
330
2D84E
102
}
330
2D84E
100
AcDbScale
 70
     0
300
10:1
140
10.0
141
1.0
290
     0
  0
SCALE
  5
2D85F
102
{ACAD_REACTORS
330
2D84E
102
}
330
2D84E
100
AcDbScale
 70
     0
300
100:1
140
100.0
141
1.0
290
     0
  0
SCALE
  5
2D860
102
{ACAD_REACTORS
330
2D84E
102
}
330
2D84E
100
AcDbScale
 70
     0
300
1/128" = 1'-0"
140
0.0078125
141
12.0
290
     0
  0
SCALE
  5
2D861
102
{ACAD_REACTORS
330
2D84E
102
}
330
2D84E
100
AcDbScale
 70
     0
300
1/64" = 1'-0"
140
0.015625
141
12.0
290
     0
  0
SCALE
  5
2D862
102
{ACAD_REACTORS
330
2D84E
102
}
330
2D84E
100
AcDbScale
 70
     0
300
1/32" = 1'-0"
140
0.03125
141
12.0
290
     0
  0
SCALE
  5
2D863
102
{ACAD_REACTORS
330
2D84E
102
}
330
2D84E
100
AcDbScale
 70
     0
300
1/16" = 1'-0"
140
0.0625
141
12.0
290
     0
  0
SCALE
  5
2D864
102
{ACAD_REACTORS
330
2D84E
102
}
330
2D84E
100
AcDbScale
 70
     0
300
3/32" = 1'-0"
140
0.09375
141
12.0
290
     0
  0
SCALE
  5
2D865
102
{ACAD_REACTORS
330
2D84E
102
}
330
2D84E
100
AcDbScale
 70
     0
300
1/8" = 1'-0"
140
0.125
141
12.0
290
     0
  0
SCALE
  5
2D866
102
{ACAD_REACTORS
330
2D84E
102
}
330
2D84E
100
AcDbScale
 70
     0
300
3/16" = 1'-0"
140
0.1875
141
12.0
290
     0
  0
SCALE
  5
2D867
102
{ACAD_REACTORS
330
2D84E
102
}
330
2D84E
100
AcDbScale
 70
     0
300
1/4" = 1'-0"
140
0.25
141
12.0
290
     0
  0
SCALE
  5
2D868
102
{ACAD_REACTORS
330
2D84E
102
}
330
2D84E
100
AcDbScale
 70
     0
300
3/8" = 1'-0"
140
0.375
141
12.0
290
     0
  0
SCALE
  5
2D869
102
{ACAD_REACTORS
330
2D84E
102
}
330
2D84E
100
AcDbScale
 70
     0
300
1/2" = 1'-0"
140
0.5
141
12.0
290
     0
  0
SCALE
  5
2D86A
102
{ACAD_REACTORS
330
2D84E
102
}
330
2D84E
100
AcDbScale
 70
     0
300
3/4" = 1'-0"
140
0.75
141
12.0
290
     0
  0
SCALE
  5
2D86B
102
{ACAD_REACTORS
330
2D84E
102
}
330
2D84E
100
AcDbScale
 70
     0
300
1" = 1'-0"
140
1.0
141
12.0
290
     0
  0
SCALE
  5
2D86C
102
{ACAD_REACTORS
330
2D84E
102
}
330
2D84E
100
AcDbScale
 70
     0
300
1-1/2" = 1'-0"
140
1.5
141
12.0
290
     0
  0
SCALE
  5
2D86D
102
{ACAD_REACTORS
330
2D84E
102
}
330
2D84E
100
AcDbScale
 70
     0
300
3" = 1'-0"
140
3.0
141
12.0
290
     0
  0
SCALE
  5
2D86E
102
{ACAD_REACTORS
330
2D84E
102
}
330
2D84E
100
AcDbScale
 70
     0
300
6" = 1'-0"
140
6.0
141
12.0
290
     0
  0
SCALE
  5
2D86F
102
{ACAD_REACTORS
330
2D84E
102
}
330
2D84E
100
AcDbScale
 70
     0
300
1'-0" = 1'-0"
140
12.0
141
12.0
290
     0
  0
TABLESTYLE
  5
2D84D
102
{ACAD_XDICTIONARY
360
2EEC8
102
}
102
{ACAD_REACTORS
330
2D84C
102
}
330
2D84C
100
AcDbTableStyle
  3
Standard
 70
     0
 71
     0
 40
1.5
 41
1.5
280
     0
281
     0
  7
STANDARD
140
4.5
170
     2
 62
     0
 63
     7
283
     0
 90
      512
 91
        0
  1

274
    -2
284
     1
 64
     0
275
    -2
285
     1
 65
     0
276
    -2
286
     1
 66
     0
277
    -2
287
     1
 67
     0
278
    -2
288
     1
 68
     0
279
    -2
289
     1
 69
     0
  7
STANDARD
140
6.0
170
     5
 62
     0
 63
     7
283
     0
 90
      512
 91
        0
  1

274
    -2
284
     1
 64
     0
275
    -2
285
     1
 65
     0
276
    -2
286
     1
 66
     0
277
    -2
287
     1
 67
     0
278
    -2
288
     1
 68
     0
279
    -2
289
     1
 69
     0
  7
STANDARD
140
4.5
170
     5
 62
     0
 63
     7
283
     0
 90
      512
 91
        0
  1

274
    -2
284
     1
 64
     0
275
    -2
285
     1
 65
     0
276
    -2
286
     1
 66
     0
277
    -2
287
     1
 67
     0
278
    -2
288
     1
 68
     0
279
    -2
289
     1
 69
     0
  0
VISUALSTYLE
  5
2D840
102
{ACAD_REACTORS
330
2D83A
102
}
330
2D83A
100
AcDbVisualStyle
  2
2dWireframe
 70
     4
 71
     0
 72
     2
 73
     0
 90
        0
 40
-0.6
 41
-30.0
 62
     5
 63
     7
421
 16777215
 74
     1
 91
        4
 64
     7
 65
   257
 75
     1
175
     1
 42
1.0
 92
        0
 66
   257
 43
1.0
 76
     1
 77
     6
 78
     2
 67
     7
 79
     5
170
     0
171
     0
290
     0
174
     0
 93
        1
 44
0.0
173
     0
291
     0
 45
0.0
  0
VISUALSTYLE
  5
2D842
102
{ACAD_REACTORS
330
2D83A
102
}
330
2D83A
100
AcDbVisualStyle
  2
3D Hidden
 70
     6
 71
     1
 72
     2
 73
     2
 90
        0
 40
-0.6
 41
-30.0
 62
     5
 63
     7
421
 16777215
 74
     2
 91
        2
 64
     7
 65
   257
 75
     2
175
     1
 42
40.0
 92
        0
 66
   257
 43
1.0
 76
     1
 77
     6
 78
     2
 67
     7
 79
     3
170
     0
171
     0
290
     0
174
     0
 93
        1
 44
0.0
173
     0
291
     0
 45
0.0
  0
VISUALSTYLE
  5
2D841
102
{ACAD_REACTORS
330
2D83A
102
}
330
2D83A
100
AcDbVisualStyle
  2
3dWireframe
 70
     5
 71
     0
 72
     2
 73
     0
 90
        0
 40
-0.6
 41
-30.0
 62
     5
 63
     7
421
 16777215
 74
     1
 91
        4
 64
     7
 65
   257
 75
     1
175
     1
 42
1.0
 92
        0
 66
   257
 43
1.0
 76
     1
 77
     6
 78
     2
 67
     7
 79
     5
170
     0
171
     0
290
     0
174
     0
 93
        1
 44
0.0
173
     0
291
     0
 45
0.0
  0
VISUALSTYLE
  5
2D83F
102
{ACAD_REACTORS
330
2D83A
102
}
330
2D83A
100
AcDbVisualStyle
  2
Basic
 70
     7
 71
     1
 72
     0
 73
     1
 90
        0
 40
-0.6
 41
-30.0
 62
     5
 63
     7
421
 16777215
 74
     0
 91
        4
 64
     7
 65
   257
 75
     1
175
     1
 42
1.0
 92
        8
 66
     7
 43
1.0
 76
     1
 77
     6
 78
     2
 67
     7
 79
     5
170
     0
171
     0
290
     0
174
     0
 93
        1
 44
0.0
173
     0
291
     1
 45
0.0
  0
VISUALSTYLE
  5
2D846
102
{ACAD_REACTORS
330
2D83A
102
}
330
2D83A
100
AcDbVisualStyle
  2
Brighten
 70
    12
 71
     2
 72
     2
 73
     0
 90
        0
 40
-0.6
 41
-30.0
 62
     5
 63
     7
421
 16777215
 74
     1
 91
        4
 64
     7
 65
   257
 75
     1
175
     1
 42
1.0
 92
        8
 66
     7
 43
1.0
 76
     1
 77
     6
 78
     2
 67
     7
 79
     5
170
     0
171
     0
290
     0
174
     0
 93
        1
 44
50.0
173
     0
291
     1
 45
0.0
  0
VISUALSTYLE
  5
2D84A
102
{ACAD_REACTORS
330
2D83A
102
}
330
2D83A
100
AcDbVisualStyle
  2
ColorChange
 70
    16
 71
     2
 72
     2
 73
     3
 90
        0
 40
-0.6
 41
-30.0
 62
     5
 63
     8
421
  8421504
 74
     1
 91
        4
 64
     7
 65
   257
 75
     1
175
     1
 42
1.0
 92
        8
 66
     8
424
  8421504
 43
1.0
 76
     1
 77
     6
 78
     2
 67
     7
 79
     5
170
     0
171
     0
290
     0
174
     0
 93
        1
 44
0.0
173
     0
291
     1
 45
0.0
  0
VISUALSTYLE
  5
2D843
102
{ACAD_REACTORS
330
2D83A
102
}
330
2D83A
100
AcDbVisualStyle
  2
Conceptual
 70
     9
 71
     3
 72
     2
 73
     0
 90
        0
 40
-0.6
 41
-30.0
 62
     5
 63
     7
421
 16777215
 74
     2
 91
        2
 64
     7
 65
   257
 75
     1
175
     1
 42
40.0
 92
        8
 66
     7
 43
1.0
 76
     1
 77
     6
 78
     2
 67
     7
 79
     3
170
     0
171
     0
290
     0
174
     0
 93
        1
 44
0.0
173
     0
291
     0
 45
0.0
  0
VISUALSTYLE
  5
2D845
102
{ACAD_REACTORS
330
2D83A
102
}
330
2D83A
100
AcDbVisualStyle
  2
Dim
 70
    11
 71
     2
 72
     2
 73
     0
 90
        0
 40
-0.6
 41
-30.0
 62
     5
 63
     7
421
 16777215
 74
     1
 91
        4
 64
     7
 65
   257
 75
     1
175
     1
 42
1.0
 92
        8
 66
     7
 43
1.0
 76
     1
 77
     6
 78
     2
 67
     7
 79
     5
170
     0
171
     0
290
     0
174
     0
 93
        1
 44
-50.0
173
     0
291
     1
 45
0.0
  0
VISUALSTYLE
  5
2D849
102
{ACAD_REACTORS
330
2D83A
102
}
330
2D83A
100
AcDbVisualStyle
  2
Facepattern
 70
    15
 71
     2
 72
     2
 73
     0
 90
        0
 40
-0.6
 41
-30.0
 62
     5
 63
     7
421
 16777215
 74
     1
 91
        4
 64
     7
 65
   257
 75
     1
175
     1
 42
1.0
 92
        8
 66
     7
 43
1.0
 76
     1
 77
     6
 78
     2
 67
     7
 79
     5
170
     0
171
     0
290
     0
174
     0
 93
        1
 44
0.0
173
     0
291
     1
 45
0.0
  0
VISUALSTYLE
  5
2D83B
102
{ACAD_REACTORS
330
2D83A
102
}
330
2D83A
100
AcDbVisualStyle
  2
Flat
 70
     0
 71
     2
 72
     1
 73
     1
 90
        2
 40
-0.6
 41
30.0
 62
     5
 63
     7
421
 16777215
 74
     0
 91
        4
 64
     7
 65
   257
 75
     1
175
     1
 42
1.0
 92
        8
 66
     7
 43
1.0
 76
     1
 77
     6
 78
     2
 67
     7
 79
     5
170
     0
171
     0
290
     0
174
     0
 93
       13
 44
0.0
173
     0
291
     1
 45
0.0
  0
VISUALSTYLE
  5
2D83C
102
{ACAD_REACTORS
330
2D83A
102
}
330
2D83A
100
AcDbVisualStyle
  2
FlatWithEdges
 70
     1
 71
     2
 72
     1
 73
     1
 90
        2
 40
-0.6
 41
30.0
 62
     5
 63
     7
421
 16777215
 74
     1
 91
        4
 64
     7
 65
   257
 75
     1
175
     1
 42
1.0
 92
        0
 66
   257
 43
1.0
 76
     1
 77
     6
 78
     2
 67
     7
 79
     5
170
     0
171
     0
290
     0
174
     0
 93
       13
 44
0.0
173
     0
291
     1
 45
0.0
  0
VISUALSTYLE
  5
2D83D
102
{ACAD_REACTORS
330
2D83A
102
}
330
2D83A
100
AcDbVisualStyle
  2
Gouraud
 70
     2
 71
     2
 72
     2
 73
     1
 90
        2
 40
-0.6
 41
30.0
 62
     5
 63
     7
421
 16777215
 74
     0
 91
        4
 64
     7
 65
   257
 75
     1
175
     1
 42
1.0
 92
        0
 66
     7
 43
1.0
 76
     1
 77
     6
 78
     2
 67
     7
 79
     5
170
     0
171
     0
290
     0
174
     0
 93
       13
 44
0.0
173
     0
291
     1
 45
0.0
  0
VISUALSTYLE
  5
2D83E
102
{ACAD_REACTORS
330
2D83A
102
}
330
2D83A
100
AcDbVisualStyle
  2
GouraudWithEdges
 70
     3
 71
     2
 72
     2
 73
     1
 90
        2
 40
-0.6
 41
30.0
 62
     5
 63
     7
421
 16777215
 74
     1
 91
        4
 64
     7
 65
   257
 75
     1
175
     1
 42
1.0
 92
        0
 66
   257
 43
1.0
 76
     1
 77
     6
 78
     2
 67
     7
 79
     5
170
     0
171
     0
290
     0
174
     0
 93
       13
 44
0.0
173
     0
291
     1
 45
0.0
  0
VISUALSTYLE
  5
2D848
102
{ACAD_REACTORS
330
2D83A
102
}
330
2D83A
100
AcDbVisualStyle
  2
Linepattern
 70
    14
 71
     2
 72
     2
 73
     0
 90
        0
 40
-0.6
 41
-30.0
 62
     5
 63
     7
421
 16777215
 74
     1
 91
        4
 64
     7
 65
   257
 75
     7
175
     7
 42
1.0
 92
        8
 66
     7
 43
1.0
 76
     1
 77
     6
 78
     2
 67
     7
 79
     5
170
     0
171
     0
290
     0
174
     0
 93
        1
 44
0.0
173
     0
291
     1
 45
0.0
  0
VISUALSTYLE
  5
2D844
102
{ACAD_REACTORS
330
2D83A
102
}
330
2D83A
100
AcDbVisualStyle
  2
Realistic
 70
     8
 71
     2
 72
     2
 73
     0
 90
        0
 40
-0.6
 41
-30.0
 62
     5
 63
     7
421
 16777215
 74
     1
 91
        0
 64
     7
 65
   257
 75
     1
175
     1
 42
1.0
 92
        8
 66
     8
424
  7895160
 43
1.0
 76
     1
 77
     6
 78
     2
 67
     7
 79
     5
170
     0
171
     0
290
     0
174
     0
 93
       13
 44
0.0
173
     0
291
     0
 45
0.0
  0
VISUALSTYLE
  5
2D847
102
{ACAD_REACTORS
330
2D83A
102
}
330
2D83A
100
AcDbVisualStyle
  2
Thicken
 70
    13
 71
     2
 72
     2
 73
     0
 90
        0
 40
-0.6
 41
-30.0
 62
     5
 63
     7
421
 16777215
 74
     1
 91
        4
 64
     7
 65
   257
 75
     1
175
     1
 42
1.0
 92
       12
 66
     7
 43
1.0
 76
     1
 77
     6
 78
     2
 67
     7
 79
     5
170
     0
171
     0
290
     0
174
     0
 93
        1
 44
0.0
173
     0
291
     1
 45
0.0
  0
DICTIONARYVAR
  5
2EED0
102
{ACAD_REACTORS
330
44
102
}
330
44
100
DictionaryVariables
280
     0
  1
1:1
  0
DICTIONARYVAR
  5
2EECE
102
{ACAD_REACTORS
330
44
102
}
330
44
100
DictionaryVariables
280
     0
  1
STANDARD
  0
DICTIONARYVAR
  5
2EECD
102
{ACAD_REACTORS
330
44
102
}
330
44
100
DictionaryVariables
280
     0
  1
STANDARD
  0
DICTIONARYVAR
  5
45
102
{ACAD_REACTORS
330
44
102
}
330
44
100
DictionaryVariables
280
     0
  1
1
  0
DICTIONARYVAR
  5
2EED1
102
{ACAD_REACTORS
330
44
102
}
330
44
100
DictionaryVariables
280
     0
  1
0
  0
DICTIONARYVAR
  5
2EECF
102
{ACAD_REACTORS
330
44
102
}
330
44
100
DictionaryVariables
280
     0
  1
0
  0
DICTIONARYVAR
  5
6F8C
102
{ACAD_REACTORS
330
44
102
}
330
44
100
DictionaryVariables
280
     0
  1
96
  0
DICTIONARY
  5
2D82B
330
2D82A
100
AcDbDictionary
280
     1
281
     1
  3
BUMPTILE
360
2D82D
  3
DIFFUSETILE
360
2D82C
  3
OPACITYTILE
360
2D830
  3
REFLECTIONTILE
360
2D82F
  3
REFRACTIONTILE
360
2D831
  3
SPECULARTILE
360
2D82E
  0
DICTIONARY
  5
2D823
330
2D822
100
AcDbDictionary
280
     1
281
     1
  3
BUMPTILE
360
2D825
  3
DIFFUSETILE
360
2D824
  3
OPACITYTILE
360
2D828
  3
REFLECTIONTILE
360
2D827
  3
REFRACTIONTILE
360
2D829
  3
SPECULARTILE
360
2D826
  0
DICTIONARY
  5
2D833
330
2D832
100
AcDbDictionary
280
     1
281
     1
  3
BUMPTILE
360
2D835
  3
DIFFUSETILE
360
2D834
  3
OPACITYTILE
360
2D838
  3
REFLECTIONTILE
360
2D837
  3
REFRACTIONTILE
360
2D839
  3
SPECULARTILE
360
2D836
  0
DICTIONARY
  5
2EEC8
330
2D84D
100
AcDbDictionary
280
     1
281
     1
  3
ACAD_ROUNDTRIP_2008_TABLESTYLE_CELLSTYLEMAP
360
302BF
  0
XRECORD
  5
2D82D
102
{ACAD_REACTORS
330
2D82B
102
}
330
2D82B
100
AcDbXrecord
280
     1
270
     1
271
     1
  0
XRECORD
  5
2D82C
102
{ACAD_REACTORS
330
2D82B
102
}
330
2D82B
100
AcDbXrecord
280
     1
270
     1
271
     1
  0
XRECORD
  5
2D830
102
{ACAD_REACTORS
330
2D82B
102
}
330
2D82B
100
AcDbXrecord
280
     1
270
     1
271
     1
  0
XRECORD
  5
2D82F
102
{ACAD_REACTORS
330
2D82B
102
}
330
2D82B
100
AcDbXrecord
280
     1
270
     1
271
     1
  0
XRECORD
  5
2D831
102
{ACAD_REACTORS
330
2D82B
102
}
330
2D82B
100
AcDbXrecord
280
     1
270
     1
271
     1
  0
XRECORD
  5
2D82E
102
{ACAD_REACTORS
330
2D82B
102
}
330
2D82B
100
AcDbXrecord
280
     1
270
     1
271
     1
  0
XRECORD
  5
2D825
102
{ACAD_REACTORS
330
2D823
102
}
330
2D823
100
AcDbXrecord
280
     1
270
     1
271
     1
  0
XRECORD
  5
2D824
102
{ACAD_REACTORS
330
2D823
102
}
330
2D823
100
AcDbXrecord
280
     1
270
     1
271
     1
  0
XRECORD
  5
2D828
102
{ACAD_REACTORS
330
2D823
102
}
330
2D823
100
AcDbXrecord
280
     1
270
     1
271
     1
  0
XRECORD
  5
2D827
102
{ACAD_REACTORS
330
2D823
102
}
330
2D823
100
AcDbXrecord
280
     1
270
     1
271
     1
  0
XRECORD
  5
2D829
102
{ACAD_REACTORS
330
2D823
102
}
330
2D823
100
AcDbXrecord
280
     1
270
     1
271
     1
  0
XRECORD
  5
2D826
102
{ACAD_REACTORS
330
2D823
102
}
330
2D823
100
AcDbXrecord
280
     1
270
     1
271
     1
  0
XRECORD
  5
2D835
102
{ACAD_REACTORS
330
2D833
102
}
330
2D833
100
AcDbXrecord
280
     1
270
     1
271
     1
  0
XRECORD
  5
2D834
102
{ACAD_REACTORS
330
2D833
102
}
330
2D833
100
AcDbXrecord
280
     1
270
     1
271
     1
  0
XRECORD
  5
2D838
102
{ACAD_REACTORS
330
2D833
102
}
330
2D833
100
AcDbXrecord
280
     1
270
     1
271
     1
  0
XRECORD
  5
2D837
102
{ACAD_REACTORS
330
2D833
102
}
330
2D833
100
AcDbXrecord
280
     1
270
     1
271
     1
  0
XRECORD
  5
2D839
102
{ACAD_REACTORS
330
2D833
102
}
330
2D833
100
AcDbXrecord
280
     1
270
     1
271
     1
  0
XRECORD
  5
2D836
102
{ACAD_REACTORS
330
2D833
102
}
330
2D833
100
AcDbXrecord
280
     1
270
     1
271
     1
  0
CELLSTYLEMAP
  5
302BF
102
{ACAD_REACTORS
330
2EEC8
102
}
330
2EEC8
100
AcDbCellStyleMap
 90
        3
300
CELLSTYLE
  1
TABLEFORMAT_BEGIN
 90
        5
170
     1
 91
        0
 92
    32768
 62
   257
 93
        1
300
CONTENTFORMAT
  1
CONTENTFORMAT_BEGIN
 90
        0
 91
        0
 92
      512
 93
        0
300

 40
0.0
140
1.0
 94
        5
 62
     0
340
F
144
6.0
309
CONTENTFORMAT_END
171
     1
301
MARGIN
  1
CELLMARGIN_BEGIN
 40
1.5
 40
1.5
 40
1.5
 40
1.5
 40
0.18
 40
0.18
309
CELLMARGIN_END
 94
        6
 95
        1
302
GRIDFORMAT
  1
GRIDFORMAT_BEGIN
 90
        0
 91
        1
 62
     0
 92
       -2
340
0
 93
        0
 40
1.125
309
GRIDFORMAT_END
 95
        2
302
GRIDFORMAT
  1
GRIDFORMAT_BEGIN
 90
        0
 91
        1
 62
     0
 92
       -2
340
0
 93
        0
 40
1.125
309
GRIDFORMAT_END
 95
        4
302
GRIDFORMAT
  1
GRIDFORMAT_BEGIN
 90
        0
 91
        1
 62
     0
 92
       -2
340
0
 93
        0
 40
1.125
309
GRIDFORMAT_END
 95
        8
302
GRIDFORMAT
  1
GRIDFORMAT_BEGIN
 90
        0
 91
        1
 62
     0
 92
       -2
340
0
 93
        0
 40
1.125
309
GRIDFORMAT_END
 95
       16
302
GRIDFORMAT
  1
GRIDFORMAT_BEGIN
 90
        0
 91
        1
 62
     0
 92
       -2
340
0
 93
        0
 40
1.125
309
GRIDFORMAT_END
 95
       32
302
GRIDFORMAT
  1
GRIDFORMAT_BEGIN
 90
        0
 91
        1
 62
     0
 92
       -2
340
0
 93
        0
 40
1.125
309
GRIDFORMAT_END
309
TABLEFORMAT_END
  1
CELLSTYLE_BEGIN
 90
        1
 91
        1
300
_TITLE
309
CELLSTYLE_END
300
CELLSTYLE
  1
TABLEFORMAT_BEGIN
 90
        5
170
     1
 91
        0
 92
        0
 62
   257
 93
        1
300
CONTENTFORMAT
  1
CONTENTFORMAT_BEGIN
 90
        0
 91
        0
 92
      512
 93
        0
300

 40
0.0
140
1.0
 94
        5
 62
     0
340
F
144
4.5
309
CONTENTFORMAT_END
171
     1
301
MARGIN
  1
CELLMARGIN_BEGIN
 40
1.5
 40
1.5
 40
1.5
 40
1.5
 40
0.18
 40
0.18
309
CELLMARGIN_END
 94
        6
 95
        1
302
GRIDFORMAT
  1
GRIDFORMAT_BEGIN
 90
        0
 91
        1
 62
     0
 92
       -2
340
0
 93
        0
 40
1.125
309
GRIDFORMAT_END
 95
        2
302
GRIDFORMAT
  1
GRIDFORMAT_BEGIN
 90
        0
 91
        1
 62
     0
 92
       -2
340
0
 93
        0
 40
1.125
309
GRIDFORMAT_END
 95
        4
302
GRIDFORMAT
  1
GRIDFORMAT_BEGIN
 90
        0
 91
        1
 62
     0
 92
       -2
340
0
 93
        0
 40
1.125
309
GRIDFORMAT_END
 95
        8
302
GRIDFORMAT
  1
GRIDFORMAT_BEGIN
 90
        0
 91
        1
 62
     0
 92
       -2
340
0
 93
        0
 40
1.125
309
GRIDFORMAT_END
 95
       16
302
GRIDFORMAT
  1
GRIDFORMAT_BEGIN
 90
        0
 91
        1
 62
     0
 92
       -2
340
0
 93
        0
 40
1.125
309
GRIDFORMAT_END
 95
       32
302
GRIDFORMAT
  1
GRIDFORMAT_BEGIN
 90
        0
 91
        1
 62
     0
 92
       -2
340
0
 93
        0
 40
1.125
309
GRIDFORMAT_END
309
TABLEFORMAT_END
  1
CELLSTYLE_BEGIN
 90
        2
 91
        1
300
_HEADER
309
CELLSTYLE_END
300
CELLSTYLE
  1
TABLEFORMAT_BEGIN
 90
        5
170
     1
 91
        0
 92
        0
 62
   257
 93
        1
300
CONTENTFORMAT
  1
CONTENTFORMAT_BEGIN
 90
        0
 91
        0
 92
      512
 93
        0
300

 40
0.0
140
1.0
 94
        2
 62
     0
340
F
144
4.5
309
CONTENTFORMAT_END
171
     1
301
MARGIN
  1
CELLMARGIN_BEGIN
 40
1.5
 40
1.5
 40
1.5
 40
1.5
 40
0.18
 40
0.18
309
CELLMARGIN_END
 94
        6
 95
        1
302
GRIDFORMAT
  1
GRIDFORMAT_BEGIN
 90
        0
 91
        1
 62
     0
 92
       -2
340
0
 93
        0
 40
1.125
309
GRIDFORMAT_END
 95
        2
302
GRIDFORMAT
  1
GRIDFORMAT_BEGIN
 90
        0
 91
        1
 62
     0
 92
       -2
340
0
 93
        0
 40
1.125
309
GRIDFORMAT_END
 95
        4
302
GRIDFORMAT
  1
GRIDFORMAT_BEGIN
 90
        0
 91
        1
 62
     0
 92
       -2
340
0
 93
        0
 40
1.125
309
GRIDFORMAT_END
 95
        8
302
GRIDFORMAT
  1
GRIDFORMAT_BEGIN
 90
        0
 91
        1
 62
     0
 92
       -2
340
0
 93
        0
 40
1.125
309
GRIDFORMAT_END
 95
       16
302
GRIDFORMAT
  1
GRIDFORMAT_BEGIN
 90
        0
 91
        1
 62
     0
 92
       -2
340
0
 93
        0
 40
1.125
309
GRIDFORMAT_END
 95
       32
302
GRIDFORMAT
  1
GRIDFORMAT_BEGIN
 90
        0
 91
        1
 62
     0
 92
       -2
340
0
 93
        0
 40
1.125
309
GRIDFORMAT_END
309
TABLEFORMAT_END
  1
CELLSTYLE_BEGIN
 90
        3
 91
        2
300
_DATA
309
CELLSTYLE_END
  0
ENDSEC
  0
EOF
