  0
SECTION
  2
HEADER
  9
$ACADVER
  1
AC1021
  9
$ACADMAINTVER
 70
    26
  9
$DWGCODEPAGE
  3
ANSI_932
  9
$LASTSAVEDBY
  1
yoshino
  9
$INSBASE
 10
0.0
 20
0.0
 30
0.0
  9
$EXTMIN
 10
-0.0544356394379317
 20
-0.0769875472054533
 30
-0.0000000000112531
  9
$EXTMAX
 10
3570.054485514805
 20
5049.077058085223
 30
0.0000000000002922
  9
$LIMMIN
 10
0.0
 20
0.0
  9
$LIMMAX
 10
3570.0
 20
5049.0
  9
$ORTHOMODE
 70
     0
  9
$REGENMODE
 70
     1
  9
$FILLMODE
 70
     1
  9
$QTEXTMODE
 70
     0
  9
$MIRRTEXT
 70
     0
  9
$LTSCALE
 40
17.0
  9
$ATTMODE
 70
     1
  9
$TEXTSIZE
 40
3.2
  9
$TRACEWID
 40
0.05
  9
$TEXTSTYLE
  7
STANDARD
  9
$CLAYER
  8
0
  9
$CELTYPE
  6
BYLAYER
  9
$CECOLOR
 62
   256
  9
$CELTSCALE
 40
1.0
  9
$DISPSILH
 70
     0
  9
$DIMSCALE
 40
17.0
  9
$DIMASZ
 40
3.0
  9
$DIMEXO
 40
2.0
  9
$DIMDLI
 40
6.0
  9
$DIMRND
 40
0.0
  9
$DIMDLE
 40
0.0
  9
$DIMEXE
 40
2.0
  9
$DIMTP
 40
0.0
  9
$DIMTM
 40
0.0
  9
$DIMTXT
 40
3.2
  9
$DIMCEN
 40
0.09
  9
$DIMTSZ
 40
0.0
  9
$DIMTOL
 70
     0
  9
$DIMLIM
 70
     0
  9
$DIMTIH
 70
     0
  9
$DIMTOH
 70
     0
  9
$DIMSE1
 70
     0
  9
$DIMSE2
 70
     0
  9
$DIMTAD
 70
     1
  9
$DIMZIN
 70
     8
  9
$DIMBLK
  1
Open
  9
$DIMASO
 70
     1
  9
$DIMSHO
 70
     0
  9
$DIMPOST
  1

  9
$DIMAPOST
  1

  9
$DIMALT
 70
     0
  9
$DIMALTD
 70
     2
  9
$DIMALTF
 40
25.4
  9
$DIMLFAC
 40
1.0
  9
$DIMTOFL
 70
     1
  9
$DIMTVP
 40
0.0
  9
$DIMTIX
 70
     0
  9
$DIMSOXD
 70
     0
  9
$DIMSAH
 70
     0
  9
$DIMBLK1
  1

  9
$DIMBLK2
  1

  9
$DIMSTYLE
  2
STANDARD
  9
$DIMCLRD
 70
     0
  9
$DIMCLRE
 70
     0
  9
$DIMCLRT
 70
     0
  9
$DIMTFAC
 40
0.4
  9
$DIMGAP
 40
1.0
  9
$DIMJUST
 70
     0
  9
$DIMSD1
 70
     0
  9
$DIMSD2
 70
     0
  9
$DIMTOLJ
 70
     1
  9
$DIMTZIN
 70
     0
  9
$DIMALTZ
 70
     0
  9
$DIMALTTZ
 70
     0
  9
$DIMUPT
 70
     0
  9
$DIMDEC
 70
     1
  9
$DIMTDEC
 70
     1
  9
$DIMALTU
 70
     2
  9
$DIMALTTD
 70
     2
  9
$DIMTXSTY
  7
STANDARD
  9
$DIMAUNIT
 70
     0
  9
$DIMADEC
 70
     1
  9
$DIMALTRND
 40
0.0
  9
$DIMAZIN
 70
     2
  9
$DIMDSEP
 70
    46
  9
$DIMATFIT
 70
     3
  9
$DIMFRAC
 70
     0
  9
$DIMLDRBLK
  1
Open
  9
$DIMLUNIT
 70
     2
  9
$DIMLWD
 70
    -2
  9
$DIMLWE
 70
    -2
  9
$DIMTMOVE
 70
     0
  9
$DIMFXL
 40
1.0
  9
$DIMFXLON
 70
     0
  9
$DIMJOGANG
 40
0.7853981633974483
  9
$DIMTFILL
 70
     0
  9
$DIMTFILLCLR
 70
     0
  9
$DIMARCSYM
 70
     0
  9
$DIMLTYPE
  6

  9
$DIMLTEX1
  6

  9
$DIMLTEX2
  6

  9
$LUNITS
 70
     2
  9
$LUPREC
 70
     2
  9
$SKETCHINC
 40
0.1
  9
$FILLETRAD
 40
0.0
  9
$AUNITS
 70
     0
  9
$AUPREC
 70
     2
  9
$MENU
  1
dash
  9
$ELEVATION
 40
0.0
  9
$PELEVATION
 40
0.0
  9
$THICKNESS
 40
0.0
  9
$LIMCHECK
 70
     0
  9
$CHAMFERA
 40
0.0
  9
$CHAMFERB
 40
0.0
  9
$CHAMFERC
 40
0.0
  9
$CHAMFERD
 40
0.0
  9
$SKPOLY
 70
     0
  9
$TDCREATE
 40
2453872.741762327
  9
$TDUCREATE
 40
2453872.366762327
  9
$TDUPDATE
 40
2454838.813911852
  9
$TDUUPDATE
 40
2454838.438911852
  9
$TDINDWG
 40
0.5054712731
  9
$TDUSRTIMER
 40
0.5054712731
  9
$USRTIMER
 70
     1
  9
$ANGBASE
 50
0.0
  9
$ANGDIR
 70
     0
  9
$PDMODE
 70
    35
  9
$PDSIZE
 40
1.0
  9
$PLINEWID
 40
0.0
  9
$SPLFRAME
 70
     0
  9
$SPLINETYPE
 70
     6
  9
$SPLINESEGS
 70
     8
  9
$HANDSEED
  5
6FC9
  9
$SURFTAB1
 70
     6
  9
$SURFTAB2
 70
     6
  9
$SURFTYPE
 70
     6
  9
$SURFU
 70
     6
  9
$SURFV
 70
     6
  9
$UCSBASE
  2

  9
$UCSNAME
  2

  9
$UCSORG
 10
0.0
 20
0.0
 30
0.0
  9
$UCSXDIR
 10
1.0
 20
0.0
 30
0.0
  9
$UCSYDIR
 10
0.0
 20
1.0
 30
0.0
  9
$UCSORTHOREF
  2

  9
$UCSORTHOVIEW
 70
     0
  9
$UCSORGTOP
 10
0.0
 20
0.0
 30
0.0
  9
$UCSORGBOTTOM
 10
0.0
 20
0.0
 30
0.0
  9
$UCSORGLEFT
 10
0.0
 20
0.0
 30
0.0
  9
$UCSORGRIGHT
 10
0.0
 20
0.0
 30
0.0
  9
$UCSORGFRONT
 10
0.0
 20
0.0
 30
0.0
  9
$UCSORGBACK
 10
0.0
 20
0.0
 30
0.0
  9
$PUCSBASE
  2

  9
$PUCSNAME
  2

  9
$PUCSORG
 10
0.0
 20
0.0
 30
0.0
  9
$PUCSXDIR
 10
1.0
 20
0.0
 30
0.0
  9
$PUCSYDIR
 10
0.0
 20
1.0
 30
0.0
  9
$PUCSORTHOREF
  2

  9
$PUCSORTHOVIEW
 70
     0
  9
$PUCSORGTOP
 10
0.0
 20
0.0
 30
0.0
  9
$PUCSORGBOTTOM
 10
0.0
 20
0.0
 30
0.0
  9
$PUCSORGLEFT
 10
0.0
 20
0.0
 30
0.0
  9
$PUCSORGRIGHT
 10
0.0
 20
0.0
 30
0.0
  9
$PUCSORGFRONT
 10
0.0
 20
0.0
 30
0.0
  9
$PUCSORGBACK
 10
0.0
 20
0.0
 30
0.0
  9
$USERI1
 70
     0
  9
$USERI2
 70
     0
  9
$USERI3
 70
     0
  9
$USERI4
 70
     0
  9
$USERI5
 70
     0
  9
$USERR1
 40
0.0
  9
$USERR2
 40
3.2
  9
$USERR3
 40
0.0
  9
$USERR4
 40
0.0
  9
$USERR5
 40
0.0
  9
$WORLDVIEW
 70
     1
  9
$SHADEDGE
 70
     3
  9
$SHADEDIF
 70
    70
  9
$TILEMODE
 70
     1
  9
$MAXACTVP
 70
    48
  9
$PINSBASE
 10
0.0
 20
0.0
 30
0.0
  9
$PLIMCHECK
 70
     0
  9
$PEXTMIN
 10
1.000000000000000E+20
 20
1.000000000000000E+20
 30
1.000000000000000E+20
  9
$PEXTMAX
 10
-1.000000000000000E+20
 20
-1.000000000000000E+20
 30
-1.000000000000000E+20
  9
$PLIMMIN
 10
0.0
 20
0.0
  9
$PLIMMAX
 10
12.0
 20
9.0
  9
$UNITMODE
 70
     0
  9
$VISRETAIN
 70
     0
  9
$PLINEGEN
 70
     0
  9
$PSLTSCALE
 70
     0
  9
$TREEDEPTH
 70
  3020
  9
$CMLSTYLE
  2
STANDARD
  9
$CMLJUST
 70
     0
  9
$CMLSCALE
 40
1.0
  9
$PROXYGRAPHICS
 70
     1
  9
$MEASUREMENT
 70
     1
  9
$CELWEIGHT
370
    -1
  9
$ENDCAPS
280
     0
  9
$JOINSTYLE
280
     0
  9
$LWDISPLAY
290
     0
  9
$INSUNITS
 70
     0
  9
$HYPERLINKBASE
  1

  9
$STYLESHEET
  1
monochrome.ctb
  9
$XEDIT
290
     1
  9
$CEPSNTYPE
380
     0
  9
$PSTYLEMODE
290
     1
  9
$FINGERPRINTGUID
  2
{F2A97C53-EF7E-49C1-956A-0F2CE1E6DF2C}
  9
$VERSIONGUID
  2
{FB495E6A-EA82-4F60-98EF-7965D452AA75}
  9
$EXTNAMES
290
     1
  9
$PSVPSCALE
 40
0.0
  9
$OLESTARTUP
290
     0
  9
$SORTENTS
280
   127
  9
$INDEXCTL
280
     0
  9
$HIDETEXT
280
     0
  9
$XCLIPFRAME
290
     0
  9
$HALOGAP
280
     0
  9
$OBSCOLOR
 70
   257
  9
$OBSLTYPE
280
     0
  9
$INTERSECTIONDISPLAY
280
     0
  9
$INTERSECTIONCOLOR
 70
   257
  9
$DIMASSOC
280
     1
  9
$PROJECTNAME
  1

  9
$CAMERADISPLAY
290
     0
  9
$LENSLENGTH
 40
50.0
  9
$CAMERAHEIGHT
 40
0.0
  9
$STEPSPERSEC
 40
2.0
  9
$STEPSIZE
 40
6.0
  9
$3DDWFPREC
 40
2.0
  9
$PSOLWIDTH
 40
0.25
  9
$PSOLHEIGHT
 40
4.0
  9
$LOFTANG1
 40
1.570796326794896
  9
$LOFTANG2
 40
1.570796326794896
  9
$LOFTMAG1
 40
0.0
  9
$LOFTMAG2
 40
0.0
  9
$LOFTPARAM
 70
     7
  9
$LOFTNORMALS
280
     1
  9
$LATITUDE
 40
37.795
  9
$LONGITUDE
 40
-122.394
  9
$NORTHDIRECTION
 40
0.0
  9
$TIMEZONE
 70
 -8000
  9
$LIGHTGLYPHDISPLAY
280
     1
  9
$TILEMODELIGHTSYNCH
280
     1
  9
$CMATERIAL
347
5C9F
  9
$SOLIDHIST
280
     1
  9
$SHOWHIST
280
     1
  9
$DWFFRAME
280
     2
  9
$DGNFRAME
280
     0
  9
$REALWORLDSCALE
290
     1
  9
$INTERFERECOLOR
 62
     1
  9
$INTERFEREOBJVS
345
5CC1
  9
$INTERFEREVPVS
346
5CBE
  9
$CSHADOW
280
     0
  9
$SHADOWPLANELOCATION
 40
0.0
  0
ENDSEC
  0
SECTION
  2
CLASSES
  0
CLASS
  1
ACDBDICTIONARYWDFLT
  2
AcDbDictionaryWithDefault
  3
ObjectDBX Classes
 90
        0
 91
        1
280
     0
281
     0
  0
CLASS
  1
DICTIONARYVAR
  2
AcDbDictionaryVar
  3
ObjectDBX Classes
 90
        0
 91
        6
280
     0
281
     0
  0
CLASS
  1
MATERIAL
  2
AcDbMaterial
  3
ObjectDBX Classes
 90
     1153
 91
        3
280
     0
281
     0
  0
CLASS
  1
VISUALSTYLE
  2
AcDbVisualStyle
  3
ObjectDBX Classes
 90
     4095
 91
       16
280
     0
281
     0
  0
CLASS
  1
TABLESTYLE
  2
AcDbTableStyle
  3
ObjectDBX Classes
 90
     4095
 91
        1
280
     0
281
     0
  0
CLASS
  1
SCALE
  2
AcDbScale
  3
ObjectDBX Classes
 90
     1153
 91
       33
280
     0
281
     0
  0
CLASS
  1
MLEADERSTYLE
  2
AcDbMLeaderStyle
  3
ACDB_MLEADERSTYLE_CLASS
 90
     4095
 91
        1
280
     0
281
     0
  0
CLASS
  1
SORTENTSTABLE
  2
AcDbSortentsTable
  3
ObjectDBX Classes
 90
        0
 91
        1
280
     0
281
     0
  0
CLASS
  1
CELLSTYLEMAP
  2
AcDbCellStyleMap
  3
ObjectDBX Classes
 90
     1152
 91
        2
280
     0
281
     0
  0
ENDSEC
  0
SECTION
  2
TABLES
  0
TABLE
  2
VPORT
  5
8
330
0
100
AcDbSymbolTable
 70
     1
  0
VPORT
  5
5C9C
330
8
100
AcDbSymbolTableRecord
100
AcDbViewportTableRecord
  2
*Active
 70
     0
 10
0.0
 20
0.0
 11
1.0
 21
1.0
 12
1785.000024937683
 22
2524.500035269009
 13
0.0
 23
0.0
 14
1.0
 24
1.0
 15
0.0
 25
0.0
 16
0.0
 26
0.0
 36
1.0
 17
0.0
 27
0.0
 37
0.0
 40
5088.911164101975
 41
1.565045992115637
 42
50.0
 43
0.0
 44
0.0
 50
0.0
 51
0.0
 71
     0
 72
   500
 73
     1
 74
     3
 75
     0
 76
     0
 77
     0
 78
     0
281
     0
 65
     1
110
0.0
120
0.0
130
0.0
111
1.0
121
0.0
131
0.0
112
0.0
122
1.0
132
0.0
 79
     0
146
0.0
348
5CBD
 60
     3
 61
     5
292
     1
282
     1
141
0.0
142
0.0
 63
   250
421
  3355443
  0
ENDTAB
  0
TABLE
  2
LTYPE
  5
5
330
0
100
AcDbSymbolTable
 70
     3
  0
LTYPE
  5
11
330
5
100
AcDbSymbolTableRecord
100
AcDbLinetypeTableRecord
  2
BYBLOCK
 70
     0
  3

 72
    65
 73
     0
 40
0.0
  0
LTYPE
  5
12
330
5
100
AcDbSymbolTableRecord
100
AcDbLinetypeTableRecord
  2
BYLAYER
 70
     0
  3

 72
    65
 73
     0
 40
0.0
  0
LTYPE
  5
13
330
5
100
AcDbSymbolTableRecord
100
AcDbLinetypeTableRecord
  2
CONTINUOUS
 70
     0
  3
Solid line
 72
    65
 73
     0
 40
0.0
  0
LTYPE
  5
1C
330
5
100
AcDbSymbolTableRecord
100
AcDbLinetypeTableRecord
  2
DASHED
 70
     0
  3
__ __ __ __ __ __ __ __ __ __ __ __ __ __ __
 72
    65
 73
     2
 40
3.0
 49
2.0
 74
     0
 49
-1.0
 74
     0
  0
LTYPE
  5
1D
330
5
100
AcDbSymbolTableRecord
100
AcDbLinetypeTableRecord
  2
CENTER
 70
     0
  3
____ _ ____ _ ____ _ ____ _ ____ _ ____ _ ____
 72
    65
 73
     4
 40
12.0
 49
9.0
 74
     0
 49
-1.0
 74
     0
 49
1.0
 74
     0
 49
-1.0
 74
     0
  0
ENDTAB
  0
TABLE
  2
LAYER
  5
2
102
{ACAD_XDICTIONARY
360
51B7
102
}
330
0
100
AcDbSymbolTable
 70
     8
  0
LAYER
  5
E
102
{ACAD_XDICTIONARY
360
6982
102
}
330
2
100
AcDbSymbolTableRecord
100
AcDbLayerTableRecord
  2
0
 70
     0
 62
     3
  6
CONTINUOUS
370
    25
390
33
347
5CAF
  0
LAYER
  5
21
102
{ACAD_XDICTIONARY
360
6986
102
}
330
2
100
AcDbSymbolTableRecord
100
AcDbLayerTableRecord
  2
CEN
 70
     0
 62
     4
  6
CENTER
370
    18
390
33
347
5CAF
  0
LAYER
  5
22
102
{ACAD_XDICTIONARY
360
6988
102
}
330
2
100
AcDbSymbolTableRecord
100
AcDbLayerTableRecord
  2
HID
 70
     0
 62
     2
  6
DASHED
370
    18
390
33
347
5CAF
  0
LAYER
  5
23
102
{ACAD_XDICTIONARY
360
698A
102
}
330
2
100
AcDbSymbolTableRecord
100
AcDbLayerTableRecord
  2
DIM
 70
     0
 62
     7
  6
CONTINUOUS
370
    18
390
33
347
5CAF
  0
LAYER
  5
24
102
{ACAD_XDICTIONARY
360
698C
102
}
330
2
100
AcDbSymbolTableRecord
100
AcDbLayerTableRecord
  2
WAKU
 70
     0
 62
     3
  6
CONTINUOUS
370
    25
390
33
347
5CAF
  0
LAYER
  5
25
102
{ACAD_XDICTIONARY
360
698E
102
}
330
2
100
AcDbSymbolTableRecord
100
AcDbLayerTableRecord
  2
HOJO
 70
     0
 62
     5
  6
CONTINUOUS
370
    18
390
33
347
5CAF
  0
LAYER
  5
27
102
{ACAD_XDICTIONARY
360
6992
102
}
330
2
100
AcDbSymbolTableRecord
100
AcDbLayerTableRecord
  2
DIMTEXT
 70
     0
 62
     7
  6
CONTINUOUS
370
    18
390
33
347
5CAF
  0
LAYER
  5
EC
330
2
100
AcDbSymbolTableRecord
100
AcDbLayerTableRecord
  2
Defpoints
 70
     0
 62
     7
  6
CONTINUOUS
290
     0
370
    -3
390
33
347
5CAF
  0
ENDTAB
  0
TABLE
  2
STYLE
  5
3
330
0
100
AcDbSymbolTable
 70
     1
  0
STYLE
  5
F
330
3
100
AcDbSymbolTableRecord
100
AcDbTextStyleTableRecord
  2
STANDARD
 70
     0
 40
0.0
 41
0.8
 50
0.0
 71
     0
 42
3.2
  3
sse
  4
bigfont
  0
ENDTAB
  0
TABLE
  2
VIEW
  5
6
330
0
100
AcDbSymbolTable
 70
     0
  0
ENDTAB
  0
TABLE
  2
UCS
  5
7
330
0
100
AcDbSymbolTable
 70
     0
  0
ENDTAB
  0
TABLE
  2
APPID
  5
9
330
0
100
AcDbSymbolTable
 70
    12
  0
APPID
  5
10
330
9
100
AcDbSymbolTableRecord
100
AcDbRegAppTableRecord
  2
ACAD
 70
     0
  0
APPID
  5
91
330
9
100
AcDbSymbolTableRecord
100
AcDbRegAppTableRecord
  2
SSE
 70
     0
  0
APPID
  5
92
330
9
100
AcDbSymbolTableRecord
100
AcDbRegAppTableRecord
  2
SSE_DIMTEXT
 70
     0
  0
APPID
  5
21C
330
9
100
AcDbSymbolTableRecord
100
AcDbRegAppTableRecord
  2
GENIUS_GENODEF_13
 70
     0
  0
APPID
  5
21D
330
9
100
AcDbSymbolTableRecord
100
AcDbRegAppTableRecord
  2
GENIUS_GENOBJ-N-FIL_13
 70
     0
  0
APPID
  5
21E
330
9
100
AcDbSymbolTableRecord
100
AcDbRegAppTableRecord
  2
GENIUS_GENOREF_13
 70
     0
  0
APPID
  5
21F
330
9
100
AcDbSymbolTableRecord
100
AcDbRegAppTableRecord
  2
GENIUS_GENFIL_13
 70
     0
  0
APPID
  5
20F6
330
9
100
AcDbSymbolTableRecord
100
AcDbRegAppTableRecord
  2
GENIUS_GENOBJ-N-CHA_13
 70
     0
  0
APPID
  5
51E2
330
9
100
AcDbSymbolTableRecord
100
AcDbRegAppTableRecord
  2
SSE_BALOON
 70
     0
  0
APPID
  5
5CEF
330
9
100
AcDbSymbolTableRecord
100
AcDbRegAppTableRecord
  2
ACAD_MLEADERVER
 70
     0
  0
APPID
  5
5F4E
330
9
100
AcDbSymbolTableRecord
100
AcDbRegAppTableRecord
  2
ACAD_EXEMPT_FROM_CAD_STANDARDS
 70
     0
  0
APPID
  5
5F54
330
9
100
AcDbSymbolTableRecord
100
AcDbRegAppTableRecord
  2
ACAD_PSEXT
 70
     0
  0
ENDTAB
  0
TABLE
  2
DIMSTYLE
  5
A
330
0
100
AcDbSymbolTable
 70
     1
100
AcDbDimStyleTable
 71
     1
340
2C
  0
DIMSTYLE
105
2C
102
{ACAD_REACTORS
330
3A8E
330
60C6
330
60B7
330
60AA
330
609D
330
6090
330
6081
330
600C
330
5FED
330
5FE0
330
5FCA
330
63E6
330
6483
330
6503
330
65BB
330
658B
330
6616
330
663D
330
65A5
330
66C8
330
66A6
330
6A78
330
6A62
330
6A43
330
6A2D
330
6A15
330
69FB
330
4E52
330
4379
102
}
330
A
100
AcDbSymbolTableRecord
100
AcDbDimStyleTableRecord
  2
STANDARD
 70
     0
 40
17.0
 41
3.0
 42
2.0
 44
2.0
 77
     1
 78
     8
 79
     2
140
3.2
146
0.4
147
1.0
179
     2
271
     2
340
F
  0
ENDTAB
  0
TABLE
  2
BLOCK_RECORD
  5
1
330
0
100
AcDbSymbolTable
 70
    36
  0
BLOCK_RECORD
  5
17
102
{ACAD_XDICTIONARY
360
5EA6
102
}
330
1
100
AcDbSymbolTableRecord
100
AcDbBlockTableRecord
  2
*MODEL_SPACE
340
36
 70
     0
280
     1
281
     0
  0
BLOCK_RECORD
  5
14
330
1
100
AcDbSymbolTableRecord
100
AcDbBlockTableRecord
  2
*PAPER_SPACE
340
37
 70
     0
280
     1
281
     0
  0
BLOCK_RECORD
  5
4A
330
1
100
AcDbSymbolTableRecord
100
AcDbBlockTableRecord
  2
_Open30
340
0
102
{BLKREFS
331
6DB9
331
6DBA
331
6DC2
331
6DC3
331
6DCB
331
6DCC
331
6DD4
331
6DD5
331
6DDD
331
6DDE
331
6DE6
331
6DE7
331
6DF1
331
6DF2
331
6DFA
331
6DFB
331
6E03
331
6E04
331
6E0C
331
6E0D
331
6E2B
331
6E2C
331
6E36
331
6E37
331
6E42
331
6E4A
331
6E4B
331
6E53
331
6E54
331
6E5C
331
6E5D
331
6E65
331
6E66
331
6E6E
331
6E6F
331
6E78
331
6E79
331
6E84
331
6E8C
331
6E8D
331
6E95
331
6E96
331
6E9E
331
6E9F
331
6EBA
331
6EBB
331
6EE8
331
6EE9
331
6EF1
331
6EF2
331
6F25
331
6F26
331
6F5C
331
6F5D
331
6F65
331
6F66
102
}
 70
     0
280
     1
281
     0
  0
BLOCK_RECORD
  5
1CD
330
1
100
AcDbSymbolTableRecord
100
AcDbBlockTableRecord
  2
dimstat
340
0
102
{BLKREFS
331
1D3
102
}
 70
     0
280
     1
281
     0
  0
BLOCK_RECORD
  5
1D8
330
1
100
AcDbSymbolTableRecord
100
AcDbBlockTableRecord
  2
dimstat2
340
0
102
{BLKREFS
331
1DC
102
}
 70
     0
280
     1
281
     0
  0
BLOCK_RECORD
  5
1F7
330
1
100
AcDbSymbolTableRecord
100
AcDbBlockTableRecord
  2
_Open
340
0
 70
     0
280
     1
281
     0
  0
BLOCK_RECORD
  5
95D
330
1
100
AcDbSymbolTableRecord
100
AcDbBlockTableRecord
  2
_DotSmall
340
0
102
{BLKREFS
331
6E41
331
6E83
102
}
 70
     0
280
     1
281
     0
  0
BLOCK_RECORD
  5
3A95
330
1
100
AcDbSymbolTableRecord
100
AcDbBlockTableRecord
  2
*D5
340
0
 70
     0
280
     1
281
     0
  0
BLOCK_RECORD
  5
3ACE
330
1
100
AcDbSymbolTableRecord
100
AcDbBlockTableRecord
  2
waku0
340
0
102
{BLKREFS
331
4E38
102
}
 70
     0
280
     1
281
     0
  0
BLOCK_RECORD
  5
437A
330
1
100
AcDbSymbolTableRecord
100
AcDbBlockTableRecord
  2
*D7
340
0
 70
     0
280
     1
281
     0
  0
BLOCK_RECORD
  5
4E53
330
1
100
AcDbSymbolTableRecord
100
AcDbBlockTableRecord
  2
*D8
340
0
 70
     0
280
     1
281
     0
  0
BLOCK_RECORD
  5
51E5
330
1
100
AcDbSymbolTableRecord
100
AcDbBlockTableRecord
  2
SSE_BALOON1
340
0
102
{BLKREFS
331
6D94
331
6D98
331
6D9D
331
6DA1
331
6DA5
331
6DAA
331
6EC5
331
6EC9
102
}
 70
     0
280
     1
281
     0
  0
BLOCK_RECORD
  5
5FCB
330
1
100
AcDbSymbolTableRecord
100
AcDbBlockTableRecord
  2
*D10
340
0
 70
     0
280
     1
281
     0
  0
BLOCK_RECORD
  5
5FE1
330
1
100
AcDbSymbolTableRecord
100
AcDbBlockTableRecord
  2
*D11
340
0
 70
     0
280
     1
281
     0
  0
BLOCK_RECORD
  5
5FEE
330
1
100
AcDbSymbolTableRecord
100
AcDbBlockTableRecord
  2
*D12
340
0
 70
     0
280
     1
281
     0
  0
BLOCK_RECORD
  5
600D
330
1
100
AcDbSymbolTableRecord
100
AcDbBlockTableRecord
  2
*D13
340
0
 70
     0
280
     1
281
     0
  0
BLOCK_RECORD
  5
6082
330
1
100
AcDbSymbolTableRecord
100
AcDbBlockTableRecord
  2
*D14
340
0
 70
     0
280
     1
281
     0
  0
BLOCK_RECORD
  5
6091
330
1
100
AcDbSymbolTableRecord
100
AcDbBlockTableRecord
  2
*D15
340
0
 70
     0
280
     1
281
     0
  0
BLOCK_RECORD
  5
609E
330
1
100
AcDbSymbolTableRecord
100
AcDbBlockTableRecord
  2
*D16
340
0
 70
     0
280
     1
281
     0
  0
BLOCK_RECORD
  5
60AB
330
1
100
AcDbSymbolTableRecord
100
AcDbBlockTableRecord
  2
*D17
340
0
 70
     0
280
     1
281
     0
  0
BLOCK_RECORD
  5
60B8
330
1
100
AcDbSymbolTableRecord
100
AcDbBlockTableRecord
  2
*D18
340
0
 70
     0
280
     1
281
     0
  0
BLOCK_RECORD
  5
60C7
330
1
100
AcDbSymbolTableRecord
100
AcDbBlockTableRecord
  2
*D19
340
0
 70
     0
280
     1
281
     0
  0
BLOCK_RECORD
  5
63E7
330
1
100
AcDbSymbolTableRecord
100
AcDbBlockTableRecord
  2
*D20
340
0
 70
     0
280
     1
281
     0
  0
BLOCK_RECORD
  5
6484
330
1
100
AcDbSymbolTableRecord
100
AcDbBlockTableRecord
  2
*D21
340
0
 70
     0
280
     1
281
     0
  0
BLOCK_RECORD
  5
6504
330
1
100
AcDbSymbolTableRecord
100
AcDbBlockTableRecord
  2
*D22
340
0
 70
     0
280
     1
281
     0
  0
BLOCK_RECORD
  5
658C
330
1
100
AcDbSymbolTableRecord
100
AcDbBlockTableRecord
  2
*D23
340
0
 70
     0
280
     1
281
     0
  0
BLOCK_RECORD
  5
65A6
330
1
100
AcDbSymbolTableRecord
100
AcDbBlockTableRecord
  2
*D24
340
0
 70
     0
280
     1
281
     0
  0
BLOCK_RECORD
  5
65BC
330
1
100
AcDbSymbolTableRecord
100
AcDbBlockTableRecord
  2
*D25
340
0
 70
     0
280
     1
281
     0
  0
BLOCK_RECORD
  5
6617
330
1
100
AcDbSymbolTableRecord
100
AcDbBlockTableRecord
  2
*D26
340
0
 70
     0
280
     1
281
     0
  0
BLOCK_RECORD
  5
663E
330
1
100
AcDbSymbolTableRecord
100
AcDbBlockTableRecord
  2
*D27
340
0
 70
     0
280
     1
281
     0
  0
BLOCK_RECORD
  5
66A7
330
1
100
AcDbSymbolTableRecord
100
AcDbBlockTableRecord
  2
*D28
340
0
 70
     0
280
     1
281
     0
  0
BLOCK_RECORD
  5
66C9
330
1
100
AcDbSymbolTableRecord
100
AcDbBlockTableRecord
  2
*D29
340
0
 70
     0
280
     1
281
     0
  0
BLOCK_RECORD
  5
69FC
330
1
100
AcDbSymbolTableRecord
100
AcDbBlockTableRecord
  2
*D30
340
0
 70
     0
280
     1
281
     0
  0
BLOCK_RECORD
  5
6A16
330
1
100
AcDbSymbolTableRecord
100
AcDbBlockTableRecord
  2
*D31
340
0
 70
     0
280
     1
281
     0
  0
BLOCK_RECORD
  5
6A2E
330
1
100
AcDbSymbolTableRecord
100
AcDbBlockTableRecord
  2
*D32
340
0
 70
     0
280
     1
281
     0
  0
BLOCK_RECORD
  5
6A44
330
1
100
AcDbSymbolTableRecord
100
AcDbBlockTableRecord
  2
*D33
340
0
 70
     0
280
     1
281
     0
  0
BLOCK_RECORD
  5
6A63
330
1
100
AcDbSymbolTableRecord
100
AcDbBlockTableRecord
  2
*D34
340
0
 70
     0
280
     1
281
     0
  0
BLOCK_RECORD
  5
6A79
330
1
100
AcDbSymbolTableRecord
100
AcDbBlockTableRecord
  2
*D35
340
0
 70
     0
280
     1
281
     0
  0
ENDTAB
  0
ENDSEC
  0
SECTION
  2
BLOCKS
  0
BLOCK
  5
2A
330
17
100
AcDbEntity
  8
0
100
AcDbBlockBegin
  2
*MODEL_SPACE
 70
     0
 10
0.0
 20
0.0
 30
0.0
  3
*MODEL_SPACE
  1

  0
ENDBLK
  5
2B
330
17
100
AcDbEntity
  8
0
100
AcDbBlockEnd
  0
BLOCK
  5
28
330
14
100
AcDbEntity
 67
     1
  8
0
100
AcDbBlockBegin
  2
*PAPER_SPACE
 70
     0
 10
0.0
 20
0.0
 30
0.0
  3
*PAPER_SPACE
  1

  0
ENDBLK
  5
29
330
14
100
AcDbEntity
 67
     1
  8
0
100
AcDbBlockEnd
  0
BLOCK
  5
4E
330
4A
100
AcDbEntity
  8
0
100
AcDbBlockBegin
  2
_Open30
 70
     0
 10
0.0
 20
0.0
 30
0.0
  3
_Open30
  1

  0
LINE
  5
4B
330
4A
100
AcDbEntity
  8
0
  6
ByBlock
 62
     0
370
    -2
100
AcDbLine
 10
-1.0
 20
0.26794919
 30
0.0
 11
0.0
 21
0.0
 31
0.0
  0
LINE
  5
4C
330
4A
100
AcDbEntity
  8
0
  6
ByBlock
 62
     0
370
    -2
100
AcDbLine
 10
0.0
 20
0.0
 30
0.0
 11
-1.0
 21
-0.26794919
 31
0.0
  0
LINE
  5
4D
330
4A
100
AcDbEntity
  8
0
  6
ByBlock
 62
     0
370
    -2
100
AcDbLine
 10
0.0
 20
0.0
 30
0.0
 11
-1.0
 21
0.0
 31
0.0
  0
ENDBLK
  5
4F
330
4A
100
AcDbEntity
  8
0
100
AcDbBlockEnd
  0
BLOCK
  5
1D1
330
1CD
100
AcDbEntity
  8
0
100
AcDbBlockBegin
  2
dimstat
 70
     2
 10
0.0
 20
0.0
 30
0.0
  3
dimstat
  1

  0
ATTDEF
  5
1CE
330
1CD
100
AcDbEntity
  8
0
100
AcDbText
 10
0.0
 20
1.0
 30
0.0
 40
1.0
  1

 41
0.7
 51
15.0
100
AcDbAttributeDefinition
  3

  2
DIMEXT
 70
     1
280
     0
  0
ATTDEF
  5
1CF
330
1CD
100
AcDbEntity
  8
0
100
AcDbText
 10
0.0
 20
0.0
 30
0.0
 40
1.0
  1

 41
0.7
 51
15.0
100
AcDbAttributeDefinition
  3

  2
DIMBAL
 70
     1
280
     0
  0
ATTDEF
  5
1D0
330
1CD
100
AcDbEntity
  8
0
100
AcDbText
 10
1.50719045723035
 20
-0.911649989012119
 30
0.0
 40
1.0
  1

 41
0.7
 51
15.0
 72
     1
 11
1.50719045723035
 21
-0.911649989012119
 31
0.0
100
AcDbAttributeDefinition
  3

  2
SYMSCL
 70
     1
280
     0
  0
ENDBLK
  5
1D2
330
1CD
100
AcDbEntity
  8
0
100
AcDbBlockEnd
  0
BLOCK
  5
1DA
330
1D8
100
AcDbEntity
  8
0
100
AcDbBlockBegin
  2
dimstat2
 70
     2
 10
0.0
 20
0.0
 30
0.0
  3
dimstat2
  1

  0
ATTDEF
  5
1D9
330
1D8
100
AcDbEntity
  8
0
100
AcDbText
 10
0.0
 20
0.0
 30
0.0
 40
1.0
  1

 41
0.7
100
AcDbAttributeDefinition
  3

  2
DIMSIZ
 70
     1
280
     0
  0
ENDBLK
  5
1DB
330
1D8
100
AcDbEntity
  8
0
100
AcDbBlockEnd
  0
BLOCK
  5
1FB
330
1F7
100
AcDbEntity
  8
0
100
AcDbBlockBegin
  2
_Open
 70
     0
 10
0.0
 20
0.0
 30
0.0
  3
_Open
  1

  0
LINE
  5
1F8
330
1F7
100
AcDbEntity
  8
0
  6
ByBlock
 62
     0
370
    -2
100
AcDbLine
 10
-1.0
 20
0.1666666666666666
 30
0.0
 11
0.0
 21
0.0
 31
0.0
  0
LINE
  5
1F9
330
1F7
100
AcDbEntity
  8
0
  6
ByBlock
 62
     0
370
    -2
100
AcDbLine
 10
-1.0
 20
-0.1666666666666666
 30
0.0
 11
0.0
 21
0.0
 31
0.0
  0
LINE
  5
1FA
330
1F7
100
AcDbEntity
  8
0
  6
ByBlock
 62
     0
370
    -2
100
AcDbLine
 10
0.0
 20
0.0
 30
0.0
 11
-1.0
 21
0.0
 31
0.0
  0
ENDBLK
  5
1FC
330
1F7
100
AcDbEntity
  8
0
100
AcDbBlockEnd
  0
BLOCK
  5
95F
330
95D
100
AcDbEntity
  8
0
100
AcDbBlockBegin
  2
_DotSmall
 70
     0
 10
0.0
 20
0.0
 30
0.0
  3
_DotSmall
  1

  0
LWPOLYLINE
  5
95E
330
95D
100
AcDbEntity
  8
0
  6
ByBlock
 62
     0
100
AcDbPolyline
 90
        2
 70
     1
 43
0.5
 10
-0.0625
 20
0.0
 42
1.0
 10
0.0625
 20
0.0
 42
1.0
  0
ENDBLK
  5
960
330
95D
100
AcDbEntity
  8
0
100
AcDbBlockEnd
  0
BLOCK
  5
3A9E
330
3A95
100
AcDbEntity
  8
0
100
AcDbBlockBegin
  2
*D5
 70
     1
 10
0.0
 20
0.0
 30
0.0
  3
*D5
  1

  0
LINE
  5
6EB6
330
3A95
100
AcDbEntity
  8
DIM
 62
     0
370
    -2
100
AcDbLine
 10
1166.474719611157
 20
4076.889405898371
 30
0.0
 11
1247.163905282806
 21
4076.889405898371
 31
0.0
  0
LINE
  5
6EB7
330
3A95
100
AcDbEntity
  8
DIM
 62
     0
370
    -2
100
AcDbLine
 10
1223.163905282806
 20
4112.889405898371
 30
0.0
 11
1223.163905282806
 21
4148.889405898371
 31
0.0
  0
LINE
  5
6EB8
330
3A95
100
AcDbEntity
  8
DIM
 62
     0
370
    -2
100
AcDbLine
 10
1223.163905282806
 20
3950.889405898371
 30
0.0
 11
1223.163905282806
 21
3682.578548755513
 31
0.0
  0
LINE
  5
6EB9
330
3A95
100
AcDbEntity
  8
DIM
 62
     0
370
    -2
100
AcDbLine
 10
1223.163905282806
 20
4076.889405898371
 30
0.0
 11
1223.163905282806
 21
3986.889405898371
 31
0.0
  0
INSERT
  5
6EBA
330
3A95
100
AcDbEntity
  8
DIM
 62
     0
370
    -2
100
AcDbBlockReference
  2
_Open30
 10
1223.163905282806
 20
4076.889405898371
 30
0.0
 41
36.0
 42
36.0
 43
36.0
 50
270.0
  0
INSERT
  5
6EBB
330
3A95
100
AcDbEntity
  8
DIM
 62
     0
370
    -2
100
AcDbBlockReference
  2
_Open30
 10
1223.163905282806
 20
3986.889405898371
 30
0.0
 41
36.0
 42
36.0
 43
36.0
 50
90.0
  0
MTEXT
  5
6EBC
330
3A95
100
AcDbEntity
  8
DIM
 62
     0
100
AcDbMText
 10
1191.963905282805
 20
3798.733977326942
 30
0.0
 40
38.40000000000001
 41
0.0
 46
0.0
 71
     5
 72
     1
  1
\A1;最大90mm
 11
0.0000000000000001
 21
1.0
 31
0.0
 73
     1
 44
1.0
  0
POINT
  5
6EBD
330
3A95
100
AcDbEntity
  8
Defpoints
 62
     0
100
AcDbPoint
 10
1142.474719611157
 20
4076.889405898371
 30
0.0
  0
POINT
  5
6EBE
330
3A95
100
AcDbEntity
  8
Defpoints
 62
     0
100
AcDbPoint
 10
1142.474719611157
 20
3986.889405898371
 30
0.0
  0
POINT
  5
6EBF
330
3A95
100
AcDbEntity
  8
Defpoints
 62
     0
100
AcDbPoint
 10
1223.163905282806
 20
3986.889405898371
 30
0.0
  0
ENDBLK
  5
3A9F
330
3A95
100
AcDbEntity
  8
0
100
AcDbBlockEnd
  0
BLOCK
  5
3AD3
330
3ACE
100
AcDbEntity
  8
0
100
AcDbBlockBegin
  2
waku0
 70
     0
 10
0.0
 20
0.0
 30
0.0
  3
waku0
  1

  0
LINE
  5
3ACF
330
3ACE
100
AcDbEntity
  8
0
100
AcDbLine
 10
0.0
 20
1.0
 30
0.0
 11
0.0
 21
0.0
 31
0.0
  0
LINE
  5
3AD0
330
3ACE
100
AcDbEntity
  8
0
100
AcDbLine
 10
1.0
 20
1.0
 30
0.0
 11
0.0
 21
1.0
 31
0.0
  0
LINE
  5
3AD1
330
3ACE
100
AcDbEntity
  8
0
100
AcDbLine
 10
1.0
 20
0.0
 30
0.0
 11
1.0
 21
1.0
 31
0.0
  0
LINE
  5
3AD2
330
3ACE
100
AcDbEntity
  8
0
100
AcDbLine
 10
0.0
 20
0.0
 30
0.0
 11
1.0
 21
0.0
 31
0.0
  0
ENDBLK
  5
3AD4
330
3ACE
100
AcDbEntity
  8
0
100
AcDbBlockEnd
  0
BLOCK
  5
4384
330
437A
100
AcDbEntity
  8
0
100
AcDbBlockBegin
  2
*D7
 70
     1
 10
0.0
 20
0.0
 30
0.0
  3
*D7
  1

  0
LINE
  5
6EEE
330
437A
100
AcDbEntity
  8
DIM
 62
     0
370
    -2
100
AcDbLine
 10
761.474719611155
 20
3997.28940589837
 30
0.0
 11
761.474719611155
 21
4237.412385659286
 31
0.0
  0
LINE
  5
6EEF
330
437A
100
AcDbEntity
  8
DIM
 62
     0
370
    -2
100
AcDbLine
 10
1403.474719611155
 20
3997.28940589837
 30
0.0
 11
1403.474719611155
 21
4237.412385659286
 31
0.0
  0
LINE
  5
6EF0
330
437A
100
AcDbEntity
  8
DIM
 62
     0
370
    -2
100
AcDbLine
 10
795.474719611155
 20
4203.412385659285
 30
0.0
 11
1369.474719611155
 21
4203.412385659285
 31
0.0
  0
INSERT
  5
6EF1
330
437A
100
AcDbEntity
  8
DIM
 62
     0
370
    -2
100
AcDbBlockReference
  2
_Open30
 10
761.474719611155
 20
4203.412385659285
 30
0.0
 41
34.0
 42
34.0
 43
34.0
 50
180.0
  0
INSERT
  5
6EF2
330
437A
100
AcDbEntity
  8
DIM
 62
     0
370
    -2
100
AcDbBlockReference
  2
_Open30
 10
1403.474719611155
 20
4203.412385659285
 30
0.0
 41
34.0
 42
34.0
 43
34.0
  0
MTEXT
  5
6EF3
330
437A
100
AcDbEntity
  8
DIM
 62
     0
100
AcDbMText
 10
1082.474719611155
 20
4241.662385659286
 30
0.0
 40
42.5
 41
0.0
 46
0.0
 71
     5
 72
     1
  1
\A1;（650）
 73
     1
 44
1.0
  0
POINT
  5
6EF4
330
437A
100
AcDbEntity
  8
Defpoints
 62
     0
100
AcDbPoint
 10
761.474719611155
 20
3963.28940589837
 30
0.0
  0
POINT
  5
6EF5
330
437A
100
AcDbEntity
  8
Defpoints
 62
     0
100
AcDbPoint
 10
1403.474719611155
 20
3963.28940589837
 30
0.0
  0
POINT
  5
6EF6
330
437A
100
AcDbEntity
  8
Defpoints
 62
     0
100
AcDbPoint
 10
1403.474719611155
 20
4203.412385659285
 30
0.0
  0
ENDBLK
  5
4385
330
437A
100
AcDbEntity
  8
0
100
AcDbBlockEnd
  0
BLOCK
  5
4E5D
330
4E53
100
AcDbEntity
  8
0
100
AcDbBlockBegin
  2
*D8
 70
     1
 10
0.0
 20
0.0
 30
0.0
  3
*D8
  1

  0
LINE
  5
6EE5
330
4E53
100
AcDbEntity
  8
DIM
 62
     0
370
    -2
100
AcDbLine
 10
1413.874719611154
 20
3986.889405898371
 30
0.0
 11
1575.040327794493
 21
3986.889405898371
 31
0.0
  0
LINE
  5
6EE6
330
4E53
100
AcDbEntity
  8
DIM
 62
     0
370
    -2
100
AcDbLine
 10
1413.874719611154
 20
3264.889405898371
 30
0.0
 11
1575.040327794493
 21
3264.889405898371
 31
0.0
  0
LINE
  5
6EE7
330
4E53
100
AcDbEntity
  8
DIM
 62
     0
370
    -2
100
AcDbLine
 10
1541.040327794493
 20
3952.88940589837
 30
0.0
 11
1541.040327794493
 21
3298.889405898371
 31
0.0
  0
INSERT
  5
6EE8
330
4E53
100
AcDbEntity
  8
DIM
 62
     0
370
    -2
100
AcDbBlockReference
  2
_Open30
 10
1541.040327794493
 20
3986.889405898371
 30
0.0
 41
34.0
 42
34.0
 43
34.0
 50
90.0
  0
INSERT
  5
6EE9
330
4E53
100
AcDbEntity
  8
DIM
 62
     0
370
    -2
100
AcDbBlockReference
  2
_Open30
 10
1541.040327794493
 20
3264.889405898371
 30
0.0
 41
34.0
 42
34.0
 43
34.0
 50
270.0
  0
MTEXT
  5
6EEA
330
4E53
100
AcDbEntity
  8
DIM
 62
     0
100
AcDbMText
 10
1502.790327794492
 20
3625.889405898371
 30
0.0
 40
42.5
 41
0.0
 46
0.0
 71
     5
 72
     1
  1
\A1;（730）
 11
0.0000000000000001
 21
1.0
 31
0.0
 73
     1
 44
1.0
  0
POINT
  5
6EEB
330
4E53
100
AcDbEntity
  8
Defpoints
 62
     0
100
AcDbPoint
 10
1379.874719611154
 20
3986.889405898371
 30
0.0
  0
POINT
  5
6EEC
330
4E53
100
AcDbEntity
  8
Defpoints
 62
     0
100
AcDbPoint
 10
1379.874719611154
 20
3264.889405898371
 30
0.0
  0
POINT
  5
6EED
330
4E53
100
AcDbEntity
  8
Defpoints
 62
     0
100
AcDbPoint
 10
1541.040327794493
 20
3264.889405898371
 30
0.0
  0
ENDBLK
  5
4E5E
330
4E53
100
AcDbEntity
  8
0
100
AcDbBlockEnd
  0
BLOCK
  5
51E8
330
51E5
100
AcDbEntity
  8
0
100
AcDbBlockBegin
  2
SSE_BALOON1
 70
     2
 10
0.0
 20
0.0
 30
0.0
  3
SSE_BALOON1
  1

  0
CIRCLE
  5
51E6
330
51E5
100
AcDbEntity
  8
0
  6
ByBlock
 62
     0
370
    -2
100
AcDbCircle
 10
0.0
 20
0.0
 30
0.0
 40
1.0
  0
ATTDEF
  5
51E7
330
51E5
100
AcDbEntity
  8
DIMTEXT
100
AcDbText
 10
0.0
 20
0.0
 30
0.0
 40
1.0
  1

 72
     4
 11
0.0
 21
0.0
 31
0.0
100
AcDbAttributeDefinition
  3
番号
  2
BAL_NUM
 70
     0
280
     0
  0
ENDBLK
  5
51E9
330
51E5
100
AcDbEntity
  8
0
100
AcDbBlockEnd
  0
BLOCK
  5
5FCC
330
5FCB
100
AcDbEntity
  8
0
100
AcDbBlockBegin
  2
*D10
 70
     1
 10
0.0
 20
0.0
 30
0.0
  3
*D10
  1

  0
LINE
  5
6E9B
330
5FCB
100
AcDbEntity
  8
DIM
 62
     0
370
    -2
100
AcDbLine
 10
2351.704628172254
 20
3990.889405898371
 30
0.0
 11
2248.825632253905
 21
3990.889405898371
 31
0.0
  0
LINE
  5
6E9C
330
5FCB
100
AcDbEntity
  8
DIM
 62
     0
370
    -2
100
AcDbLine
 10
2337.658445772139
 20
3332.089405898371
 30
0.0
 11
2248.825632253904
 21
3332.089405898371
 31
0.0
  0
LINE
  5
6E9D
330
5FCB
100
AcDbEntity
  8
DIM
 62
     0
370
    -2
100
AcDbLine
 10
2282.825632253905
 20
3956.889405898371
 30
0.0
 11
2282.825632253904
 21
3366.089405898371
 31
0.0
  0
INSERT
  5
6E9E
330
5FCB
100
AcDbEntity
  8
DIM
 62
     0
370
    -2
100
AcDbBlockReference
  2
_Open30
 10
2282.825632253905
 20
3990.889405898371
 30
0.0
 41
34.0
 42
34.0
 43
34.0
 50
90.0
  0
INSERT
  5
6E9F
330
5FCB
100
AcDbEntity
  8
DIM
 62
     0
370
    -2
100
AcDbBlockReference
  2
_Open30
 10
2282.825632253904
 20
3332.089405898371
 30
0.0
 41
34.0
 42
34.0
 43
34.0
 50
270.0
  0
MTEXT
  5
6EA0
330
5FCB
100
AcDbEntity
  8
DIM
 62
     0
100
AcDbMText
 10
2244.575632253904
 20
3661.489405898371
 30
0.0
 40
42.5
 41
0.0
 46
0.0
 71
     5
 72
     1
  1
\A1;659
 11
0.0000000000000001
 21
1.0
 31
0.0
 73
     1
 44
1.0
  0
POINT
  5
6EA1
330
5FCB
100
AcDbEntity
  8
Defpoints
 62
     0
100
AcDbPoint
 10
2385.704628172254
 20
3990.889405898371
 30
0.0
  0
POINT
  5
6EA2
330
5FCB
100
AcDbEntity
  8
Defpoints
 62
     0
100
AcDbPoint
 10
2371.658445772139
 20
3332.089405898371
 30
0.0
  0
POINT
  5
6EA3
330
5FCB
100
AcDbEntity
  8
Defpoints
 62
     0
100
AcDbPoint
 10
2282.825632253904
 20
3332.089405898371
 30
0.0
  0
ENDBLK
  5
5FCD
330
5FCB
100
AcDbEntity
  8
0
100
AcDbBlockEnd
  0
BLOCK
  5
5FE2
330
5FE1
100
AcDbEntity
  8
0
100
AcDbBlockBegin
  2
*D11
 70
     1
 10
0.0
 20
0.0
 30
0.0
  3
*D11
  1

  0
LINE
  5
6E92
330
5FE1
100
AcDbEntity
  8
DIM
 62
     0
370
    -2
100
AcDbLine
 10
2351.704628172254
 20
3990.889405898371
 30
0.0
 11
2146.825632253904
 21
3990.889405898371
 31
0.0
  0
LINE
  5
6E93
330
5FE1
100
AcDbEntity
  8
DIM
 62
     0
370
    -2
100
AcDbLine
 10
2409.684946021209
 20
3309.089405898371
 30
0.0
 11
2146.825632253904
 21
3309.089405898371
 31
0.0
  0
LINE
  5
6E94
330
5FE1
100
AcDbEntity
  8
DIM
 62
     0
370
    -2
100
AcDbLine
 10
2180.825632253905
 20
3956.889405898371
 30
0.0
 11
2180.825632253904
 21
3343.089405898371
 31
0.0
  0
INSERT
  5
6E95
330
5FE1
100
AcDbEntity
  8
DIM
 62
     0
370
    -2
100
AcDbBlockReference
  2
_Open30
 10
2180.825632253905
 20
3990.889405898371
 30
0.0
 41
34.0
 42
34.0
 43
34.0
 50
90.0
  0
INSERT
  5
6E96
330
5FE1
100
AcDbEntity
  8
DIM
 62
     0
370
    -2
100
AcDbBlockReference
  2
_Open30
 10
2180.825632253904
 20
3309.089405898371
 30
0.0
 41
34.0
 42
34.0
 43
34.0
 50
270.0
  0
MTEXT
  5
6E97
330
5FE1
100
AcDbEntity
  8
DIM
 62
     0
100
AcDbMText
 10
2142.575632253904
 20
3649.989405898371
 30
0.0
 40
42.5
 41
0.0
 46
0.0
 71
     5
 72
     1
  1
\A1;682
 11
0.0000000000000001
 21
1.0
 31
0.0
 73
     1
 44
1.0
  0
POINT
  5
6E98
330
5FE1
100
AcDbEntity
  8
Defpoints
 62
     0
100
AcDbPoint
 10
2385.704628172254
 20
3990.889405898371
 30
0.0
  0
POINT
  5
6E99
330
5FE1
100
AcDbEntity
  8
Defpoints
 62
     0
100
AcDbPoint
 10
2443.684946021209
 20
3309.089405898371
 30
0.0
  0
POINT
  5
6E9A
330
5FE1
100
AcDbEntity
  8
Defpoints
 62
     0
100
AcDbPoint
 10
2180.825632253904
 20
3309.089405898371
 30
0.0
  0
ENDBLK
  5
5FE3
330
5FE1
100
AcDbEntity
  8
0
100
AcDbBlockEnd
  0
BLOCK
  5
5FEF
330
5FEE
100
AcDbEntity
  8
0
100
AcDbBlockBegin
  2
*D12
 70
     1
 10
0.0
 20
0.0
 30
0.0
  3
*D12
  1

  0
LINE
  5
6E89
330
5FEE
100
AcDbEntity
  8
DIM
 62
     0
370
    -2
100
AcDbLine
 10
2351.704628172254
 20
3990.889405898371
 30
0.0
 11
2044.825632253905
 21
3990.889405898371
 31
0.0
  0
LINE
  5
6E8A
330
5FEE
100
AcDbEntity
  8
DIM
 62
     0
370
    -2
100
AcDbLine
 10
2376.078561611628
 20
3296.089405898371
 30
0.0
 11
2044.825632253905
 21
3296.089405898371
 31
0.0
  0
LINE
  5
6E8B
330
5FEE
100
AcDbEntity
  8
DIM
 62
     0
370
    -2
100
AcDbLine
 10
2078.825632253905
 20
3956.889405898371
 30
0.0
 11
2078.825632253904
 21
3330.089405898371
 31
0.0
  0
INSERT
  5
6E8C
330
5FEE
100
AcDbEntity
  8
DIM
 62
     0
370
    -2
100
AcDbBlockReference
  2
_Open30
 10
2078.825632253905
 20
3990.889405898371
 30
0.0
 41
34.0
 42
34.0
 43
34.0
 50
90.0
  0
INSERT
  5
6E8D
330
5FEE
100
AcDbEntity
  8
DIM
 62
     0
370
    -2
100
AcDbBlockReference
  2
_Open30
 10
2078.825632253904
 20
3296.089405898371
 30
0.0
 41
34.0
 42
34.0
 43
34.0
 50
270.0
  0
MTEXT
  5
6E8E
330
5FEE
100
AcDbEntity
  8
DIM
 62
     0
100
AcDbMText
 10
2040.575632253904
 20
3643.489405898371
 30
0.0
 40
42.5
 41
0.0
 46
0.0
 71
     5
 72
     1
  1
\A1;695
 11
0.0000000000000001
 21
1.0
 31
0.0
 73
     1
 44
1.0
  0
POINT
  5
6E8F
330
5FEE
100
AcDbEntity
  8
Defpoints
 62
     0
100
AcDbPoint
 10
2385.704628172254
 20
3990.889405898371
 30
0.0
  0
POINT
  5
6E90
330
5FEE
100
AcDbEntity
  8
Defpoints
 62
     0
100
AcDbPoint
 10
2410.078561611627
 20
3296.089405898371
 30
0.0
  0
POINT
  5
6E91
330
5FEE
100
AcDbEntity
  8
Defpoints
 62
     0
100
AcDbPoint
 10
2078.825632253904
 20
3296.089405898371
 30
0.0
  0
ENDBLK
  5
5FF0
330
5FEE
100
AcDbEntity
  8
0
100
AcDbBlockEnd
  0
BLOCK
  5
600E
330
600D
100
AcDbEntity
  8
0
100
AcDbBlockBegin
  2
*D13
 70
     1
 10
0.0
 20
0.0
 30
0.0
  3
*D13
  1

  0
LINE
  5
6E7E
330
600D
100
AcDbEntity
  8
DIM
 62
     0
370
    -2
100
AcDbLine
 10
2683.104628172253
 20
3198.045459898528
 30
0.0
 11
2683.104628172253
 21
3130.499898781861
 31
0.0
  0
LINE
  5
6E7F
330
600D
100
AcDbEntity
  8
DIM
 62
     0
370
    -2
100
AcDbLine
 10
2638.104628172253
 20
3274.703627873603
 30
0.0
 11
2638.104628172253
 21
3130.499898781861
 31
0.0
  0
LINE
  5
6E80
330
600D
100
AcDbEntity
  8
DIM
 62
     0
370
    -2
100
AcDbLine
 10
2683.104628172253
 20
3164.499898781861
 30
0.0
 11
2717.104628172254
 21
3164.499898781861
 31
0.0
  0
LINE
  5
6E81
330
600D
100
AcDbEntity
  8
DIM
 62
     0
370
    -2
100
AcDbLine
 10
2604.104628172254
 20
3164.499898781861
 30
0.0
 11
2253.580818648444
 21
3164.499898781861
 31
0.0
  0
LINE
  5
6E82
330
600D
100
AcDbEntity
  8
DIM
 62
     0
370
    -2
100
AcDbLine
 10
2683.104628172253
 20
3164.499898781861
 30
0.0
 11
2638.104628172253
 21
3164.499898781861
 31
0.0
  0
INSERT
  5
6E83
330
600D
100
AcDbEntity
  8
DIM
 62
     0
370
    -2
100
AcDbBlockReference
  2
_DotSmall
 10
2683.104628172253
 20
3164.499898781861
 30
0.0
 41
34.0
 42
34.0
 43
34.0
 50
180.0
  0
INSERT
  5
6E84
330
600D
100
AcDbEntity
  8
DIM
 62
     0
370
    -2
100
AcDbBlockReference
  2
_Open30
 10
2638.104628172253
 20
3164.499898781861
 30
0.0
 41
34.0
 42
34.0
 43
34.0
  0
MTEXT
  5
6E85
330
600D
100
AcDbEntity
  8
DIM
 62
     0
100
AcDbMText
 10
2298.104628172254
 20
3202.749898781861
 30
0.0
 40
42.5
 41
0.0
 46
0.0
 71
     5
 72
     1
  1
\A1;45
 73
     1
 44
1.0
  0
POINT
  5
6E86
330
600D
100
AcDbEntity
  8
Defpoints
 62
     0
100
AcDbPoint
 10
2683.104628172253
 20
3232.045459898528
 30
0.0
  0
POINT
  5
6E87
330
600D
100
AcDbEntity
  8
Defpoints
 62
     0
100
AcDbPoint
 10
2638.104628172253
 20
3308.703627873603
 30
0.0
  0
POINT
  5
6E88
330
600D
100
AcDbEntity
  8
Defpoints
 62
     0
100
AcDbPoint
 10
2638.104628172253
 20
3164.499898781861
 30
0.0
  0
ENDBLK
  5
600F
330
600D
100
AcDbEntity
  8
0
100
AcDbBlockEnd
  0
BLOCK
  5
6083
330
6082
100
AcDbEntity
  8
0
100
AcDbBlockBegin
  2
*D14
 70
     1
 10
0.0
 20
0.0
 30
0.0
  3
*D14
  1

  0
LINE
  5
6E74
330
6082
100
AcDbEntity
  8
DIM
 62
     0
370
    -2
100
AcDbLine
 10
2683.104628172253
 20
3198.045459898528
 30
0.0
 11
2683.104628172253
 21
3028.499898781861
 31
0.0
  0
LINE
  5
6E75
330
6082
100
AcDbEntity
  8
DIM
 62
     0
370
    -2
100
AcDbLine
 10
2578.104628172253
 20
3233.95178567765
 30
0.0
 11
2578.104628172253
 21
3028.499898781861
 31
0.0
  0
LINE
  5
6E76
330
6082
100
AcDbEntity
  8
DIM
 62
     0
370
    -2
100
AcDbLine
 10
2649.104628172254
 20
3062.499898781861
 30
0.0
 11
2612.104628172254
 21
3062.499898781861
 31
0.0
  0
LINE
  5
6E77
330
6082
100
AcDbEntity
  8
DIM
 62
     0
370
    -2
100
AcDbLine
 10
2578.104628172253
 20
3062.499898781861
 30
0.0
 11
2240.628437696063
 21
3062.499898781861
 31
0.0
  0
INSERT
  5
6E78
330
6082
100
AcDbEntity
  8
DIM
 62
     0
370
    -2
100
AcDbBlockReference
  2
_Open30
 10
2683.104628172253
 20
3062.499898781861
 30
0.0
 41
34.0
 42
34.0
 43
34.0
  0
INSERT
  5
6E79
330
6082
100
AcDbEntity
  8
DIM
 62
     0
370
    -2
100
AcDbBlockReference
  2
_Open30
 10
2578.104628172253
 20
3062.499898781861
 30
0.0
 41
34.0
 42
34.0
 43
34.0
 50
180.0
  0
MTEXT
  5
6E7A
330
6082
100
AcDbEntity
  8
DIM
 62
     0
100
AcDbMText
 10
2298.104628172254
 20
3100.749898781861
 30
0.0
 40
42.5
 41
0.0
 46
0.0
 71
     5
 72
     1
  1
\A1;105
 73
     1
 44
1.0
  0
POINT
  5
6E7B
330
6082
100
AcDbEntity
  8
Defpoints
 62
     0
100
AcDbPoint
 10
2683.104628172253
 20
3232.045459898528
 30
0.0
  0
POINT
  5
6E7C
330
6082
100
AcDbEntity
  8
Defpoints
 62
     0
100
AcDbPoint
 10
2578.104628172253
 20
3267.95178567765
 30
0.0
  0
POINT
  5
6E7D
330
6082
100
AcDbEntity
  8
Defpoints
 62
     0
100
AcDbPoint
 10
2578.104628172253
 20
3062.499898781861
 30
0.0
  0
ENDBLK
  5
6084
330
6082
100
AcDbEntity
  8
0
100
AcDbBlockEnd
  0
BLOCK
  5
6092
330
6091
100
AcDbEntity
  8
0
100
AcDbBlockBegin
  2
*D15
 70
     1
 10
0.0
 20
0.0
 30
0.0
  3
*D15
  1

  0
LINE
  5
6E6B
330
6091
100
AcDbEntity
  8
DIM
 62
     0
370
    -2
100
AcDbLine
 10
2683.104628172253
 20
3198.045459898528
 30
0.0
 11
2683.104628172253
 21
2926.499898781861
 31
0.0
  0
LINE
  5
6E6C
330
6091
100
AcDbEntity
  8
DIM
 62
     0
370
    -2
100
AcDbLine
 10
2484.101413517466
 20
3234.672938402114
 30
0.0
 11
2484.101413517466
 21
2926.499898781861
 31
0.0
  0
LINE
  5
6E6D
330
6091
100
AcDbEntity
  8
DIM
 62
     0
370
    -2
100
AcDbLine
 10
2649.104628172254
 20
2960.499898781861
 30
0.0
 11
2518.101413517466
 21
2960.499898781861
 31
0.0
  0
INSERT
  5
6E6E
330
6091
100
AcDbEntity
  8
DIM
 62
     0
370
    -2
100
AcDbBlockReference
  2
_Open30
 10
2683.104628172253
 20
2960.499898781861
 30
0.0
 41
34.0
 42
34.0
 43
34.0
  0
INSERT
  5
6E6F
330
6091
100
AcDbEntity
  8
DIM
 62
     0
370
    -2
100
AcDbBlockReference
  2
_Open30
 10
2484.101413517466
 20
2960.499898781861
 30
0.0
 41
34.0
 42
34.0
 43
34.0
 50
180.0
  0
MTEXT
  5
6E70
330
6091
100
AcDbEntity
  8
DIM
 62
     0
100
AcDbMText
 10
2583.60302084486
 20
2998.749898781861
 30
0.0
 40
42.5
 41
0.0
 46
0.0
 71
     5
 72
     1
  1
\A1;199
 73
     1
 44
1.0
  0
POINT
  5
6E71
330
6091
100
AcDbEntity
  8
Defpoints
 62
     0
100
AcDbPoint
 10
2683.104628172253
 20
3232.045459898528
 30
0.0
  0
POINT
  5
6E72
330
6091
100
AcDbEntity
  8
Defpoints
 62
     0
100
AcDbPoint
 10
2484.101413517466
 20
3268.672938402114
 30
0.0
  0
POINT
  5
6E73
330
6091
100
AcDbEntity
  8
Defpoints
 62
     0
100
AcDbPoint
 10
2484.101413517466
 20
2960.499898781861
 30
0.0
  0
ENDBLK
  5
6093
330
6091
100
AcDbEntity
  8
0
100
AcDbBlockEnd
  0
BLOCK
  5
609F
330
609E
100
AcDbEntity
  8
0
100
AcDbBlockBegin
  2
*D16
 70
     1
 10
0.0
 20
0.0
 30
0.0
  3
*D16
  1

  0
LINE
  5
6E62
330
609E
100
AcDbEntity
  8
DIM
 62
     0
370
    -2
100
AcDbLine
 10
2683.104628172253
 20
3198.045459898528
 30
0.0
 11
2683.104628172253
 21
2824.499898781861
 31
0.0
  0
LINE
  5
6E63
330
609E
100
AcDbEntity
  8
DIM
 62
     0
370
    -2
100
AcDbLine
 10
2431.104628172254
 20
3241.063339337745
 30
0.0
 11
2431.104628172254
 21
2824.499898781861
 31
0.0
  0
LINE
  5
6E64
330
609E
100
AcDbEntity
  8
DIM
 62
     0
370
    -2
100
AcDbLine
 10
2649.104628172254
 20
2858.499898781861
 30
0.0
 11
2465.104628172253
 21
2858.499898781861
 31
0.0
  0
INSERT
  5
6E65
330
609E
100
AcDbEntity
  8
DIM
 62
     0
370
    -2
100
AcDbBlockReference
  2
_Open30
 10
2683.104628172253
 20
2858.499898781861
 30
0.0
 41
34.0
 42
34.0
 43
34.0
  0
INSERT
  5
6E66
330
609E
100
AcDbEntity
  8
DIM
 62
     0
370
    -2
100
AcDbBlockReference
  2
_Open30
 10
2431.104628172254
 20
2858.499898781861
 30
0.0
 41
34.0
 42
34.0
 43
34.0
 50
180.0
  0
MTEXT
  5
6E67
330
609E
100
AcDbEntity
  8
DIM
 62
     0
100
AcDbMText
 10
2557.104628172254
 20
2896.749898781861
 30
0.0
 40
42.5
 41
0.0
 46
0.0
 71
     5
 72
     1
  1
\A1;252
 73
     1
 44
1.0
  0
POINT
  5
6E68
330
609E
100
AcDbEntity
  8
Defpoints
 62
     0
100
AcDbPoint
 10
2683.104628172253
 20
3232.045459898528
 30
0.0
  0
POINT
  5
6E69
330
609E
100
AcDbEntity
  8
Defpoints
 62
     0
100
AcDbPoint
 10
2431.104628172254
 20
3275.063339337745
 30
0.0
  0
POINT
  5
6E6A
330
609E
100
AcDbEntity
  8
Defpoints
 62
     0
100
AcDbPoint
 10
2431.104628172254
 20
2858.499898781861
 30
0.0
  0
ENDBLK
  5
60A0
330
609E
100
AcDbEntity
  8
0
100
AcDbBlockEnd
  0
BLOCK
  5
60AC
330
60AB
100
AcDbEntity
  8
0
100
AcDbBlockBegin
  2
*D17
 70
     1
 10
0.0
 20
0.0
 30
0.0
  3
*D17
  1

  0
LINE
  5
6E59
330
60AB
100
AcDbEntity
  8
DIM
 62
     0
370
    -2
100
AcDbLine
 10
2683.104628172253
 20
3198.045459898528
 30
0.0
 11
2683.104628172253
 21
2722.499898781861
 31
0.0
  0
LINE
  5
6E5A
330
60AB
100
AcDbEntity
  8
DIM
 62
     0
370
    -2
100
AcDbLine
 10
2396.104628172254
 20
3273.643223498258
 30
0.0
 11
2396.104628172254
 21
2722.499898781861
 31
0.0
  0
LINE
  5
6E5B
330
60AB
100
AcDbEntity
  8
DIM
 62
     0
370
    -2
100
AcDbLine
 10
2649.104628172254
 20
2756.499898781861
 30
0.0
 11
2430.104628172253
 21
2756.499898781861
 31
0.0
  0
INSERT
  5
6E5C
330
60AB
100
AcDbEntity
  8
DIM
 62
     0
370
    -2
100
AcDbBlockReference
  2
_Open30
 10
2683.104628172253
 20
2756.499898781861
 30
0.0
 41
34.0
 42
34.0
 43
34.0
  0
INSERT
  5
6E5D
330
60AB
100
AcDbEntity
  8
DIM
 62
     0
370
    -2
100
AcDbBlockReference
  2
_Open30
 10
2396.104628172254
 20
2756.499898781861
 30
0.0
 41
34.0
 42
34.0
 43
34.0
 50
180.0
  0
MTEXT
  5
6E5E
330
60AB
100
AcDbEntity
  8
DIM
 62
     0
100
AcDbMText
 10
2539.604628172253
 20
2794.749898781861
 30
0.0
 40
42.5
 41
0.0
 46
0.0
 71
     5
 72
     1
  1
\A1;287
 73
     1
 44
1.0
  0
POINT
  5
6E5F
330
60AB
100
AcDbEntity
  8
Defpoints
 62
     0
100
AcDbPoint
 10
2683.104628172253
 20
3232.045459898528
 30
0.0
  0
POINT
  5
6E60
330
60AB
100
AcDbEntity
  8
Defpoints
 62
     0
100
AcDbPoint
 10
2396.104628172254
 20
3307.643223498258
 30
0.0
  0
POINT
  5
6E61
330
60AB
100
AcDbEntity
  8
Defpoints
 62
     0
100
AcDbPoint
 10
2396.104628172254
 20
2756.499898781861
 30
0.0
  0
ENDBLK
  5
60AD
330
60AB
100
AcDbEntity
  8
0
100
AcDbBlockEnd
  0
BLOCK
  5
60B9
330
60B8
100
AcDbEntity
  8
0
100
AcDbBlockBegin
  2
*D18
 70
     1
 10
0.0
 20
0.0
 30
0.0
  3
*D18
  1

  0
LINE
  5
6E50
330
60B8
100
AcDbEntity
  8
DIM
 62
     0
370
    -2
100
AcDbLine
 10
2683.104628172253
 20
3198.045459898528
 30
0.0
 11
2683.104628172253
 21
3028.499898781861
 31
0.0
  0
LINE
  5
6E51
330
60B8
100
AcDbEntity
  8
DIM
 62
     0
370
    -2
100
AcDbLine
 10
2807.104628172252
 20
3260.959352735042
 30
0.0
 11
2807.104628172252
 21
3028.499898781861
 31
0.0
  0
LINE
  5
6E52
330
60B8
100
AcDbEntity
  8
DIM
 62
     0
370
    -2
100
AcDbLine
 10
2717.104628172254
 20
3062.499898781861
 30
0.0
 11
2773.104628172252
 21
3062.499898781861
 31
0.0
  0
INSERT
  5
6E53
330
60B8
100
AcDbEntity
  8
DIM
 62
     0
370
    -2
100
AcDbBlockReference
  2
_Open30
 10
2683.104628172253
 20
3062.499898781861
 30
0.0
 41
34.0
 42
34.0
 43
34.0
 50
180.0
  0
INSERT
  5
6E54
330
60B8
100
AcDbEntity
  8
DIM
 62
     0
370
    -2
100
AcDbBlockReference
  2
_Open30
 10
2807.104628172252
 20
3062.499898781861
 30
0.0
 41
34.0
 42
34.0
 43
34.0
  0
MTEXT
  5
6E55
330
60B8
100
AcDbEntity
  8
DIM
 62
     0
100
AcDbMText
 10
2745.104628172252
 20
3100.749898781861
 30
0.0
 40
42.5
 41
0.0
 46
0.0
 71
     5
 72
     1
  1
\A1;124
 73
     1
 44
1.0
  0
POINT
  5
6E56
330
60B8
100
AcDbEntity
  8
Defpoints
 62
     0
100
AcDbPoint
 10
2683.104628172253
 20
3232.045459898528
 30
0.0
  0
POINT
  5
6E57
330
60B8
100
AcDbEntity
  8
Defpoints
 62
     0
100
AcDbPoint
 10
2807.104628172252
 20
3294.959352735042
 30
0.0
  0
POINT
  5
6E58
330
60B8
100
AcDbEntity
  8
Defpoints
 62
     0
100
AcDbPoint
 10
2807.104628172252
 20
3062.499898781861
 30
0.0
  0
ENDBLK
  5
60BA
330
60B8
100
AcDbEntity
  8
0
100
AcDbBlockEnd
  0
BLOCK
  5
60C8
330
60C7
100
AcDbEntity
  8
0
100
AcDbBlockBegin
  2
*D19
 70
     1
 10
0.0
 20
0.0
 30
0.0
  3
*D19
  1

  0
LINE
  5
6E47
330
60C7
100
AcDbEntity
  8
DIM
 62
     0
370
    -2
100
AcDbLine
 10
2683.104628172253
 20
3198.045459898528
 30
0.0
 11
2683.104628172253
 21
2926.499898781861
 31
0.0
  0
LINE
  5
6E48
330
60C7
100
AcDbEntity
  8
DIM
 62
     0
370
    -2
100
AcDbLine
 10
2937.104628172253
 20
3259.124318837534
 30
0.0
 11
2937.104628172253
 21
2926.499898781861
 31
0.0
  0
LINE
  5
6E49
330
60C7
100
AcDbEntity
  8
DIM
 62
     0
370
    -2
100
AcDbLine
 10
2717.104628172254
 20
2960.499898781861
 30
0.0
 11
2903.104628172254
 21
2960.499898781861
 31
0.0
  0
INSERT
  5
6E4A
330
60C7
100
AcDbEntity
  8
DIM
 62
     0
370
    -2
100
AcDbBlockReference
  2
_Open30
 10
2683.104628172253
 20
2960.499898781861
 30
0.0
 41
34.0
 42
34.0
 43
34.0
 50
180.0
  0
INSERT
  5
6E4B
330
60C7
100
AcDbEntity
  8
DIM
 62
     0
370
    -2
100
AcDbBlockReference
  2
_Open30
 10
2937.104628172253
 20
2960.499898781861
 30
0.0
 41
34.0
 42
34.0
 43
34.0
  0
MTEXT
  5
6E4C
330
60C7
100
AcDbEntity
  8
DIM
 62
     0
100
AcDbMText
 10
2810.104628172254
 20
2998.749898781861
 30
0.0
 40
42.5
 41
0.0
 46
0.0
 71
     5
 72
     1
  1
\A1;254
 73
     1
 44
1.0
  0
POINT
  5
6E4D
330
60C7
100
AcDbEntity
  8
Defpoints
 62
     0
100
AcDbPoint
 10
2683.104628172253
 20
3232.045459898528
 30
0.0
  0
POINT
  5
6E4E
330
60C7
100
AcDbEntity
  8
Defpoints
 62
     0
100
AcDbPoint
 10
2937.104628172253
 20
3293.124318837533
 30
0.0
  0
POINT
  5
6E4F
330
60C7
100
AcDbEntity
  8
Defpoints
 62
     0
100
AcDbPoint
 10
2937.104628172253
 20
2960.499898781861
 30
0.0
  0
ENDBLK
  5
60C9
330
60C7
100
AcDbEntity
  8
0
100
AcDbBlockEnd
  0
BLOCK
  5
63E8
330
63E7
100
AcDbEntity
  8
0
100
AcDbBlockBegin
  2
*D20
 70
     1
 10
0.0
 20
0.0
 30
0.0
  3
*D20
  1

  0
LINE
  5
6E3C
330
63E7
100
AcDbEntity
  8
DIM
 62
     0
370
    -2
100
AcDbLine
 10
2683.104628172253
 20
3198.045459898528
 30
0.0
 11
2683.104628172253
 21
3130.49989878186
 31
0.0
  0
LINE
  5
6E3D
330
63E7
100
AcDbEntity
  8
DIM
 62
     0
370
    -2
100
AcDbLine
 10
2733.104628172254
 20
3256.519981472072
 30
0.0
 11
2733.104628172254
 21
3130.49989878186
 31
0.0
  0
LINE
  5
6E3E
330
63E7
100
AcDbEntity
  8
DIM
 62
     0
370
    -2
100
AcDbLine
 10
2683.104628172253
 20
3164.49989878186
 30
0.0
 11
2649.104628172254
 21
3164.49989878186
 31
0.0
  0
LINE
  5
6E3F
330
63E7
100
AcDbEntity
  8
DIM
 62
     0
370
    -2
100
AcDbLine
 10
2767.104628172253
 20
3164.49989878186
 30
0.0
 11
2895.856231830076
 21
3164.49989878186
 31
0.0
  0
LINE
  5
6E40
330
63E7
100
AcDbEntity
  8
DIM
 62
     0
370
    -2
100
AcDbLine
 10
2683.104628172253
 20
3164.49989878186
 30
0.0
 11
2733.104628172254
 21
3164.49989878186
 31
0.0
  0
INSERT
  5
6E41
330
63E7
100
AcDbEntity
  8
DIM
 62
     0
370
    -2
100
AcDbBlockReference
  2
_DotSmall
 10
2683.104628172253
 20
3164.49989878186
 30
0.0
 41
34.0
 42
34.0
 43
34.0
  0
INSERT
  5
6E42
330
63E7
100
AcDbEntity
  8
DIM
 62
     0
370
    -2
100
AcDbBlockReference
  2
_Open30
 10
2733.104628172254
 20
3164.49989878186
 30
0.0
 41
34.0
 42
34.0
 43
34.0
 50
180.0
  0
MTEXT
  5
6E43
330
63E7
100
AcDbEntity
  8
DIM
 62
     0
100
AcDbMText
 10
2851.332422306266
 20
3202.74989878186
 30
0.0
 40
42.5
 41
0.0
 46
0.0
 71
     5
 72
     1
  1
\A1;50
 73
     1
 44
1.0
  0
POINT
  5
6E44
330
63E7
100
AcDbEntity
  8
Defpoints
 62
     0
100
AcDbPoint
 10
2683.104628172253
 20
3232.045459898528
 30
0.0
  0
POINT
  5
6E45
330
63E7
100
AcDbEntity
  8
Defpoints
 62
     0
100
AcDbPoint
 10
2733.104628172254
 20
3290.519981472071
 30
0.0
  0
POINT
  5
6E46
330
63E7
100
AcDbEntity
  8
Defpoints
 62
     0
100
AcDbPoint
 10
2733.104628172254
 20
3164.49989878186
 30
0.0
  0
ENDBLK
  5
63E9
330
63E7
100
AcDbEntity
  8
0
100
AcDbBlockEnd
  0
BLOCK
  5
6485
330
6484
100
AcDbEntity
  8
0
100
AcDbBlockBegin
  2
*D21
 70
     1
 10
0.0
 20
0.0
 30
0.0
  3
*D21
  1

  0
LINE
  5
6E31
330
6484
100
AcDbEntity
  8
DIM
 62
     0
370
    -2
100
AcDbLine
 10
2937.104628172253
 20
3259.124318837534
 30
0.0
 11
2937.104628172253
 21
2926.499898781861
 31
0.0
  0
LINE
  5
6E32
330
6484
100
AcDbEntity
  8
DIM
 62
     0
370
    -2
100
AcDbLine
 10
3008.104628172254
 20
3254.489405898371
 30
0.0
 11
3008.104628172254
 21
2926.499898781861
 31
0.0
  0
LINE
  5
6E33
330
6484
100
AcDbEntity
  8
DIM
 62
     0
370
    -2
100
AcDbLine
 10
2903.104628172254
 20
2960.499898781861
 30
0.0
 11
2869.104628172253
 21
2960.499898781861
 31
0.0
  0
LINE
  5
6E34
330
6484
100
AcDbEntity
  8
DIM
 62
     0
370
    -2
100
AcDbLine
 10
3042.104628172253
 20
2960.499898781861
 30
0.0
 11
3206.923675791301
 21
2960.499898781861
 31
0.0
  0
LINE
  5
6E35
330
6484
100
AcDbEntity
  8
DIM
 62
     0
370
    -2
100
AcDbLine
 10
2937.104628172253
 20
2960.499898781861
 30
0.0
 11
3008.104628172254
 21
2960.499898781861
 31
0.0
  0
INSERT
  5
6E36
330
6484
100
AcDbEntity
  8
DIM
 62
     0
370
    -2
100
AcDbBlockReference
  2
_Open30
 10
2937.104628172253
 20
2960.499898781861
 30
0.0
 41
34.0
 42
34.0
 43
34.0
  0
INSERT
  5
6E37
330
6484
100
AcDbEntity
  8
DIM
 62
     0
370
    -2
100
AcDbBlockReference
  2
_Open30
 10
3008.104628172254
 20
2960.499898781861
 30
0.0
 41
34.0
 42
34.0
 43
34.0
 50
180.0
  0
MTEXT
  5
6E38
330
6484
100
AcDbEntity
  8
DIM
 62
     0
100
AcDbMText
 10
3141.514151981777
 20
2998.749898781861
 30
0.0
 40
42.5
 41
0.0
 46
0.0
 71
     5
 72
     1
  1
\A1;（71）
 73
     1
 44
1.0
  0
POINT
  5
6E39
330
6484
100
AcDbEntity
  8
Defpoints
 62
     0
100
AcDbPoint
 10
2937.104628172253
 20
3293.124318837533
 30
0.0
  0
POINT
  5
6E3A
330
6484
100
AcDbEntity
  8
Defpoints
 62
     0
100
AcDbPoint
 10
3008.104628172254
 20
3288.489405898371
 30
0.0
  0
POINT
  5
6E3B
330
6484
100
AcDbEntity
  8
Defpoints
 62
     0
100
AcDbPoint
 10
3008.104628172254
 20
2960.499898781861
 30
0.0
  0
ENDBLK
  5
6486
330
6484
100
AcDbEntity
  8
0
100
AcDbBlockEnd
  0
BLOCK
  5
6505
330
6504
100
AcDbEntity
  8
0
100
AcDbBlockBegin
  2
*D22
 70
     1
 10
0.0
 20
0.0
 30
0.0
  3
*D22
  1

  0
LINE
  5
6E26
330
6504
100
AcDbEntity
  8
DIM
 62
     0
370
    -2
100
AcDbLine
 10
2396.104628172254
 20
3273.643223498258
 30
0.0
 11
2396.104628172254
 21
2722.499898781861
 31
0.0
  0
LINE
  5
6E27
330
6504
100
AcDbEntity
  8
DIM
 62
     0
370
    -2
100
AcDbLine
 10
2358.104628172253
 20
3254.489405898371
 30
0.0
 11
2358.104628172253
 21
2722.499898781861
 31
0.0
  0
LINE
  5
6E28
330
6504
100
AcDbEntity
  8
DIM
 62
     0
370
    -2
100
AcDbLine
 10
2430.104628172253
 20
2756.499898781861
 30
0.0
 11
2464.104628172254
 21
2756.499898781861
 31
0.0
  0
LINE
  5
6E29
330
6504
100
AcDbEntity
  8
DIM
 62
     0
370
    -2
100
AcDbLine
 10
2324.104628172253
 20
2756.499898781861
 30
0.0
 11
2152.809390077015
 21
2756.499898781861
 31
0.0
  0
LINE
  5
6E2A
330
6504
100
AcDbEntity
  8
DIM
 62
     0
370
    -2
100
AcDbLine
 10
2396.104628172254
 20
2756.499898781861
 30
0.0
 11
2358.104628172253
 21
2756.499898781861
 31
0.0
  0
INSERT
  5
6E2B
330
6504
100
AcDbEntity
  8
DIM
 62
     0
370
    -2
100
AcDbBlockReference
  2
_Open30
 10
2396.104628172254
 20
2756.499898781861
 30
0.0
 41
34.0
 42
34.0
 43
34.0
 50
180.0
  0
INSERT
  5
6E2C
330
6504
100
AcDbEntity
  8
DIM
 62
     0
370
    -2
100
AcDbBlockReference
  2
_Open30
 10
2358.104628172253
 20
2756.499898781861
 30
0.0
 41
34.0
 42
34.0
 43
34.0
  0
MTEXT
  5
6E2D
330
6504
100
AcDbEntity
  8
DIM
 62
     0
100
AcDbMText
 10
2221.457009124634
 20
2794.749898781861
 30
0.0
 40
42.5
 41
0.0
 46
0.0
 71
     5
 72
     1
  1
\A1;（38）
 73
     1
 44
1.0
  0
POINT
  5
6E2E
330
6504
100
AcDbEntity
  8
Defpoints
 62
     0
100
AcDbPoint
 10
2396.104628172254
 20
3307.643223498258
 30
0.0
  0
POINT
  5
6E2F
330
6504
100
AcDbEntity
  8
Defpoints
 62
     0
100
AcDbPoint
 10
2358.104628172253
 20
3288.489405898371
 30
0.0
  0
POINT
  5
6E30
330
6504
100
AcDbEntity
  8
Defpoints
 62
     0
100
AcDbPoint
 10
2358.104628172253
 20
2756.499898781861
 30
0.0
  0
ENDBLK
  5
6506
330
6504
100
AcDbEntity
  8
0
100
AcDbBlockEnd
  0
BLOCK
  5
658D
330
658C
100
AcDbEntity
  8
0
100
AcDbBlockBegin
  2
*D23
 70
     1
 10
0.0
 20
0.0
 30
0.0
  3
*D23
  1

  0
LINE
  5
6F57
330
658C
100
AcDbEntity
  8
DIM
 62
     0
370
    -2
100
AcDbLine
 10
2717.104628173068
 20
3961.789405898372
 30
0.0
 11
3388.504628172253
 21
3961.789405898372
 31
0.0
  0
LINE
  5
6F58
330
658C
100
AcDbEntity
  8
DIM
 62
     0
370
    -2
100
AcDbLine
 10
3014.504628172254
 20
3990.889405898371
 30
0.0
 11
3388.504628172253
 21
3990.889405898371
 31
0.0
  0
LINE
  5
6F59
330
658C
100
AcDbEntity
  8
DIM
 62
     0
370
    -2
100
AcDbLine
 10
3354.504628172253
 20
3927.789405898372
 30
0.0
 11
3354.504628172253
 21
3893.789405898372
 31
0.0
  0
LINE
  5
6F5A
330
658C
100
AcDbEntity
  8
DIM
 62
     0
370
    -2
100
AcDbLine
 10
3354.504628172253
 20
4024.88940589837
 30
0.0
 11
3354.504628172253
 21
4146.317977326941
 31
0.0
  0
LINE
  5
6F5B
330
658C
100
AcDbEntity
  8
DIM
 62
     0
370
    -2
100
AcDbLine
 10
3354.504628172253
 20
3961.789405898372
 30
0.0
 11
3354.504628172253
 21
3990.889405898371
 31
0.0
  0
INSERT
  5
6F5C
330
658C
100
AcDbEntity
  8
DIM
 62
     0
370
    -2
100
AcDbBlockReference
  2
_Open30
 10
3354.504628172253
 20
3961.789405898372
 30
0.0
 41
34.0
 42
34.0
 43
34.0
 50
90.0
  0
INSERT
  5
6F5D
330
658C
100
AcDbEntity
  8
DIM
 62
     0
370
    -2
100
AcDbBlockReference
  2
_Open30
 10
3354.504628172253
 20
3990.889405898371
 30
0.0
 41
34.0
 42
34.0
 43
34.0
 50
270.0
  0
MTEXT
  5
6F5E
330
658C
100
AcDbEntity
  8
DIM
 62
     0
100
AcDbMText
 10
3316.254628172252
 20
4102.603691612657
 30
0.0
 40
42.5
 41
0.0
 46
0.0
 71
     5
 72
     1
  1
\A1;29
 11
0.0000000000000001
 21
1.0
 31
0.0
 73
     1
 44
1.0
  0
POINT
  5
6F5F
330
658C
100
AcDbEntity
  8
Defpoints
 62
     0
100
AcDbPoint
 10
2683.104628173067
 20
3961.789405898372
 30
0.0
  0
POINT
  5
6F60
330
658C
100
AcDbEntity
  8
Defpoints
 62
     0
100
AcDbPoint
 10
2980.504628172254
 20
3990.889405898371
 30
0.0
  0
POINT
  5
6F61
330
658C
100
AcDbEntity
  8
Defpoints
 62
     0
100
AcDbPoint
 10
3354.504628172253
 20
3990.889405898371
 30
0.0
  0
ENDBLK
  5
658E
330
658C
100
AcDbEntity
  8
0
100
AcDbBlockEnd
  0
BLOCK
  5
65A7
330
65A6
100
AcDbEntity
  8
0
100
AcDbBlockBegin
  2
*D24
 70
     1
 10
0.0
 20
0.0
 30
0.0
  3
*D24
  1

  0
LINE
  5
6F62
330
65A6
100
AcDbEntity
  8
DIM
 62
     0
370
    -2
100
AcDbLine
 10
2751.104628173068
 20
3961.789405898372
 30
0.0
 11
3388.504628172252
 21
3961.789405898372
 31
0.0
  0
LINE
  5
6F63
330
65A6
100
AcDbEntity
  8
DIM
 62
     0
370
    -2
100
AcDbLine
 10
2998.562884403007
 20
3494.289405898365
 30
0.0
 11
3388.504628172252
 21
3494.289405898364
 31
0.0
  0
LINE
  5
6F64
330
65A6
100
AcDbEntity
  8
DIM
 62
     0
370
    -2
100
AcDbLine
 10
3354.504628172252
 20
3927.789405898372
 30
0.0
 11
3354.504628172252
 21
3528.289405898365
 31
0.0
  0
INSERT
  5
6F65
330
65A6
100
AcDbEntity
  8
DIM
 62
     0
370
    -2
100
AcDbBlockReference
  2
_Open30
 10
3354.504628172252
 20
3961.789405898372
 30
0.0
 41
34.0
 42
34.0
 43
34.0
 50
90.0
  0
INSERT
  5
6F66
330
65A6
100
AcDbEntity
  8
DIM
 62
     0
370
    -2
100
AcDbBlockReference
  2
_Open30
 10
3354.504628172252
 20
3494.289405898364
 30
0.0
 41
34.0
 42
34.0
 43
34.0
 50
270.0
  0
MTEXT
  5
6F67
330
65A6
100
AcDbEntity
  8
DIM
 62
     0
100
AcDbMText
 10
3316.254628172252
 20
3728.039405898369
 30
0.0
 40
42.5
 41
0.0
 46
0.0
 71
     5
 72
     1
  1
\A1;468
 11
0.0000000000000001
 21
1.0
 31
0.0
 73
     1
 44
1.0
  0
POINT
  5
6F68
330
65A6
100
AcDbEntity
  8
Defpoints
 62
     0
100
AcDbPoint
 10
2717.104628173068
 20
3961.789405898372
 30
0.0
  0
POINT
  5
6F69
330
65A6
100
AcDbEntity
  8
Defpoints
 62
     0
100
AcDbPoint
 10
2964.562884403006
 20
3494.289405898365
 30
0.0
  0
POINT
  5
6F6A
330
65A6
100
AcDbEntity
  8
Defpoints
 62
     0
100
AcDbPoint
 10
3354.504628172252
 20
3494.289405898364
 30
0.0
  0
ENDBLK
  5
65A8
330
65A6
100
AcDbEntity
  8
0
100
AcDbBlockEnd
  0
BLOCK
  5
65BD
330
65BC
100
AcDbEntity
  8
0
100
AcDbBlockBegin
  2
*D25
 70
     1
 10
0.0
 20
0.0
 30
0.0
  3
*D25
  1

  0
LINE
  5
6E09
330
65BC
100
AcDbEntity
  8
DIM
 62
     0
370
    -2
100
AcDbLine
 10
2998.562884403007
 20
3494.289405898365
 30
0.0
 11
3389.18270101629
 21
3494.289405898364
 31
0.0
  0
LINE
  5
6E0A
330
65BC
100
AcDbEntity
  8
DIM
 62
     0
370
    -2
100
AcDbLine
 10
3014.504628172254
 20
3260.889405898371
 30
0.0
 11
3389.18270101629
 21
3260.88940589837
 31
0.0
  0
LINE
  5
6E0B
330
65BC
100
AcDbEntity
  8
DIM
 62
     0
370
    -2
100
AcDbLine
 10
3355.18270101629
 20
3460.289405898365
 30
0.0
 11
3355.18270101629
 21
3294.88940589837
 31
0.0
  0
INSERT
  5
6E0C
330
65BC
100
AcDbEntity
  8
DIM
 62
     0
370
    -2
100
AcDbBlockReference
  2
_Open30
 10
3355.18270101629
 20
3494.289405898364
 30
0.0
 41
34.0
 42
34.0
 43
34.0
 50
90.0
  0
INSERT
  5
6E0D
330
65BC
100
AcDbEntity
  8
DIM
 62
     0
370
    -2
100
AcDbBlockReference
  2
_Open30
 10
3355.18270101629
 20
3260.88940589837
 30
0.0
 41
34.0
 42
34.0
 43
34.0
 50
270.0
  0
MTEXT
  5
6E0E
330
65BC
100
AcDbEntity
  8
DIM
 62
     0
100
AcDbMText
 10
3316.93270101629
 20
3377.589405898368
 30
0.0
 40
42.5
 41
0.0
 46
0.0
 71
     5
 72
     1
  1
\A1;（233）
 11
0.0000000000000001
 21
1.0
 31
0.0
 73
     1
 44
1.0
  0
POINT
  5
6E0F
330
65BC
100
AcDbEntity
  8
Defpoints
 62
     0
100
AcDbPoint
 10
2964.562884403006
 20
3494.289405898365
 30
0.0
  0
POINT
  5
6E10
330
65BC
100
AcDbEntity
  8
Defpoints
 62
     0
100
AcDbPoint
 10
2980.504628172254
 20
3260.889405898371
 30
0.0
  0
POINT
  5
6E11
330
65BC
100
AcDbEntity
  8
Defpoints
 62
     0
100
AcDbPoint
 10
3355.18270101629
 20
3260.88940589837
 30
0.0
  0
ENDBLK
  5
65BE
330
65BC
100
AcDbEntity
  8
0
100
AcDbBlockEnd
  0
BLOCK
  5
6618
330
6617
100
AcDbEntity
  8
0
100
AcDbBlockBegin
  2
*D26
 70
     1
 10
0.0
 20
0.0
 30
0.0
  3
*D26
  1

  0
LINE
  5
6E00
330
6617
100
AcDbEntity
  8
DIM
 62
     0
370
    -2
100
AcDbLine
 10
3014.504628172254
 20
3990.889405898371
 30
0.0
 11
3184.504628172254
 21
3990.889405898371
 31
0.0
  0
LINE
  5
6E01
330
6617
100
AcDbEntity
  8
DIM
 62
     0
370
    -2
100
AcDbLine
 10
3000.069536914936
 20
3322.089227580217
 30
0.0
 11
3184.504628172253
 21
3322.089227580216
 31
0.0
  0
LINE
  5
6E02
330
6617
100
AcDbEntity
  8
DIM
 62
     0
370
    -2
100
AcDbLine
 10
3150.504628172253
 20
3956.88940589837
 30
0.0
 11
3150.504628172253
 21
3356.089227580216
 31
0.0
  0
INSERT
  5
6E03
330
6617
100
AcDbEntity
  8
DIM
 62
     0
370
    -2
100
AcDbBlockReference
  2
_Open30
 10
3150.504628172253
 20
3990.889405898371
 30
0.0
 41
34.0
 42
34.0
 43
34.0
 50
90.0
  0
INSERT
  5
6E04
330
6617
100
AcDbEntity
  8
DIM
 62
     0
370
    -2
100
AcDbBlockReference
  2
_Open30
 10
3150.504628172253
 20
3322.089227580216
 30
0.0
 41
34.0
 42
34.0
 43
34.0
 50
270.0
  0
MTEXT
  5
6E05
330
6617
100
AcDbEntity
  8
DIM
 62
     0
100
AcDbMText
 10
3112.254628172253
 20
3656.489316739294
 30
0.0
 40
42.5
 41
0.0
 46
0.0
 71
     5
 72
     1
  1
\A1;669
 11
0.0000000000000001
 21
1.0
 31
0.0
 73
     1
 44
1.0
  0
POINT
  5
6E06
330
6617
100
AcDbEntity
  8
Defpoints
 62
     0
100
AcDbPoint
 10
2980.504628172254
 20
3990.889405898371
 30
0.0
  0
POINT
  5
6E07
330
6617
100
AcDbEntity
  8
Defpoints
 62
     0
100
AcDbPoint
 10
2966.069536914937
 20
3322.089227580217
 30
0.0
  0
POINT
  5
6E08
330
6617
100
AcDbEntity
  8
Defpoints
 62
     0
100
AcDbPoint
 10
3150.504628172253
 20
3322.089227580216
 30
0.0
  0
ENDBLK
  5
6619
330
6617
100
AcDbEntity
  8
0
100
AcDbBlockEnd
  0
BLOCK
  5
663F
330
663E
100
AcDbEntity
  8
0
100
AcDbBlockBegin
  2
*D27
 70
     1
 10
0.0
 20
0.0
 30
0.0
  3
*D27
  1

  0
LINE
  5
6DF7
330
663E
100
AcDbEntity
  8
DIM
 62
     0
370
    -2
100
AcDbLine
 10
2796.798738889157
 20
3320.214092188975
 30
0.0
 11
3286.504628172253
 21
3320.214092188975
 31
0.0
  0
LINE
  5
6DF8
330
663E
100
AcDbEntity
  8
DIM
 62
     0
370
    -2
100
AcDbLine
 10
3014.504628172254
 20
3990.889405898371
 30
0.0
 11
3286.504628172253
 21
3990.889405898371
 31
0.0
  0
LINE
  5
6DF9
330
663E
100
AcDbEntity
  8
DIM
 62
     0
370
    -2
100
AcDbLine
 10
3252.504628172253
 20
3354.214092188975
 30
0.0
 11
3252.504628172253
 21
3956.88940589837
 31
0.0
  0
INSERT
  5
6DFA
330
663E
100
AcDbEntity
  8
DIM
 62
     0
370
    -2
100
AcDbBlockReference
  2
_Open30
 10
3252.504628172253
 20
3320.214092188975
 30
0.0
 41
34.0
 42
34.0
 43
34.0
 50
270.0
  0
INSERT
  5
6DFB
330
663E
100
AcDbEntity
  8
DIM
 62
     0
370
    -2
100
AcDbBlockReference
  2
_Open30
 10
3252.504628172253
 20
3990.889405898371
 30
0.0
 41
34.0
 42
34.0
 43
34.0
 50
90.0
  0
MTEXT
  5
6DFC
330
663E
100
AcDbEntity
  8
DIM
 62
     0
100
AcDbMText
 10
3214.254628172252
 20
3655.551749043673
 30
0.0
 40
42.5
 41
0.0
 46
0.0
 71
     5
 72
     1
  1
\A1;671
 11
0.0000000000000001
 21
1.0
 31
0.0
 73
     1
 44
1.0
  0
POINT
  5
6DFD
330
663E
100
AcDbEntity
  8
Defpoints
 62
     0
100
AcDbPoint
 10
2762.798738889157
 20
3320.214092188975
 30
0.0
  0
POINT
  5
6DFE
330
663E
100
AcDbEntity
  8
Defpoints
 62
     0
100
AcDbPoint
 10
2980.504628172254
 20
3990.889405898371
 30
0.0
  0
POINT
  5
6DFF
330
663E
100
AcDbEntity
  8
Defpoints
 62
     0
100
AcDbPoint
 10
3252.504628172253
 20
3990.889405898371
 30
0.0
  0
ENDBLK
  5
6640
330
663E
100
AcDbEntity
  8
0
100
AcDbBlockEnd
  0
BLOCK
  5
66A8
330
66A7
100
AcDbEntity
  8
0
100
AcDbBlockBegin
  2
*D28
 70
     1
 10
0.0
 20
0.0
 30
0.0
  3
*D28
  1

  0
LINE
  5
6DEC
330
66A7
100
AcDbEntity
  8
DIM
 62
     0
370
    -2
100
AcDbLine
 10
2676.104628173067
 20
4010.789405898372
 30
0.0
 11
2676.104628173067
 21
4117.903061058413
 31
0.0
  0
LINE
  5
6DED
330
66A7
100
AcDbEntity
  8
DIM
 62
     0
370
    -2
100
AcDbLine
 10
2690.104628173068
 20
4010.789405898372
 30
0.0
 11
2690.104628173068
 21
4117.903061058413
 31
0.0
  0
LINE
  5
6DEE
330
66A7
100
AcDbEntity
  8
DIM
 62
     0
370
    -2
100
AcDbLine
 10
2642.104628173068
 20
4083.903061058413
 30
0.0
 11
2608.104628173067
 21
4083.903061058413
 31
0.0
  0
LINE
  5
6DEF
330
66A7
100
AcDbEntity
  8
DIM
 62
     0
370
    -2
100
AcDbLine
 10
2724.104628173067
 20
4083.903061058413
 30
0.0
 11
2842.295104363544
 21
4083.903061058413
 31
0.0
  0
LINE
  5
6DF0
330
66A7
100
AcDbEntity
  8
DIM
 62
     0
370
    -2
100
AcDbLine
 10
2676.104628173067
 20
4083.903061058413
 30
0.0
 11
2690.104628173068
 21
4083.903061058413
 31
0.0
  0
INSERT
  5
6DF1
330
66A7
100
AcDbEntity
  8
DIM
 62
     0
370
    -2
100
AcDbBlockReference
  2
_Open30
 10
2676.104628173067
 20
4083.903061058413
 30
0.0
 41
34.0
 42
34.0
 43
34.0
  0
INSERT
  5
6DF2
330
66A7
100
AcDbEntity
  8
DIM
 62
     0
370
    -2
100
AcDbBlockReference
  2
_Open30
 10
2690.104628173068
 20
4083.903061058413
 30
0.0
 41
34.0
 42
34.0
 43
34.0
 50
180.0
  0
MTEXT
  5
6DF3
330
66A7
100
AcDbEntity
  8
DIM
 62
     0
100
AcDbMText
 10
2800.199866268306
 20
4122.153061058413
 30
0.0
 40
42.5
 41
0.0
 46
0.0
 71
     5
 72
     1
  1
\A1;14
 73
     1
 44
1.0
  0
POINT
  5
6DF4
330
66A7
100
AcDbEntity
  8
Defpoints
 62
     0
100
AcDbPoint
 10
2676.104628173067
 20
3976.789405898372
 30
0.0
  0
POINT
  5
6DF5
330
66A7
100
AcDbEntity
  8
Defpoints
 62
     0
100
AcDbPoint
 10
2690.104628173068
 20
3976.789405898372
 30
0.0
  0
POINT
  5
6DF6
330
66A7
100
AcDbEntity
  8
Defpoints
 62
     0
100
AcDbPoint
 10
2690.104628173068
 20
4083.903061058413
 30
0.0
  0
ENDBLK
  5
66A9
330
66A7
100
AcDbEntity
  8
0
100
AcDbBlockEnd
  0
BLOCK
  5
66CA
330
66C9
100
AcDbEntity
  8
0
100
AcDbBlockBegin
  2
*D29
 70
     1
 10
0.0
 20
0.0
 30
0.0
  3
*D29
  1

  0
LINE
  5
6DE3
330
66C9
100
AcDbEntity
  8
DIM
 62
     0
370
    -2
100
AcDbLine
 10
2401.646371943106
 20
3528.289405898339
 30
0.0
 11
2401.646371943106
 21
4226.0701890501
 31
0.0
  0
LINE
  5
6DE4
330
66C9
100
AcDbEntity
  8
DIM
 62
     0
370
    -2
100
AcDbLine
 10
2964.562884403007
 20
3528.289405898365
 30
0.0
 11
2964.562884403007
 21
4226.0701890501
 31
0.0
  0
LINE
  5
6DE5
330
66C9
100
AcDbEntity
  8
DIM
 62
     0
370
    -2
100
AcDbLine
 10
2435.646371943106
 20
4192.0701890501
 30
0.0
 11
2930.562884403007
 21
4192.0701890501
 31
0.0
  0
INSERT
  5
6DE6
330
66C9
100
AcDbEntity
  8
DIM
 62
     0
370
    -2
100
AcDbBlockReference
  2
_Open30
 10
2401.646371943106
 20
4192.0701890501
 30
0.0
 41
34.0
 42
34.0
 43
34.0
 50
180.0
  0
INSERT
  5
6DE7
330
66C9
100
AcDbEntity
  8
DIM
 62
     0
370
    -2
100
AcDbBlockReference
  2
_Open30
 10
2964.562884403007
 20
4192.0701890501
 30
0.0
 41
34.0
 42
34.0
 43
34.0
  0
MTEXT
  5
6DE8
330
66C9
100
AcDbEntity
  8
DIM
 62
     0
100
AcDbMText
 10
2683.104628173057
 20
4230.320189050099
 30
0.0
 40
42.5
 41
0.0
 46
0.0
 71
     5
 72
     1
  1
\A1;563
 73
     1
 44
1.0
  0
POINT
  5
6DE9
330
66C9
100
AcDbEntity
  8
Defpoints
 62
     0
100
AcDbPoint
 10
2401.646371943106
 20
3494.28940589834
 30
0.0
  0
POINT
  5
6DEA
330
66C9
100
AcDbEntity
  8
Defpoints
 62
     0
100
AcDbPoint
 10
2964.562884403007
 20
3494.289405898365
 30
0.0
  0
POINT
  5
6DEB
330
66C9
100
AcDbEntity
  8
Defpoints
 62
     0
100
AcDbPoint
 10
2964.562884403007
 20
4192.0701890501
 30
0.0
  0
ENDBLK
  5
66CB
330
66C9
100
AcDbEntity
  8
0
100
AcDbBlockEnd
  0
BLOCK
  5
69FD
330
69FC
100
AcDbEntity
  8
0
100
AcDbBlockBegin
  2
*D30
 70
     1
 10
0.0
 20
0.0
 30
0.0
  3
*D30
  1

  0
LINE
  5
6DDA
330
69FC
100
AcDbEntity
  8
DIM
 62
     0
370
    -2
100
AcDbLine
 10
1421.55710160405
 20
878.1372030833253
 30
0.0
 11
1543.686687644512
 21
878.1372030833253
 31
0.0
  0
LINE
  5
6DDB
330
69FC
100
AcDbEntity
  8
DIM
 62
     0
370
    -2
100
AcDbLine
 10
1424.415992928343
 20
758.1372030833243
 30
0.0
 11
1543.686687644512
 21
758.1372030833243
 31
0.0
  0
LINE
  5
6DDC
330
69FC
100
AcDbEntity
  8
DIM
 62
     0
370
    -2
100
AcDbLine
 10
1509.686687644512
 20
844.1372030833253
 30
0.0
 11
1509.686687644512
 21
792.1372030833244
 31
0.0
  0
INSERT
  5
6DDD
330
69FC
100
AcDbEntity
  8
DIM
 62
     0
370
    -2
100
AcDbBlockReference
  2
_Open30
 10
1509.686687644512
 20
878.1372030833253
 30
0.0
 41
34.0
 42
34.0
 43
34.0
 50
90.0
  0
INSERT
  5
6DDE
330
69FC
100
AcDbEntity
  8
DIM
 62
     0
370
    -2
100
AcDbBlockReference
  2
_Open30
 10
1509.686687644512
 20
758.1372030833243
 30
0.0
 41
34.0
 42
34.0
 43
34.0
 50
270.0
  0
MTEXT
  5
6DDF
330
69FC
100
AcDbEntity
  8
DIM
 62
     0
100
AcDbMText
 10
1471.436687644512
 20
818.137203083325
 30
0.0
 40
42.5
 41
0.0
 46
0.0
 71
     5
 72
     1
  1
\A1;120
 11
0.0000000000000001
 21
1.0
 31
0.0
 73
     1
 44
1.0
  0
POINT
  5
6DE0
330
69FC
100
AcDbEntity
  8
Defpoints
 62
     0
100
AcDbPoint
 10
1387.55710160405
 20
878.1372030833253
 30
0.0
  0
POINT
  5
6DE1
330
69FC
100
AcDbEntity
  8
Defpoints
 62
     0
100
AcDbPoint
 10
1390.415992928343
 20
758.1372030833243
 30
0.0
  0
POINT
  5
6DE2
330
69FC
100
AcDbEntity
  8
Defpoints
 62
     0
100
AcDbPoint
 10
1509.686687644512
 20
758.1372030833243
 30
0.0
  0
ENDBLK
  5
69FE
330
69FC
100
AcDbEntity
  8
0
100
AcDbBlockEnd
  0
BLOCK
  5
6A17
330
6A16
100
AcDbEntity
  8
0
100
AcDbBlockBegin
  2
*D31
 70
     1
 10
0.0
 20
0.0
 30
0.0
  3
*D31
  1

  0
LINE
  5
6DD1
330
6A16
100
AcDbEntity
  8
DIM
 62
     0
370
    -2
100
AcDbLine
 10
1165.975512402148
 20
922.6372030833228
 30
0.0
 11
1645.686687644512
 21
922.6372030833227
 31
0.0
  0
LINE
  5
6DD2
330
6A16
100
AcDbEntity
  8
DIM
 62
     0
370
    -2
100
AcDbLine
 10
1424.415992928343
 20
758.1372030833243
 30
0.0
 11
1645.686687644512
 21
758.1372030833243
 31
0.0
  0
LINE
  5
6DD3
330
6A16
100
AcDbEntity
  8
DIM
 62
     0
370
    -2
100
AcDbLine
 10
1611.686687644512
 20
888.6372030833227
 30
0.0
 11
1611.686687644512
 21
792.1372030833244
 31
0.0
  0
INSERT
  5
6DD4
330
6A16
100
AcDbEntity
  8
DIM
 62
     0
370
    -2
100
AcDbBlockReference
  2
_Open30
 10
1611.686687644512
 20
922.6372030833227
 30
0.0
 41
34.0
 42
34.0
 43
34.0
 50
90.0
  0
INSERT
  5
6DD5
330
6A16
100
AcDbEntity
  8
DIM
 62
     0
370
    -2
100
AcDbBlockReference
  2
_Open30
 10
1611.686687644512
 20
758.1372030833243
 30
0.0
 41
34.0
 42
34.0
 43
34.0
 50
270.0
  0
MTEXT
  5
6DD6
330
6A16
100
AcDbEntity
  8
DIM
 62
     0
100
AcDbMText
 10
1573.436687644512
 20
840.3872030833237
 30
0.0
 40
42.5
 41
0.0
 46
0.0
 71
     5
 72
     1
  1
\A1;165
 11
0.0000000000000001
 21
1.0
 31
0.0
 73
     1
 44
1.0
  0
POINT
  5
6DD7
330
6A16
100
AcDbEntity
  8
Defpoints
 62
     0
100
AcDbPoint
 10
1131.975512402148
 20
922.6372030833228
 30
0.0
  0
POINT
  5
6DD8
330
6A16
100
AcDbEntity
  8
Defpoints
 62
     0
100
AcDbPoint
 10
1390.415992928343
 20
758.1372030833243
 30
0.0
  0
POINT
  5
6DD9
330
6A16
100
AcDbEntity
  8
Defpoints
 62
     0
100
AcDbPoint
 10
1611.686687644512
 20
758.1372030833243
 30
0.0
  0
ENDBLK
  5
6A18
330
6A16
100
AcDbEntity
  8
0
100
AcDbBlockEnd
  0
BLOCK
  5
6A2F
330
6A2E
100
AcDbEntity
  8
0
100
AcDbBlockBegin
  2
*D32
 70
     1
 10
0.0
 20
0.0
 30
0.0
  3
*D32
  1

  0
LINE
  5
6DC8
330
6A2E
100
AcDbEntity
  8
DIM
 62
     0
370
    -2
100
AcDbLine
 10
1365.442857583842
 20
958.1372030833231
 30
0.0
 11
1747.686687644512
 21
958.1372030833231
 31
0.0
  0
LINE
  5
6DC9
330
6A2E
100
AcDbEntity
  8
DIM
 62
     0
370
    -2
100
AcDbLine
 10
1424.415992928343
 20
758.1372030833243
 30
0.0
 11
1747.686687644512
 21
758.1372030833243
 31
0.0
  0
LINE
  5
6DCA
330
6A2E
100
AcDbEntity
  8
DIM
 62
     0
370
    -2
100
AcDbLine
 10
1713.686687644512
 20
924.1372030833231
 30
0.0
 11
1713.686687644512
 21
792.1372030833244
 31
0.0
  0
INSERT
  5
6DCB
330
6A2E
100
AcDbEntity
  8
DIM
 62
     0
370
    -2
100
AcDbBlockReference
  2
_Open30
 10
1713.686687644512
 20
958.1372030833231
 30
0.0
 41
34.0
 42
34.0
 43
34.0
 50
90.0
  0
INSERT
  5
6DCC
330
6A2E
100
AcDbEntity
  8
DIM
 62
     0
370
    -2
100
AcDbBlockReference
  2
_Open30
 10
1713.686687644512
 20
758.1372030833243
 30
0.0
 41
34.0
 42
34.0
 43
34.0
 50
270.0
  0
MTEXT
  5
6DCD
330
6A2E
100
AcDbEntity
  8
DIM
 62
     0
100
AcDbMText
 10
1675.436687644512
 20
858.1372030833239
 30
0.0
 40
42.5
 41
0.0
 46
0.0
 71
     5
 72
     1
  1
\A1;200
 11
0.0000000000000001
 21
1.0
 31
0.0
 73
     1
 44
1.0
  0
POINT
  5
6DCE
330
6A2E
100
AcDbEntity
  8
Defpoints
 62
     0
100
AcDbPoint
 10
1331.442857583842
 20
958.1372030833231
 30
0.0
  0
POINT
  5
6DCF
330
6A2E
100
AcDbEntity
  8
Defpoints
 62
     0
100
AcDbPoint
 10
1390.415992928343
 20
758.1372030833243
 30
0.0
  0
POINT
  5
6DD0
330
6A2E
100
AcDbEntity
  8
Defpoints
 62
     0
100
AcDbPoint
 10
1713.686687644512
 20
758.1372030833243
 30
0.0
  0
ENDBLK
  5
6A30
330
6A2E
100
AcDbEntity
  8
0
100
AcDbBlockEnd
  0
BLOCK
  5
6A45
330
6A44
100
AcDbEntity
  8
0
100
AcDbBlockBegin
  2
*D33
 70
     1
 10
0.0
 20
0.0
 30
0.0
  3
*D33
  1

  0
LINE
  5
6DBF
330
6A44
100
AcDbEntity
  8
DIM
 62
     0
370
    -2
100
AcDbLine
 10
1424.415992928343
 20
758.1372030833243
 30
0.0
 11
1849.686687644512
 21
758.1372030833242
 31
0.0
  0
LINE
  5
6DC0
330
6A44
100
AcDbEntity
  8
DIM
 62
     0
370
    -2
100
AcDbLine
 10
1421.55710160405
 20
1008.137203083319
 30
0.0
 11
1849.686687644512
 21
1008.137203083319
 31
0.0
  0
LINE
  5
6DC1
330
6A44
100
AcDbEntity
  8
DIM
 62
     0
370
    -2
100
AcDbLine
 10
1815.686687644512
 20
792.1372030833242
 30
0.0
 11
1815.686687644512
 21
974.1372030833188
 31
0.0
  0
INSERT
  5
6DC2
330
6A44
100
AcDbEntity
  8
DIM
 62
     0
370
    -2
100
AcDbBlockReference
  2
_Open30
 10
1815.686687644512
 20
758.1372030833242
 30
0.0
 41
34.0
 42
34.0
 43
34.0
 50
270.0
  0
INSERT
  5
6DC3
330
6A44
100
AcDbEntity
  8
DIM
 62
     0
370
    -2
100
AcDbBlockReference
  2
_Open30
 10
1815.686687644512
 20
1008.137203083319
 30
0.0
 41
34.0
 42
34.0
 43
34.0
 50
90.0
  0
MTEXT
  5
6DC4
330
6A44
100
AcDbEntity
  8
DIM
 62
     0
100
AcDbMText
 10
1777.436687644512
 20
883.1372030833218
 30
0.0
 40
42.5
 41
0.0
 46
0.0
 71
     5
 72
     1
  1
\A1;250
 11
0.0000000000000001
 21
1.0
 31
0.0
 73
     1
 44
1.0
  0
POINT
  5
6DC5
330
6A44
100
AcDbEntity
  8
Defpoints
 62
     0
100
AcDbPoint
 10
1390.415992928343
 20
758.1372030833243
 30
0.0
  0
POINT
  5
6DC6
330
6A44
100
AcDbEntity
  8
Defpoints
 62
     0
100
AcDbPoint
 10
1387.55710160405
 20
1008.137203083319
 30
0.0
  0
POINT
  5
6DC7
330
6A44
100
AcDbEntity
  8
Defpoints
 62
     0
100
AcDbPoint
 10
1815.686687644512
 20
1008.137203083319
 30
0.0
  0
ENDBLK
  5
6A46
330
6A44
100
AcDbEntity
  8
0
100
AcDbBlockEnd
  0
BLOCK
  5
6A64
330
6A63
100
AcDbEntity
  8
0
100
AcDbBlockBegin
  2
*D34
 70
     1
 10
0.0
 20
0.0
 30
0.0
  3
*D34
  1

  0
LINE
  5
6DB6
330
6A63
100
AcDbEntity
  8
DIM
 62
     0
370
    -2
100
AcDbLine
 10
1424.415992928343
 20
758.1372030833243
 30
0.0
 11
1951.686687644511
 21
758.1372030833242
 31
0.0
  0
LINE
  5
6DB7
330
6A63
100
AcDbEntity
  8
DIM
 62
     0
370
    -2
100
AcDbLine
 10
1011.198411094379
 20
1607.43720308332
 30
0.0
 11
1951.686687644511
 21
1607.43720308332
 31
0.0
  0
LINE
  5
6DB8
330
6A63
100
AcDbEntity
  8
DIM
 62
     0
370
    -2
100
AcDbLine
 10
1917.686687644511
 20
792.1372030833242
 30
0.0
 11
1917.686687644511
 21
1573.43720308332
 31
0.0
  0
INSERT
  5
6DB9
330
6A63
100
AcDbEntity
  8
DIM
 62
     0
370
    -2
100
AcDbBlockReference
  2
_Open30
 10
1917.686687644511
 20
758.1372030833242
 30
0.0
 41
34.0
 42
34.0
 43
34.0
 50
270.0
  0
INSERT
  5
6DBA
330
6A63
100
AcDbEntity
  8
DIM
 62
     0
370
    -2
100
AcDbBlockReference
  2
_Open30
 10
1917.686687644511
 20
1607.43720308332
 30
0.0
 41
34.0
 42
34.0
 43
34.0
 50
90.0
  0
MTEXT
  5
6DBB
330
6A63
100
AcDbEntity
  8
DIM
 62
     0
100
AcDbMText
 10
1879.436687644511
 20
1182.787203083322
 30
0.0
 40
42.5
 41
0.0
 46
0.0
 71
     5
 72
     1
  1
\A1;（850）
 11
0.0000000000000001
 21
1.0
 31
0.0
 73
     1
 44
1.0
  0
POINT
  5
6DBC
330
6A63
100
AcDbEntity
  8
Defpoints
 62
     0
100
AcDbPoint
 10
1390.415992928343
 20
758.1372030833243
 30
0.0
  0
POINT
  5
6DBD
330
6A63
100
AcDbEntity
  8
Defpoints
 62
     0
100
AcDbPoint
 10
977.198411094379
 20
1607.43720308332
 30
0.0
  0
POINT
  5
6DBE
330
6A63
100
AcDbEntity
  8
Defpoints
 62
     0
100
AcDbPoint
 10
1917.686687644511
 20
1607.43720308332
 30
0.0
  0
ENDBLK
  5
6A65
330
6A63
100
AcDbEntity
  8
0
100
AcDbBlockEnd
  0
BLOCK
  5
6A7A
330
6A79
100
AcDbEntity
  8
0
100
AcDbBlockBegin
  2
*D35
 70
     1
 10
0.0
 20
0.0
 30
0.0
  3
*D35
  1

  0
LINE
  5
6F22
330
6A79
100
AcDbEntity
  8
DIM
 62
     0
370
    -2
100
AcDbLine
 10
1424.415992928343
 20
758.1372030833243
 30
0.0
 11
2053.686687644511
 21
758.1372030833242
 31
0.0
  0
LINE
  5
6F23
330
6A79
100
AcDbEntity
  8
DIM
 62
     0
370
    -2
100
AcDbLine
 10
1375.557101604074
 20
2939.637203083325
 30
0.0
 11
2053.686687644512
 21
2939.637203083325
 31
0.0
  0
LINE
  5
6F24
330
6A79
100
AcDbEntity
  8
DIM
 62
     0
370
    -2
100
AcDbLine
 10
2019.686687644512
 20
792.1372030833242
 30
0.0
 11
2019.686687644512
 21
2905.637203083325
 31
0.0
  0
INSERT
  5
6F25
330
6A79
100
AcDbEntity
  8
DIM
 62
     0
370
    -2
100
AcDbBlockReference
  2
_Open30
 10
2019.686687644512
 20
758.1372030833242
 30
0.0
 41
34.0
 42
34.0
 43
34.0
 50
270.0
  0
INSERT
  5
6F26
330
6A79
100
AcDbEntity
  8
DIM
 62
     0
370
    -2
100
AcDbBlockReference
  2
_Open30
 10
2019.686687644512
 20
2939.637203083325
 30
0.0
 41
34.0
 42
34.0
 43
34.0
 50
90.0
  0
MTEXT
  5
6F27
330
6A79
100
AcDbEntity
  8
DIM
 62
     0
100
AcDbMText
 10
1981.436687644511
 20
1848.887203083324
 30
0.0
 40
42.5
 41
0.0
 46
0.0
 71
     5
 72
     1
  1
\A1;2182
 11
0.0000000000000001
 21
1.0
 31
0.0
 73
     1
 44
1.0
  0
POINT
  5
6F28
330
6A79
100
AcDbEntity
  8
Defpoints
 62
     0
100
AcDbPoint
 10
1390.415992928343
 20
758.1372030833243
 30
0.0
  0
POINT
  5
6F29
330
6A79
100
AcDbEntity
  8
Defpoints
 62
     0
100
AcDbPoint
 10
1341.557101604074
 20
2939.637203083325
 30
0.0
  0
POINT
  5
6F2A
330
6A79
100
AcDbEntity
  8
Defpoints
 62
     0
100
AcDbPoint
 10
2019.686687644512
 20
2939.637203083325
 30
0.0
  0
ENDBLK
  5
6A7B
330
6A79
100
AcDbEntity
  8
0
100
AcDbBlockEnd
  0
ENDSEC
  0
SECTION
  2
ENTITIES
  0
MTEXT
  5
145
330
17
100
AcDbEntity
  8
0
100
AcDbMText
 10
214.128268902881
 20
265.6452399939602
 30
0.0
 40
3.2
 41
11.33331195659721
 46
0.0
 71
     1
 72
     5
  1

 73
     1
 44
1.0
  0
MTEXT
  5
14D
330
17
100
AcDbEntity
  8
DIM
100
AcDbMText
 10
238.5121907423835
 20
254.1733682658697
 30
0.0
 40
3.2
 41
0.0
 46
0.0
 71
     7
 72
     1
  1

 73
     1
 44
1.0
  0
INSERT
  5
1D3
330
17
100
AcDbEntity
  8
0
100
AcDbBlockReference
 66
     1
  2
dimstat
 10
0.0
 20
0.0
 30
0.0
  0
ATTRIB
  5
1D4
330
1D3
100
AcDbEntity
  8
0
100
AcDbText
 10
0.0
 20
1.0
 30
0.0
 40
1.0
  1
1
 41
0.7
 51
15.0
100
AcDbAttribute
  2
DIMEXT
 70
     1
280
     0
  0
ATTRIB
  5
1D5
330
1D3
100
AcDbEntity
  8
0
100
AcDbText
 10
0.0
 20
0.0
 30
0.0
 40
1.0
  1
8 3.2 8 3.2
 41
0.7
 51
15.0
100
AcDbAttribute
  2
DIMBAL
 70
     1
280
     0
  0
ATTRIB
  5
1D6
330
1D3
100
AcDbEntity
  8
0
100
AcDbText
 10
0.2305237905636843
 20
-0.911649989012119
 30
0.0
 40
1.0
  1
4 3.2
 41
0.7
 51
15.0
 72
     1
 11
1.50719045723035
 21
-0.911649989012119
 31
0.0
100
AcDbAttribute
  2
SYMSCL
 70
     1
280
     0
  0
SEQEND
  5
1D7
330
1D3
100
AcDbEntity
  8
0
  0
INSERT
  5
1DC
330
17
100
AcDbEntity
  8
0
100
AcDbBlockReference
 66
     1
  2
dimstat2
 10
0.0
 20
0.0
 30
0.0
  0
ATTRIB
  5
1DD
330
1DC
100
AcDbEntity
  8
0
100
AcDbText
 10
0.0
 20
0.0
 30
0.0
 40
1.0
  1
(1.28 1.92 0 0 0 0 0 3.2 12 0)
 41
0.7
100
AcDbAttribute
  2
DIMSIZ
 70
     1
280
     0
  0
SEQEND
  5
1DE
330
1DC
100
AcDbEntity
  8
0
  0
LINE
  5
577
330
17
100
AcDbEntity
  8
0
100
AcDbLine
 10
984.0571016040485
 20
2089.137203083334
 30
0.0
 11
984.0571016040485
 21
1993.137203083334
 31
0.0
  0
LINE
  5
578
330
17
100
AcDbEntity
  8
0
100
AcDbLine
 10
975.5571016040486
 20
2088.297203083334
 30
0.0
 11
975.5571016040486
 21
1993.977203083334
 31
0.0
  0
LINE
  5
57A
330
17
100
AcDbEntity
  8
0
100
AcDbLine
 10
837.5571016040485
 20
2088.297203083334
 30
0.0
 11
837.5571016040485
 21
1993.977203083334
 31
0.0
  0
LINE
  5
57B
330
17
100
AcDbEntity
  8
0
100
AcDbLine
 10
829.0571016040484
 20
2089.137203083334
 30
0.0
 11
829.0571016040484
 21
1993.137203083334
 31
0.0
  0
LINE
  5
57D
330
17
100
AcDbEntity
  8
0
100
AcDbLine
 10
748.9571016040463
 20
2904.637203083325
 30
0.0
 11
748.9571016040463
 21
877.1372030833253
 31
0.0
  0
LINE
  5
57F
330
17
100
AcDbEntity
  8
0
100
AcDbLine
 10
1388.157101604051
 20
2904.637203083397
 30
0.0
 11
1388.157101604049
 21
877.1372030833235
 31
0.0
  0
LINE
  5
588
330
17
100
AcDbEntity
  8
0
100
AcDbLine
 10
611.7856150607425
 20
758.1372030833245
 30
0.0
 11
2185.337421831388
 21
758.1372030833254
 31
0.0
  0
LINE
  5
58E
330
17
100
AcDbEntity
  8
0
100
AcDbLine
 10
1333.608679536728
 20
878.1372030833253
 30
0.0
 11
1352.179698432535
 21
778.6372030833254
 31
0.0
  0
LINE
  5
58F
330
17
100
AcDbEntity
  8
0
100
AcDbLine
 10
1331.358679536728
 20
878.1372030833253
 30
0.0
 11
1349.929698432535
 21
778.6372030833254
 31
0.0
  0
LINE
  5
590
330
17
100
AcDbEntity
  8
0
100
AcDbLine
 10
1366.608679536728
 20
878.1372030833253
 30
0.0
 11
1385.179698432535
 21
778.6372030833254
 31
0.0
  0
LINE
  5
591
330
17
100
AcDbEntity
  8
0
100
AcDbLine
 10
1368.858679536728
 20
878.1372030833253
 30
0.0
 11
1387.429698432535
 21
778.6372030833254
 31
0.0
  0
LINE
  5
592
330
17
100
AcDbEntity
  8
0
100
AcDbLine
 10
1270.643579568825
 20
878.1372030833253
 30
0.0
 11
1270.643579568825
 21
778.6372030833254
 31
0.0
  0
LINE
  5
593
330
17
100
AcDbEntity
  8
0
100
AcDbLine
 10
1101.55710160405
 20
878.1372030833244
 30
0.0
 11
1101.55710160405
 21
778.6372030833254
 31
0.0
  0
LINE
  5
594
330
17
100
AcDbEntity
  8
0
100
AcDbLine
 10
1106.05710160405
 20
878.1372030833244
 30
0.0
 11
1106.05710160405
 21
778.6372030833254
 31
0.0
  0
LINE
  5
595
330
17
100
AcDbEntity
  8
0
100
AcDbLine
 10
1035.55710160405
 20
875.1372030833254
 30
0.0
 11
1035.55710160405
 21
778.6372030833254
 31
0.0
  0
LINE
  5
596
330
17
100
AcDbEntity
  8
0
100
AcDbLine
 10
1031.05710160405
 20
875.1372030833254
 30
0.0
 11
1031.05710160405
 21
778.6372030833254
 31
0.0
  0
LINE
  5
597
330
17
100
AcDbEntity
  8
0
100
AcDbLine
 10
866.4706236387573
 20
878.1372030833253
 30
0.0
 11
866.4706236387573
 21
758.1372030833245
 31
0.0
  0
ARC
  5
598
330
17
100
AcDbEntity
  8
0
100
AcDbCircle
 10
1026.557101604046
 20
828.6372030833254
 30
0.0
 40
50.0
100
AcDbArc
 50
180.0
 51
270.0
  0
ARC
  5
599
330
17
100
AcDbEntity
  8
0
100
AcDbCircle
 10
1026.557101604046
 20
828.6372030833254
 30
0.0
 40
66.0
100
AcDbArc
 50
180.0
 51
270.0
  0
LINE
  5
59A
330
17
100
AcDbEntity
  8
0
100
AcDbLine
 10
770.5055236708521
 20
878.1372030833253
 30
0.0
 11
748.9482102792371
 21
762.6372030833245
 31
0.0
  0
LINE
  5
59B
330
17
100
AcDbEntity
  8
0
100
AcDbLine
 10
768.2555236708521
 20
878.1372030833253
 30
0.0
 11
746.6982102792371
 21
762.6372030833245
 31
0.0
  0
LINE
  5
59C
330
17
100
AcDbEntity
  8
0
100
AcDbLine
 10
803.5055236708522
 20
878.1372030833253
 30
0.0
 11
781.9482102792371
 21
762.6372030833245
 31
0.0
  0
LINE
  5
59D
330
17
100
AcDbEntity
  8
0
100
AcDbLine
 10
805.7555236708521
 20
878.1372030833253
 30
0.0
 11
784.1982102792371
 21
762.6372030833245
 31
0.0
  0
LINE
  5
59E
330
17
100
AcDbEntity
  8
0
100
AcDbLine
 10
1039.05710160405
 20
758.1372030833245
 30
0.0
 11
1098.05710160405
 21
758.1372030833245
 31
0.0
  0
LINE
  5
5A0
330
17
100
AcDbEntity
  8
0
100
AcDbLine
 10
1026.557101604046
 20
762.6372030833245
 30
0.0
 11
1430.473730327843
 21
762.6372030833245
 31
0.0
  0
LINE
  5
5A1
330
17
100
AcDbEntity
  8
0
100
AcDbLine
 10
1026.557101604046
 20
778.6372030833254
 30
0.0
 11
1430.473730327843
 21
778.6372030833254
 31
0.0
  0
LINE
  5
5A2
330
17
100
AcDbEntity
  8
0
100
AcDbLine
 10
746.6982102792371
 20
758.1372030833245
 30
0.0
 11
866.4706236387592
 21
758.1372030833245
 31
0.0
  0
LINE
  5
5A3
330
17
100
AcDbEntity
  8
0
100
AcDbLine
 10
784.1982102792371
 20
762.6372030833245
 30
0.0
 11
784.1982102792371
 21
758.1372030833245
 31
0.0
  0
LINE
  5
5A4
330
17
100
AcDbEntity
  8
0
100
AcDbLine
 10
746.6982102792371
 20
762.6372030833245
 30
0.0
 11
746.6982102792371
 21
758.1372030833245
 31
0.0
  0
LINE
  5
5A5
330
17
100
AcDbEntity
  8
0
100
AcDbLine
 10
748.9482102792371
 20
762.6372030833245
 30
0.0
 11
781.9482102792371
 21
762.6372030833245
 31
0.0
  0
ARC
  5
5A6
330
17
100
AcDbEntity
  8
0
100
AcDbCircle
 10
1039.05710160405
 20
766.1372030833254
 30
0.0
 40
8.0
100
AcDbArc
 50
205.9444797723687
 51
270.0
  0
ARC
  5
5A7
330
17
100
AcDbEntity
  8
0
100
AcDbCircle
 10
1098.05710160405
 20
766.1372030833254
 30
0.0
 40
7.999999999999886
100
AcDbArc
 50
270.0
 51
334.0555202276314
  0
LINE
  5
5A8
330
17
100
AcDbEntity
  8
0
100
AcDbLine
 10
1390.415992928343
 20
758.1372030833245
 30
0.0
 11
1270.643579568823
 21
758.1372030833245
 31
0.0
  0
LINE
  5
5A9
330
17
100
AcDbEntity
  8
0
100
AcDbLine
 10
1270.643579568825
 20
762.6372030833245
 30
0.0
 11
1270.643579568825
 21
758.1372030833245
 31
0.0
  0
LINE
  5
5AA
330
17
100
AcDbEntity
  8
0
100
AcDbLine
 10
1390.415992928345
 20
762.6372030833245
 30
0.0
 11
1390.415992928343
 21
758.1372030833245
 31
0.0
  0
LINE
  5
5AB
330
17
100
AcDbEntity
  8
0
100
AcDbLine
 10
1352.915992928345
 20
762.6372030833245
 30
0.0
 11
1352.915992928345
 21
758.1372030833245
 31
0.0
  0
LINE
  5
5AC
330
17
100
AcDbEntity
  8
0
100
AcDbLine
 10
1430.473730327843
 20
778.6372030833254
 30
0.0
 11
1430.473730327843
 21
762.6372030833245
 31
0.0
  0
ARC
  5
5B1
330
17
100
AcDbEntity
  8
0
100
AcDbCircle
 10
1085.851822402148
 20
987.340893083323
 30
0.0
 40
25.0
100
AcDbArc
 50
292.6683500000215
 51
337.3316500000069
  0
ARC
  5
5B2
330
17
100
AcDbEntity
  8
0
100
AcDbCircle
 10
1085.851822402148
 20
921.933523083323
 30
0.0
 40
25.0
100
AcDbArc
 50
22.66834999999306
 51
67.33164999997851
  0
LINE
  5
5B3
330
17
100
AcDbEntity
  8
0
100
AcDbLine
 10
749.5571016040485
 20
878.1372030833253
 30
0.0
 11
1098.55710160405
 21
878.1372030833244
 31
0.0
  0
LINE
  5
5B4
330
17
100
AcDbEntity
  8
0
100
AcDbLine
 10
774.0571016040485
 20
1005.137203083334
 30
0.0
 11
1363.057101604046
 21
1005.137203083334
 31
0.0
  0
LINE
  5
5B5
330
17
100
AcDbEntity
  8
0
100
AcDbLine
 10
1383.557101604048
 20
878.1372030833244
 30
0.0
 11
753.5571016040466
 21
878.1372030833244
 31
0.0
  0
LINE
  5
5B7
330
17
100
AcDbEntity
  8
0
100
AcDbLine
 10
749.5571016040466
 20
1009.137203083322
 30
0.0
 11
749.5571016040466
 21
877.7372030833257
 31
0.0
  0
LINE
  5
5B9
330
17
100
AcDbEntity
  8
0
100
AcDbLine
 10
754.9571016040463
 20
877.7372030833257
 30
0.0
 11
754.9571016040463
 21
877.1372030833253
 31
0.0
  0
LINE
  5
5BA
330
17
100
AcDbEntity
  8
0
100
AcDbLine
 10
748.9571016040463
 20
877.1372030833253
 30
0.0
 11
754.9571016040463
 21
877.1372030833253
 31
0.0
  0
LINE
  5
5BB
330
17
100
AcDbEntity
  8
0
100
AcDbLine
 10
749.5571016040466
 20
877.7372030833257
 30
0.0
 11
754.9571016040463
 21
877.7372030833257
 31
0.0
  0
LINE
  5
5BC
330
17
100
AcDbEntity
  8
0
100
AcDbLine
 10
749.5571016040466
 20
878.1372030833253
 30
0.0
 11
777.9571016040463
 21
878.1372030833253
 31
0.0
  0
LINE
  5
5BD
330
17
100
AcDbEntity
  8
0
100
AcDbLine
 10
774.0571016040485
 20
1005.137203083334
 30
0.0
 11
774.0571016040485
 21
1009.137203083334
 31
0.0
  0
LINE
  5
5BE
330
17
100
AcDbEntity
  8
0
100
AcDbLine
 10
748.9571016040463
 20
1009.137203083322
 30
0.0
 11
774.0571016040485
 21
1009.137203083322
 31
0.0
  0
LINE
  5
5BF
330
17
100
AcDbEntity
  8
0
100
AcDbLine
 10
749.5571016040521
 20
1008.137203083319
 30
0.0
 11
774.0571016040539
 21
1008.137203083319
 31
0.0
  0
ARC
  5
5C0
330
17
100
AcDbEntity
  8
0
100
AcDbCircle
 10
941.8488976715506
 20
875.1372030833245
 30
0.0
 40
3.0
100
AcDbArc
 50
16.60154959904199
 51
90.0
  0
ARC
  5
5C1
330
17
100
AcDbEntity
  8
0
100
AcDbCircle
 10
948.5571016040504
 20
877.1372030833244
 30
0.0
 40
4.0
100
AcDbArc
 50
196.601549599042
 51
270.0
  0
CIRCLE
  5
5C2
330
17
100
AcDbEntity
  8
0
100
AcDbCircle
 10
868.5571016040485
 20
1021.137203083334
 30
0.0
 40
3.0
  0
CIRCLE
  5
5C3
330
17
100
AcDbEntity
  8
0
100
AcDbCircle
 10
868.5571016040503
 20
1021.137203083322
 30
0.0
 40
1.6
  0
CIRCLE
  5
5C4
330
17
100
AcDbEntity
  8
0
100
AcDbCircle
 10
868.5571016040485
 20
1021.137203083334
 30
0.0
 40
10.4
  0
CIRCLE
  5
5C5
330
17
100
AcDbEntity
  8
0
100
AcDbCircle
 10
868.5571016040485
 20
1021.137203083334
 30
0.0
 40
6.0
  0
ARC
  5
5C6
330
17
100
AcDbEntity
  8
0
100
AcDbCircle
 10
995.2653055365427
 20
875.1372030833245
 30
0.0
 40
3.0
100
AcDbArc
 50
90.0
 51
163.398450400958
  0
ARC
  5
5C7
330
17
100
AcDbEntity
  8
0
100
AcDbCircle
 10
988.5571016040429
 20
877.1372030833244
 30
0.0
 40
4.0
100
AcDbArc
 50
270.0
 51
343.398450400958
  0
ARC
  5
5C8
330
17
100
AcDbEntity
  8
0
100
AcDbCircle
 10
984.2484445551363
 20
864.1372030833245
 30
0.0
 40
1.0
100
AcDbArc
 50
270.0
 51
0.0
  0
LINE
  5
5C9
330
17
100
AcDbEntity
  8
0
100
AcDbLine
 10
985.2484445551363
 20
870.1372030833244
 30
0.0
 11
985.2484445551363
 21
864.1372030833245
 31
0.0
  0
LINE
  5
5CA
330
17
100
AcDbEntity
  8
0
100
AcDbLine
 10
987.5571016040467
 20
873.1372030833245
 30
0.0
 11
987.5571016040467
 21
870.1372030833244
 31
0.0
  0
LINE
  5
5CB
330
17
100
AcDbEntity
  8
0
100
AcDbLine
 10
975.3071016040467
 20
863.7997516817367
 30
0.0
 11
975.3071016040467
 21
863.1372030833246
 31
0.0
  0
ARC
  5
5CC
330
17
100
AcDbEntity
  8
0
100
AcDbCircle
 10
976.2484445551363
 20
864.1372030833245
 30
0.0
 40
1.0
100
AcDbArc
 50
180.0
 51
270.0
  0
LINE
  5
5CD
330
17
100
AcDbEntity
  8
0
100
AcDbLine
 10
975.2484445551363
 20
870.1372030833244
 30
0.0
 11
975.2484445551363
 21
864.1372030833245
 31
0.0
  0
LINE
  5
5CE
330
17
100
AcDbEntity
  8
0
100
AcDbLine
 10
976.2484445551363
 20
863.1372030833246
 30
0.0
 11
984.2484445551363
 21
863.1372030833246
 31
0.0
  0
LINE
  5
5CF
330
17
100
AcDbEntity
  8
0
100
AcDbLine
 10
976.5571016040466
 20
863.1372030833246
 30
0.0
 11
976.5571016040466
 21
828.6372030833254
 31
0.0
  0
LINE
  5
5D0
330
17
100
AcDbEntity
  8
0
100
AcDbLine
 10
961.8071016040467
 20
863.7997516817385
 30
0.0
 11
961.8071016040467
 21
863.1372030833246
 31
0.0
  0
LINE
  5
5D1
330
17
100
AcDbEntity
  8
0
100
AcDbLine
 10
949.5571016040466
 20
873.1372030833245
 30
0.0
 11
949.5571016040466
 21
870.1372030833244
 31
0.0
  0
ARC
  5
5D2
330
17
100
AcDbEntity
  8
0
100
AcDbCircle
 10
960.865758652957
 20
864.1372030833245
 30
0.0
 40
1.0
100
AcDbArc
 50
270.0
 51
0.0
  0
ARC
  5
5D3
330
17
100
AcDbEntity
  8
0
100
AcDbCircle
 10
952.865758652957
 20
864.1372030833245
 30
0.0
 40
1.0
100
AcDbArc
 50
180.0
 51
270.0
  0
LINE
  5
5D4
330
17
100
AcDbEntity
  8
0
100
AcDbLine
 10
960.865758652957
 20
863.1372030833246
 30
0.0
 11
952.865758652957
 21
863.1372030833246
 31
0.0
  0
LINE
  5
5D5
330
17
100
AcDbEntity
  8
0
100
AcDbLine
 10
961.865758652957
 20
864.1372030833245
 30
0.0
 11
961.865758652957
 21
870.1372030833244
 31
0.0
  0
LINE
  5
5D6
330
17
100
AcDbEntity
  8
0
100
AcDbLine
 10
951.865758652957
 20
864.1372030833245
 30
0.0
 11
951.865758652957
 21
870.1372030833244
 31
0.0
  0
LINE
  5
5D7
330
17
100
AcDbEntity
  8
0
100
AcDbLine
 10
960.5571016040467
 20
863.1372030833246
 30
0.0
 11
960.5571016040467
 21
828.6372030833254
 31
0.0
  0
LINE
  5
5D8
330
17
100
AcDbEntity
  8
0
100
AcDbLine
 10
960.5571016040467
 20
863.1372030833246
 30
0.0
 11
976.5571016040466
 21
863.1372030833246
 31
0.0
  0
LINE
  5
5D9
330
17
100
AcDbEntity
  8
0
100
AcDbLine
 10
988.5571016040429
 20
873.1372030833245
 30
0.0
 11
948.5571016040504
 21
873.1372030833245
 31
0.0
  0
LINE
  5
5DA
330
17
100
AcDbEntity
  8
0
100
AcDbLine
 10
987.5571016040467
 20
873.1372030833245
 30
0.0
 11
949.5571016040466
 21
873.1372030833245
 31
0.0
  0
LINE
  5
5DB
330
17
100
AcDbEntity
  8
0
100
AcDbLine
 10
987.5571016040467
 20
870.1372030833244
 30
0.0
 11
949.5571016040466
 21
870.1372030833244
 31
0.0
  0
ARC
  5
5DC
330
17
100
AcDbEntity
  8
0
100
AcDbCircle
 10
1118.555512402146
 20
954.6372030833227
 30
0.0
 40
25.0
100
AcDbArc
 50
157.3316500000069
 51
202.6683499999931
  0
ARC
  5
5DD
330
17
100
AcDbEntity
  8
0
100
AcDbCircle
 10
1039.05710160405
 20
875.1372030833254
 30
0.0
 40
8.0
100
AcDbArc
 50
157.9756871629858
 51
180.0
  0
ARC
  5
5DE
330
17
100
AcDbEntity
  8
0
100
AcDbCircle
 10
1039.05710160405
 20
875.1372030833254
 30
0.0
 40
3.5
100
AcDbArc
 50
121.0027191339365
 51
180.0
  0
CIRCLE
  5
5DF
330
17
100
AcDbEntity
  8
0
100
AcDbCircle
 10
790.5571016040485
 20
1752.137203083334
 30
0.0
 40
10.4
  0
CIRCLE
  5
5E0
330
17
100
AcDbEntity
  8
0
100
AcDbCircle
 10
790.5571016040485
 20
1752.137203083334
 30
0.0
 40
3.0
  0
CIRCLE
  5
5E1
330
17
100
AcDbEntity
  8
0
100
AcDbCircle
 10
790.5571016040485
 20
1752.137203083334
 30
0.0
 40
6.0
  0
LINE
  5
5E2
330
17
100
AcDbEntity
  8
0
100
AcDbLine
 10
858.5571016040486
 20
2085.137203083335
 30
0.0
 11
954.5571016040485
 21
2085.137203083335
 31
0.0
  0
LINE
  5
5E3
330
17
100
AcDbEntity
  8
0
100
AcDbLine
 10
858.5571016040486
 20
1996.137203083334
 30
0.0
 11
954.5571016040485
 21
1996.137203083334
 31
0.0
  0
LINE
  5
5E4
330
17
100
AcDbEntity
  8
0
100
AcDbLine
 10
841.0571016040485
 20
1981.137203083334
 30
0.0
 11
972.0571016040485
 21
1981.137203083334
 31
0.0
  0
LINE
  5
5E5
330
17
100
AcDbEntity
  8
0
  6
Continuous
100
AcDbLine
 10
972.7178552091555
 20
1991.137203083334
 30
0.0
 11
840.3963479989396
 21
1991.137203083334
 31
0.0
  0
ARC
  5
5E9
330
17
100
AcDbEntity
  8
0
100
AcDbCircle
 10
858.5571016040486
 20
2079.137203083335
 30
0.0
 40
6.0
100
AcDbArc
 50
90.0
 51
180.0
  0
ARC
  5
5EB
330
17
100
AcDbEntity
  8
0
100
AcDbCircle
 10
858.5571016040486
 20
2002.137203083335
 30
0.0
 40
6.0
100
AcDbArc
 50
180.0
 51
270.0
  0
ARC
  5
5EC
330
17
100
AcDbEntity
  8
0
100
AcDbCircle
 10
840.3963479989396
 20
1993.977203083334
 30
0.0
 40
2.839246394892143
100
AcDbArc
 50
180.0
 51
270.0
  0
ARC
  5
5ED
330
17
100
AcDbEntity
  8
0
100
AcDbCircle
 10
841.0571016040485
 20
1993.137203083334
 30
0.0
 40
12.0
100
AcDbArc
 50
180.0
 51
270.0
  0
LINE
  5
5EE
330
17
100
AcDbEntity
  8
0
100
AcDbLine
 10
852.5571016040485
 20
2079.137203083335
 30
0.0
 11
852.5571016040485
 21
2002.137203083335
 31
0.0
  0
ARC
  5
5F0
330
17
100
AcDbEntity
  8
WAKU
100
AcDbCircle
 10
898.3201013720435
 20
2075.435024641296
 30
0.0
 40
0.6999999900000001
100
AcDbArc
 50
0.0
 51
90.0
  0
ARC
  5
5F1
330
17
100
AcDbEntity
  8
WAKU
100
AcDbCircle
 10
898.3201013720435
 20
2006.835025641296
 30
0.0
 40
0.6999999900000001
100
AcDbArc
 50
270.0
 51
0.0
  0
LINE
  5
5F2
330
17
100
AcDbEntity
  8
WAKU
100
AcDbLine
 10
899.0201002720437
 20
2075.435024641296
 30
0.0
 11
899.0201002720437
 21
2006.835025641296
 31
0.0
  0
ARC
  5
5F3
330
17
100
AcDbEntity
  8
WAKU
100
AcDbCircle
 10
867.7201006720434
 20
2075.435024641296
 30
0.0
 40
0.6999999900000001
100
AcDbArc
 50
90.0
 51
180.0
  0
LINE
  5
5F5
330
17
100
AcDbEntity
  8
0
100
AcDbLine
 10
869.0571016040484
 20
1993.137203083334
 30
0.0
 11
869.0571016040484
 21
1993.137203083334
 31
0.0
  0
ARC
  5
5F6
330
17
100
AcDbEntity
  8
WAKU
100
AcDbCircle
 10
867.7201006720434
 20
2006.835025641296
 30
0.0
 40
0.6999999900000001
100
AcDbArc
 50
180.0
 51
270.0
  0
LINE
  5
5F8
330
17
100
AcDbEntity
  8
WAKU
100
AcDbLine
 10
867.020103672044
 20
2075.435024641296
 30
0.0
 11
867.020103672044
 21
2006.835025641296
 31
0.0
  0
LINE
  5
5FA
330
17
100
AcDbEntity
  8
WAKU
100
AcDbLine
 10
867.7201006720437
 20
2076.135021641297
 30
0.0
 11
898.320101372044
 21
2076.135021641297
 31
0.0
  0
LINE
  5
5FB
330
17
100
AcDbEntity
  8
WAKU
100
AcDbLine
 10
867.7201006720437
 20
2006.135026641297
 30
0.0
 11
898.320101372044
 21
2006.135026641297
 31
0.0
  0
ARC
  5
5FC
330
17
100
AcDbEntity
  8
0
100
AcDbCircle
 10
972.7178552091555
 20
1993.977203083334
 30
0.0
 40
2.839246394892143
100
AcDbArc
 50
270.0
 51
0.0
  0
ARC
  5
5FD
330
17
100
AcDbEntity
  8
0
100
AcDbCircle
 10
954.5571016040485
 20
2079.137203083335
 30
0.0
 40
6.0
100
AcDbArc
 50
0.0
 51
90.0
  0
ARC
  5
5FE
330
17
100
AcDbEntity
  8
0
100
AcDbCircle
 10
954.5571016040485
 20
2002.137203083335
 30
0.0
 40
6.0
100
AcDbArc
 50
270.0
 51
0.0
  0
LINE
  5
5FF
330
17
100
AcDbEntity
  8
0
100
AcDbLine
 10
960.5571016040485
 20
2079.137203083335
 30
0.0
 11
960.5571016040485
 21
2002.137203083335
 31
0.0
  0
ARC
  5
600
330
17
100
AcDbEntity
  8
0
100
AcDbCircle
 10
972.0571016040485
 20
1993.137203083334
 30
0.0
 40
12.0
100
AcDbArc
 50
270.0
 51
0.0
  0
CIRCLE
  5
601
330
17
100
AcDbEntity
  8
0
100
AcDbCircle
 10
968.8071016040485
 20
2041.137203083335
 30
0.0
 40
6.0
  0
LINE
  5
603
330
17
100
AcDbEntity
  8
0
  6
Continuous
100
AcDbLine
 10
1259.501364125266
 20
1186.137203083323
 30
0.0
 11
1259.501364125266
 21
1056.137203083321
 31
0.0
  0
LINE
  5
604
330
17
100
AcDbEntity
  8
0
  6
Continuous
100
AcDbLine
 10
1344.501364125266
 20
1186.137203083321
 30
0.0
 11
1344.501364125266
 21
1056.137203083321
 31
0.0
  0
LINE
  5
605
330
17
100
AcDbEntity
  8
0
100
AcDbLine
 10
1138.55710160405
 20
878.1372030833244
 30
0.0
 11
1387.55710160405
 21
878.1372030833253
 31
0.0
  0
LINE
  5
60B
330
17
100
AcDbEntity
  8
0
100
AcDbLine
 10
1184.557101604044
 20
1003.137203083323
 30
0.0
 11
1184.557101604044
 21
975.9710758276311
 31
0.0
  0
ARC
  5
60C
330
17
100
AcDbEntity
  8
0
100
AcDbCircle
 10
1151.259202402147
 20
987.340893083323
 30
0.0
 40
25.0
100
AcDbArc
 50
202.6683499999931
 51
247.3316499999785
  0
ARC
  5
60D
330
17
100
AcDbEntity
  8
0
100
AcDbCircle
 10
1118.555512402146
 20
954.6372030833227
 30
0.0
 40
25.0
100
AcDbArc
 50
337.3316500000069
 51
22.66834999999306
  0
LINE
  5
60E
330
17
100
AcDbEntity
  8
0
100
AcDbLine
 10
1115.449682402146
 20
966.2283130833229
 30
0.0
 11
1115.967322402148
 21
964.296463083323
 31
0.0
  0
ARC
  5
60F
330
17
100
AcDbEntity
  8
0
100
AcDbCircle
 10
1118.555512402146
 20
954.6372030833227
 30
0.0
 40
12.0
100
AcDbArc
 50
33.22759000000509
 51
75.00000000000555
  0
ARC
  5
610
330
17
100
AcDbEntity
  8
0
100
AcDbCircle
 10
1118.555512402146
 20
954.6372030833227
 30
0.0
 40
10.0
100
AcDbArc
 50
14.99999999999445
 51
75.00000000000555
  0
LINE
  5
611
330
17
100
AcDbEntity
  8
0
100
AcDbLine
 10
1121.143702402147
 20
964.296463083323
 30
0.0
 11
1121.661342402147
 21
966.2283130833229
 31
0.0
  0
TEXT
  5
612
330
17
100
AcDbEntity
  8
0
100
AcDbText
 10
1128.555512402146
 20
957.1372030833227
 30
0.0
 40
5.0
  1
閉
 50
270.0
 41
1.153846153846153
 72
     5
 11
1128.555512402146
 21
952.1372030833227
 31
0.0
100
AcDbText
  0
LINE
  5
613
330
17
100
AcDbEntity
  8
0
100
AcDbLine
 10
1128.214772402147
 20
957.225393083323
 30
0.0
 11
1129.430022402148
 21
961.7607630833227
 31
0.0
  0
LINE
  5
614
330
17
100
AcDbEntity
  8
0
100
AcDbLine
 10
1129.430022402148
 20
961.7607630833227
 30
0.0
 11
1128.593522402147
 21
961.2128030833227
 31
0.0
  0
LINE
  5
615
330
17
100
AcDbEntity
  8
0
100
AcDbLine
 10
1131.975512402148
 20
924.6372030833226
 30
0.0
 11
1131.975512402148
 21
931.6372030833226
 31
0.0
  0
LINE
  5
616
330
17
100
AcDbEntity
  8
0
100
AcDbLine
 10
1118.555512402146
 20
922.6372030833227
 30
0.0
 11
1133.555512402147
 21
922.6372030833227
 31
0.0
  0
LINE
  5
617
330
17
100
AcDbEntity
  8
0
100
AcDbLine
 10
1134.555512402146
 20
923.6372030833226
 30
0.0
 11
1133.555512402147
 21
922.6372030833227
 31
0.0
  0
LINE
  5
618
330
17
100
AcDbEntity
  8
0
100
AcDbLine
 10
1131.975512402148
 20
924.6372030833226
 30
0.0
 11
1134.555512402146
 21
924.6372030833226
 31
0.0
  0
LINE
  5
619
330
17
100
AcDbEntity
  8
0
100
AcDbLine
 10
1134.555512402146
 20
931.6372030833226
 30
0.0
 11
1131.975512402148
 21
931.6372030833226
 31
0.0
  0
LINE
  5
61A
330
17
100
AcDbEntity
  8
0
100
AcDbLine
 10
1134.555512402146
 20
931.6372030833226
 30
0.0
 11
1131.975512402148
 21
931.6372030833226
 31
0.0
  0
LINE
  5
61B
330
17
100
AcDbEntity
  8
0
100
AcDbLine
 10
1134.555512402146
 20
923.6372030833226
 30
0.0
 11
1134.555512402146
 21
940.5342430833226
 31
0.0
  0
LINE
  5
61C
330
17
100
AcDbEntity
  8
0
100
AcDbLine
 10
1108.896252402146
 20
957.225393083323
 30
0.0
 11
1107.681002402147
 21
961.7607630833227
 31
0.0
  0
LINE
  5
61D
330
17
100
AcDbEntity
  8
0
100
AcDbLine
 10
1107.681002402147
 20
961.7607630833227
 30
0.0
 11
1108.517502402146
 21
961.2128030833227
 31
0.0
  0
TEXT
  5
61E
330
17
100
AcDbEntity
  8
0
100
AcDbText
 10
1108.555512402146
 20
952.1372030833227
 30
0.0
 40
5.0
  1
開
 50
90.0
 41
1.153846153846153
 72
     5
 11
1108.555512402146
 21
957.1372030833227
 31
0.0
100
AcDbText
  0
LINE
  5
61F
330
17
100
AcDbEntity
  8
0
100
AcDbLine
 10
1105.135512402148
 20
924.6372030833226
 30
0.0
 11
1105.135512402148
 21
931.6372030833226
 31
0.0
  0
LINE
  5
620
330
17
100
AcDbEntity
  8
0
100
AcDbLine
 10
1102.555512402146
 20
923.6372030833226
 30
0.0
 11
1103.555512402146
 21
922.6372030833227
 31
0.0
  0
LINE
  5
621
330
17
100
AcDbEntity
  8
0
100
AcDbLine
 10
1105.135512402148
 20
924.6372030833226
 30
0.0
 11
1102.555512402146
 21
924.6372030833226
 31
0.0
  0
LINE
  5
622
330
17
100
AcDbEntity
  8
0
100
AcDbLine
 10
1102.555512402146
 20
931.6372030833226
 30
0.0
 11
1105.135512402148
 21
931.6372030833226
 31
0.0
  0
LINE
  5
623
330
17
100
AcDbEntity
  8
0
100
AcDbLine
 10
1102.555512402146
 20
931.6372030833226
 30
0.0
 11
1105.135512402148
 21
931.6372030833226
 31
0.0
  0
LINE
  5
624
330
17
100
AcDbEntity
  8
0
100
AcDbLine
 10
1102.555512402146
 20
923.6372030833226
 30
0.0
 11
1102.555512402146
 21
940.5342430833226
 31
0.0
  0
CIRCLE
  5
625
330
17
100
AcDbEntity
  8
0
100
AcDbCircle
 10
1118.555512402146
 20
954.6372030833227
 30
0.0
 40
17.0
  0
ARC
  5
626
330
17
100
AcDbEntity
  8
0
100
AcDbCircle
 10
1118.555512402146
 20
954.6372030833227
 30
0.0
 40
25.0
100
AcDbArc
 50
247.3316499999785
 51
292.6683500000215
  0
LINE
  5
627
330
17
100
AcDbEntity
  8
0
100
AcDbLine
 10
1118.555512402146
 20
922.6372030833227
 30
0.0
 11
1103.555512402146
 21
922.6372030833227
 31
0.0
  0
ARC
  5
628
330
17
100
AcDbEntity
  8
0
100
AcDbCircle
 10
1118.555512402146
 20
954.6372030833227
 30
0.0
 40
12.0
100
AcDbArc
 50
104.9999999999944
 51
146.7724099999949
  0
ARC
  5
629
330
17
100
AcDbEntity
  8
0
100
AcDbCircle
 10
1118.555512402146
 20
954.6372030833227
 30
0.0
 40
10.0
100
AcDbArc
 50
104.9999999999944
 51
165.0000000000055
  0
ARC
  5
62A
330
17
100
AcDbEntity
  8
0
100
AcDbCircle
 10
1151.259202402147
 20
921.933523083323
 30
0.0
 40
25.0
100
AcDbArc
 50
112.6683500000215
 51
157.3316500000069
  0
ARC
  5
62B
330
17
100
AcDbEntity
  8
0
100
AcDbCircle
 10
1118.55710160405
 20
954.6372030833227
 30
0.0
 40
20.5
100
AcDbArc
 50
317.0297160682034
 51
222.9702839317966
  0
LINE
  5
62C
330
17
100
AcDbEntity
  8
0
100
AcDbLine
 10
1200.557101604044
 20
975.9710758680398
 30
0.0
 11
1203.39097438876
 21
973.1372030833231
 31
0.0
  0
LINE
  5
62F
330
17
100
AcDbEntity
  8
0
100
AcDbLine
 10
1184.557101604044
 20
975.9710758276311
 30
0.0
 11
1200.557101604044
 21
975.9710758276311
 31
0.0
  0
LINE
  5
630
330
17
100
AcDbEntity
  8
0
100
AcDbLine
 10
1181.723228859734
 20
973.1372030833231
 30
0.0
 11
1203.39097438876
 21
973.1372030833231
 31
0.0
  0
LINE
  5
631
330
17
100
AcDbEntity
  8
0
100
AcDbLine
 10
1184.557101604044
 20
975.9710758276311
 30
0.0
 11
1181.723228859734
 21
973.1372030833231
 31
0.0
  0
LINE
  5
632
330
17
100
AcDbEntity
  8
0
100
AcDbLine
 10
1182.457009604043
 20
959.1358330833232
 30
0.0
 11
1183.509345604044
 21
958.1372030833231
 31
0.0
  0
LINE
  5
633
330
17
100
AcDbEntity
  8
0
100
AcDbLine
 10
1182.457009628432
 20
959.1358326179438
 30
0.0
 11
1183.509345587214
 21
958.1372030833231
 31
0.0
1001
GENIUS_GENFIL_13
1070
     0
1040
1.0
1040
1.0
1040
1.000000000000075
1040
43.49999992717582
1000
~T
1001
GENIUS_GENOREF_13
1005
0
  0
LINE
  5
634
330
17
100
AcDbEntity
  8
0
100
AcDbLine
 10
1202.657193604043
 20
959.1358330833232
 30
0.0
 11
1201.604857604044
 21
958.1372030833231
 31
0.0
  0
LINE
  5
635
330
17
100
AcDbEntity
  8
0
100
AcDbLine
 10
1182.457009604043
 20
959.1358330833232
 30
0.0
 11
1202.657193604043
 21
959.1358330833232
 31
0.0
  0
LINE
  5
636
330
17
100
AcDbEntity
  8
0
100
AcDbLine
 10
1183.509345587214
 20
958.1372030833231
 30
0.0
 11
1201.604857604044
 21
958.1372030833231
 31
0.0
  0
LINE
  5
637
330
17
100
AcDbEntity
  8
HOJO
100
AcDbLine
 10
1182.827364076626
 20
974.2413383002135
 30
0.0
 11
1183.671345604044
 21
958.1372030833231
 31
0.0
  0
LINE
  5
638
330
17
100
AcDbEntity
  8
0
100
AcDbLine
 10
1181.723228859734
 20
973.1372030833231
 30
0.0
 11
1182.457009628432
 21
959.1358326179438
 31
0.0
  0
LINE
  5
639
330
17
100
AcDbEntity
  8
HOJO
100
AcDbLine
 10
1202.286840152271
 20
974.2413373198129
 30
0.0
 11
1201.442857604043
 21
958.1372030833231
 31
0.0
  0
LINE
  5
63A
330
17
100
AcDbEntity
  8
0
100
AcDbLine
 10
1203.39097438876
 20
973.1372030833231
 30
0.0
 11
1202.657193604043
 21
959.1358330833232
 31
0.0
  0
LINE
  5
63B
330
17
100
AcDbEntity
  8
0
100
AcDbLine
 10
1126.555512402146
 20
978.3226416479774
 30
0.0
 11
1126.555512402146
 21
1005.137203083334
 31
0.0
  0
LINE
  5
63C
330
17
100
AcDbEntity
  8
0
100
AcDbLine
 10
1110.555512402146
 20
978.3226416479774
 30
0.0
 11
1110.555512402146
 21
1005.137203083334
 31
0.0
  0
ARC
  5
63D
330
17
100
AcDbEntity
  8
0
100
AcDbCircle
 10
1118.555512402146
 20
954.6372030833227
 30
0.0
 40
25.0
100
AcDbArc
 50
67.33164999997851
 51
112.6683500000215
  0
ARC
  5
649
330
17
100
AcDbEntity
  8
0
100
AcDbCircle
 10
1182.557101604042
 20
1003.137203083322
 30
0.0
 40
2.0
100
AcDbArc
 50
0.0
 51
90.0
  0
LINE
  5
64D
330
17
100
AcDbEntity
  8
0
100
AcDbLine
 10
1314.557101583842
 20
1003.137203083323
 30
0.0
 11
1314.557101583842
 21
975.9710758276311
 31
0.0
  0
LINE
  5
650
330
17
100
AcDbEntity
  8
0
100
AcDbLine
 10
1387.55710160405
 20
1009.137203083334
 30
0.0
 11
1387.55710160405
 21
877.7372030833248
 31
0.0
  0
LINE
  5
651
330
17
100
AcDbEntity
  8
0
100
AcDbLine
 10
1314.557101583842
 20
975.9710758276311
 30
0.0
 11
1330.557101583842
 21
975.9710758276311
 31
0.0
  0
LINE
  5
652
330
17
100
AcDbEntity
  8
0
100
AcDbLine
 10
1311.723228839532
 20
973.1372030833231
 30
0.0
 11
1333.390974368559
 21
973.1372030833231
 31
0.0
  0
LINE
  5
653
330
17
100
AcDbEntity
  8
0
100
AcDbLine
 10
1312.457009583841
 20
959.1358330833232
 30
0.0
 11
1332.657193583841
 21
959.1358330833232
 31
0.0
  0
LINE
  5
654
330
17
100
AcDbEntity
  8
0
100
AcDbLine
 10
1313.509345567013
 20
958.1372030833231
 30
0.0
 11
1331.604857583842
 21
958.1372030833231
 31
0.0
  0
LINE
  5
656
330
17
100
AcDbEntity
  8
0
100
AcDbLine
 10
1314.557101583842
 20
975.9710758276311
 30
0.0
 11
1311.723228839532
 21
973.1372030833231
 31
0.0
  0
LINE
  5
657
330
17
100
AcDbEntity
  8
0
100
AcDbLine
 10
1312.457009583841
 20
959.1358330833232
 30
0.0
 11
1313.509345583842
 21
958.1372030833231
 31
0.0
  0
LINE
  5
658
330
17
100
AcDbEntity
  8
0
100
AcDbLine
 10
1312.457009608231
 20
959.1358326179438
 30
0.0
 11
1313.509345567013
 21
958.1372030833231
 31
0.0
1001
GENIUS_GENFIL_13
1070
     0
1040
1.0
1040
1.0
1040
1.000000000000075
1040
43.49999992717582
1000
~T
1001
GENIUS_GENOREF_13
1005
0
  0
LINE
  5
659
330
17
100
AcDbEntity
  8
HOJO
100
AcDbLine
 10
1312.827364056425
 20
974.2413383002135
 30
0.0
 11
1313.671345583842
 21
958.1372030833231
 31
0.0
  0
LINE
  5
65A
330
17
100
AcDbEntity
  8
0
100
AcDbLine
 10
1311.723228839532
 20
973.1372030833231
 30
0.0
 11
1312.457009608231
 21
959.1358326179438
 31
0.0
  0
LINE
  5
65B
330
17
100
AcDbEntity
  8
0
100
AcDbLine
 10
1330.557101583842
 20
975.9710758680398
 30
0.0
 11
1333.390974368559
 21
973.1372030833231
 31
0.0
  0
LINE
  5
65D
330
17
100
AcDbEntity
  8
0
100
AcDbLine
 10
1332.657193583841
 20
959.1358330833232
 30
0.0
 11
1331.604857583842
 21
958.1372030833231
 31
0.0
  0
LINE
  5
65E
330
17
100
AcDbEntity
  8
HOJO
100
AcDbLine
 10
1332.286840132069
 20
974.2413373198129
 30
0.0
 11
1331.442857583842
 21
958.1372030833231
 31
0.0
  0
LINE
  5
65F
330
17
100
AcDbEntity
  8
0
100
AcDbLine
 10
1333.390974368559
 20
973.1372030833231
 30
0.0
 11
1332.657193583841
 21
959.1358330833232
 31
0.0
  0
LINE
  5
660
330
17
100
AcDbEntity
  8
0
100
AcDbLine
 10
1382.157101604049
 20
877.7372030833248
 30
0.0
 11
1382.157101604049
 21
877.1372030833244
 31
0.0
  0
LINE
  5
661
330
17
100
AcDbEntity
  8
0
100
AcDbLine
 10
1387.55710160405
 20
877.7372030833248
 30
0.0
 11
1382.157101604049
 21
877.7372030833248
 31
0.0
  0
LINE
  5
662
330
17
100
AcDbEntity
  8
0
100
AcDbLine
 10
1388.157101604049
 20
877.1372030833244
 30
0.0
 11
1382.157101604049
 21
877.1372030833244
 31
0.0
  0
LINE
  5
663
330
17
100
AcDbEntity
  8
0
100
AcDbLine
 10
1387.55710160405
 20
878.1372030833244
 30
0.0
 11
1359.157101604049
 21
878.1372030833244
 31
0.0
  0
LINE
  5
666
330
17
100
AcDbEntity
  8
0
  6
Continuous
100
AcDbLine
 10
1259.501364125266
 20
1056.137203083321
 30
0.0
 11
1344.501364125266
 21
1056.137203083321
 31
0.0
  0
ARC
  5
668
330
17
100
AcDbEntity
  8
0
100
AcDbCircle
 10
1312.55710158384
 20
1003.137203083322
 30
0.0
 40
2.0
100
AcDbArc
 50
0.0
 51
90.0
  0
CIRCLE
  5
669
330
17
100
AcDbEntity
  8
0
100
AcDbCircle
 10
1268.557101604048
 20
1021.137203083334
 30
0.0
 40
3.0
  0
CIRCLE
  5
66A
330
17
100
AcDbEntity
  8
0
100
AcDbCircle
 10
1268.55710160405
 20
1021.137203083322
 30
0.0
 40
1.6
  0
CIRCLE
  5
66B
330
17
100
AcDbEntity
  8
0
100
AcDbCircle
 10
1268.557101604048
 20
1021.137203083334
 30
0.0
 40
10.4
  0
CIRCLE
  5
66C
330
17
100
AcDbEntity
  8
0
100
AcDbCircle
 10
1268.557101604048
 20
1021.137203083334
 30
0.0
 40
6.0
  0
LINE
  5
675
330
17
100
AcDbEntity
  8
0
100
AcDbLine
 10
1363.057101604046
 20
1005.137203083334
 30
0.0
 11
1363.057101604048
 21
1009.137203083334
 31
0.0
  0
LINE
  5
676
330
17
100
AcDbEntity
  8
0
100
AcDbLine
 10
1363.057101604048
 20
1009.137203083334
 30
0.0
 11
1388.057101604048
 21
1009.137203083334
 31
0.0
  0
LINE
  5
677
330
17
100
AcDbEntity
  8
0
100
AcDbLine
 10
1387.55710160405
 20
1008.137203083319
 30
0.0
 11
1363.057101604048
 21
1008.137203083319
 31
0.0
  0
LINE
  5
678
330
17
100
AcDbEntity
  8
0
  6
Continuous
100
AcDbLine
 10
1259.501364125266
 20
1186.137203083323
 30
0.0
 11
1344.501364125266
 21
1186.137203083323
 31
0.0
  0
CIRCLE
  5
67E
330
17
100
AcDbEntity
  8
0
100
AcDbCircle
 10
1346.557101604046
 20
1752.137203083334
 30
0.0
 40
3.0
  0
CIRCLE
  5
67F
330
17
100
AcDbEntity
  8
0
100
AcDbCircle
 10
1346.557101604048
 20
1752.137203083334
 30
0.0
 40
10.4
  0
CIRCLE
  5
680
330
17
100
AcDbEntity
  8
0
100
AcDbCircle
 10
1346.557101604048
 20
1752.137203083334
 30
0.0
 40
6.0
  0
LINE
  5
6BE
330
17
100
AcDbEntity
  8
DIMTEXT
100
AcDbLine
 10
539.8139686898343
 20
2989.622484457572
 30
0.0
 11
172.043702532476
 21
2989.622484457572
 31
0.0
  0
LINE
  5
6BF
330
17
100
AcDbEntity
  8
DIMTEXT
100
AcDbLine
 10
531.3909000543771
 20
2454.622484457572
 30
0.0
 11
172.043702532476
 21
2454.622484457572
 31
0.0
  0
TEXT
  5
6C2
330
17
100
AcDbEntity
  8
DIMTEXT
100
AcDbText
 10
172.043702532476
 20
3010.622484457572
 30
0.0
 40
48.0
  1
逃し弁点検窓
 41
0.8
100
AcDbText
  0
TEXT
  5
6C4
330
17
100
AcDbEntity
  8
DIMTEXT
100
AcDbText
 10
172.043702532476
 20
2475.622484457572
 30
0.0
 40
48.0
  1
操作カバー
 41
0.8
100
AcDbText
  0
LINE
  5
6C5
330
17
100
AcDbEntity
  8
0
100
AcDbLine
 10
1403.474719611155
 20
3963.28940589837
 30
0.0
 11
1403.474719611155
 21
3288.489405898371
 31
0.0
  0
ARC
  5
6C6
330
17
100
AcDbEntity
  8
0
100
AcDbCircle
 10
1082.474719611156
 20
3779.889405898371
 30
0.0
 40
23.0
100
AcDbArc
 50
0.0
 51
180.0
  0
LINE
  5
6C8
330
17
100
AcDbEntity
  8
0
100
AcDbLine
 10
761.4747196111565
 20
3963.28940589837
 30
0.0
 11
761.4747196111565
 21
3288.489405898371
 31
0.0
  0
LINE
  5
6C9
330
17
100
AcDbEntity
  8
0
100
AcDbLine
 10
795.5571016040758
 20
2939.637203083325
 30
0.0
 11
1341.557101604074
 21
2939.637203083325
 31
0.0
  0
LINE
  5
6CA
330
17
100
AcDbEntity
  8
0
100
AcDbLine
 10
747.5571016040739
 20
2904.637203083325
 30
0.0
 11
1389.557101604074
 21
2904.637203083398
 31
0.0
  0
LINE
  5
6CB
330
17
100
AcDbEntity
  8
0
100
AcDbLine
 10
751.1571016040743
 20
2929.637203083325
 30
0.0
 11
1385.957101604073
 21
2929.637203083325
 31
0.0
  0
ARC
  5
6CC
330
17
100
AcDbEntity
  8
0
100
AcDbCircle
 10
1112.069251972305
 20
3378.229583948119
 30
0.0
 40
1.761027488290249
100
AcDbArc
 50
316.3727757342446
 51
139.7643575690571
  0
ARC
  5
6CD
330
17
100
AcDbEntity
  8
0
100
AcDbCircle
 10
1112.50622323344
 20
3351.353020348462
 30
0.0
 40
1.71109043575421
100
AcDbArc
 50
223.7629858239941
 51
44.05995006623565
  0
ARC
  5
6CE
330
17
100
AcDbEntity
  8
0
100
AcDbCircle
 10
1112.506223233442
 20
3351.353020348462
 30
0.0
 40
1.71109043575421
100
AcDbArc
 50
223.7629858239849
 51
44.05995006623565
  0
ARC
  5
6CF
330
17
100
AcDbEntity
  8
0
100
AcDbCircle
 10
1063.499473167863
 20
3419.326047757834
 30
0.0
 40
61.86241748930285
100
AcDbArc
 50
305.3279955183939
 51
319.7643575690571
  0
ARC
  5
6D0
330
17
100
AcDbEntity
  8
0
100
AcDbCircle
 10
1056.0467673852
 20
3431.629856955276
 30
0.0
 40
79.15681507747992
100
AcDbArc
 50
304.4835142518073
 51
316.3727757342446
  0
ARC
  5
6D1
330
17
100
AcDbEntity
  8
0
100
AcDbCircle
 10
1047.441318004827
 20
3288.388872013172
 30
0.0
 40
92.2534886147152
100
AcDbArc
 50
44.05995006623565
 51
54.63084746059964
  0
ARC
  5
6D2
330
17
100
AcDbEntity
  8
0
100
AcDbCircle
 10
1029.622841549051
 20
3271.973435703686
 30
0.0
 40
113.0528996387356
100
AcDbArc
 50
43.76298582399408
 51
52.08184308538129
  0
LINE
  5
6D3
330
17
100
AcDbEntity
  8
0
100
AcDbLine
 10
840.4747196111564
 20
3321.889405898371
 30
0.0
 11
1324.474719611155
 21
3321.889405898371
 31
0.0
  0
LINE
  5
6D4
330
17
100
AcDbEntity
  8
0
100
AcDbLine
 10
840.4747196111564
 20
3317.889405898371
 30
0.0
 11
1324.474719611155
 21
3317.889405898371
 31
0.0
  0
LINE
  5
6D5
330
17
100
AcDbEntity
  8
0
100
AcDbLine
 10
841.6102073694599
 20
3330.522281373523
 30
0.0
 11
1324.474719611155
 21
3330.522281373523
 31
0.0
  0
LINE
  5
6D6
330
17
100
AcDbEntity
  8
0
100
AcDbLine
 10
1334.483428463574
 20
3552.522281373523
 30
0.0
 11
1105.474719611156
 21
3552.522281373523
 31
0.0
  0
LINE
  5
6D7
330
17
100
AcDbEntity
  8
0
100
AcDbLine
 10
1334.483428463574
 20
3550.522281373523
 30
0.0
 11
1105.474719611156
 21
3550.522281373523
 31
0.0
  0
LINE
  5
6D8
330
17
100
AcDbEntity
  8
0
100
AcDbLine
 10
785.074719611155
 20
3264.889405898371
 30
0.0
 11
1379.874719611154
 21
3264.889405898371
 31
0.0
  0
LINE
  5
6D9
330
17
100
AcDbEntity
  8
0
100
AcDbLine
 10
840.4747196111564
 20
3296.889405898371
 30
0.0
 11
1324.474719611155
 21
3296.889405898371
 31
0.0
  0
LINE
  5
6DA
330
17
100
AcDbEntity
  8
0
100
AcDbLine
 10
791.5571016040757
 20
2939.637203083325
 30
0.0
 11
795.5571016040758
 21
2939.637203083325
 31
0.0
  0
CIRCLE
  5
6DB
330
17
100
AcDbEntity
  8
0
100
AcDbCircle
 10
790.5571016040485
 20
2698.137203083334
 30
0.0
 40
3.0
  0
CIRCLE
  5
6DC
330
17
100
AcDbEntity
  8
0
100
AcDbCircle
 10
790.5571016040485
 20
2698.137203083334
 30
0.0
 40
6.0
  0
CIRCLE
  5
6DD
330
17
100
AcDbEntity
  8
0
100
AcDbCircle
 10
790.5571016040485
 20
2698.137203083334
 30
0.0
 40
9.0
  0
LINE
  5
6E0
330
17
100
AcDbEntity
  8
0
100
AcDbLine
 10
771.9316867062607
 20
2929.970648040419
 30
0.0
 11
789.9075994814539
 21
2939.237069134814
 31
0.0
  0
ARC
  5
6E1
330
17
100
AcDbEntity
  8
0
100
AcDbCircle
 10
770.5571016040758
 20
2932.637203083325
 30
0.0
 40
3.0
100
AcDbArc
 50
270.0
 51
297.2706975450844
  0
ARC
  5
6E2
330
17
100
AcDbEntity
  8
0
100
AcDbCircle
 10
791.5571016040757
 20
2936.037203083325
 30
0.0
 40
3.6
100
AcDbArc
 50
90.0
 51
117.2706975450845
  0
LINE
  5
6E3
330
17
100
AcDbEntity
  8
0
100
AcDbLine
 10
747.5571016040739
 20
2926.037203083325
 30
0.0
 11
747.5571016040739
 21
2904.637203083325
 31
0.0
  0
LINE
  5
6E4
330
17
100
AcDbEntity
  8
0
100
AcDbLine
 10
747.5571016040739
 20
2924.137203083325
 30
0.0
 11
747.5571016040739
 21
2912.315759220239
 31
0.0
  0
ARC
  5
6E5
330
17
100
AcDbEntity
  8
0
100
AcDbCircle
 10
751.1571016040743
 20
2926.037203083325
 30
0.0
 40
3.6
100
AcDbArc
 50
90.0
 51
180.0
  0
LINE
  5
6E6
330
17
100
AcDbEntity
  8
0
100
AcDbLine
 10
841.0571016040485
 20
2101.137203083334
 30
0.0
 11
972.0571016040485
 21
2101.137203083334
 31
0.0
  0
LINE
  5
6E7
330
17
100
AcDbEntity
  8
0
  6
Continuous
100
AcDbLine
 10
972.7178552091555
 20
2091.137203083334
 30
0.0
 11
840.3963479989396
 21
2091.137203083334
 31
0.0
  0
ARC
  5
6E9
330
17
100
AcDbEntity
  8
0
100
AcDbCircle
 10
840.3963479989396
 20
2088.297203083334
 30
0.0
 40
2.839246394892143
100
AcDbArc
 50
90.0
 51
180.0
  0
ARC
  5
6EA
330
17
100
AcDbEntity
  8
0
100
AcDbCircle
 10
841.0571016040485
 20
2089.137203083334
 30
0.0
 40
12.0
100
AcDbArc
 50
90.0
 51
180.0
  0
ARC
  5
6EB
330
17
100
AcDbEntity
  8
0
100
AcDbCircle
 10
972.7178552091555
 20
2088.297203083334
 30
0.0
 40
2.839246394892143
100
AcDbArc
 50
0.0
 51
90.0
  0
ARC
  5
6EC
330
17
100
AcDbEntity
  8
0
100
AcDbCircle
 10
972.0571016040485
 20
2089.137203083334
 30
0.0
 40
12.0
100
AcDbArc
 50
0.0
 51
90.0
  0
LINE
  5
6ED
330
17
100
AcDbEntity
  8
0
  6
Continuous
100
AcDbLine
 10
1011.717855209155
 20
2783.137203083334
 30
0.0
 11
879.3963479989397
 21
2783.137203083334
 31
0.0
  0
LINE
  5
6EE
330
17
100
AcDbEntity
  8
0
100
AcDbLine
 10
880.0571016040485
 20
2773.137203083334
 30
0.0
 11
1011.057101604048
 21
2773.137203083334
 31
0.0
  0
LINE
  5
6EF
330
17
100
AcDbEntity
  8
0
  6
Continuous
100
AcDbLine
 10
1011.717855209155
 20
2883.137203083334
 30
0.0
 11
879.3963479989397
 21
2883.137203083334
 31
0.0
  0
LINE
  5
6F0
330
17
100
AcDbEntity
  8
0
100
AcDbLine
 10
880.0571016040485
 20
2893.137203083334
 30
0.0
 11
1011.057101604048
 21
2893.137203083334
 31
0.0
  0
ARC
  5
6F1
330
17
100
AcDbEntity
  8
0
100
AcDbCircle
 10
880.0571016040485
 20
2785.137203083334
 30
0.0
 40
12.0
100
AcDbArc
 50
180.0
 51
270.0
  0
ARC
  5
6F2
330
17
100
AcDbEntity
  8
0
100
AcDbCircle
 10
880.0571016040485
 20
2881.137203083334
 30
0.0
 40
12.0
100
AcDbArc
 50
90.0
 51
180.0
  0
LINE
  5
6F4
330
17
100
AcDbEntity
  8
0
100
AcDbLine
 10
868.0571016040484
 20
2881.137203083334
 30
0.0
 11
868.0571016040484
 21
2785.137203083334
 31
0.0
  0
ARC
  5
6F5
330
17
100
AcDbEntity
  8
0
100
AcDbCircle
 10
879.3963479989397
 20
2880.297203083334
 30
0.0
 40
2.839246394892143
100
AcDbArc
 50
90.0
 51
180.0
  0
ARC
  5
6F6
330
17
100
AcDbEntity
  8
0
100
AcDbCircle
 10
879.3963479989397
 20
2785.977203083334
 30
0.0
 40
2.839246394892143
100
AcDbArc
 50
180.0
 51
270.0
  0
LINE
  5
6F7
330
17
100
AcDbEntity
  8
0
100
AcDbLine
 10
876.5571016040485
 20
2880.297203083334
 30
0.0
 11
876.5571016040485
 21
2785.977203083334
 31
0.0
  0
ARC
  5
6F8
330
17
100
AcDbEntity
  8
0
100
AcDbCircle
 10
1011.057101604048
 20
2785.137203083334
 30
0.0
 40
12.0
100
AcDbArc
 50
270.0
 51
0.0
  0
ARC
  5
6F9
330
17
100
AcDbEntity
  8
0
100
AcDbCircle
 10
1011.057101604048
 20
2881.137203083334
 30
0.0
 40
12.0
100
AcDbArc
 50
0.0
 51
90.0
  0
ARC
  5
6FA
330
17
100
AcDbEntity
  8
0
100
AcDbCircle
 10
1011.717855209155
 20
2880.297203083334
 30
0.0
 40
2.839246394892143
100
AcDbArc
 50
0.0
 51
90.0
  0
CIRCLE
  5
6FB
330
17
100
AcDbEntity
  8
0
100
AcDbCircle
 10
1007.807101604048
 20
2833.181156577505
 30
0.0
 40
6.0
  0
ARC
  5
6FC
330
17
100
AcDbEntity
  8
0
100
AcDbCircle
 10
1011.717855209155
 20
2785.977203083334
 30
0.0
 40
2.839246394892143
100
AcDbArc
 50
270.0
 51
0.0
  0
LINE
  5
6FD
330
17
100
AcDbEntity
  8
0
100
AcDbLine
 10
1014.557101604048
 20
2880.297203083334
 30
0.0
 11
1014.557101604048
 21
2785.977203083334
 31
0.0
  0
LINE
  5
6FE
330
17
100
AcDbEntity
  8
0
100
AcDbLine
 10
1023.057101604048
 20
2881.137203083334
 30
0.0
 11
1023.05710160405
 21
2785.137203083334
 31
0.0
  0
ARC
  5
6FF
330
17
100
AcDbEntity
  8
0
100
AcDbCircle
 10
807.4747196111601
 20
3541.889405898371
 30
0.0
 40
2.0
100
AcDbArc
 50
0.0
 51
180.0
  0
ARC
  5
700
330
17
100
AcDbEntity
  8
0
100
AcDbCircle
 10
807.4747196111564
 20
3551.889405898371
 30
0.0
 40
23.0
100
AcDbArc
 50
0.0
 51
180.0
  0
ARC
  5
701
330
17
100
AcDbEntity
  8
0
100
AcDbCircle
 10
840.4747196111602
 20
3352.889405898371
 30
0.0
 40
56.0
100
AcDbArc
 50
180.0
 51
270.0
  0
ARC
  5
702
330
17
100
AcDbEntity
  8
0
100
AcDbCircle
 10
840.4747196111602
 20
3352.889405898371
 30
0.0
 40
31.0
100
AcDbArc
 50
180.0
 51
270.0
  0
ARC
  5
703
330
17
100
AcDbEntity
  8
0
100
AcDbCircle
 10
840.4747196111602
 20
3352.889405898371
 30
0.0
 40
35.0
100
AcDbArc
 50
180.0
 51
270.0
  0
LINE
  5
704
330
17
100
AcDbEntity
  8
0
100
AcDbLine
 10
784.4747196111601
 20
3352.889405898371
 30
0.0
 11
784.4747196111601
 21
3551.889405898371
 31
0.0
  0
LINE
  5
705
330
17
100
AcDbEntity
  8
0
100
AcDbLine
 10
805.4747196111602
 20
3352.889405898371
 30
0.0
 11
805.4747196111602
 21
3541.889405898371
 31
0.0
  0
ARC
  5
708
330
17
100
AcDbEntity
  8
0
100
AcDbCircle
 10
785.074719611155
 20
3288.489405898371
 30
0.0
 40
23.6
100
AcDbArc
 50
180.0
 51
270.0
  0
LINE
  5
709
330
17
100
AcDbEntity
  8
0
100
AcDbLine
 10
1098.10276117921
 20
3419.355568218033
 30
0.0
 11
1105.474719611156
 21
3547.889405898371
 31
0.0
  0
LINE
  5
70A
330
17
100
AcDbEntity
  8
0
100
AcDbLine
 10
1066.846678043104
 20
3419.355568218033
 30
0.0
 11
1059.474719611156
 21
3547.889405898371
 31
0.0
  0
LINE
  5
70B
330
17
100
AcDbEntity
  8
0
100
AcDbLine
 10
1084.474719611156
 20
3419.889405898371
 30
0.0
 11
1084.474719611156
 21
3769.889405898371
 31
0.0
  0
LINE
  5
70C
330
17
100
AcDbEntity
  8
0
100
AcDbLine
 10
1080.474719611156
 20
3419.889405898371
 30
0.0
 11
1080.474719611156
 21
3769.889405898371
 31
0.0
  0
LINE
  5
70D
330
17
100
AcDbEntity
  8
0
100
AcDbLine
 10
809.4747196111601
 20
3352.889405898371
 30
0.0
 11
809.4747196111601
 21
3541.889405898371
 31
0.0
  0
LINE
  5
70E
330
17
100
AcDbEntity
  8
0
100
AcDbLine
 10
830.4747196111565
 20
3547.889405898371
 30
0.0
 11
819.2906460615594
 21
3352.889405898378
 31
0.0
  0
ELLIPSE
  5
715
330
17
100
AcDbEntity
  8
0
100
AcDbEllipse
 10
840.4747196111602
 20
3352.889405898371
 30
0.0
 11
0.0
 21
-22.3671245248471
 31
0.0
210
0.0
220
0.0
230
-1.0
 40
0.9471075965115273
 41
0.0
 42
1.691763084935387
  0
ARC
  5
720
330
17
100
AcDbEntity
  8
0
100
AcDbCircle
 10
1036.324322416458
 20
3354.669380781631
 30
0.0
 40
5.633656937873629
100
AcDbArc
 50
225.0949546242952
 51
290.5691554438977
  0
ARC
  5
721
330
17
100
AcDbEntity
  8
0
100
AcDbCircle
 10
1029.701154020215
 20
3495.581077714895
 30
0.0
 40
121.7604330241878
100
AcDbArc
 50
271.9098772614884
 51
276.0399308943377
  0
ARC
  5
722
330
17
100
AcDbEntity
  8
0
100
AcDbCircle
 10
1030.241803387245
 20
3480.229558596165
 30
0.0
 40
103.0457938621788
100
AcDbArc
 50
272.3932568136527
 51
276.6294293644127
  0
ARC
  5
723
330
17
100
AcDbEntity
  8
0
100
AcDbCircle
 10
1035.808258935987
 20
3355.597100668488
 30
0.0
 40
5.64922950870949
100
AcDbArc
 50
64.38699313939398
 51
105.7360571231494
  0
ARC
  5
724
330
17
100
AcDbEntity
  8
0
100
AcDbCircle
 10
1036.324322416458
 20
3354.669380781631
 30
0.0
 40
5.633656937873629
100
AcDbArc
 50
225.0949546242952
 51
290.5691554438977
  0
ARC
  5
725
330
17
100
AcDbEntity
  8
0
100
AcDbCircle
 10
917.7948218894069
 20
3394.841029879303
 30
0.0
 40
114.6149774950051
100
AcDbArc
 50
351.353090829889
 51
352.2543065993025
  0
ARC
  5
726
330
17
100
AcDbEntity
  8
0
100
AcDbCircle
 10
902.2502838986891
 20
3398.08629291641
 30
0.0
 40
133.3242707879764
100
AcDbArc
 50
351.2693707931437
 51
351.7674893860365
  0
ARC
  5
727
330
17
100
AcDbEntity
  8
0
100
AcDbCircle
 10
1032.783207030559
 20
3379.200600496096
 30
0.0
 40
1.43221871680286
100
AcDbArc
 50
351.7674893860365
 51
172.2543065993025
  0
ARC
  5
728
330
17
100
AcDbEntity
  8
0
100
AcDbCircle
 10
1035.536042613337
 20
3353.878483852575
 30
0.0
 40
4.51700882876673
100
AcDbArc
 50
196.249269442234
 51
225.0949546242952
  0
ARC
  5
729
330
17
100
AcDbEntity
  8
0
100
AcDbCircle
 10
1033.775785404923
 20
3373.388562140738
 30
0.0
 40
0.5
100
AcDbArc
 50
91.90987726159269
 51
169.3649013598509
  0
ARC
  5
72A
330
17
100
AcDbEntity
  8
0
100
AcDbCircle
 10
1029.848570053975
 20
3373.2496980316
 30
0.0
 40
0.49999999999993
100
AcDbArc
 50
349.093501332935
 51
85.34010602250839
  0
ARC
  5
72B
330
17
100
AcDbEntity
  8
0
100
AcDbCircle
 10
1030.612725435449
 20
3377.684435573864
 30
0.0
 40
0.5000000000000701
100
AcDbArc
 50
270.2072470594103
 51
351.353090829889
  0
ARC
  5
72C
330
17
100
AcDbEntity
  8
0
100
AcDbCircle
 10
1034.523917401999
 20
3377.77321014284
 30
0.0
 40
0.49999999999974
100
AcDbArc
 50
171.2693707931436
 51
272.3932568136527
  0
ARC
  5
72D
330
17
100
AcDbEntity
  8
0
100
AcDbCircle
 10
1030.241803387245
 20
3480.229558596165
 30
0.0
 40
103.0457938621791
100
AcDbArc
 50
268.5159027297424
 51
270.2072470594103
  0
ARC
  5
72E
330
17
100
AcDbEntity
  8
0
100
AcDbCircle
 10
1039.518385451745
 20
3355.039175846557
 30
0.0
 40
8.66505178746803
100
AcDbArc
 50
152.3308486543193
 51
196.249269442234
  0
ARC
  5
72F
330
17
100
AcDbEntity
  8
0
100
AcDbCircle
 10
1035.34957486968
 20
3357.224987933433
 30
0.0
 40
3.957955426828589
100
AcDbArc
 50
105.7360571231494
 51
152.3308486543193
  0
ARC
  5
730
330
17
100
AcDbEntity
  8
0
100
AcDbCircle
 10
1035.536042613337
 20
3353.878483852575
 30
0.0
 40
4.51700882876673
100
AcDbArc
 50
196.249269442234
 51
225.0949546242952
  0
ARC
  5
731
330
17
100
AcDbEntity
  8
0
100
AcDbCircle
 10
902.2502838986891
 20
3398.08629291641
 30
0.0
 40
133.3242707879771
100
AcDbArc
 50
341.2328116893736
 51
349.364901359851
  0
LINE
  5
732
330
17
100
AcDbEntity
  8
0
100
AcDbLine
 10
1027.397626579866
 20
3373.951133383699
 30
0.0
 11
1029.889190484093
 21
3373.748045280672
 31
0.0
  0
ARC
  5
733
330
17
100
AcDbEntity
  8
0
100
AcDbCircle
 10
999.8991797470006
 20
3324.582079254086
 30
0.0
 40
56.05458199643471
100
AcDbArc
 50
71.0130109216655
 51
81.4972595150022
  0
ARC
  5
734
330
17
100
AcDbEntity
  8
0
100
AcDbCircle
 10
1007.965974739298
 20
3378.540610095458
 30
0.0
 40
1.496390750689569
100
AcDbArc
 50
81.4972595150022
 51
260.0654168637273
  0
ARC
  5
735
330
17
100
AcDbEntity
  8
0
100
AcDbCircle
 10
1010.915658678985
 20
3363.750847613051
 30
0.0
 40
11.1134528274799
100
AcDbArc
 50
256.4402732669401
 51
303.3161870487658
  0
ARC
  5
736
330
17
100
AcDbEntity
  8
0
100
AcDbCircle
 10
1011.101084618502
 20
3364.651400179239
 30
0.0
 40
14.83237895574246
100
AcDbArc
 50
256.5720137260259
 51
297.1411212152209
  0
ARC
  5
737
330
17
100
AcDbEntity
  8
0
100
AcDbCircle
 10
1007.981772833838
 20
3351.586211126508
 30
0.0
 40
1.39998263214061
100
AcDbArc
 50
76.44027326694017
 51
256.5720137260259
  0
ARC
  5
738
330
17
100
AcDbEntity
  8
0
100
AcDbCircle
 10
1014.604789089106
 20
3359.742085202338
 30
0.0
 40
8.15738022964574
100
AcDbArc
 50
14.87791842073707
 51
42.81850524865288
  0
ARC
  5
739
330
17
100
AcDbEntity
  8
0
100
AcDbCircle
 10
1013.736066412017
 20
3359.511294439627
 30
0.0
 40
9.05623698496702
100
AcDbArc
 50
297.1411212152209
 51
14.87791842073707
  0
ARC
  5
73A
330
17
100
AcDbEntity
  8
0
100
AcDbCircle
 10
1007.341893827033
 20
3365.171790131309
 30
0.0
 40
0.5000000000003801
100
AcDbArc
 50
176.6607264305827
 51
315.1560002023238
  0
ARC
  5
73B
330
17
100
AcDbEntity
  8
0
100
AcDbCircle
 10
1019.454814506412
 20
3364.236168524
 30
0.0
 40
1.545305559012189
100
AcDbArc
 50
42.81850524865288
 51
223.1994696149775
  0
ARC
  5
73C
330
17
100
AcDbEntity
  8
0
100
AcDbCircle
 10
1014.423504432619
 20
3366.339559408272
 30
0.0
 40
1.557415834144979
100
AcDbArc
 50
271.1692771500836
 51
91.57397095084798
  0
ARC
  5
73D
330
17
100
AcDbEntity
  8
0
100
AcDbCircle
 10
999.8871922444886
 20
3332.415668939383
 30
0.0
 40
45.33070528610178
100
AcDbArc
 50
67.74938045210999
 51
80.06541686362522
  0
ARC
  5
73E
330
17
100
AcDbEntity
  8
0
100
AcDbCircle
 10
1017.695913273044
 20
3375.944638351214
 30
0.0
 40
1.70036659971803
100
AcDbArc
 50
247.74938045211
 51
74.97453310918404
  0
ARC
  5
73F
330
17
100
AcDbEntity
  8
0
100
AcDbCircle
 10
1015.379711307916
 20
3357.17762331711
 30
0.0
 40
10.83636683022981
100
AcDbArc
 50
106.8136262035872
 51
135.1560002023239
  0
ARC
  5
740
330
17
100
AcDbEntity
  8
0
100
AcDbCircle
 10
1018.28292244624
 20
3351.533131766214
 30
0.0
 40
14.07593637463589
100
AcDbArc
 50
115.0243549754745
 51
146.2752900288585
  0
ARC
  5
741
330
17
100
AcDbEntity
  8
0
100
AcDbCircle
 10
1010.915658678985
 20
3363.750847613051
 30
0.0
 40
11.1134528274799
100
AcDbArc
 50
256.4402732669401
 51
303.3161870488803
  0
ARC
  5
742
330
17
100
AcDbEntity
  8
0
100
AcDbCircle
 10
1011.101084618502
 20
3364.651400179239
 30
0.0
 40
14.83237895574246
100
AcDbArc
 50
256.5720137259193
 51
297.1411212152209
  0
ARC
  5
743
330
17
100
AcDbEntity
  8
0
100
AcDbCircle
 10
1005.425188024346
 20
3360.116188505276
 30
0.0
 40
1.383371418728339
100
AcDbArc
 50
183.6133228217067
 51
326.2752900288585
  0
ARC
  5
744
330
17
100
AcDbEntity
  8
0
100
AcDbCircle
 10
1014.563072493823
 20
3359.501530723354
 30
0.0
 40
5.282037034284349
100
AcDbArc
 50
91.16927715008365
 51
115.0243549754745
  0
ARC
  5
745
330
17
100
AcDbEntity
  8
0
100
AcDbCircle
 10
1013.724203903657
 20
3359.477737090331
 30
0.0
 40
6.00000000111757
100
AcDbArc
 50
303.3169227853075
 51
15.84511254356218
  0
ARC
  5
746
330
17
100
AcDbEntity
  8
0
100
AcDbCircle
 10
981.3901898452202
 20
3364.002293504528
 30
0.0
 40
19.27989678059442
100
AcDbArc
 50
335.9475507616557
 51
23.25879879875915
  0
ARC
  5
747
330
17
100
AcDbEntity
  8
0
100
AcDbCircle
 10
1047.957099050141
 20
3362.801998649097
 30
0.0
 40
44.00000000000969
100
AcDbArc
 50
165.3682181242612
 51
183.6133228217067
  0
ARC
  5
748
330
17
100
AcDbEntity
  8
0
100
AcDbCircle
 10
1047.957099050136
 20
3362.801998649097
 30
0.0
 40
41.18428206302799
100
AcDbArc
 50
165.3682181242612
 51
176.6607264305827
  0
ARC
  5
749
330
17
100
AcDbEntity
  8
0
100
AcDbCircle
 10
1006.746255262263
 20
3373.561033547262
 30
0.0
 40
1.40785896848522
100
AcDbArc
 50
345.3682181242613
 51
165.3682181241535
  0
ARC
  5
74A
330
17
100
AcDbEntity
  8
0
100
AcDbCircle
 10
1014.604789089106
 20
3359.742085202338
 30
0.0
 40
8.15738022964307
100
AcDbArc
 50
91.57397095084798
 51
106.8136262035872
  0
ARC
  5
74B
330
17
100
AcDbEntity
  8
0
100
AcDbCircle
 10
1007.981772833838
 20
3351.586211126508
 30
0.0
 40
1.39998263214061
100
AcDbArc
 50
76.44027326694017
 51
256.5720137259193
  0
ARC
  5
74C
330
17
100
AcDbEntity
  8
0
100
AcDbCircle
 10
1014.674827251983
 20
3359.747544982254
 30
0.0
 40
5.01182944459679
100
AcDbArc
 50
15.84511254356218
 51
43.19946961497752
  0
ARC
  5
74D
330
17
100
AcDbEntity
  8
0
100
AcDbCircle
 10
997.6847506906269
 20
3371.005953737498
 30
0.0
 40
1.54394544426795
100
AcDbArc
 50
23.25879879875915
 51
33.16591440254012
  0
LINE
  5
74E
330
17
100
AcDbEntity
  8
0
100
AcDbLine
 10
998.1326287616138
 20
3373.142867125177
 30
0.0
 11
998.977171850176
 21
3371.85059276268
 31
0.0
  0
ARC
  5
74F
330
17
100
AcDbEntity
  8
0
100
AcDbCircle
 10
990.8817828144437
 20
3351.6652235627
 30
0.0
 40
1.346087462628309
100
AcDbArc
 50
99.4748201797995
 51
276.329086258467
  0
ARC
  5
750
330
17
100
AcDbEntity
  8
0
100
AcDbCircle
 10
987.4979869782563
 20
3373.225619470589
 30
0.0
 40
0.7999999999997101
100
AcDbArc
 50
355.2689035730788
 51
82.95984510420067
  0
ARC
  5
751
330
17
100
AcDbEntity
  8
0
100
AcDbCircle
 10
992.6138910789486
 20
3372.255117615449
 30
0.0
 40
1.644267085081509
100
AcDbArc
 50
89.93459201208148
 51
174.9472316209066
  0
ARC
  5
752
330
17
100
AcDbEntity
  8
0
100
AcDbCircle
 10
992.6176022992276
 20
3375.50605337049
 30
0.0
 40
1.60667078829576
100
AcDbArc
 50
269.9345920120815
 51
74.57621941298748
  0
ARC
  5
753
330
17
100
AcDbEntity
  8
0
100
AcDbCircle
 10
990.6234830945122
 20
3368.278168093909
 30
0.0
 40
9.104592965425348
100
AcDbArc
 50
74.57621941298748
 51
110.7850750102107
  0
ARC
  5
754
330
17
100
AcDbEntity
  8
0
100
AcDbCircle
 10
990.8817828144455
 20
3351.6652235627
 30
0.0
 40
1.346087462628309
100
AcDbArc
 50
99.4748201797995
 51
276.329086258467
  0
ARC
  5
755
330
17
100
AcDbEntity
  8
0
100
AcDbCircle
 10
987.7696162170213
 20
3375.425117330567
 30
0.0
 40
1.416206957708759
100
AcDbArc
 50
105.4393598824445
 51
262.9598451041991
  0
ARC
  5
756
330
17
100
AcDbEntity
  8
0
100
AcDbCircle
 10
910.2907790581774
 20
3379.533861274043
 30
0.0
 40
80.99999999999099
100
AcDbArc
 50
341.4086820971121
 51
354.9472316209066
  0
ARC
  5
757
330
17
100
AcDbEntity
  8
0
100
AcDbCircle
 10
996.8596864543831
 20
3372.310958159938
 30
0.0
 40
1.520675719533909
100
AcDbArc
 50
33.16591440254012
 51
214.8484687678426
  0
ARC
  5
758
330
17
100
AcDbEntity
  8
0
100
AcDbCircle
 10
989.9364960663969
 20
3360.187854786623
 30
0.0
 40
9.920981632020449
100
AcDbArc
 50
276.329086258467
 51
335.9475507616557
  0
ARC
  5
759
330
17
100
AcDbEntity
  8
0
100
AcDbCircle
 10
986.2136619274714
 20
3364.898414309432
 30
0.0
 40
11.45174288928129
100
AcDbArc
 50
4.802742798761268
 51
34.84846876784259
  0
ARC
  5
75A
330
17
100
AcDbEntity
  8
0
100
AcDbCircle
 10
989.3904187636398
 20
3360.601387042264
 30
0.0
 40
7.713668851175999
100
AcDbArc
 50
279.4748201797995
 51
341.6344357212108
  0
ARC
  5
75B
330
17
100
AcDbEntity
  8
0
100
AcDbCircle
 10
978.4196431916024
 20
3364.243556531226
 30
0.0
 40
19.27322399996572
100
AcDbArc
 50
341.6344357212108
 51
4.802742798761268
  0
ARC
  5
75C
330
17
100
AcDbEntity
  8
0
100
AcDbCircle
 10
1027.530583606935
 20
3375.582301948077
 30
0.0
 40
1.63657827691559
100
AcDbArc
 50
88.51590272984658
 51
265.3401060224037
  0
ARC
  5
75D
330
17
100
AcDbEntity
  8
0
100
AcDbCircle
 10
917.7948218894069
 20
3394.841029879303
 30
0.0
 40
114.614977495006
100
AcDbArc
 50
340.2811069395486
 51
349.093501332935
  0
ARC
  5
75E
330
17
100
AcDbEntity
  8
0
100
AcDbCircle
 10
1027.083390724649
 20
3355.669394673388
 30
0.0
 40
1.48156975236383
100
AcDbArc
 50
160.2811069395486
 51
341.2328116893736
  0
ARC
  5
75F
330
17
100
AcDbEntity
  8
0
100
AcDbCircle
 10
998.1911378457061
 20
3361.407125641556
 30
0.0
 40
16.74655154615057
100
AcDbArc
 50
143.5575518284286
 51
185.7447126934173
  0
ARC
  5
760
330
17
100
AcDbEntity
  8
0
100
AcDbCircle
 10
987.2769465277741
 20
3359.153274387877
 30
0.0
 40
5.68011143444639
100
AcDbArc
 50
183.8976015442911
 51
218.0974153561195
  0
ARC
  5
761
330
17
100
AcDbEntity
  8
0
100
AcDbCircle
 10
998.1911378457041
 20
3361.407125641556
 30
0.0
 40
19.62038308025999
100
AcDbArc
 50
143.5575518284286
 51
186.7452391817497
  0
ARC
  5
762
330
17
100
AcDbEntity
  8
0
100
AcDbCircle
 10
951.6793587258506
 20
3356.727971384359
 30
0.0
 40
30.00000000000061
100
AcDbArc
 50
3.897601544291081
 51
5.744712693417298
  0
ARC
  5
763
330
17
100
AcDbEntity
  8
0
100
AcDbCircle
 10
990.1223947910128
 20
3360.452806800691
 30
0.0
 40
11.49540068442298
100
AcDbArc
 50
186.7452391817497
 51
223.4705628227019
  0
ARC
  5
764
330
17
100
AcDbEntity
  8
0
100
AcDbCircle
 10
983.8299615237882
 20
3356.450743988332
 30
0.0
 40
1.300000000000139
100
AcDbArc
 50
218.0974153561195
 51
343.3818211169951
  0
ARC
  5
765
330
17
100
AcDbEntity
  8
0
100
AcDbCircle
 10
983.5633759958854
 20
3372.208378661249
 30
0.0
 40
1.43691576705635
100
AcDbArc
 50
323.5575518284286
 51
143.5575518284286
  0
ARC
  5
766
330
17
100
AcDbEntity
  8
0
100
AcDbCircle
 10
984.0712847380435
 20
3354.716423486564
 30
0.0
 40
3.157413733141899
100
AcDbArc
 50
223.4705628227019
 51
341.4086820971121
  0
ARC
  5
767
330
17
100
AcDbEntity
  8
0
100
AcDbCircle
 10
984.0712847380453
 20
3354.716423486564
 30
0.0
 40
3.157413733141899
100
AcDbArc
 50
223.4705628227019
 51
341.4086820971121
  0
ARC
  5
768
330
17
100
AcDbEntity
  8
0
100
AcDbCircle
 10
904.6520349617274
 20
3380.082065924976
 30
0.0
 40
83.92919236650326
100
AcDbArc
 50
343.3818211169951
 51
355.2689035730788
  0
ARC
  5
769
330
17
100
AcDbEntity
  8
0
100
AcDbCircle
 10
1082.474719611156
 20
3419.889405898371
 30
0.0
 40
2.0
100
AcDbArc
 50
180.0
 51
0.0
  0
ELLIPSE
  5
76A
330
17
100
AcDbEntity
  8
0
100
AcDbEllipse
 10
1082.474719611156
 20
3419.889405898371
 30
0.0
 11
-15.64334299999996
 21
0.0
 31
0.0
210
0.0
220
0.0
230
1.0
 40
0.7717375499597516
 41
0.0442335360008527
 42
3.09735911758894
  0
ARC
  5
76B
330
17
100
AcDbEntity
  8
0
100
AcDbCircle
 10
1074.786142937502
 20
3376.461396581673
 30
0.0
 40
1.750187160234349
100
AcDbArc
 50
89.79460988831913
 51
270.000000000938
  0
ARC
  5
76C
330
17
100
AcDbEntity
  8
0
100
AcDbCircle
 10
1091.567187178491
 20
3376.875696344144
 30
0.0
 40
1.82267808758924
100
AcDbArc
 50
275.7968950391123
 51
93.52851757393477
  0
ARC
  5
76D
330
17
100
AcDbEntity
  8
0
100
AcDbCircle
 10
1091.097296419935
 20
3363.587495523931
 30
0.0
 40
13.65903215910447
100
AcDbArc
 50
239.3269963706472
 51
263.3791684782498
  0
ARC
  5
76E
330
17
100
AcDbEntity
  8
0
100
AcDbCircle
 10
1089.721029476393
 20
3351.730526646206
 30
0.0
 40
1.72245720366535
100
AcDbArc
 50
263.3791684782498
 51
88.25999634384828
  0
ARC
  5
76F
330
17
100
AcDbEntity
  8
0
100
AcDbCircle
 10
1082.81513829968
 20
3374.079077324118
 30
0.0
 40
0.49999999999944
100
AcDbArc
 50
319.714312558581
 51
89.48661610971754
  0
ARC
  5
770
330
17
100
AcDbEntity
  8
0
100
AcDbCircle
 10
1072.340678075601
 20
3366.32279062264
 30
0.0
 40
7.00000000000061
100
AcDbArc
 50
349.1030116609535
 51
350.7635016627942
  0
ARC
  5
771
330
17
100
AcDbEntity
  8
0
100
AcDbCircle
 10
1077.805365436217
 20
3428.246655918402
 30
0.0
 40
53.62051600018374
100
AcDbArc
 50
266.7721264100586
 51
269.4866161096133
  0
ARC
  5
772
330
17
100
AcDbEntity
  8
0
100
AcDbCircle
 10
1092.461811872399
 20
3362.449167828113
 30
0.0
 40
13.49060708771084
100
AcDbArc
 50
169.1030116609535
 51
231.8551132816391
  0
ARC
  5
773
330
17
100
AcDbEntity
  8
0
100
AcDbCircle
 10
1092.786907149162
 20
3364.861301090658
 30
0.0
 40
10.25347237991509
100
AcDbArc
 50
95.79689503911232
 51
142.6707381437403
  0
ARC
  5
774
330
17
100
AcDbEntity
  8
0
100
AcDbCircle
 10
1091.097296419935
 20
3363.587495523931
 30
0.0
 40
13.65903215910447
100
AcDbArc
 50
239.3269963706472
 51
263.3791684782498
  0
ARC
  5
775
330
17
100
AcDbEntity
  8
0
100
AcDbCircle
 10
1096.624533832155
 20
3362.37378758172
 30
0.0
 40
17.60285096126781
100
AcDbArc
 50
139.7143125587185
 51
170.7635016627942
  0
ARC
  5
776
330
17
100
AcDbEntity
  8
0
100
AcDbCircle
 10
1120.60483190316
 20
3376.997334054343
 30
0.0
 40
33.17104344998199
100
AcDbArc
 50
191.004873554133
 51
197.3582324805436
  0
ARC
  5
777
330
17
100
AcDbEntity
  8
0
100
AcDbCircle
 10
1101.817869534621
 20
3364.991422107659
 30
0.0
 40
1.686705324051149
100
AcDbArc
 50
124.4835142518073
 51
234.6308474605996
  0
ARC
  5
778
330
17
100
AcDbEntity
  8
0
100
AcDbCircle
 10
1102.044856316883
 20
3364.942814275713
 30
0.0
 40
4.79553512008698
100
AcDbArc
 50
125.3279955183939
 51
232.0818430853813
  0
ARC
  5
779
330
17
100
AcDbEntity
  8
0
100
AcDbCircle
 10
1120.60483190316
 20
3376.997334054343
 30
0.0
 40
30.49489490310125
100
AcDbArc
 50
191.004873554133
 51
197.3582324805436
  0
ARC
  5
77A
330
17
100
AcDbEntity
  8
0
100
AcDbCircle
 10
1089.357240795852
 20
3370.920659257438
 30
0.0
 40
1.338074273472919
100
AcDbArc
 50
11.00487355413304
 51
191.0048735540003
  0
ARC
  5
77B
330
17
100
AcDbEntity
  8
0
100
AcDbCircle
 10
1090.221597582924
 20
3367.50012399897
 30
0.0
 40
1.33807427344576
100
AcDbArc
 50
197.3582324805436
 51
17.35823248054365
  0
ARC
  5
77C
330
17
100
AcDbEntity
  8
0
100
AcDbCircle
 10
1094.392889262701
 20
3368.557081923186
 30
0.0
 40
1.33807427344576
100
AcDbArc
 50
197.3582324805436
 51
17.35823248054365
  0
ARC
  5
77D
330
17
100
AcDbEntity
  8
0
100
AcDbCircle
 10
1093.528532475633
 20
3371.977617181657
 30
0.0
 40
1.33807427347201
100
AcDbArc
 50
11.00487355413304
 51
191.004873554133
  0
ARC
  5
77E
330
17
100
AcDbEntity
  8
0
100
AcDbCircle
 10
1124.776123582938
 20
3378.054291978561
 30
0.0
 40
30.49489490310125
100
AcDbArc
 50
191.004873554133
 51
197.3582324805436
  0
ARC
  5
77F
330
17
100
AcDbEntity
  8
0
100
AcDbCircle
 10
1124.776123582938
 20
3378.054291978561
 30
0.0
 40
33.17104344998111
100
AcDbArc
 50
191.004873554133
 51
197.3582324805436
  0
ARC
  5
780
330
17
100
AcDbEntity
  8
0
100
AcDbCircle
 10
1090.020829028855
 20
3361.599453082289
 30
0.0
 40
8.151021857595308
100
AcDbArc
 50
190.2073746071667
 51
268.2599963438483
  0
ARC
  5
781
330
17
100
AcDbEntity
  8
0
100
AcDbCircle
 10
1089.721029476393
 20
3351.730526646206
 30
0.0
 40
1.72245720366535
100
AcDbArc
 50
263.3791684782498
 51
88.25999634384828
  0
ARC
  5
782
330
17
100
AcDbEntity
  8
0
100
AcDbCircle
 10
1095.71879255774
 20
3362.625435691308
 30
0.0
 40
13.94061844876689
100
AcDbArc
 50
142.6707381437403
 51
190.2073746071667
  0
LINE
  5
783
330
17
100
AcDbEntity
  8
0
100
AcDbLine
 10
1077.324919215
 20
3374.628292389157
 30
0.0
 11
1082.819618359337
 21
3374.57905725278
 31
0.0
  0
ARC
  5
784
330
17
100
AcDbEntity
  8
0
100
AcDbCircle
 10
1075.709517754929
 20
3634.045624407335
 30
0.0
 40
255.8356956936135
100
AcDbArc
 50
269.7946098882149
 51
273.5285175739348
  0
ARC
  5
785
330
17
100
AcDbEntity
  8
0
100
AcDbCircle
 10
1045.109024141902
 20
3352.984322112315
 30
0.0
 40
1.508759478175899
100
AcDbArc
 50
227.5053252625612
 51
36.95255904901022
  0
ARC
  5
786
330
17
100
AcDbEntity
  8
0
100
AcDbCircle
 10
1037.213796932341
 20
3360.69497057754
 30
0.0
 40
12.77108377607171
100
AcDbArc
 50
42.2946212448628
 51
54.43602554543949
  0
ARC
  5
787
330
17
100
AcDbEntity
  8
0
100
AcDbCircle
 10
1027.867454765865
 20
3340.014236315913
 30
0.0
 40
23.08408891052884
100
AcDbArc
 50
36.95255904901022
 51
50.41935307805624
  0
ARC
  5
788
330
17
100
AcDbEntity
  8
0
100
AcDbCircle
 10
1045.478178402047
 20
3368.213561026166
 30
0.0
 40
1.59838475520062
100
AcDbArc
 50
225.7123204150222
 51
42.2946212448628
  0
ARC
  5
789
330
17
100
AcDbEntity
  8
0
100
AcDbCircle
 10
1045.109024141904
 20
3352.984322112315
 30
0.0
 40
1.508759478175899
100
AcDbArc
 50
227.5053252625612
 51
36.95255904901022
  0
ARC
  5
78A
330
17
100
AcDbEntity
  8
0
100
AcDbCircle
 10
1037.530695479185
 20
3351.454623558563
 30
0.0
 40
2.199999999999879
100
AcDbArc
 50
290.5691554438977
 51
306.8045183714084
  0
ARC
  5
78B
330
17
100
AcDbEntity
  8
0
100
AcDbCircle
 10
1042.069009109938
 20
3353.26282657571
 30
0.0
 40
0.49999999999974
100
AcDbArc
 50
39.94580094319182
 51
160.5113935451255
  0
ARC
  5
78C
330
17
100
AcDbEntity
  8
0
100
AcDbCircle
 10
1056.228020419679
 20
3365.120841716366
 30
0.0
 40
17.96862540487014
100
AcDbArc
 50
219.9458009431918
 51
227.5053252625612
  0
ARC
  5
78D
330
17
100
AcDbEntity
  8
0
100
AcDbCircle
 10
1034.055992371561
 20
3356.09859150781
 30
0.0
 40
7.99999999998013
100
AcDbArc
 50
306.8045183714084
 51
340.511393545236
  0
ARC
  5
78E
330
17
100
AcDbEntity
  8
0
100
AcDbCircle
 10
1038.466512219458
 20
3361.142072537822
 30
0.0
 40
0.50000000000019
100
AcDbArc
 50
244.386993139394
 51
10.50971197245396
  0
ARC
  5
78F
330
17
100
AcDbEntity
  8
0
100
AcDbCircle
 10
1037.530695479185
 20
3351.454623558563
 30
0.0
 40
2.199999999999879
100
AcDbArc
 50
290.5691554438977
 51
306.8045183714084
  0
ARC
  5
790
330
17
100
AcDbEntity
  8
0
100
AcDbCircle
 10
1042.069009109938
 20
3353.26282657571
 30
0.0
 40
0.49999999999974
100
AcDbArc
 50
39.94580094319182
 51
160.5113935451255
  0
ARC
  5
791
330
17
100
AcDbEntity
  8
0
100
AcDbCircle
 10
1042.894379959987
 20
3358.191165895744
 30
0.0
 40
0.49999999999931
100
AcDbArc
 50
192.1343375077356
 51
230.4193530780562
  0
ARC
  5
792
330
17
100
AcDbEntity
  8
0
100
AcDbCircle
 10
1042.334256426573
 20
3376.185629505491
 30
0.0
 40
1.69849763443204
100
AcDbArc
 50
276.0399308943377
 51
96.62942936441261
  0
ARC
  5
793
330
17
100
AcDbEntity
  8
0
100
AcDbCircle
 10
1039.542454708371
 20
3367.875597788004
 30
0.0
 40
1.32955182317279
100
AcDbArc
 50
5.515505488101228
 51
182.3798083519408
  0
ARC
  5
794
330
17
100
AcDbEntity
  8
0
100
AcDbCircle
 10
1043.72676502375
 20
3369.804283514256
 30
0.0
 40
1.572943951138179
100
AcDbArc
 50
54.43602554543949
 51
228.5612167622749
  0
ARC
  5
795
330
17
100
AcDbEntity
  8
0
100
AcDbCircle
 10
1084.931104665866
 20
3369.761922549159
 30
0.0
 40
46.75738212627014
100
AcDbArc
 50
182.3798083519408
 51
190.5097119724539
  0
ARC
  5
796
330
17
100
AcDbEntity
  8
0
100
AcDbCircle
 10
1056.228020419679
 20
3365.120841716366
 30
0.0
 40
17.96862540487014
100
AcDbArc
 50
219.9458009431918
 51
227.5053252625612
  0
ARC
  5
797
330
17
100
AcDbEntity
  8
0
100
AcDbCircle
 10
1012.242064930147
 20
3334.14059531158
 30
0.0
 40
46.00000000000164
100
AcDbArc
 50
45.71232041502213
 51
48.56121676227498
  0
ARC
  5
798
330
17
100
AcDbEntity
  8
0
100
AcDbCircle
 10
1034.055992371563
 20
3356.09859150781
 30
0.0
 40
7.99999999998013
100
AcDbArc
 50
306.8045183714084
 51
340.511393545236
  0
ARC
  5
799
330
17
100
AcDbEntity
  8
0
100
AcDbCircle
 10
1127.389316039225
 20
3376.358282771832
 30
0.0
 40
86.92591254146108
100
AcDbArc
 50
185.5155054881012
 51
192.1343375077356
  0
ARC
  5
79A
330
17
100
AcDbEntity
  8
0
100
AcDbCircle
 10
1064.054043916596
 20
3376.733511619216
 30
0.0
 40
1.406485747032869
100
AcDbArc
 50
25.22058032542856
 51
202.8504534417939
  0
ARC
  5
79B
330
17
100
AcDbEntity
  8
0
100
AcDbCircle
 10
1051.903535310832
 20
3377.342276082932
 30
0.0
 40
1.39601320219498
100
AcDbArc
 50
353.1870495287424
 51
173.8104036719992
  0
ARC
  5
79C
330
17
100
AcDbEntity
  8
0
100
AcDbCircle
 10
1015.575349781187
 20
3356.304693792262
 30
0.0
 40
51.20074173067726
100
AcDbArc
 50
357.6421261176972
 51
22.85045344179394
  0
ARC
  5
79D
330
17
100
AcDbEntity
  8
0
100
AcDbCircle
 10
1053.929567976476
 20
3352.15167058522
 30
0.0
 40
1.839299936698199
100
AcDbArc
 50
208.146975733894
 51
333.6487643014411
  0
ARC
  5
79E
330
17
100
AcDbEntity
  8
0
100
AcDbCircle
 10
1054.12508489249
 20
3356.000478027381
 30
0.0
 40
0.50000000000333
100
AcDbArc
 50
194.8030098755124
 51
341.7410274264995
  0
ARC
  5
79F
330
17
100
AcDbEntity
  8
0
100
AcDbCircle
 10
1155.410714392969
 20
3366.116814165454
 30
0.0
 40
105.5101194359899
100
AcDbArc
 50
173.8104036719992
 51
181.9490721119744
  0
ARC
  5
7A0
330
17
100
AcDbEntity
  8
0
100
AcDbCircle
 10
1142.811652674843
 20
3366.48129884099
 30
0.0
 40
90.15859689101082
100
AcDbArc
 50
173.1870495287424
 51
183.5167016871965
  0
ARC
  5
7A1
330
17
100
AcDbEntity
  8
0
100
AcDbCircle
 10
1068.839788977179
 20
3360.128703929889
 30
0.0
 40
18.74928962539017
100
AcDbArc
 50
183.3182230897275
 51
208.146975733894
  0
ARC
  5
7A2
330
17
100
AcDbEntity
  8
0
100
AcDbCircle
 10
996.8256992293644
 20
3374.904931150691
 30
0.0
 40
60.83736773561575
100
AcDbArc
 50
341.7410274264995
 51
346.7769809815984
  0
ARC
  5
7A3
330
17
100
AcDbEntity
  8
0
100
AcDbCircle
 10
1026.149989236004
 20
3365.912116458491
 30
0.0
 40
32.84018485357495
100
AcDbArc
 50
333.6487643014411
 51
350.4940833534115
  0
ARC
  5
7A4
330
17
100
AcDbEntity
  8
0
100
AcDbCircle
 10
1053.929567976476
 20
3352.15167058522
 30
0.0
 40
1.839299936698199
100
AcDbArc
 50
208.146975733894
 51
333.6487643014411
  0
ARC
  5
7A5
330
17
100
AcDbEntity
  8
0
100
AcDbCircle
 10
1195.866700443836
 20
3367.493565904947
 30
0.0
 40
145.989524726829
100
AcDbArc
 50
181.9490721119744
 51
183.3182230897275
  0
ARC
  5
7A6
330
17
100
AcDbEntity
  8
0
100
AcDbCircle
 10
1078.929136093051
 20
3362.55538503259
 30
0.0
 40
26.15556005639287
100
AcDbArc
 50
183.5167016871965
 51
194.8030098755124
  0
ARC
  5
7A7
330
17
100
AcDbEntity
  8
0
100
AcDbCircle
 10
1057.286543789722
 20
3360.698338769096
 30
0.0
 40
1.270127722315129
100
AcDbArc
 50
350.4940833534115
 51
166.7769809815984
  0
ARC
  5
7A8
330
17
100
AcDbEntity
  8
0
100
AcDbCircle
 10
1068.173762761105
 20
3354.138906294841
 30
0.0
 40
1.44224150061386
100
AcDbArc
 50
177.6421261176972
 51
355.6185784361422
  0
ARC
  5
7A9
330
17
100
AcDbEntity
  8
0
100
AcDbCircle
 10
1023.37101000762
 20
3357.571677078598
 30
0.0
 40
46.37631064107124
100
AcDbArc
 50
355.6185784361422
 51
25.22058032542856
  0
ARC
  5
7AA
330
17
100
AcDbEntity
  8
0
100
AcDbCircle
 10
1068.173762761105
 20
3354.138906294841
 30
0.0
 40
1.44224150061386
100
AcDbArc
 50
177.6421261176972
 51
355.6185784361422
  0
LINE
  5
7AB
330
17
100
AcDbEntity
  8
0
100
AcDbLine
 10
1059.474719611156
 20
3552.522281373523
 30
0.0
 11
830.4747196111565
 21
3552.522281373523
 31
0.0
  0
LINE
  5
7AC
330
17
100
AcDbEntity
  8
0
100
AcDbLine
 10
1059.474719611156
 20
3550.522281373523
 30
0.0
 11
830.4747196111565
 21
3550.522281373523
 31
0.0
  0
LINE
  5
7AD
330
17
100
AcDbEntity
  8
0
100
AcDbLine
 10
830.4747196111565
 20
3551.889405898371
 30
0.0
 11
830.4747196111565
 21
3547.889405898371
 31
0.0
  0
LINE
  5
7AE
330
17
100
AcDbEntity
  8
0
100
AcDbLine
 10
1105.474719611156
 20
3779.889405898371
 30
0.0
 11
1105.474719611156
 21
3547.889405898371
 31
0.0
  0
LINE
  5
7AF
330
17
100
AcDbEntity
  8
0
100
AcDbLine
 10
1059.474719611156
 20
3779.889405898371
 30
0.0
 11
1059.474719611156
 21
3547.889405898371
 31
0.0
  0
ARC
  5
7B0
330
17
100
AcDbEntity
  8
0
100
AcDbCircle
 10
1082.474719611156
 20
3769.889405898371
 30
0.0
 40
2.0
100
AcDbArc
 50
0.0
 51
180.0
  0
CIRCLE
  5
7B2
330
17
100
AcDbEntity
  8
0
100
AcDbCircle
 10
1346.557101604048
 20
2698.137203083334
 30
0.0
 40
3.0
  0
CIRCLE
  5
7B3
330
17
100
AcDbEntity
  8
0
100
AcDbCircle
 10
1346.557101604048
 20
2698.137203083334
 30
0.0
 40
10.4
  0
CIRCLE
  5
7B4
330
17
100
AcDbEntity
  8
0
100
AcDbCircle
 10
1346.557101604048
 20
2698.137203083334
 30
0.0
 40
6.0
  0
LINE
  5
7B5
330
17
100
AcDbEntity
  8
0
100
AcDbLine
 10
1329.843912402148
 20
2853.657203083326
 30
0.0
 11
1324.652712402147
 21
2853.657203083326
 31
0.0
  0
ARC
  5
7B6
330
17
100
AcDbEntity
  8
0
100
AcDbCircle
 10
1324.28191240215
 20
2841.050003083327
 30
0.0
 40
1.112399999999999
100
AcDbArc
 50
0.0
 51
90.0
  0
LINE
  5
7B7
330
17
100
AcDbEntity
  8
0
100
AcDbLine
 10
1346.055512402146
 20
2868.637203083327
 30
0.0
 11
1255.055512402146
 21
2868.637203083327
 31
0.0
  0
LINE
  5
7B8
330
17
100
AcDbEntity
  8
0
100
AcDbLine
 10
1255.055512402146
 20
2824.637203083327
 30
0.0
 11
1346.055512402146
 21
2824.637203083327
 31
0.0
  0
LINE
  5
7B9
330
17
100
AcDbEntity
  8
0
100
AcDbLine
 10
1312.416312402149
 20
2853.657203083326
 30
0.0
 11
1303.146312402148
 21
2853.657203083326
 31
0.0
  0
LINE
  5
7BA
330
17
100
AcDbEntity
  8
0
100
AcDbLine
 10
1316.124312402147
 20
2866.635203083327
 30
0.0
 11
1320.203112402147
 21
2866.635203083327
 31
0.0
  0
LINE
  5
7BB
330
17
100
AcDbEntity
  8
0
100
AcDbLine
 10
1312.416312402149
 20
2835.117203083326
 30
0.0
 11
1303.146312402148
 21
2835.117203083326
 31
0.0
  0
LINE
  5
7BC
330
17
100
AcDbEntity
  8
0
100
AcDbLine
 10
1305.371112402148
 20
2840.308403083326
 30
0.0
 11
1305.371112402148
 21
2848.466003083326
 31
0.0
  0
LINE
  5
7BD
330
17
100
AcDbEntity
  8
0
100
AcDbLine
 10
1310.191512402149
 20
2840.308403083326
 30
0.0
 11
1310.191512402149
 21
2848.466003083326
 31
0.0
  0
LINE
  5
7BE
330
17
100
AcDbEntity
  8
0
100
AcDbLine
 10
1309.079112402147
 20
2839.196003083326
 30
0.0
 11
1306.48351240215
 21
2839.196003083326
 31
0.0
  0
ARC
  5
7BF
330
17
100
AcDbEntity
  8
0
100
AcDbCircle
 10
1306.483512402146
 20
2840.308403083326
 30
0.0
 40
1.112399999999999
100
AcDbArc
 50
180.0
 51
270.0
  0
ARC
  5
7C0
330
17
100
AcDbEntity
  8
0
100
AcDbCircle
 10
1309.079112402147
 20
2840.308403083326
 30
0.0
 40
1.112399999999999
100
AcDbArc
 50
270.0
 51
0.0
  0
LINE
  5
7C1
330
17
100
AcDbEntity
  8
0
100
AcDbLine
 10
1309.079112402147
 20
2849.578403083326
 30
0.0
 11
1306.483512402146
 21
2849.578403083326
 31
0.0
  0
ARC
  5
7C2
330
17
100
AcDbEntity
  8
0
100
AcDbCircle
 10
1306.483512402146
 20
2848.466003083326
 30
0.0
 40
1.112399999999999
100
AcDbArc
 50
90.0
 51
180.0
  0
ARC
  5
7C3
330
17
100
AcDbEntity
  8
0
100
AcDbCircle
 10
1309.079112402147
 20
2848.466003083326
 30
0.0
 40
1.112399999999999
100
AcDbArc
 50
0.0
 51
90.0
  0
LINE
  5
7C4
330
17
100
AcDbEntity
  8
0
100
AcDbLine
 10
1320.203112402147
 20
2835.117203083326
 30
0.0
 11
1320.203112402147
 21
2842.162403083325
 31
0.0
  0
LINE
  5
7C5
330
17
100
AcDbEntity
  8
0
100
AcDbLine
 10
1314.270312402148
 20
2836.971203083326
 30
0.0
 11
1314.270312402148
 21
2851.803203083326
 31
0.0
  0
ARC
  5
7C6
330
17
100
AcDbEntity
  8
0
100
AcDbCircle
 10
1312.416312402149
 20
2836.971203083326
 30
0.0
 40
1.853999999999999
100
AcDbArc
 50
270.0
 51
0.0
  0
LINE
  5
7C7
330
17
100
AcDbEntity
  8
0
100
AcDbLine
 10
1320.203112402147
 20
2835.117203083326
 30
0.0
 11
1316.124312402147
 21
2835.117203083326
 31
0.0
  0
LINE
  5
7C8
330
17
100
AcDbEntity
  8
0
100
AcDbLine
 10
1320.203112402147
 20
2842.162403083325
 30
0.0
 11
1324.28191240215
 21
2842.162403083327
 31
0.0
  0
LINE
  5
7C9
330
17
100
AcDbEntity
  8
0
100
AcDbLine
 10
1301.292312402149
 20
2836.971203083326
 30
0.0
 11
1301.292312402149
 21
2851.803203083326
 31
0.0
  0
ARC
  5
7CA
330
17
100
AcDbEntity
  8
0
100
AcDbCircle
 10
1303.146312402148
 20
2836.971203083326
 30
0.0
 40
1.853999999999999
100
AcDbArc
 50
180.0
 51
270.0
  0
ARC
  5
7CB
330
17
100
AcDbEntity
  8
0
100
AcDbCircle
 10
1303.146312402148
 20
2851.803203083326
 30
0.0
 40
1.853999999999999
100
AcDbArc
 50
90.0
 51
180.0
  0
LINE
  5
7CC
330
17
100
AcDbEntity
  8
0
100
AcDbLine
 10
1316.124312402147
 20
2835.117203083326
 30
0.0
 11
1316.124312402147
 21
2866.635203083327
 31
0.0
  0
ARC
  5
7CD
330
17
100
AcDbEntity
  8
0
100
AcDbCircle
 10
1312.416312402149
 20
2851.803203083326
 30
0.0
 40
1.853999999999999
100
AcDbArc
 50
0.0
 51
90.0
  0
LINE
  5
7CE
330
17
100
AcDbEntity
  8
0
100
AcDbLine
 10
1320.203112402147
 20
2846.241203083326
 30
0.0
 11
1320.203112402147
 21
2866.635203083327
 31
0.0
  0
LINE
  5
7CF
330
17
100
AcDbEntity
  8
0
100
AcDbLine
 10
1324.652712402147
 20
2853.657203083326
 30
0.0
 11
1320.203112402147
 21
2846.241203083326
 31
0.0
  0
LINE
  5
7D0
330
17
100
AcDbEntity
  8
0
100
AcDbLine
 10
1286.460312402147
 20
2835.117203083326
 30
0.0
 11
1290.53911240215
 21
2835.117203083326
 31
0.0
  0
ARC
  5
7D1
330
17
100
AcDbEntity
  8
0
100
AcDbCircle
 10
1288.31431240215
 20
2851.803203083326
 30
0.0
 40
1.853999999999999
100
AcDbArc
 50
90.0
 51
180.0
  0
LINE
  5
7D2
330
17
100
AcDbEntity
  8
0
100
AcDbLine
 10
1265.69551240215
 20
2866.635203083327
 30
0.0
 11
1269.774312402149
 21
2866.635203083327
 31
0.0
  0
LINE
  5
7D3
330
17
100
AcDbEntity
  8
0
100
AcDbLine
 10
1271.628312402148
 20
2853.657203083326
 30
0.0
 11
1275.707112402147
 21
2853.657203083326
 31
0.0
  0
LINE
  5
7D4
330
17
100
AcDbEntity
  8
0
100
AcDbLine
 10
1280.527512402148
 20
2853.657203083326
 30
0.0
 11
1284.606312402147
 21
2853.657203083326
 31
0.0
  0
LINE
  5
7D5
330
17
100
AcDbEntity
  8
0
100
AcDbLine
 10
1286.460312402147
 20
2835.117203083326
 30
0.0
 11
1286.460312402147
 21
2851.803203083326
 31
0.0
  0
LINE
  5
7D6
330
17
100
AcDbEntity
  8
0
100
AcDbLine
 10
1265.69551240215
 20
2844.387203083327
 30
0.0
 11
1265.69551240215
 21
2825.847203083326
 31
0.0
  0
LINE
  5
7D7
330
17
100
AcDbEntity
  8
0
100
AcDbLine
 10
1276.819512402149
 20
2839.196003083326
 30
0.0
 11
1279.41511240215
 21
2839.196003083326
 31
0.0
  0
LINE
  5
7D8
330
17
100
AcDbEntity
  8
0
100
AcDbLine
 10
1273.482312402148
 20
2835.117203083326
 30
0.0
 11
1282.752312402148
 21
2835.117203083326
 31
0.0
  0
ARC
  5
7D9
330
17
100
AcDbEntity
  8
0
100
AcDbCircle
 10
1254.942312402147
 20
2836.168244197925
 30
0.0
 40
14.832
100
AcDbArc
 50
321.8427734125814
 51
0.0
  0
LINE
  5
7DA
330
17
100
AcDbEntity
  8
0
100
AcDbLine
 10
1266.604986003562
 20
2827.004714939671
 30
0.0
 11
1265.69551240215
 21
2825.847203083326
 31
0.0
  0
ARC
  5
7DB
330
17
100
AcDbEntity
  8
0
100
AcDbCircle
 10
1276.819512402149
 20
2840.308403083326
 30
0.0
 40
1.112399999999999
100
AcDbArc
 50
180.0
 51
270.0
  0
LINE
  5
7DC
330
17
100
AcDbEntity
  8
0
100
AcDbLine
 10
1269.774312402149
 20
2836.229603083327
 30
0.0
 11
1269.774312402149
 21
2836.168244197925
 31
0.0
  0
LINE
  5
7DD
330
17
100
AcDbEntity
  8
0
100
AcDbLine
 10
1269.774312402149
 20
2836.229603083327
 30
0.0
 11
1269.774312402149
 21
2836.168244197925
 31
0.0
  0
ARC
  5
7DE
330
17
100
AcDbEntity
  8
0
100
AcDbCircle
 10
1273.482312402148
 20
2836.971203083326
 30
0.0
 40
1.853999999999999
100
AcDbArc
 50
180.0
 51
270.0
  0
ARC
  5
7DF
330
17
100
AcDbEntity
  8
0
100
AcDbCircle
 10
1282.752312402148
 20
2836.971203083326
 30
0.0
 40
1.853999999999999
100
AcDbArc
 50
270.0
 51
0.0
  0
ARC
  5
7E0
330
17
100
AcDbEntity
  8
0
100
AcDbCircle
 10
1279.41511240215
 20
2840.308403083326
 30
0.0
 40
1.112399999999999
100
AcDbArc
 50
270.0
 51
0.0
  0
LINE
  5
7E1
330
17
100
AcDbEntity
  8
0
100
AcDbLine
 10
1261.987512402147
 20
2848.466003083326
 30
0.0
 11
1265.69551240215
 21
2848.466003083326
 31
0.0
  0
ARC
  5
7E2
330
17
100
AcDbEntity
  8
0
100
AcDbCircle
 10
1261.987512402147
 20
2849.578403083326
 30
0.0
 40
1.112399999999999
100
AcDbArc
 50
180.0
 51
270.0
  0
LINE
  5
7E3
330
17
100
AcDbEntity
  8
0
100
AcDbLine
 10
1284.606312402147
 20
2853.657203083326
 30
0.0
 11
1284.606312402147
 21
2836.971203083326
 31
0.0
  0
LINE
  5
7E4
330
17
100
AcDbEntity
  8
0
100
AcDbLine
 10
1275.707112402147
 20
2853.657203083326
 30
0.0
 11
1275.707112402147
 21
2840.308403083326
 31
0.0
  0
LINE
  5
7E5
330
17
100
AcDbEntity
  8
0
100
AcDbLine
 10
1271.628312402148
 20
2853.657203083326
 30
0.0
 11
1271.628312402148
 21
2836.971203083326
 31
0.0
  0
LINE
  5
7E6
330
17
100
AcDbEntity
  8
0
100
AcDbLine
 10
1280.527512402148
 20
2853.657203083326
 30
0.0
 11
1280.527512402148
 21
2840.308403083326
 31
0.0
  0
LINE
  5
7E7
330
17
100
AcDbEntity
  8
0
100
AcDbLine
 10
1269.774312402149
 20
2866.635203083327
 30
0.0
 11
1269.774312402149
 21
2836.229603083327
 31
0.0
  0
LINE
  5
7E8
330
17
100
AcDbEntity
  8
0
100
AcDbLine
 10
1260.875112402149
 20
2866.635203083327
 30
0.0
 11
1260.875112402149
 21
2849.578403083326
 31
0.0
  0
LINE
  5
7E9
330
17
100
AcDbEntity
  8
0
100
AcDbLine
 10
1265.69551240215
 20
2866.635203083327
 30
0.0
 11
1265.69551240215
 21
2848.466003083326
 31
0.0
  0
LINE
  5
7EA
330
17
100
AcDbEntity
  8
0
100
AcDbLine
 10
1288.31431240215
 20
2853.657203083326
 30
0.0
 11
1297.584312402147
 21
2853.657203083326
 31
0.0
  0
LINE
  5
7EB
330
17
100
AcDbEntity
  8
0
100
AcDbLine
 10
1295.359512402147
 20
2835.117203083326
 30
0.0
 11
1295.359512402147
 21
2848.466003083326
 31
0.0
  0
LINE
  5
7EC
330
17
100
AcDbEntity
  8
0
100
AcDbLine
 10
1299.43831240215
 20
2835.117203083326
 30
0.0
 11
1299.43831240215
 21
2851.803203083326
 31
0.0
  0
LINE
  5
7ED
330
17
100
AcDbEntity
  8
0
100
AcDbLine
 10
1290.53911240215
 20
2835.117203083326
 30
0.0
 11
1290.53911240215
 21
2848.466003083326
 31
0.0
  0
LINE
  5
7EE
330
17
100
AcDbEntity
  8
0
100
AcDbLine
 10
1295.359512402147
 20
2835.117203083326
 30
0.0
 11
1299.43831240215
 21
2835.117203083326
 31
0.0
  0
ARC
  5
7EF
330
17
100
AcDbEntity
  8
0
100
AcDbCircle
 10
1294.247112402148
 20
2848.466003083326
 30
0.0
 40
1.112399999999999
100
AcDbArc
 50
0.0
 51
90.0
  0
ARC
  5
7F0
330
17
100
AcDbEntity
  8
0
100
AcDbCircle
 10
1291.651512402148
 20
2848.466003083326
 30
0.0
 40
1.112399999999999
100
AcDbArc
 50
90.0
 51
180.0
  0
LINE
  5
7F1
330
17
100
AcDbEntity
  8
0
100
AcDbLine
 10
1291.651512402148
 20
2849.578403083326
 30
0.0
 11
1294.247112402148
 21
2849.578403083326
 31
0.0
  0
ARC
  5
7F2
330
17
100
AcDbEntity
  8
0
100
AcDbCircle
 10
1297.584312402147
 20
2851.803203083326
 30
0.0
 40
1.853999999999999
100
AcDbArc
 50
0.0
 51
90.0
  0
ARC
  5
7F3
330
17
100
AcDbEntity
  8
0
100
AcDbCircle
 10
1255.055512402146
 20
2866.637203083327
 30
0.0
 40
2.0
100
AcDbArc
 50
90.0
 51
180.0
  0
ARC
  5
7F4
330
17
100
AcDbEntity
  8
0
100
AcDbCircle
 10
1255.055512402146
 20
2826.637203083327
 30
0.0
 40
2.0
100
AcDbArc
 50
180.0
 51
270.0
  0
ARC
  5
7F5
330
17
100
AcDbEntity
  8
0
100
AcDbCircle
 10
1258.650312402149
 20
2846.241203083326
 30
0.0
 40
1.853999999999999
100
AcDbArc
 50
180.0
 51
270.0
  0
LINE
  5
7F6
330
17
100
AcDbEntity
  8
0
100
AcDbLine
 10
1253.055512402146
 20
2866.637203083327
 30
0.0
 11
1253.055512402146
 21
2826.637203083327
 31
0.0
  0
LINE
  5
7F7
330
17
100
AcDbEntity
  8
0
100
AcDbLine
 10
1256.79631240215
 20
2866.635203083327
 30
0.0
 11
1256.79631240215
 21
2846.241203083326
 31
0.0
  0
LINE
  5
7F8
330
17
100
AcDbEntity
  8
0
100
AcDbLine
 10
1256.79631240215
 20
2866.635203083327
 30
0.0
 11
1260.875112402149
 21
2866.635203083327
 31
0.0
  0
LINE
  5
7F9
330
17
100
AcDbEntity
  8
0
100
AcDbLine
 10
1258.650312402149
 20
2844.387203083327
 30
0.0
 11
1265.69551240215
 21
2844.387203083327
 31
0.0
  0
ARC
  5
7FA
330
17
100
AcDbEntity
  8
0
100
AcDbCircle
 10
1346.055512402146
 20
2866.637203083327
 30
0.0
 40
2.0
100
AcDbArc
 50
0.0
 51
90.0
  0
LINE
  5
7FB
330
17
100
AcDbEntity
  8
0
100
AcDbLine
 10
1344.305112402149
 20
2851.803203083326
 30
0.0
 11
1344.305112402149
 21
2836.971203083326
 31
0.0
  0
ARC
  5
7FC
330
17
100
AcDbEntity
  8
0
100
AcDbCircle
 10
1342.45111240215
 20
2836.971203083326
 30
0.0
 40
1.853999999999999
100
AcDbArc
 50
270.0
 51
0.0
  0
ARC
  5
7FD
330
17
100
AcDbEntity
  8
0
100
AcDbCircle
 10
1346.055512402146
 20
2826.637203083327
 30
0.0
 40
2.0
100
AcDbArc
 50
270.0
 51
0.0
  0
LINE
  5
7FE
330
17
100
AcDbEntity
  8
0
100
AcDbLine
 10
1348.055512402146
 20
2826.637203083327
 30
0.0
 11
1348.055512402146
 21
2866.637203083327
 31
0.0
  0
ARC
  5
7FF
330
17
100
AcDbEntity
  8
0
100
AcDbCircle
 10
1342.45111240215
 20
2851.803203083326
 30
0.0
 40
1.853999999999999
100
AcDbArc
 50
0.0
 51
90.0
  0
ARC
  5
800
330
17
100
AcDbEntity
  8
0
100
AcDbCircle
 10
1336.518312402148
 20
2841.050003083327
 30
0.0
 40
1.112399999999999
100
AcDbArc
 50
90.0
 51
180.0
  0
LINE
  5
801
330
17
100
AcDbEntity
  8
0
100
AcDbLine
 10
1340.22631240215
 20
2842.162403083327
 30
0.0
 11
1340.22631240215
 21
2839.196003083326
 31
0.0
  0
LINE
  5
802
330
17
100
AcDbEntity
  8
0
100
AcDbLine
 10
1331.327112402147
 20
2844.387203083327
 30
0.0
 11
1331.327112402147
 21
2836.971203083326
 31
0.0
  0
LINE
  5
803
330
17
100
AcDbEntity
  8
0
100
AcDbLine
 10
1329.473112402147
 20
2844.387203083327
 30
0.0
 11
1329.473112402147
 21
2835.117203083326
 31
0.0
  0
LINE
  5
804
330
17
100
AcDbEntity
  8
0
100
AcDbLine
 10
1340.22631240215
 20
2839.196003083326
 30
0.0
 11
1336.518312402148
 21
2839.196003083326
 31
0.0
  0
ARC
  5
805
330
17
100
AcDbEntity
  8
0
100
AcDbCircle
 10
1336.518312402148
 20
2840.308403083326
 30
0.0
 40
1.112399999999999
100
AcDbArc
 50
180.0
 51
270.0
  0
LINE
  5
806
330
17
100
AcDbEntity
  8
0
100
AcDbLine
 10
1335.40591240215
 20
2841.050003083327
 30
0.0
 11
1335.40591240215
 21
2840.308403083326
 31
0.0
  0
ARC
  5
807
330
17
100
AcDbEntity
  8
0
100
AcDbCircle
 10
1333.181112402149
 20
2836.971203083326
 30
0.0
 40
1.853999999999999
100
AcDbArc
 50
180.0
 51
270.0
  0
LINE
  5
808
330
17
100
AcDbEntity
  8
0
100
AcDbLine
 10
1325.394312402148
 20
2841.050003083327
 30
0.0
 11
1325.394312402148
 21
2835.117203083326
 31
0.0
  0
LINE
  5
809
330
17
100
AcDbEntity
  8
0
100
AcDbLine
 10
1329.473112402147
 20
2835.117203083326
 30
0.0
 11
1325.394312402148
 21
2835.117203083326
 31
0.0
  0
LINE
  5
80A
330
17
100
AcDbEntity
  8
0
100
AcDbLine
 10
1336.518312402148
 20
2842.162403083327
 30
0.0
 11
1340.22631240215
 21
2842.162403083327
 31
0.0
  0
LINE
  5
80B
330
17
100
AcDbEntity
  8
0
100
AcDbLine
 10
1340.22631240215
 20
2849.578403083326
 30
0.0
 11
1340.22631240215
 21
2846.241203083326
 31
0.0
  0
ARC
  5
80C
330
17
100
AcDbEntity
  8
0
100
AcDbCircle
 10
1333.181112402149
 20
2844.387203083327
 30
0.0
 40
1.853999999999999
100
AcDbArc
 50
90.0
 51
180.0
  0
ARC
  5
80D
330
17
100
AcDbEntity
  8
0
100
AcDbCircle
 10
1327.619112402148
 20
2844.387203083327
 30
0.0
 40
1.853999999999999
100
AcDbArc
 50
0.0
 51
90.0
  0
LINE
  5
80E
330
17
100
AcDbEntity
  8
0
100
AcDbLine
 10
1325.394312402148
 20
2846.241203083326
 30
0.0
 11
1327.619112402148
 21
2846.241203083326
 31
0.0
  0
LINE
  5
80F
330
17
100
AcDbEntity
  8
0
100
AcDbLine
 10
1340.22631240215
 20
2849.578403083326
 30
0.0
 11
1331.327112402147
 21
2849.578403083326
 31
0.0
  0
LINE
  5
810
330
17
100
AcDbEntity
  8
0
100
AcDbLine
 10
1333.181112402149
 20
2846.241203083326
 30
0.0
 11
1340.22631240215
 21
2846.241203083326
 31
0.0
  0
LINE
  5
811
330
17
100
AcDbEntity
  8
0
100
AcDbLine
 10
1331.327112402147
 20
2853.657203083326
 30
0.0
 11
1331.327112402147
 21
2849.578403083326
 31
0.0
  0
LINE
  5
812
330
17
100
AcDbEntity
  8
0
100
AcDbLine
 10
1329.843912402148
 20
2853.657203083326
 30
0.0
 11
1325.394312402148
 21
2846.241203083326
 31
0.0
  0
LINE
  5
813
330
17
100
AcDbEntity
  8
0
100
AcDbLine
 10
1342.45111240215
 20
2853.657203083326
 30
0.0
 11
1331.327112402147
 21
2853.657203083326
 31
0.0
  0
LINE
  5
814
330
17
100
AcDbEntity
  8
0
100
AcDbLine
 10
1342.45111240215
 20
2835.117203083326
 30
0.0
 11
1333.181112402149
 21
2835.117203083326
 31
0.0
  0
LINE
  5
815
330
17
100
AcDbEntity
  8
0
100
AcDbLine
 10
1389.557101604074
 20
2926.037203083325
 30
0.0
 11
1389.557101604074
 21
2904.637203083398
 31
0.0
  0
ARC
  5
816
330
17
100
AcDbEntity
  8
0
100
AcDbCircle
 10
1385.957101604073
 20
2926.037203083325
 30
0.0
 40
3.6
100
AcDbArc
 50
0.0
 51
90.0
  0
LINE
  5
817
330
17
100
AcDbEntity
  8
0
100
AcDbLine
 10
1365.182516501889
 20
2929.970648040419
 30
0.0
 11
1347.206603726696
 21
2939.237069134814
 31
0.0
  0
LINE
  5
818
330
17
100
AcDbEntity
  8
0
100
AcDbLine
 10
1345.557101604074
 20
2939.637203083325
 30
0.0
 11
1341.557101604074
 21
2939.637203083325
 31
0.0
  0
ARC
  5
819
330
17
100
AcDbEntity
  8
0
100
AcDbCircle
 10
1345.557101604074
 20
2936.037203083325
 30
0.0
 40
3.6
100
AcDbArc
 50
62.72930245491552
 51
90.0
  0
ARC
  5
81A
330
17
100
AcDbEntity
  8
0
100
AcDbCircle
 10
1366.557101604074
 20
2932.637203083325
 30
0.0
 40
3.0
100
AcDbArc
 50
242.7293024549155
 51
270.0
  0
LINE
  5
81C
330
17
100
AcDbEntity
  8
0
100
AcDbLine
 10
1355.474719611155
 20
3352.889405898371
 30
0.0
 11
1355.474719611155
 21
3541.889405898371
 31
0.0
  0
LINE
  5
81D
330
17
100
AcDbEntity
  8
0
100
AcDbLine
 10
1359.474719611155
 20
3352.889405898371
 30
0.0
 11
1359.474719611155
 21
3541.889405898371
 31
0.0
  0
LINE
  5
81E
330
17
100
AcDbEntity
  8
0
100
AcDbLine
 10
1334.474719611158
 20
3547.889405898371
 30
0.0
 11
1345.658793160757
 21
3352.889405898378
 31
0.0
  0
LINE
  5
81F
330
17
100
AcDbEntity
  8
0
100
AcDbLine
 10
1380.474719611155
 20
3352.889405898371
 30
0.0
 11
1380.474719611155
 21
3551.889405898371
 31
0.0
  0
ARC
  5
820
330
17
100
AcDbEntity
  8
0
100
AcDbCircle
 10
1140.002373815794
 20
3357.571677078598
 30
0.0
 40
46.37631064107124
100
AcDbArc
 50
355.6185784361422
 51
25.22058032542856
  0
ARC
  5
821
330
17
100
AcDbEntity
  8
0
100
AcDbCircle
 10
1173.917907597895
 20
3360.698338769096
 30
0.0
 40
1.270127722315129
100
AcDbArc
 50
350.4940833534115
 51
166.7769809815984
  0
ARC
  5
822
330
17
100
AcDbEntity
  8
0
100
AcDbCircle
 10
1142.781353044178
 20
3365.912116458491
 30
0.0
 40
32.84018485357495
100
AcDbArc
 50
333.6487643014411
 51
350.4940833534115
  0
ARC
  5
823
330
17
100
AcDbEntity
  8
0
100
AcDbCircle
 10
1231.469556177972
 20
3400.742364103239
 30
0.0
 40
82.32869716053627
100
AcDbArc
 50
195.4537605652726
 51
198.4026306038653
  0
ARC
  5
824
330
17
100
AcDbEntity
  8
0
100
AcDbCircle
 10
1272.592984824208
 20
3419.757033240375
 30
0.0
 40
124.3060625738283
100
AcDbArc
 50
198.8127153743872
 51
201.0085518100155
  0
ARC
  5
825
330
17
100
AcDbEntity
  8
0
100
AcDbCircle
 10
1168.534899119006
 20
3377.342276082932
 30
0.0
 40
1.39601320219498
100
AcDbArc
 50
353.1870495287424
 51
173.8104036719992
  0
ARC
  5
826
330
17
100
AcDbEntity
  8
0
100
AcDbCircle
 10
1154.017691999535
 20
3372.112692798358
 30
0.0
 40
19.58524619682166
100
AcDbArc
 50
264.0839395123931
 51
288.7496141532264
  0
ARC
  5
827
330
17
100
AcDbEntity
  8
0
100
AcDbCircle
 10
1154.657117170391
 20
3372.143913207049
 30
0.0
 40
22.71483926918481
100
AcDbArc
 50
260.1757398944173
 51
287.07529418418
  0
ARC
  5
828
330
17
100
AcDbEntity
  8
0
100
AcDbCircle
 10
1160.842851128705
 20
3352.005977511276
 30
0.0
 40
1.648283815342769
100
AcDbArc
 50
287.07529418418
 51
108.7496141532264
  0
ARC
  5
829
330
17
100
AcDbEntity
  8
0
100
AcDbCircle
 10
1170.560931784652
 20
3352.15167058522
 30
0.0
 40
1.839299936698199
100
AcDbArc
 50
208.146975733894
 51
333.6487643014411
  0
ARC
  5
82A
330
17
100
AcDbEntity
  8
0
100
AcDbCircle
 10
1154.502663954092
 20
3370.136963032338
 30
0.0
 40
0.5000000000000901
100
AcDbArc
 50
21.68493129970098
 51
88.4911530962519
  0
ARC
  5
82B
330
17
100
AcDbEntity
  8
0
100
AcDbCircle
 10
1152.876592827644
 20
3374.593957170367
 30
0.0
 40
0.5000000000001101
100
AcDbArc
 50
275.74312377285
 51
18.40263060386538
  0
ARC
  5
82C
330
17
100
AcDbEntity
  8
0
100
AcDbCircle
 10
1158.573246370732
 20
3371.513480582683
 30
0.0
 40
0.49999999999996
100
AcDbArc
 50
101.5151732499132
 51
202.9339896371205
  0
ARC
  5
82D
330
17
100
AcDbEntity
  8
0
100
AcDbCircle
 10
1157.016691674938
 20
3375.371657361503
 30
0.0
 40
0.5000000000006401
100
AcDbArc
 50
201.0085518099593
 51
283.5596184596454
  0
ARC
  5
82E
330
17
100
AcDbEntity
  8
0
100
AcDbCircle
 10
1170.756448700664
 20
3356.000478027381
 30
0.0
 40
0.50000000000333
100
AcDbArc
 50
194.8030098755124
 51
341.7410274264995
  0
ARC
  5
82F
330
17
100
AcDbEntity
  8
0
100
AcDbCircle
 10
1147.220102108829
 20
3415.991144703049
 30
0.0
 40
42.28415870897529
100
AcDbArc
 50
283.5596184596454
 51
289.355668450795
  0
ARC
  5
830
330
17
100
AcDbEntity
  8
0
100
AcDbCircle
 10
1145.297738912937
 20
3436.676349657076
 30
0.0
 40
66.00141806208696
100
AcDbArc
 50
281.5151732500199
 51
284.8595525712471
  0
ARC
  5
831
330
17
100
AcDbEntity
  8
0
100
AcDbCircle
 10
1231.469556177972
 20
3400.742364103239
 30
0.0
 40
82.32869716054286
100
AcDbArc
 50
201.684931299701
 51
209.5562664017474
  0
ARC
  5
832
330
17
100
AcDbEntity
  8
0
100
AcDbCircle
 10
1272.592984824208
 20
3419.757033240375
 30
0.0
 40
124.3060625738285
100
AcDbArc
 50
202.9339896371205
 51
207.8520067892409
  0
ARC
  5
833
330
17
100
AcDbEntity
  8
0
100
AcDbCircle
 10
1161.792213829689
 20
3374.508974001804
 30
0.0
 40
1.68306688108219
100
AcDbArc
 50
284.8595525712471
 51
109.355668450795
  0
ARC
  5
834
330
17
100
AcDbEntity
  8
0
100
AcDbCircle
 10
1161.258978301574
 20
3360.92806004897
 30
0.0
 40
1.614980525366419
100
AcDbArc
 50
209.5562664017474
 51
27.85200678924089
  0
ARC
  5
835
330
17
100
AcDbEntity
  8
0
100
AcDbCircle
 10
1154.017691999535
 20
3372.112692798358
 30
0.0
 40
19.58524619682166
100
AcDbArc
 50
264.0839395123931
 51
288.7496141532264
  0
ARC
  5
836
330
17
100
AcDbEntity
  8
0
100
AcDbCircle
 10
1154.657117170391
 20
3372.143913207049
 30
0.0
 40
22.71483926918481
100
AcDbArc
 50
260.1757398944173
 51
287.07529418418
  0
ARC
  5
837
330
17
100
AcDbEntity
  8
0
100
AcDbCircle
 10
1160.842851128705
 20
3352.005977511276
 30
0.0
 40
1.648283815342769
100
AcDbArc
 50
287.07529418418
 51
108.7496141533335
  0
ARC
  5
838
330
17
100
AcDbEntity
  8
0
100
AcDbCircle
 10
1195.560499901225
 20
3362.55538503259
 30
0.0
 40
26.15556005639377
100
AcDbArc
 50
183.5167016871965
 51
194.8030098755124
  0
ARC
  5
839
330
17
100
AcDbEntity
  8
0
100
AcDbCircle
 10
1312.498064252009
 20
3367.493565904947
 30
0.0
 40
145.989524726829
100
AcDbArc
 50
181.9490721119744
 51
183.3182230897275
  0
ARC
  5
83A
330
17
100
AcDbEntity
  8
0
100
AcDbCircle
 10
1170.560931784652
 20
3352.15167058522
 30
0.0
 40
1.839299936698199
100
AcDbArc
 50
208.146975733894
 51
333.6487643014411
  0
ARC
  5
83B
330
17
100
AcDbEntity
  8
0
100
AcDbCircle
 10
1113.457063037538
 20
3374.904931150691
 30
0.0
 40
60.83736773561575
100
AcDbArc
 50
341.7410274264995
 51
346.7769809815984
  0
ARC
  5
83C
330
17
100
AcDbEntity
  8
0
100
AcDbCircle
 10
1185.471152785352
 20
3360.128703929889
 30
0.0
 40
18.74928962539017
100
AcDbArc
 50
183.3182230897275
 51
208.146975733894
  0
ARC
  5
83D
330
17
100
AcDbEntity
  8
0
100
AcDbCircle
 10
1259.443016483017
 20
3366.48129884099
 30
0.0
 40
90.15859689101082
100
AcDbArc
 50
173.1870495287424
 51
183.5167016871965
  0
ARC
  5
83E
330
17
100
AcDbEntity
  8
0
100
AcDbCircle
 10
1272.042078201142
 20
3366.116814165454
 30
0.0
 40
105.5101194359899
100
AcDbArc
 50
173.8104036719992
 51
181.9490721119744
  0
ARC
  5
83F
330
17
100
AcDbEntity
  8
0
100
AcDbCircle
 10
1153.535211883183
 20
3379.196975062413
 30
0.0
 40
1.47100853643563
100
AcDbArc
 50
18.81271537438724
 51
195.4537605652726
  0
ARC
  5
840
330
17
100
AcDbEntity
  8
0
100
AcDbCircle
 10
1180.68540772477
 20
3376.733511619216
 30
0.0
 40
1.406485747032869
100
AcDbArc
 50
25.22058032542856
 51
202.8504534417939
  0
ARC
  5
841
330
17
100
AcDbEntity
  8
0
100
AcDbCircle
 10
1184.805126569279
 20
3354.138906294841
 30
0.0
 40
1.44224150061386
100
AcDbArc
 50
177.6421261176972
 51
355.6185784361422
  0
ARC
  5
842
330
17
100
AcDbEntity
  8
0
100
AcDbCircle
 10
1184.805126569279
 20
3354.138906294841
 30
0.0
 40
1.44224150061386
100
AcDbArc
 50
177.6421261176972
 51
355.6185784361422
  0
ARC
  5
843
330
17
100
AcDbEntity
  8
0
100
AcDbCircle
 10
1132.206713589361
 20
3356.304693792262
 30
0.0
 40
51.20074173067726
100
AcDbArc
 50
357.6421261176972
 51
22.85045344179394
  0
ARC
  5
844
330
17
100
AcDbEntity
  8
0
100
AcDbCircle
 10
935.9380928893623
 20
3397.128186219068
 30
0.0
 40
191.610387870524
100
AcDbArc
 50
353.9364444301345
 51
354.5924613118755
  0
ARC
  5
845
330
17
100
AcDbEntity
  8
0
100
AcDbCircle
 10
1109.651586781001
 20
3361.844856058529
 30
0.0
 40
33.74891542054637
100
AcDbArc
 50
24.74294691822036
 51
29.32774896572353
  0
ARC
  5
846
330
17
100
AcDbEntity
  8
0
100
AcDbCircle
 10
1137.982442628632
 20
3377.761437670987
 30
0.0
 40
1.253147030119139
100
AcDbArc
 50
29.32774896572353
 51
203.9208815054414
  0
ARC
  5
847
330
17
100
AcDbEntity
  8
0
100
AcDbCircle
 10
1143.08631354687
 20
3377.140300973727
 30
0.0
 40
1.3346080283953
100
AcDbArc
 50
202.9645193137018
 51
24.74294691822036
  0
ARC
  5
848
330
17
100
AcDbEntity
  8
0
100
AcDbCircle
 10
1113.647811247414
 20
3363.573359310404
 30
0.0
 40
33.74891542054643
100
AcDbArc
 50
24.74294691822036
 51
29.32774896572353
  0
ARC
  5
849
330
17
100
AcDbEntity
  8
0
100
AcDbCircle
 10
999.8269567282822
 20
3316.434982757634
 30
0.0
 40
154.2558125500983
100
AcDbArc
 50
22.96451931370179
 51
23.9208815054414
  0
ARC
  5
84A
330
17
100
AcDbEntity
  8
0
100
AcDbCircle
 10
935.9380928834214
 20
3397.12818621966
 30
0.0
 40
188.9460788933247
100
AcDbArc
 50
353.7539942938937
 51
354.5924613118755
  0
ARC
  5
84B
330
17
100
AcDbEntity
  8
0
100
AcDbCircle
 10
1125.369507012426
 20
3379.196498034668
 30
0.0
 40
1.332154491595169
100
AcDbArc
 50
354.5924613118755
 51
174.5924613118755
  0
ARC
  5
84C
330
17
100
AcDbEntity
  8
0
100
AcDbCircle
 10
1128.267435821657
 20
3354.327968202203
 30
0.0
 40
2.00000000000071
100
AcDbArc
 50
190.720080130511
 51
215.0629126740636
  0
ARC
  5
84D
330
17
100
AcDbEntity
  8
0
100
AcDbCircle
 10
1131.128582784178
 20
3352.233756288576
 30
0.0
 40
2.000000000000259
100
AcDbArc
 50
252.5326827040915
 51
260.9793597840597
  0
ARC
  5
84E
330
17
100
AcDbEntity
  8
0
100
AcDbCircle
 10
1134.344217137526
 20
3372.489243776831
 30
0.0
 40
22.50914619581421
100
AcDbArc
 50
260.9793597840597
 51
281.5324765795696
  0
ARC
  5
84F
330
17
100
AcDbEntity
  8
0
100
AcDbCircle
 10
1132.785359543131
 20
3357.498851219928
 30
0.0
 40
7.519613561215809
100
AcDbArc
 50
215.0629126740636
 51
252.5326827040915
  0
ARC
  5
850
330
17
100
AcDbEntity
  8
0
100
AcDbCircle
 10
1133.533652249074
 20
3379.25280583409
 30
0.0
 40
26.01221838030931
100
AcDbArc
 50
265.7386583237001
 51
280.3764716169498
  0
ARC
  5
851
330
17
100
AcDbEntity
  8
0
100
AcDbCircle
 10
1138.515284720968
 20
3352.047108187363
 30
0.0
 40
1.64581203649205
100
AcDbArc
 50
281.5324765795696
 51
100.3764716169498
  0
ARC
  5
852
330
17
100
AcDbEntity
  8
0
100
AcDbCircle
 10
1128.267435821657
 20
3354.327968202203
 30
0.0
 40
2.00000000000071
100
AcDbArc
 50
190.720080130511
 51
215.0629126740636
  0
ARC
  5
853
330
17
100
AcDbEntity
  8
0
100
AcDbCircle
 10
1131.128582784178
 20
3352.233756288576
 30
0.0
 40
2.000000000000259
100
AcDbArc
 50
252.5326827039838
 51
260.9793597840597
  0
ARC
  5
854
330
17
100
AcDbEntity
  8
0
100
AcDbCircle
 10
1126.973687483129
 20
3376.835263167686
 30
0.0
 40
0.5000000000003801
100
AcDbArc
 50
173.9364444301345
 51
274.7160175429062
  0
ARC
  5
855
330
17
100
AcDbEntity
  8
0
100
AcDbCircle
 10
1126.434135518484
 20
3372.496226763809
 30
0.0
 40
0.4999999999999
100
AcDbArc
 50
93.65193518742989
 51
173.0469408782256
  0
ARC
  5
856
330
17
100
AcDbEntity
  8
0
100
AcDbCircle
 10
1146.512204581187
 20
3372.393385326205
 30
0.0
 40
1.54524072280595
100
AcDbArc
 50
87.14496628428081
 51
268.4911530962519
  0
ARC
  5
857
330
17
100
AcDbEntity
  8
0
100
AcDbCircle
 10
1121.068581649495
 20
3448.415409097707
 30
0.0
 40
72.32330795967055
100
AcDbArc
 50
274.7160175428016
 51
280.1678142298979
  0
ARC
  5
858
330
17
100
AcDbEntity
  8
0
100
AcDbCircle
 10
1120.818581514466
 20
3460.480186555992
 30
0.0
 40
87.66298331774233
100
AcDbArc
 50
273.6519351875343
 51
278.9121697735342
  0
ARC
  5
859
330
17
100
AcDbEntity
  8
0
100
AcDbCircle
 10
1134.136017400118
 20
3375.554838753567
 30
0.0
 40
1.69980051294277
100
AcDbArc
 50
278.9121697735342
 51
100.1678142298979
  0
ARC
  5
85A
330
17
100
AcDbEntity
  8
0
100
AcDbCircle
 10
995.8307322618692
 20
3314.706479505759
 30
0.0
 40
154.2558125500993
100
AcDbArc
 50
22.96451931370179
 51
23.9208815054414
  0
ARC
  5
85B
330
17
100
AcDbEntity
  8
0
100
AcDbCircle
 10
1136.233447772167
 20
3352.611948296314
 30
0.0
 40
17.87836687624638
100
AcDbArc
 50
85.49075348144761
 51
116.8745786467983
  0
ARC
  5
85C
330
17
100
AcDbEntity
  8
0
100
AcDbCircle
 10
1136.389847574462
 20
3344.511614791317
 30
0.0
 40
22.53614597986052
100
AcDbArc
 50
87.3645295616609
 51
108.4303757988576
  0
ARC
  5
85D
330
17
100
AcDbEntity
  8
0
100
AcDbCircle
 10
1137.504677197594
 20
3368.731191091235
 30
0.0
 40
1.709074605568949
100
AcDbArc
 50
267.3645295616609
 51
85.49075348144761
  0
ARC
  5
85E
330
17
100
AcDbEntity
  8
0
100
AcDbCircle
 10
1128.806828259079
 20
3367.266726522893
 30
0.0
 40
1.449209799190409
100
AcDbArc
 50
116.8745786467983
 51
288.4303757988576
  0
ARC
  5
85F
330
17
100
AcDbEntity
  8
0
100
AcDbCircle
 10
1134.344217137526
 20
3372.489243776831
 30
0.0
 40
22.50914619581421
100
AcDbArc
 50
260.9793597840597
 51
281.5324765795696
  0
ARC
  5
860
330
17
100
AcDbEntity
  8
0
100
AcDbCircle
 10
1137.034919739941
 20
3355.987784092339
 30
0.0
 40
10.92321483806658
100
AcDbArc
 50
160.4759530822774
 51
190.720080130511
  0
ARC
  5
861
330
17
100
AcDbEntity
  8
0
100
AcDbCircle
 10
1132.785359543131
 20
3357.498851219928
 30
0.0
 40
7.519613561215809
100
AcDbArc
 50
215.0629126740636
 51
252.5326827039838
  0
ARC
  5
862
330
17
100
AcDbEntity
  8
0
100
AcDbCircle
 10
1133.533652249074
 20
3379.25280583409
 30
0.0
 40
26.01221838030931
100
AcDbArc
 50
265.7386583237001
 51
280.3764716169498
  0
ARC
  5
863
330
17
100
AcDbEntity
  8
0
100
AcDbCircle
 10
1138.515284720968
 20
3352.047108187363
 30
0.0
 40
1.64581203649205
100
AcDbArc
 50
281.5324765795696
 51
100.3764716169498
  0
ARC
  5
864
330
17
100
AcDbEntity
  8
0
100
AcDbCircle
 10
1155.756832711944
 20
3359.491641718479
 30
0.0
 40
12.01564645637775
100
AcDbArc
 50
182.0804958872085
 51
208.2192809474531
  0
ARC
  5
865
330
17
100
AcDbEntity
  8
0
100
AcDbCircle
 10
1137.915719173112
 20
3356.381983769902
 30
0.0
 40
9.09693723987316
100
AcDbArc
 50
164.1576826940384
 51
180.686030076942
  0
ARC
  5
866
330
17
100
AcDbEntity
  8
0
100
AcDbCircle
 10
1131.824069216909
 20
3356.309042013212
 30
0.0
 40
3.00485059496365
100
AcDbArc
 50
180.686030076942
 51
265.7386583237001
  0
ARC
  5
867
330
17
100
AcDbEntity
  8
0
100
AcDbCircle
 10
1127.939622899323
 20
3359.212894228383
 30
0.0
 40
1.27304592731856
100
AcDbArc
 50
344.1576826940385
 51
160.4759530822774
  0
ARC
  5
868
330
17
100
AcDbEntity
  8
0
100
AcDbCircle
 10
1154.350135335971
 20
3359.301973659474
 30
0.0
 40
7.694079042567659
100
AcDbArc
 50
181.2132663950669
 51
211.4261509153755
  0
ARC
  5
869
330
17
100
AcDbEntity
  8
0
100
AcDbCircle
 10
1145.20312759316
 20
3359.108252302472
 30
0.0
 40
1.454979849537179
100
AcDbArc
 50
1.213266395066942
 51
182.0804958872085
  0
ARC
  5
86A
330
17
100
AcDbEntity
  8
0
100
AcDbCircle
 10
1139.090089080458
 20
3375.411797721851
 30
0.0
 40
1.33460802839509
100
AcDbArc
 50
202.9645193137018
 51
24.74294691822036
  0
ARC
  5
86B
330
17
100
AcDbEntity
  8
0
100
AcDbCircle
 10
1120.590091800439
 20
3351.051095265887
 30
0.0
 40
1.36802729644836
100
AcDbArc
 50
165.9888479223252
 51
346.0899791517472
  0
ARC
  5
86C
330
17
100
AcDbEntity
  8
0
100
AcDbCircle
 10
1121.325473722689
 20
3374.455621957831
 30
0.0
 40
1.63692532358557
100
AcDbArc
 50
90.19901047526699
 51
265.2920678302969
  0
ARC
  5
86D
330
17
100
AcDbEntity
  8
0
100
AcDbCircle
 10
935.9380928834214
 20
3397.12818621966
 30
0.0
 40
188.9460788933249
100
AcDbArc
 50
345.9888479223252
 51
352.3972409332278
  0
ARC
  5
86E
330
17
100
AcDbEntity
  8
0
100
AcDbCircle
 10
1120.590091800439
 20
3351.051095265887
 30
0.0
 40
1.36802729644836
100
AcDbArc
 50
165.9888479223252
 51
346.0899791517472
  0
ARC
  5
86F
330
17
100
AcDbEntity
  8
0
100
AcDbCircle
 10
1122.727574393771
 20
3372.195993228189
 30
0.0
 40
0.4999999999997201
100
AcDbArc
 50
352.3972409332278
 51
85.29206783029691
  0
ARC
  5
870
330
17
100
AcDbEntity
  8
0
100
AcDbCircle
 10
1123.265541776718
 20
3376.62570974976
 30
0.0
 40
0.49999999999993
100
AcDbArc
 50
271.7528596815847
 51
353.7539942938937
  0
ARC
  5
871
330
17
100
AcDbEntity
  8
0
100
AcDbCircle
 10
1121.068581649495
 20
3448.415409097707
 30
0.0
 40
72.32330795966797
100
AcDbArc
 50
270.1990104752669
 51
271.7528596815847
  0
LINE
  5
872
330
17
100
AcDbEntity
  8
0
100
AcDbLine
 10
1121.191120646257
 20
3372.824219565454
 30
0.0
 11
1122.768612636169
 21
3372.694306244937
 31
0.0
  0
ARC
  5
873
330
17
100
AcDbEntity
  8
0
100
AcDbCircle
 10
944.3252169610785
 20
3394.704959366837
 30
0.0
 40
182.9581315231924
100
AcDbArc
 50
346.0899791517472
 51
353.0469408782257
  0
ARC
  5
874
330
17
100
AcDbEntity
  8
0
100
AcDbCircle
 10
1141.978667095045
 20
3379.489940922865
 30
0.0
 40
1.253147030119199
100
AcDbArc
 50
29.32774896572353
 51
203.9208815054414
  0
ARC
  5
875
330
17
100
AcDbEntity
  8
0
100
AcDbCircle
 10
1152.129058900058
 20
3357.544874392105
 30
0.0
 40
7.89853025043401
100
AcDbArc
 50
208.2192809474531
 51
260.1757398944173
  0
ARC
  5
876
330
17
100
AcDbEntity
  8
0
100
AcDbCircle
 10
1148.695308393682
 20
3416.168381754468
 30
0.0
 40
42.28415870897504
100
AcDbArc
 50
267.1449662842808
 51
275.74312377285
  0
ARC
  5
877
330
17
100
AcDbEntity
  8
0
100
AcDbCircle
 10
1152.129058900058
 20
3357.544874392105
 30
0.0
 40
7.89853025043401
100
AcDbArc
 50
208.2192809474531
 51
260.1757398944173
  0
ARC
  5
878
330
17
100
AcDbEntity
  8
0
100
AcDbCircle
 10
1152.577997372318
 20
3358.219145512415
 30
0.0
 40
5.617305160256669
100
AcDbArc
 50
211.4261509153755
 51
264.0839395123931
  0
LINE
  5
879
330
17
100
AcDbEntity
  8
0
100
AcDbLine
 10
1146.471516379997
 20
3370.848680382941
 30
0.0
 11
1154.515829605434
 21
3370.636789667907
 31
0.0
  0
ARC
  5
87A
330
17
100
AcDbEntity
  8
0
100
AcDbCircle
 10
1324.474719611155
 20
3352.889405898371
 30
0.0
 40
56.0
100
AcDbArc
 50
270.0
 51
0.0
  0
ARC
  5
87B
330
17
100
AcDbEntity
  8
0
100
AcDbCircle
 10
1379.874719611154
 20
3288.489405898371
 30
0.0
 40
23.6
100
AcDbArc
 50
270.0
 51
0.0
  0
ELLIPSE
  5
87C
330
17
100
AcDbEntity
  8
0
100
AcDbEllipse
 10
1324.474719611155
 20
3352.889405898371
 30
0.0
 11
0.0
 21
-22.3671245248471
 31
0.0
210
0.0
220
0.0
230
1.0
 40
0.9471075965115273
 41
0.0
 42
1.691763084935387
  0
ARC
  5
87D
330
17
100
AcDbEntity
  8
0
100
AcDbCircle
 10
1324.474719611155
 20
3352.889405898371
 30
0.0
 40
35.0
100
AcDbArc
 50
270.0
 51
0.0
  0
ARC
  5
87E
330
17
100
AcDbEntity
  8
0
100
AcDbCircle
 10
1324.474719611155
 20
3352.889405898371
 30
0.0
 40
31.0
100
AcDbArc
 50
270.0
 51
0.0
  0
ARC
  5
87F
330
17
100
AcDbEntity
  8
0
100
AcDbCircle
 10
1357.474719611158
 20
3551.889405898371
 30
0.0
 40
23.0
100
AcDbArc
 50
0.0
 51
178.4232316921732
  0
LINE
  5
880
330
17
100
AcDbEntity
  8
DIM
100
AcDbLine
 10
1334.483428463574
 20
3552.522281373523
 30
0.0
 11
1334.483428463574
 21
3545.724944261011
 31
0.0
  0
ARC
  5
881
330
17
100
AcDbEntity
  8
0
100
AcDbCircle
 10
1357.474719611155
 20
3541.889405898371
 30
0.0
 40
2.0
100
AcDbArc
 50
0.0
 51
180.0
  0
LINE
  5
882
330
17
100
AcDbEntity
  8
0
100
AcDbLine
 10
1022.474719611156
 20
3988.489405898371
 30
0.0
 11
1142.474719611156
 21
3988.489405898371
 31
0.0
  0
LINE
  5
883
330
17
100
AcDbEntity
  8
0
100
AcDbLine
 10
1142.474719611156
 20
3843.489405898371
 30
0.0
 11
1022.474719611156
 21
3843.489405898371
 31
0.0
  0
LINE
  5
886
330
17
100
AcDbEntity
  8
0
100
AcDbLine
 10
785.074719611155
 20
3986.889405898371
 30
0.0
 11
1022.474719611156
 21
3986.889405898371
 31
0.0
  0
ARC
  5
88A
330
17
100
AcDbEntity
  8
0
100
AcDbCircle
 10
785.074719611155
 20
3963.28940589837
 30
0.0
 40
23.6
100
AcDbArc
 50
90.0
 51
180.0
  0
LINE
  5
88F
330
17
100
AcDbEntity
  8
0
100
AcDbLine
 10
1079.474719611156
 20
3946.489405898371
 30
0.0
 11
1079.474719611156
 21
3856.489405898371
 31
0.0
  0
LINE
  5
890
330
17
100
AcDbEntity
  8
0
100
AcDbLine
 10
1085.474719611156
 20
3946.489405898371
 30
0.0
 11
1085.474719611156
 21
3856.489405898371
 31
0.0
  0
LINE
  5
891
330
17
100
AcDbEntity
  8
0
100
AcDbLine
 10
1040.474719611157
 20
3966.489405898371
 30
0.0
 11
1040.474719611157
 21
3876.489405898371
 31
0.0
  0
LINE
  5
892
330
17
100
AcDbEntity
  8
0
100
AcDbLine
 10
1034.474719611157
 20
3966.489405898371
 30
0.0
 11
1034.474719611157
 21
3876.489405898371
 31
0.0
  0
LINE
  5
893
330
17
100
AcDbEntity
  8
0
100
AcDbLine
 10
1022.474719611156
 20
3988.489405898371
 30
0.0
 11
1022.474719611156
 21
3843.489405898371
 31
0.0
  0
ARC
  5
894
330
17
100
AcDbEntity
  8
0
100
AcDbCircle
 10
1037.474719611156
 20
3876.489405898371
 30
0.0
 40
3.0
100
AcDbArc
 50
180.0
 51
0.0
  0
ARC
  5
895
330
17
100
AcDbEntity
  8
0
100
AcDbCircle
 10
1082.474719611156
 20
3856.489405898371
 30
0.0
 40
3.0
100
AcDbArc
 50
180.0
 51
0.0
  0
ARC
  5
896
330
17
100
AcDbEntity
  8
0
100
AcDbCircle
 10
1037.474719611156
 20
3966.489405898371
 30
0.0
 40
3.0
100
AcDbArc
 50
0.0
 51
180.0
  0
ARC
  5
897
330
17
100
AcDbEntity
  8
0
100
AcDbCircle
 10
1082.474719611156
 20
3946.489405898371
 30
0.0
 40
3.0
100
AcDbArc
 50
0.0
 51
180.0
  0
LINE
  5
8A0
330
17
100
AcDbEntity
  8
0
100
AcDbLine
 10
1142.474719611156
 20
3986.889405898371
 30
0.0
 11
1379.874719611154
 21
3986.889405898371
 31
0.0
  0
LINE
  5
8A1
330
17
100
AcDbEntity
  8
0
100
AcDbLine
 10
1130.474719611156
 20
3966.489405898371
 30
0.0
 11
1130.474719611156
 21
3876.489405898371
 31
0.0
  0
LINE
  5
8A2
330
17
100
AcDbEntity
  8
0
100
AcDbLine
 10
1124.474719611156
 20
3966.489405898371
 30
0.0
 11
1124.474719611156
 21
3876.489405898371
 31
0.0
  0
LINE
  5
8A3
330
17
100
AcDbEntity
  8
0
100
AcDbLine
 10
1142.474719611156
 20
3988.489405898371
 30
0.0
 11
1142.474719611156
 21
3843.489405898371
 31
0.0
  0
ARC
  5
8A4
330
17
100
AcDbEntity
  8
0
100
AcDbCircle
 10
1127.474719611156
 20
3876.489405898371
 30
0.0
 40
3.0
100
AcDbArc
 50
180.0
 51
0.0
  0
ARC
  5
8A5
330
17
100
AcDbEntity
  8
0
100
AcDbCircle
 10
1127.474719611156
 20
3966.489405898371
 30
0.0
 40
3.0
100
AcDbArc
 50
0.0
 51
180.0
  0
ARC
  5
8A8
330
17
100
AcDbEntity
  8
0
100
AcDbCircle
 10
1379.874719611154
 20
3963.28940589837
 30
0.0
 40
23.6
100
AcDbArc
 50
0.0
 51
90.0
  0
LEADER
  5
941
330
17
100
AcDbEntity
  8
DIM
100
AcDbLeader
  3
STANDARD
 73
     0
 75
     1
 40
48.00000000000001
 41
266.2399999999999
 76
     3
 10
867.020103672044
 20
2069.880744248025
 30
0.0
 10
502.2837025324759
 20
2245.48886605599
 30
0.0
 10
454.2837025324758
 20
2245.48886605599
 30
0.0
340
942
1001
ACAD
1000
DSTYLE
1002
{
1070
    40
1040
16.0
1070
   147
1040
1.0
1070
    77
1070
     1
1070
    43
1040
10.0
1070
    73
1070
     0
1070
    74
1070
     0
1070
   172
1070
     1
1070
   179
1070
     1
1070
   271
1070
     1
1070
   272
1070
     1
1070
   341
1005
1F7
1070
   342
1005
1F7
1002
}
  0
MTEXT
  5
942
102
{ACAD_REACTORS
330
941
102
}
330
17
100
AcDbEntity
  8
DIMTEXT
100
AcDbMText
 10
438.2837025324759
 20
2261.48886605599
 30
0.0
 40
48.0
 41
0.0
 46
0.0
 71
     9
 72
     1
  1
漏電しゃ断器
 73
     1
 44
1.0
  0
MTEXT
  5
1B5E
330
17
100
AcDbEntity
  8
DIMTEXT
100
AcDbMText
 10
455.6769003101684
 20
2176.481224159666
 30
0.0
 40
48.0
 41
0.0
 46
0.0
 71
     9
 72
     1
  1
（1ケ）
 73
     1
 44
1.0
  0
LEADER
  5
1B61
330
17
100
AcDbEntity
  8
DIM
100
AcDbLeader
  3
STANDARD
 40
51.20000000000002
 41
294.912
 76
     2
 10
930.3969545686852
 20
2101.137203083334
 30
0.0
 10
531.3909000543771
 20
2454.622484457572
 30
0.0
1001
ACAD
1000
DSTYLE
1002
{
1070
    40
1040
16.0
1070
   147
1040
1.0
1070
    77
1070
     1
1070
    43
1040
10.0
1070
    73
1070
     0
1070
    74
1070
     0
1070
   172
1070
     1
1070
   179
1070
     1
1070
   271
1070
     1
1070
   272
1070
     1
1070
   341
1005
1F7
1070
   342
1005
1F7
1002
}
  0
LEADER
  5
1B75
330
17
100
AcDbEntity
  8
DIM
100
AcDbLeader
  3
STANDARD
 40
51.20000000000002
 41
294.912
 76
     2
 10
868.0571016040484
 20
2833.137203083334
 30
0.0
 10
539.8139686898343
 20
2989.622484457572
 30
0.0
1001
ACAD
1000
DSTYLE
1002
{
1070
    40
1040
16.0
1070
   147
1040
1.0
1070
    77
1070
     1
1070
    43
1040
10.0
1070
    73
1070
     0
1070
    74
1070
     0
1070
   172
1070
     1
1070
   179
1070
     1
1070
   271
1070
     1
1070
   272
1070
     1
1070
   341
1005
1F7
1070
   342
1005
1F7
1002
}
  0
ARC
  5
220C
330
17
100
AcDbEntity
  8
0
100
AcDbCircle
 10
1202.557101604046
 20
1003.137203083322
 30
0.0
 40
2.0
100
AcDbArc
 50
90.0
 51
180.0
  0
LINE
  5
220D
330
17
100
AcDbEntity
  8
0
100
AcDbLine
 10
1200.557101604044
 20
1003.137203083323
 30
0.0
 11
1200.557101604044
 21
975.9710758276311
 31
0.0
  0
LINE
  5
2212
330
17
100
AcDbEntity
  8
0
100
AcDbLine
 10
1330.557101624251
 20
1003.137203042914
 30
0.0
 11
1330.557101624251
 21
975.9710757872221
 31
0.0
  0
ARC
  5
2213
330
17
100
AcDbEntity
  8
0
100
AcDbCircle
 10
1332.557101624253
 20
1003.137203042914
 30
0.0
 40
2.0
100
AcDbArc
 50
90.0
 51
180.0
  0
ARC
  5
35BA
330
17
100
AcDbEntity
  8
0
100
AcDbCircle
 10
799.0555124021466
 20
1644.744484172268
 30
0.0
 40
90.8333333333333
100
AcDbArc
 50
56.60151153201933
 51
123.3984884679806
  0
ARC
  5
35BB
330
17
100
AcDbEntity
  8
0
100
AcDbCircle
 10
799.0555124021466
 20
1468.028579424246
 30
0.0
 40
90.8333333333333
100
AcDbArc
 50
56.60151153201933
 51
123.3984884679806
  0
LINE
  5
35BC
330
17
100
AcDbEntity
  8
0
100
AcDbLine
 10
782.9571016040436
 20
1734.466054946814
 30
0.0
 11
782.9571016040436
 21
1557.44163464799
 31
0.0
  0
LINE
  5
35BD
330
17
100
AcDbEntity
  8
0
100
AcDbLine
 10
762.9571016040435
 20
1728.44781037963
 30
0.0
 11
762.9571016040429
 21
1551.423390080806
 31
0.0
  0
LINE
  5
35BE
330
17
100
AcDbEntity
  8
0
100
AcDbLine
 10
773.9571016040431
 20
1732.378221992721
 30
0.0
 11
773.9571016040427
 21
1555.353801693897
 31
0.0
  0
LINE
  5
35BF
330
17
100
AcDbEntity
  8
0
100
AcDbLine
 10
1068.555512402146
 20
1534.135650226718
 30
0.0
 11
1068.555512402147
 21
1710.851554974739
 31
0.0
  0
LINE
  5
35C0
330
17
100
AcDbEntity
  8
0
100
AcDbLine
 10
896.0571016043093
 20
1528.908218138427
 30
0.0
 11
896.0571016043081
 21
1705.93263843725
 31
0.0
  0
LINE
  5
35C1
330
17
100
AcDbEntity
  8
0
100
AcDbLine
 10
880.0571016043125
 20
1530.849962341838
 30
0.0
 11
880.0571016043122
 21
1607.608144035862
 31
0.0
  0
ARC
  5
35C2
330
17
100
AcDbEntity
  8
0
100
AcDbCircle
 10
899.0555124021467
 20
1619.695246090913
 30
0.0
 40
90.83333333333326
100
AcDbArc
 50
236.6015115320193
 51
303.3984884679806
  0
ARC
  5
35C3
330
17
100
AcDbEntity
  8
0
100
AcDbCircle
 10
999.0555124021467
 20
1468.028579424246
 30
0.0
 40
90.83333333333326
100
AcDbArc
 50
56.60151153201933
 51
123.3984884679806
  0
ARC
  5
35C4
330
17
100
AcDbEntity
  8
0
100
AcDbCircle
 10
1099.055512402146
 20
1619.695246090913
 30
0.0
 40
90.83333333333326
100
AcDbArc
 50
236.6015115320193
 51
250.380034846734
  0
ARC
  5
35C5
330
17
100
AcDbEntity
  8
0
100
AcDbCircle
 10
899.0555124021467
 20
1796.411150838934
 30
0.0
 40
90.83333333333326
100
AcDbArc
 50
236.6015115320193
 51
303.3984884679806
  0
LINE
  5
35C6
330
17
100
AcDbEntity
  8
0
100
AcDbLine
 10
880.057101604312
 20
1657.608144035856
 30
0.0
 11
880.057101604312
 21
1707.874382640662
 31
0.0
  0
ARC
  5
35C7
330
17
100
AcDbEntity
  8
0
100
AcDbCircle
 10
849.274863984052
 20
1674.644170485838
 30
0.0
 40
28.0
100
AcDbArc
 50
0.0
 51
43.42476338516724
  0
LINE
  5
35C8
330
17
100
AcDbEntity
  8
0
100
AcDbLine
 10
808.2883177847339
 20
1735.405768629365
 30
0.0
 11
857.9901956893278
 21
1682.892988174878
 31
0.0
  0
LINE
  5
35C9
330
17
100
AcDbEntity
  8
0
100
AcDbLine
 10
857.8404807548231
 20
1607.608144035862
 30
0.0
 11
880.7092472132813
 21
1607.608144035862
 31
0.0
  0
LINE
  5
35CB
330
17
100
AcDbEntity
  8
0
100
AcDbLine
 10
854.2748639840779
 20
1647.608144035856
 30
0.0
 11
884.2748639840772
 21
1647.608144035856
 31
0.0
  0
LINE
  5
35CC
330
17
100
AcDbEntity
  8
0
100
AcDbLine
 10
854.2748639840779
 20
1657.608144035856
 30
0.0
 11
884.2748639840772
 21
1657.608144035856
 31
0.0
  0
LINE
  5
35CD
330
17
100
AcDbEntity
  8
0
100
AcDbLine
 10
857.8404807548231
 20
1607.608144035862
 30
0.0
 11
856.7881447931677
 21
1608.606773570333
 31
0.0
  0
LINE
  5
35CE
330
17
100
AcDbEntity
  8
0
100
AcDbLine
 10
856.7881447931677
 20
1608.606773570333
 30
0.0
 11
869.274863984052
 21
1608.606773570333
 31
0.0
  0
LINE
  5
35CF
330
17
100
AcDbEntity
  8
0
100
AcDbLine
 10
856.0543639840521
 20
1622.608144035862
 30
0.0
 11
856.0543639840521
 21
1625.608144035862
 31
0.0
  0
LINE
  5
35D0
330
17
100
AcDbEntity
  8
0
100
AcDbLine
 10
856.0543639840521
 20
1624.620787035862
 30
0.0
 11
857.2163639840519
 21
1622.608144035862
 31
0.0
  0
LINE
  5
35D1
330
17
100
AcDbEntity
  8
0
100
AcDbLine
 10
852.4688490475719
 20
1632.608144035862
 30
0.0
 11
852.4688490475719
 21
1625.608144034837
 31
0.0
  0
LINE
  5
35D2
330
17
100
AcDbEntity
  8
0
100
AcDbLine
 10
869.274863984052
 20
1625.608144034837
 30
0.0
 11
852.4688490475719
 21
1625.608144034837
 31
0.0
  0
LINE
  5
35D3
330
17
100
AcDbEntity
  8
0
100
AcDbLine
 10
852.4688490475719
 20
1632.608144035862
 30
0.0
 11
869.274863984052
 21
1632.608144035862
 31
0.0
  0
LINE
  5
35D4
330
17
100
AcDbEntity
  8
0
100
AcDbLine
 10
856.0543639840521
 20
1622.608144035862
 30
0.0
 11
869.274863984052
 21
1622.608144035862
 31
0.0
  0
LINE
  5
35D5
330
17
100
AcDbEntity
  8
0
100
AcDbLine
 10
856.7881447931677
 20
1608.606773570333
 30
0.0
 11
856.0543639840521
 21
1622.608144035862
 31
0.0
  0
LINE
  5
35D6
330
17
100
AcDbEntity
  8
0
100
AcDbLine
 10
857.9501448071159
 20
1608.606773570333
 30
0.0
 11
857.2163639840523
 21
1622.608144035862
 31
0.0
  0
CIRCLE
  5
35D7
330
17
100
AcDbEntity
  8
0
100
AcDbCircle
 10
859.2748639840756
 20
1652.608144035855
 30
0.0
 40
1.600000000000932
  0
CIRCLE
  5
35D8
330
17
100
AcDbEntity
  8
0
100
AcDbCircle
 10
859.2748639840756
 20
1652.608144035855
 30
0.0
 40
1.999999999999886
  0
LINE
  5
35D9
330
17
100
AcDbEntity
  8
0
100
AcDbLine
 10
854.2748639840779
 20
1657.608144035856
 30
0.0
 11
854.2748639840779
 21
1647.608144035856
 31
0.0
  0
ARC
  5
35DA
330
17
100
AcDbEntity
  8
0
100
AcDbCircle
 10
849.274863984052
 20
1674.644170485838
 30
0.0
 40
12.0
100
AcDbArc
 50
0.0
 51
43.42476338516724
  0
LINE
  5
35DB
330
17
100
AcDbEntity
  8
0
100
AcDbLine
 10
861.2748639840519
 20
1662.608144035863
 30
0.0
 11
861.2748639840519
 21
1657.608144035856
 31
0.0
  0
LINE
  5
35DC
330
17
100
AcDbEntity
  8
0
100
AcDbLine
 10
861.2748639840521
 20
1657.608144035856
 30
0.0
 11
861.2748639840519
 21
1674.644170485838
 31
0.0
  0
LINE
  5
35DD
330
17
100
AcDbEntity
  8
0
100
AcDbLine
 10
861.2748639840521
 20
1632.608144035862
 30
0.0
 11
861.2748639840521
 21
1647.608144035856
 31
0.0
  0
LINE
  5
35DE
330
17
100
AcDbEntity
  8
0
100
AcDbLine
 10
880.0571016043122
 20
1632.608144035862
 30
0.0
 11
880.057101604312
 21
1647.608144035856
 31
0.0
  0
CIRCLE
  5
35EE
330
17
100
AcDbEntity
  8
0
100
AcDbCircle
 10
879.2748639840674
 20
1652.608144035855
 30
0.0
 40
1.600000000000932
  0
CIRCLE
  5
35EF
330
17
100
AcDbEntity
  8
0
100
AcDbCircle
 10
879.2748639840674
 20
1652.608144035855
 30
0.0
 40
1.999999999999886
  0
LINE
  5
35F0
330
17
100
AcDbEntity
  8
0
100
AcDbLine
 10
884.2748639840772
 20
1657.608144035856
 30
0.0
 11
884.2748639840772
 21
1647.608144035856
 31
0.0
  0
LINE
  5
35F1
330
17
100
AcDbEntity
  8
0
100
AcDbLine
 10
877.274863984052
 20
1662.608144035863
 30
0.0
 11
877.274863984052
 21
1657.608144035856
 31
0.0
  0
LINE
  5
35F2
330
17
100
AcDbEntity
  8
0
100
AcDbLine
 10
877.2748639840521
 20
1674.644170485838
 30
0.0
 11
877.274863984052
 21
1657.608144035863
 31
0.0
  0
LINE
  5
35F3
330
17
100
AcDbEntity
  8
0
100
AcDbLine
 10
877.274863984052
 20
1647.608144035863
 30
0.0
 11
877.274863984052
 21
1632.608144035862
 31
0.0
  0
LINE
  5
35F4
330
17
100
AcDbEntity
  8
0
100
AcDbLine
 10
838.3851866840178
 20
1726.882826506295
 30
0.0
 11
869.6106379630286
 21
1693.891411760265
 31
0.0
  0
MTEXT
  5
3A7A
330
17
100
AcDbEntity
  8
DIMTEXT
100
AcDbMText
 10
172.043702532476
 20
1549.622484457573
 30
0.0
 40
48.0
 41
500.0
 46
0.0
 71
     4
 72
     1
  1
給水配管口　R3／4
 73
     1
 44
1.0
  0
LINE
  5
3A7B
330
17
100
AcDbEntity
  8
DIMTEXT
100
AcDbLine
 10
674.8779882467617
 20
1504.622484457573
 30
0.0
 11
172.043702532476
 21
1504.622484457573
 31
0.0
  0
LEADER
  5
3A7C
330
17
100
AcDbEntity
  8
DIMTEXT
100
AcDbLeader
  3
STANDARD
 76
     2
 10
953.154056094379
 20
1607.77954808332
 30
0.0
 10
674.8779882467617
 20
1504.622484457573
 30
0.0
1001
ACAD
1000
DSTYLE
1002
{
1070
    41
1040
3.0
1070
    42
1040
2.0
1070
    43
1040
10.0
1070
    44
1040
2.0
1070
    73
1070
     0
1070
    74
1070
     0
1070
    77
1070
     1
1070
    78
1070
     8
1070
    79
1070
     2
1070
   140
1040
3.2
1070
   147
1040
0.9999999999999996
1070
   172
1070
     1
1070
   179
1070
     8
1070
   271
1070
     8
1070
   272
1070
     8
1070
   341
1005
4A
1070
   342
1005
4A
1002
}
  0
LEADER
  5
3A7D
330
17
100
AcDbEntity
  8
DIMTEXT
100
AcDbLeader
  3
STANDARD
 76
     2
 10
852.4688490475719
 20
1629.108144035349
 30
0.0
 10
674.8779882467617
 20
2004.622484457573
 30
0.0
1001
ACAD
1000
DSTYLE
1002
{
1070
    41
1040
3.0
1070
    42
1040
2.0
1070
    43
1040
10.0
1070
    44
1040
2.0
1070
    73
1070
     0
1070
    74
1070
     0
1070
    77
1070
     1
1070
    78
1070
     8
1070
    79
1070
     2
1070
   140
1040
3.2
1070
   147
1040
0.9999999999999996
1070
   172
1070
     1
1070
   179
1070
     8
1070
   271
1070
     8
1070
   272
1070
     8
1070
   341
1005
4A
1070
   342
1005
4A
1002
}
  0
MTEXT
  5
3A7E
330
17
100
AcDbEntity
  8
DIMTEXT
100
AcDbMText
 10
172.043702532476
 20
2049.622484457573
 30
0.0
 40
48.0
 41
500.0
 46
0.0
 71
     4
 72
     1
  1
給湯配管口　R3／4
 73
     1
 44
1.0
  0
LINE
  5
3A7F
330
17
100
AcDbEntity
  8
DIMTEXT
100
AcDbLine
 10
674.8779882467617
 20
2004.622484457573
 30
0.0
 11
172.043702532476
 21
2004.622484457573
 31
0.0
  0
MTEXT
  5
3A80
330
17
100
AcDbEntity
  8
DIMTEXT
100
AcDbMText
 10
172.043702532476
 20
1147.354129888705
 30
0.0
 40
48.0
 41
500.0
 46
0.0
 71
     4
 72
     1
  1
（膨張水・排水兼用）
 73
     1
 44
1.0
  0
LINE
  5
3A84
330
17
100
AcDbEntity
  8
DIMTEXT
100
AcDbLine
 10
485.5999104315271
 20
904.6224844575728
 30
0.0
 11
172.043702532476
 21
904.622484457573
 31
0.0
  0
LEADER
  5
3A85
330
17
100
AcDbEntity
  8
DIMTEXT
100
AcDbLeader
  3
STANDARD
 76
     2
 10
763.5398394408836
 20
852.8714606103669
 30
0.0
 10
485.5999104315271
 20
904.6224844575728
 30
0.0
1001
ACAD
1000
DSTYLE
1002
{
1070
    41
1040
3.0
1070
    42
1040
2.0
1070
    43
1040
10.0
1070
    44
1040
2.0
1070
    73
1070
     0
1070
    74
1070
     0
1070
    77
1070
     1
1070
    78
1070
     8
1070
    79
1070
     2
1070
   140
1040
3.2
1070
   147
1040
0.9999999999999996
1070
   172
1070
     1
1070
   179
1070
     8
1070
   271
1070
     8
1070
   272
1070
     8
1070
   341
1005
4A
1070
   342
1005
4A
1002
}
  0
MTEXT
  5
3A86
330
17
100
AcDbEntity
  8
DIMTEXT
100
AcDbMText
 10
172.043702532476
 20
949.622484457573
 30
0.0
 40
48.0
 41
500.0
 46
0.0
 71
     4
 72
     1
  1
脚
 73
     1
 44
1.0
  0
LEADER
  5
3A87
330
17
100
AcDbEntity
  8
DIMTEXT
100
AcDbLeader
  3
STANDARD
 76
     2
 10
979.8880540457348
 20
781.9681555250127
 30
0.0
 10
674.8779882467617
 20
604.622484457573
 30
0.0
1001
ACAD
1000
DSTYLE
1002
{
1070
    41
1040
3.0
1070
    42
1040
2.0
1070
    43
1040
10.0
1070
    44
1040
2.0
1070
    73
1070
     0
1070
    74
1070
     0
1070
    77
1070
     1
1070
    78
1070
     8
1070
    79
1070
     2
1070
   140
1040
3.2
1070
   147
1040
0.9999999999999996
1070
   172
1070
     1
1070
   179
1070
     8
1070
   271
1070
     8
1070
   272
1070
     8
1070
   341
1005
4A
1070
   342
1005
4A
1002
}
  0
MTEXT
  5
3A88
330
17
100
AcDbEntity
  8
DIMTEXT
100
AcDbMText
 10
172.043702532476
 20
559.622484457573
 30
0.0
 40
48.0
 41
500.0
 46
0.0
 71
     4
 72
     1
  1
%%C16×0.8m
 73
     1
 44
1.0
  0
MTEXT
  5
3A89
330
17
100
AcDbEntity
  8
DIMTEXT
100
AcDbMText
 10
172.043702532476
 20
649.622484457573
 30
0.0
 40
48.0
 41
500.0
 46
0.0
 71
     4
 72
     1
  1
排水パンゴムホース
 73
     1
 44
1.0
  0
LINE
  5
3A8A
330
17
100
AcDbEntity
  8
DIMTEXT
100
AcDbLine
 10
674.8779882467617
 20
604.6224844575731
 30
0.0
 11
172.043702532476
 21
604.6224844575727
 31
0.0
  0
DIMENSION
  5
3A8E
330
17
100
AcDbEntity
  8
DIM
100
AcDbDimension
  2
*D5
 10
1223.163905282806
 20
3986.889405898371
 30
0.0
 11
1191.963905282805
 21
3798.733977326942
 31
0.0
 70
    32
  1
最大<>mm
 71
     5
 42
90.0000000000009
 73
     0
 74
     0
 75
     0
  3
STANDARD
100
AcDbAlignedDimension
 13
1142.474719611157
 23
4076.889405898372
 33
0.0
 14
1142.474719611157
 24
3986.889405898371
 34
0.0
 50
90.0
100
AcDbRotatedDimension
1001
ACAD
1000
DSTYLE
1002
{
1070
    40
1040
12.0
1070
    76
1070
     1
1070
    41
1040
3.0
1070
    42
1040
2.0
1070
    43
1040
10.0
1070
    44
1040
2.0
1070
    73
1070
     0
1070
    74
1070
     0
1070
    77
1070
     1
1070
    78
1070
     8
1070
    79
1070
     2
1070
   140
1040
3.2
1070
   147
1040
0.9999999999999996
1070
   172
1070
     1
1070
   179
1070
     8
1070
   271
1070
     8
1070
   272
1070
     8
1070
   341
1005
4A
1070
   342
1005
4A
1002
}
  0
LINE
  5
3A8F
330
17
100
AcDbEntity
  8
HID
100
AcDbLine
 10
1142.474719611157
 20
4076.889405898372
 30
0.0
 11
1142.474719611157
 21
3988.489405898371
 31
0.0
  0
LINE
  5
3A90
330
17
100
AcDbEntity
  8
HID
100
AcDbLine
 10
1142.474719611157
 20
4076.889405898372
 30
0.0
 11
1022.474719611156
 21
4076.889405898372
 31
0.0
  0
LINE
  5
3A91
330
17
100
AcDbEntity
  8
HID
100
AcDbLine
 10
1022.474719611156
 20
3988.489405898371
 30
0.0
 11
1022.474719611156
 21
4076.889405898372
 31
0.0
  0
LWPOLYLINE
  5
3AEC
330
17
100
AcDbEntity
  8
0
100
AcDbPolyline
 90
        4
 70
     1
 43
0.0
 10
107.7098773807502
 20
4915.845978532737
 10
3482.189333586318
 20
4915.845978532737
 10
3482.189333586318
 20
119.1368236109677
 10
107.7098773807502
 20
119.1368236109677
  0
LINE
  5
3B64
330
17
100
AcDbEntity
  8
WAKU
100
AcDbLine
 10
2428.926707119387
 20
4610.279482169715
 30
0.0
 11
3428.926707119388
 21
4610.279482169715
 31
0.0
  0
LINE
  5
3B65
330
17
100
AcDbEntity
  8
WAKU
100
AcDbLine
 10
2428.926707119387
 20
4690.279482169715
 30
0.0
 11
3428.926707119388
 21
4690.279482169715
 31
0.0
  0
LINE
  5
3B68
330
17
100
AcDbEntity
  8
WAKU
100
AcDbLine
 10
2258.926707119386
 20
4770.279482169715
 30
0.0
 11
3428.926707119388
 21
4770.279482169714
 31
0.0
  0
LINE
  5
3B69
330
17
100
AcDbEntity
  8
WAKU
100
AcDbLine
 10
2258.926707119386
 20
4850.279482169713
 30
0.0
 11
3428.926707119389
 21
4850.279482169714
 31
0.0
  0
LINE
  5
3B6D
330
17
100
AcDbEntity
  8
WAKU
100
AcDbLine
 10
3428.926707119388
 20
4530.279482169716
 30
0.0
 11
2258.926707119387
 21
4530.279482169715
 31
0.0
  0
TEXT
  5
3B77
330
17
100
AcDbEntity
  8
DIMTEXT
100
AcDbText
 10
2993.926707119388
 20
4706.279482169716
 30
0.0
 40
48.0
  1
YTK46NB06
 41
0.8
 72
     1
 11
3153.926707119388
 21
4730.279482169716
 31
0.0
100
AcDbText
 73
     2
  0
LINE
  5
3B79
330
17
100
AcDbEntity
  8
WAKU
100
AcDbLine
 10
2428.926707119387
 20
4770.279482169715
 30
0.0
 11
2428.926707119387
 21
4530.279482169715
 31
0.0
  0
LINE
  5
3B7B
330
17
100
AcDbEntity
  8
WAKU
100
AcDbLine
 10
2258.926707119387
 20
4850.279482169713
 30
0.0
 11
2258.926707119387
 21
4530.279482169715
 31
0.0
  0
LINE
  5
3B80
330
17
100
AcDbEntity
  8
WAKU
100
AcDbLine
 10
2878.926707119388
 20
4850.279482169713
 30
0.0
 11
2878.926707119388
 21
4530.279482169715
 31
0.0
  0
TEXT
  5
3B85
330
17
100
AcDbEntity
  8
DIMTEXT
100
AcDbText
 10
2595.393829030878
 20
4546.279482169715
 30
0.0
 40
48.0
  1
満水時
 41
0.8
 72
     1
 11
2659.393829030878
 21
4570.279482169715
 31
0.0
100
AcDbText
 73
     2
  0
TEXT
  5
3B8D
330
17
100
AcDbEntity
  8
DIMTEXT
100
AcDbText
 10
2297.966707119387
 20
4674.210874259595
 30
0.0
 40
48.0
  1
質量
 41
0.8
 72
     1
 11
2338.926707119387
 21
4698.210874259595
 31
0.0
100
AcDbText
 73
     2
  0
TEXT
  5
3B8E
330
17
100
AcDbEntity
  8
DIMTEXT
100
AcDbText
 10
2275.292421405101
 20
4574.210874259597
 30
0.0
 40
48.0
  1
（kg）
 41
0.8
 72
     1
 11
2338.926707119387
 21
4598.210874259597
 31
0.0
100
AcDbText
 73
     2
  0
TEXT
  5
3B8F
330
17
100
AcDbEntity
  8
DIMTEXT
100
AcDbText
 10
2445.590713696455
 20
4706.279482169715
 30
0.0
 40
48.0
  1
タンクユニット品番
 41
0.8
 72
     1
 11
2650.390713696455
 21
4730.279482169714
 31
0.0
100
AcDbText
 73
     2
  0
TEXT
  5
3B91
330
17
100
AcDbEntity
  8
DIMTEXT
100
AcDbText
 10
2595.393829030878
 20
4626.279482169715
 30
0.0
 40
48.0
  1
本　体
 41
0.8
 72
     1
 11
2659.393829030878
 21
4650.279482169715
 31
0.0
100
AcDbText
 73
     2
  0
TEXT
  5
3B92
330
17
100
AcDbEntity
  8
DIMTEXT
100
AcDbText
 10
2426.930172108761
 20
4786.279482169715
 30
0.0
 40
48.0
  1
システム品番
 41
0.8
 72
     1
 11
2562.610172108761
 21
4810.279482169715
 31
0.0
100
AcDbText
 73
     2
  0
LINE
  5
3B95
330
17
100
AcDbEntity
  8
WAKU
100
AcDbLine
 10
3428.926707119389
 20
4850.279482169714
 30
0.0
 11
3428.926707119388
 21
4530.279482169715
 31
0.0
  0
TEXT
  5
3B9C
330
17
100
AcDbEntity
  8
DIMTEXT
100
AcDbText
 10
3104.555278547959
 20
4546.279482169718
 30
0.0
 40
48.0
  1
545
 41
0.8
 72
     1
 11
3153.926707119388
 21
4570.279482169718
 31
0.0
100
AcDbText
 73
     2
  0
TEXT
  5
3BA6
330
17
100
AcDbEntity
  8
DIMTEXT
100
AcDbText
 10
3122.840992833674
 20
4626.279482169717
 30
0.0
 40
48.0
  1
85
 41
0.8
 72
     1
 11
3153.926707119388
 21
4650.279482169717
 31
0.0
100
AcDbText
 73
     2
  0
TEXT
  5
3BC7
330
17
100
AcDbEntity
  8
DIMTEXT
100
AcDbText
 10
2921.698135690816
 20
4786.279482169715
 30
0.0
 40
48.0
  1
YU46NNAH-M02
 41
0.8
 72
     1
 11
3153.926707119388
 21
4810.279482169715
 31
0.0
100
AcDbText
 73
     2
  0
TEXT
  5
3CCC
330
17
100
AcDbEntity
  8
DIM
100
AcDbText
 10
2103.020209159735
 20
765.158133422834
 30
0.0
 40
51.2
  1
GL
 41
0.8
100
AcDbText
  0
LEADER
  5
4365
330
17
100
AcDbEntity
  8
DIM
100
AcDbLeader
  3
STANDARD
 73
     0
 75
     1
 40
128.0
 41
363.8857142857142
 76
     3
 10
1192.557101595629
 20
958.1372030833231
 30
0.0
 10
575.8735572589942
 20
278.7173929259178
 30
0.0
 10
524.8735572589942
 20
278.7173929259178
 30
0.0
340
4366
213
335.8298547265183
223
0.0
233
0.0
1001
ACAD
1000
DSTYLE
1002
{
1070
   147
1040
1.0
1070
    77
1070
     1
1070
    43
1040
10.0
1070
    73
1070
     0
1070
    74
1070
     0
1070
   172
1070
     1
1070
   179
1070
     1
1070
   271
1070
     1
1070
   272
1070
     1
1070
   341
1005
1F7
1070
   342
1005
1F7
1002
}
  0
MTEXT
  5
4366
102
{ACAD_XDICTIONARY
360
6FC4
102
}
102
{ACAD_REACTORS
330
4365
102
}
330
17
100
AcDbEntity
  8
DIM
100
AcDbMText
 10
172.0437025324759
 20
295.7173929259178
 30
0.0
 40
48.0
 41
0.0
 46
0.0
 71
     9
 72
     1
  1
ヒートポンプ　　\P配管口A　R1／2
 73
     1
 44
1.0
  0
LEADER
  5
436D
330
17
100
AcDbEntity
  8
DIM
100
AcDbLeader
  3
STANDARD
 73
     0
 75
     1
 40
48.00000000000001
 41
342.6742857142857
 76
     3
 10
1093.765477719956
 20
957.870495593411
 30
0.0
 10
582.7179882467617
 20
1186.158936128688
 30
0.0
 10
531.7179882467617
 20
1186.158936128688
 30
0.0
340
436E
1001
ACAD
1000
DSTYLE
1002
{
1070
   147
1040
1.0
1070
    77
1070
     1
1070
    43
1040
10.0
1070
    73
1070
     0
1070
    74
1070
     0
1070
   172
1070
     1
1070
   179
1070
     1
1070
   271
1070
     1
1070
   272
1070
     1
1070
   341
1005
1F7
1070
   342
1005
1F7
1002
}
  0
MTEXT
  5
436E
102
{ACAD_REACTORS
330
436D
102
}
330
17
100
AcDbEntity
  8
DIM
100
AcDbMText
 10
514.7179882467617
 20
1203.158936128688
 30
0.0
 40
48.0
 41
0.0
 46
0.0
 71
     9
 72
     1
  1
排水栓 Rc3／4　　
 73
     1
 44
1.0
  0
DIMENSION
  5
4379
330
17
100
AcDbEntity
  8
DIM
100
AcDbDimension
  2
*D7
 10
1403.474719611155
 20
4203.412385659285
 30
0.0
 11
1082.474719611155
 21
4241.662385659286
 31
0.0
 70
    32
  1
（650）
 71
     5
 42
641.9999999999998
 73
     0
 74
     0
 75
     0
  3
STANDARD
100
AcDbAlignedDimension
 13
761.474719611155
 23
3963.28940589837
 33
0.0
 14
1403.474719611155
 24
3963.28940589837
 34
0.0
100
AcDbRotatedDimension
1001
ACAD
1000
DSTYLE
1002
{
1070
    41
1040
2.0
1070
    43
1040
10.0
1070
    45
1040
1.0
1070
    73
1070
     0
1070
    74
1070
     0
1070
   140
1040
2.5
1070
   172
1070
     1
1070
   179
1070
     1
1070
   271
1070
     1
1070
   272
1070
     1
1070
   341
1005
4A
1070
   342
1005
4A
1002
}
  0
INSERT
  5
4E38
330
17
100
AcDbEntity
  8
Defpoints
100
AcDbBlockReference
  2
waku0
 10
0.0
 20
0.0
 30
0.0
 41
3570.0
 42
5049.0
 43
3570.0
  0
DIMENSION
  5
4E52
330
17
100
AcDbEntity
  8
DIM
100
AcDbDimension
  2
*D8
 10
1541.040327794493
 20
3264.889405898371
 30
0.0
 11
1502.790327794492
 21
3625.889405898371
 31
0.0
 70
    32
  1
（730）
 71
     5
 42
721.9999999999995
 73
     0
 74
     0
 75
     0
  3
STANDARD
100
AcDbAlignedDimension
 13
1379.874719611154
 23
3986.889405898371
 33
0.0
 14
1379.874719611154
 24
3264.889405898371
 34
0.0
 50
90.0
100
AcDbRotatedDimension
1001
ACAD
1000
DSTYLE
1002
{
1070
    41
1040
2.0
1070
    43
1040
10.0
1070
    45
1040
1.0
1070
    73
1070
     0
1070
    74
1070
     0
1070
   140
1040
2.5
1070
   172
1070
     1
1070
   179
1070
     1
1070
   271
1070
     1
1070
   272
1070
     1
1070
   341
1005
4A
1070
   342
1005
4A
1002
}
  0
TEXT
  5
4EA3
330
17
100
AcDbEntity
  8
DIM
100
AcDbText
 10
2234.139885857042
 20
2597.314217665329
 30
0.0
 40
57.6
  1
基礎ボルトおよび配管位置図（上空図）
 41
0.8
 72
     1
 11
2713.371885857041
 21
2597.314217665329
 31
0.0
100
AcDbText
  0
LINE
  5
4EA4
330
17
100
AcDbEntity
  8
DIM
100
AcDbLine
 10
2212.908625463816
 20
2584.71718226245
 30
0.0
 11
3208.060688298336
 21
2584.71718226245
 31
0.0
  0
LEADER
  5
53F1
330
17
100
AcDbEntity
  8
DIM
100
AcDbLeader
  3
STANDARD
 73
     0
 75
     1
 40
128.0
 41
498.4685714285715
 76
     3
 10
2401.646371943106
 20
3494.28940589834
 30
0.0
 10
2317.626203850926
 20
4026.371401220815
 30
0.0
 10
2266.626203850926
 20
4026.371401220815
 30
0.0
340
53F2
213
-40.67510968452006
223
3.257271601140473
233
0.0
1001
ACAD
1000
DSTYLE
1002
{
1070
   147
1040
1.0
1070
    77
1070
     1
1070
    43
1040
10.0
1070
    73
1070
     0
1070
    74
1070
     0
1070
   172
1070
     1
1070
   272
1070
     1
1070
   341
1005
95D
1070
   342
1005
4A
1002
}
  0
MTEXT
  5
53F2
102
{ACAD_REACTORS
330
53F1
102
}
330
17
100
AcDbEntity
  8
DIM
100
AcDbMText
 10
2290.301313535446
 20
4040.114129619674
 30
0.0
 40
48.0
 41
594.9662397850791
 46
0.0
 71
     9
 72
     1
  1
\A1;3-M12アンカーボルト\P（穴φ17）
 73
     1
 44
1.0
  0
LEADER
  5
5653
330
17
100
AcDbEntity
  8
DIM
100
AcDbLeader
  3
STANDARD
 73
     0
 74
     0
 75
     1
 40
48.00000000000002
 41
174.0800000000001
 76
     3
 10
1302.001364125266
 20
1186.137203083323
 30
0.0
 10
1417.064353387906
 20
1465.605138765991
 30
0.0
 10
1468.064353387906
 20
1465.605138765991
 30
0.0
340
5654
1001
ACAD
1000
DSTYLE
1002
{
1070
   147
1040
1.0
1070
    77
1070
     1
1070
    43
1040
10.0
1070
    73
1070
     0
1070
    74
1070
     0
1070
   172
1070
     1
1070
   179
1070
     1
1070
   271
1070
     1
1070
   272
1070
     1
1070
   341
1005
1F7
1070
   342
1005
1F7
1002
}
  0
MTEXT
  5
5654
102
{ACAD_REACTORS
330
5653
102
}
330
17
100
AcDbEntity
  8
DIM
100
AcDbMText
 10
1485.064353387906
 20
1482.605138765991
 30
0.0
 40
48.0
 41
243.4507977744795
 46
0.0
 71
     7
 72
     1
  1
\A1;型式銘板
 73
     1
 44
1.0
  0
LINE
  5
5C79
330
17
100
AcDbEntity
  8
WAKU
100
AcDbLine
 10
3140.43766930273
 20
1602.328651493466
 30
0.0
 11
2240.43766930273
 21
1602.328651493466
 31
0.0
  0
TEXT
  5
5C7A
330
17
100
AcDbEntity
  8
DIMTEXT
100
AcDbText
 10
2365.336807389394
 20
1618.328651493466
 30
0.0
 40
48.0
  1
排水栓配管口
 41
0.8
 11
2365.336807389394
 21
1642.328651493466
 31
0.0
100
AcDbText
 73
     2
  0
LINE
  5
5C7B
330
17
100
AcDbEntity
  8
WAKU
100
AcDbLine
 10
3140.43766930273
 20
1682.328651493467
 30
0.0
 11
2240.43766930273
 21
1682.328651493467
 31
0.0
  0
LINE
  5
5C7C
330
17
100
AcDbEntity
  8
WAKU
100
AcDbLine
 10
3140.43766930273
 20
1762.328651493465
 30
0.0
 11
2240.43766930273
 21
1762.328651493465
 31
0.0
  0
LINE
  5
5C7D
330
17
100
AcDbEntity
  8
WAKU
100
AcDbLine
 10
3140.43766930273
 20
1842.328651493466
 30
0.0
 11
2240.43766930273
 21
1842.328651493466
 31
0.0
  0
LINE
  5
5C7E
330
17
100
AcDbEntity
  8
WAKU
100
AcDbLine
 10
3140.43766930273
 20
1922.328651493467
 30
0.0
 11
2240.43766930273
 21
1922.328651493467
 31
0.0
  0
LINE
  5
5C7F
330
17
100
AcDbEntity
  8
WAKU
100
AcDbLine
 10
3140.43766930273
 20
2002.328651493466
 30
0.0
 11
2240.43766930273
 21
2002.328651493466
 31
0.0
  0
LINE
  5
5C80
330
17
100
AcDbEntity
  8
WAKU
100
AcDbLine
 10
3140.43766930273
 20
2082.328651493466
 30
0.0
 11
2240.43766930273
 21
2082.328651493466
 31
0.0
  0
TEXT
  5
5C81
330
17
100
AcDbEntity
  8
DIMTEXT
100
AcDbText
 10
2365.336807389394
 20
2098.328651493466
 30
0.0
 40
48.0
  1
ヒートポンプ配管口A
 41
0.8
 11
2365.336807389394
 21
2122.328651493466
 31
0.0
100
AcDbText
 73
     2
  0
TEXT
  5
5C82
330
17
100
AcDbEntity
  8
DIMTEXT
100
AcDbText
 10
2365.336807389394
 20
2178.328651493467
 30
0.0
 40
48.0
  1
ヒートポンプ配管口B
 41
0.8
 11
2365.336807389394
 21
2202.328651493467
 31
0.0
100
AcDbText
 73
     2
  0
LINE
  5
5C83
330
17
100
AcDbEntity
  8
WAKU
100
AcDbLine
 10
3140.43766930273
 20
2162.328651493466
 30
0.0
 11
2240.43766930273
 21
2162.328651493466
 31
0.0
  0
LINE
  5
5C84
330
17
100
AcDbEntity
  8
WAKU
100
AcDbLine
 10
3140.43766930273
 20
2242.328651493467
 30
0.0
 11
2240.43766930273
 21
2242.328651493467
 31
0.0
  0
LINE
  5
5C85
330
17
100
AcDbEntity
  8
WAKU
100
AcDbLine
 10
3140.43766930273
 20
2322.328651493467
 30
0.0
 11
2240.43766930273
 21
2322.328651493467
 31
0.0
  0
TEXT
  5
5C87
330
17
100
AcDbEntity
  8
DIMTEXT
100
AcDbText
 10
2249.47766930273
 20
2258.328651493467
 30
0.0
 40
48.0
  1
番号
 41
0.8
 72
     1
 11
2290.43766930273
 21
2282.328651493467
 31
0.0
100
AcDbText
 73
     2
  0
LINE
  5
5C88
330
17
100
AcDbEntity
  8
WAKU
100
AcDbLine
 10
2240.43766930273
 20
2322.328651493467
 30
0.0
 11
2240.43766930273
 21
1602.328651493466
 31
0.0
  0
TEXT
  5
5C8A
330
17
100
AcDbEntity
  8
DIMTEXT
100
AcDbText
 10
2277.63766930273
 20
1618.328651493466
 30
0.0
 40
48.0
  1
8
 41
0.8
 72
     1
 11
2290.43766930273
 21
1642.328651493466
 31
0.0
100
AcDbText
 73
     2
  0
TEXT
  5
5C8B
330
17
100
AcDbEntity
  8
DIMTEXT
100
AcDbText
 10
2277.63766930273
 20
1698.328651493465
 30
0.0
 40
48.0
  1
7
 41
0.8
 72
     1
 11
2290.43766930273
 21
1722.328651493465
 31
0.0
100
AcDbText
 73
     2
  0
TEXT
  5
5C8C
330
17
100
AcDbEntity
  8
DIMTEXT
100
AcDbText
 10
2276.723383588444
 20
1938.328651493467
 30
0.0
 40
48.0
  1
4
 41
0.8
 72
     1
 11
2290.43766930273
 21
1962.328651493467
 31
0.0
100
AcDbText
 73
     2
  0
TEXT
  5
5C8D
330
17
100
AcDbEntity
  8
DIMTEXT
100
AcDbText
 10
2277.63766930273
 20
1858.328651493466
 30
0.0
 40
48.0
  1
5
 41
0.8
 72
     1
 11
2290.43766930273
 21
1882.328651493466
 31
0.0
100
AcDbText
 73
     2
  0
TEXT
  5
5C8E
330
17
100
AcDbEntity
  8
DIMTEXT
100
AcDbText
 10
2278.551955017016
 20
1778.328651493466
 30
0.0
 40
48.0
  1
6
 41
0.8
 72
     1
 11
2290.43766930273
 21
1802.328651493466
 31
0.0
100
AcDbText
 73
     2
  0
TEXT
  5
5C8F
330
17
100
AcDbEntity
  8
DIMTEXT
100
AcDbText
 10
2277.63766930273
 20
2018.328651493466
 30
0.0
 40
48.0
  1
3
 41
0.8
 72
     1
 11
2290.43766930273
 21
2042.328651493466
 31
0.0
100
AcDbText
 73
     2
  0
TEXT
  5
5C90
330
17
100
AcDbEntity
  8
DIMTEXT
100
AcDbText
 10
2277.63766930273
 20
2098.328651493466
 30
0.0
 40
48.0
  1
2
 41
0.8
 72
     1
 11
2290.43766930273
 21
2122.328651493466
 31
0.0
100
AcDbText
 73
     2
  0
TEXT
  5
5C91
330
17
100
AcDbEntity
  8
DIMTEXT
100
AcDbText
 10
2285.866240731301
 20
2178.328651493467
 30
0.0
 40
48.0
  1
1
 41
0.8
 72
     1
 11
2290.43766930273
 21
2202.328651493467
 31
0.0
100
AcDbText
 73
     2
  0
LINE
  5
5C92
330
17
100
AcDbEntity
  8
WAKU
100
AcDbLine
 10
2340.43766930273
 20
2322.328651493467
 30
0.0
 11
2340.43766930273
 21
1602.328651493466
 31
0.0
  0
TEXT
  5
5C95
330
17
100
AcDbEntity
  8
DIMTEXT
100
AcDbText
 10
2365.336807389394
 20
1698.328651493465
 30
0.0
 40
48.0
  1
給水配管口
 41
0.8
 11
2365.336807389394
 21
1722.328651493465
 31
0.0
100
AcDbText
 73
     2
  0
TEXT
  5
5C96
330
17
100
AcDbEntity
  8
DIMTEXT
100
AcDbText
 10
2365.336807389394
 20
1778.328651493466
 30
0.0
 40
48.0
  1
給湯配管口
 41
0.8
 11
2365.336807389394
 21
1802.328651493466
 31
0.0
100
AcDbText
 73
     2
  0
TEXT
  5
5C97
330
17
100
AcDbEntity
  8
DIMTEXT
100
AcDbText
 10
2365.336807389394
 20
1858.328651493466
 30
0.0
 40
48.0
  1
ヒートポンプ電源引込口
 41
0.8
 11
2365.336807389394
 21
1882.328651493466
 31
0.0
100
AcDbText
 73
     2
  0
TEXT
  5
5C98
330
17
100
AcDbEntity
  8
DIMTEXT
100
AcDbText
 10
2365.336807389394
 20
1938.328651493467
 30
0.0
 40
48.0
  1
200V電源引込口
 41
0.8
 11
2365.336807389394
 21
1962.328651493467
 31
0.0
100
AcDbText
 73
     2
  0
TEXT
  5
5C99
330
17
100
AcDbEntity
  8
DIMTEXT
100
AcDbText
 10
2365.336807389394
 20
2018.328651493466
 30
0.0
 40
48.0
  1
リモコンケーブル引込口
 41
0.8
 11
2365.336807389394
 21
2042.328651493466
 31
0.0
100
AcDbText
 73
     2
  0
TEXT
  5
5C9A
330
17
100
AcDbEntity
  8
DIMTEXT
100
AcDbText
 10
2676.43766930273
 20
2258.328651493467
 30
0.0
 40
48.0
  1
名　称
 41
0.8
 72
     1
 11
2740.43766930273
 21
2282.328651493467
 31
0.0
100
AcDbText
 73
     2
  0
LINE
  5
5C9B
330
17
100
AcDbEntity
  8
WAKU
100
AcDbLine
 10
3140.43766930273
 20
2322.328651493467
 30
0.0
 11
3140.43766930273
 21
1602.328651493466
 31
0.0
  0
LINE
  5
5F08
330
17
100
AcDbEntity
  8
0
100
AcDbLine
 10
2367.604628172253
 20
3357.089405898372
 30
0.0
 11
2998.604628172254
 21
3357.089405898372
 31
0.0
  0
LINE
  5
5F0A
330
17
100
AcDbEntity
  8
0
100
AcDbLine
 10
3001.104628172253
 20
3357.089405898372
 30
0.0
 11
2365.104628172253
 21
3357.089405898372
 31
0.0
  0
CIRCLE
  5
5F0B
330
17
100
AcDbEntity
  8
0
100
AcDbCircle
 10
2484.101413517466
 20
3309.089405898371
 30
0.0
 40
29.5
  0
CIRCLE
  5
5F0C
330
17
100
AcDbEntity
  8
0
100
AcDbCircle
 10
2396.104628172254
 20
3332.089405898371
 30
0.0
 40
13.5
  0
CIRCLE
  5
5F15
330
17
100
AcDbEntity
  8
0
100
AcDbCircle
 10
2431.104628172254
 20
3296.089405898371
 30
0.0
 40
13.5
  0
CIRCLE
  5
5F16
330
17
100
AcDbEntity
  8
0
100
AcDbCircle
 10
2578.104628172253
 20
3310.089405898371
 30
0.0
 40
29.5
  0
CIRCLE
  5
5F17
330
17
100
AcDbEntity
  8
0
100
AcDbCircle
 10
2638.104628172253
 20
3332.089405898371
 30
0.0
 40
13.5
  0
CIRCLE
  5
5F1B
330
17
100
AcDbEntity
  8
0
100
AcDbCircle
 10
2807.104628172252
 20
3322.08940589837
 30
0.0
 40
15.75
  0
CIRCLE
  5
5F2A
330
17
100
AcDbEntity
  8
0
100
AcDbCircle
 10
2937.104628172253
 20
3322.089227580217
 30
0.0
 40
15.75
  0
LINE
  5
5F34
330
17
100
AcDbEntity
  8
CEN
100
AcDbLine
 10
2661.490406197021
 20
3332.089405898371
 30
0.0
 11
2371.65844577214
 21
3332.089405898371
 31
0.0
  0
LINE
  5
5F35
330
17
100
AcDbEntity
  8
CEN
100
AcDbLine
 10
2396.104628172254
 20
3356.535588298484
 30
0.0
 11
2396.104628172254
 21
3307.643223498258
 31
0.0
  0
LINE
  5
5F36
330
17
100
AcDbEntity
  8
CEN
100
AcDbLine
 10
2452.130694732879
 20
3296.089405898371
 30
0.0
 11
2410.078561611628
 21
3296.089405898371
 31
0.0
  0
LINE
  5
5F37
330
17
100
AcDbEntity
  8
CEN
100
AcDbLine
 10
2431.104628172254
 20
3317.115472458997
 30
0.0
 11
2431.104628172254
 21
3275.063339337745
 31
0.0
  0
LINE
  5
5F38
330
17
100
AcDbEntity
  8
CEN
100
AcDbLine
 10
2524.517881013723
 20
3309.089405898371
 30
0.0
 11
2443.68494602121
 21
3309.089405898371
 31
0.0
  0
LINE
  5
5F39
330
17
100
AcDbEntity
  8
CEN
100
AcDbLine
 10
2484.101413517466
 20
3349.505873394628
 30
0.0
 11
2484.101413517466
 21
3268.672938402114
 31
0.0
  0
LINE
  5
5F44
330
17
100
AcDbEntity
  8
CEN
100
AcDbLine
 10
2620.242248392975
 20
3310.089405898371
 30
0.0
 11
2535.967007951532
 21
3310.089405898371
 31
0.0
  0
LINE
  5
5F45
330
17
100
AcDbEntity
  8
CEN
100
AcDbLine
 10
2578.104628172253
 20
3352.227026119092
 30
0.0
 11
2578.104628172253
 21
3267.95178567765
 31
0.0
  0
LINE
  5
5F47
330
17
100
AcDbEntity
  8
CEN
100
AcDbLine
 10
2638.104628172253
 20
3355.475183923139
 30
0.0
 11
2638.104628172253
 21
3308.703627873603
 31
0.0
  0
LINE
  5
5F48
330
17
100
AcDbEntity
  8
CEN
100
AcDbLine
 10
2966.069536914937
 20
3322.089227580217
 30
0.0
 11
2779.974575008924
 21
3322.08940589837
 31
0.0
  0
LINE
  5
5F49
330
17
100
AcDbEntity
  8
CEN
100
AcDbLine
 10
2807.104628172252
 20
3349.219459061699
 30
0.0
 11
2807.104628172252
 21
3294.959352735042
 31
0.0
  0
LINE
  5
5F4B
330
17
100
AcDbEntity
  8
CEN
100
AcDbLine
 10
2937.104628172253
 20
3351.0541363229
 30
0.0
 11
2937.104628172253
 21
3293.124318837533
 31
0.0
  0
LINE
  5
5F4C
330
17
100
AcDbEntity
  8
CEN
100
AcDbLine
 10
2683.104628172253
 20
4044.656716166557
 30
0.0
 11
2683.104628172253
 21
3232.045459898528
 31
0.0
  0
LINE
  5
5FC2
330
17
100
AcDbEntity
  8
0
100
AcDbLine
 10
2385.704628172254
 20
3990.889405898371
 30
0.0
 11
2980.504628172254
 21
3990.889405898371
 31
0.0
  0
ARC
  5
5FC3
330
17
100
AcDbEntity
  8
0
100
AcDbCircle
 10
2980.504628172254
 20
3963.289405898371
 30
0.0
 40
27.6
100
AcDbArc
 50
0.0
 51
90.0
  0
LINE
  5
5FC4
330
17
100
AcDbEntity
  8
0
100
AcDbLine
 10
3008.104628172254
 20
3963.289405898371
 30
0.0
 11
3008.104628172254
 21
3288.489405898371
 31
0.0
  0
ARC
  5
5FC5
330
17
100
AcDbEntity
  8
0
100
AcDbCircle
 10
2385.704628172254
 20
3963.289405898371
 30
0.0
 40
27.6
100
AcDbArc
 50
90.0
 51
180.0
  0
LINE
  5
5FC6
330
17
100
AcDbEntity
  8
0
100
AcDbLine
 10
2358.104628172255
 20
3963.289405898371
 30
0.0
 11
2358.104628172255
 21
3288.489405898371
 31
0.0
  0
ARC
  5
5FC7
330
17
100
AcDbEntity
  8
0
100
AcDbCircle
 10
2385.704628172254
 20
3288.489405898371
 30
0.0
 40
27.6
100
AcDbArc
 50
180.0
 51
270.0
  0
LINE
  5
5FC8
330
17
100
AcDbEntity
  8
0
100
AcDbLine
 10
2385.704628172254
 20
3260.889405898371
 30
0.0
 11
2980.504628172254
 21
3260.889405898371
 31
0.0
  0
ARC
  5
5FC9
330
17
100
AcDbEntity
  8
0
100
AcDbCircle
 10
2980.504628172254
 20
3288.489405898371
 30
0.0
 40
27.6
100
AcDbArc
 50
270.0
 51
0.0
  0
DIMENSION
  5
5FCA
330
17
100
AcDbEntity
  8
DIM
100
AcDbDimension
  2
*D10
 10
2282.825632253904
 20
3332.089405898371
 30
0.0
 11
2244.575632253904
 21
3661.489405898371
 31
0.0
 70
    32
 71
     5
 42
658.7999999999997
 73
     0
 74
     0
 75
     0
  3
STANDARD
100
AcDbAlignedDimension
 13
2385.704628172254
 23
3990.889405898371
 33
0.0
 14
2371.65844577214
 24
3332.089405898371
 34
0.0
 50
90.0
100
AcDbRotatedDimension
1001
ACAD
1000
DSTYLE
1002
{
1070
    41
1040
2.0
1070
    43
1040
10.0
1070
    45
1040
1.0
1070
    73
1070
     0
1070
    74
1070
     0
1070
   140
1040
2.5
1070
   172
1070
     1
1070
   179
1070
     1
1070
   271
1070
     1
1070
   272
1070
     1
1070
   341
1005
4A
1070
   342
1005
4A
1002
}
  0
DIMENSION
  5
5FE0
330
17
100
AcDbEntity
  8
DIM
100
AcDbDimension
  2
*D11
 10
2180.825632253904
 20
3309.089405898371
 30
0.0
 11
2142.575632253904
 21
3649.989405898371
 31
0.0
 70
    32
 71
     5
 42
681.7999999999997
 73
     0
 74
     0
 75
     0
  3
STANDARD
100
AcDbAlignedDimension
 13
2385.704628172254
 23
3990.889405898371
 33
0.0
 14
2443.68494602121
 24
3309.089405898371
 34
0.0
 50
90.0
100
AcDbRotatedDimension
1001
ACAD
1000
DSTYLE
1002
{
1070
    41
1040
2.0
1070
    43
1040
10.0
1070
    45
1040
1.0
1070
    73
1070
     0
1070
    74
1070
     0
1070
   140
1040
2.5
1070
   172
1070
     1
1070
   179
1070
     1
1070
   271
1070
     1
1070
   272
1070
     1
1070
   341
1005
4A
1070
   342
1005
4A
1002
}
  0
DIMENSION
  5
5FED
330
17
100
AcDbEntity
  8
DIM
100
AcDbDimension
  2
*D12
 10
2078.825632253904
 20
3296.089405898371
 30
0.0
 11
2040.575632253904
 21
3643.489405898371
 31
0.0
 70
    32
 71
     5
 42
694.7999999999997
 73
     0
 74
     0
 75
     0
  3
STANDARD
100
AcDbAlignedDimension
 13
2385.704628172254
 23
3990.889405898371
 33
0.0
 14
2410.078561611628
 24
3296.089405898371
 34
0.0
 50
90.0
100
AcDbRotatedDimension
1001
ACAD
1000
DSTYLE
1002
{
1070
    41
1040
2.0
1070
    43
1040
10.0
1070
    45
1040
1.0
1070
    73
1070
     0
1070
    74
1070
     0
1070
   140
1040
2.5
1070
   172
1070
     1
1070
   179
1070
     1
1070
   271
1070
     1
1070
   272
1070
     1
1070
   341
1005
4A
1070
   342
1005
4A
1002
}
  0
DIMENSION
  5
600C
330
17
100
AcDbEntity
  8
DIM
100
AcDbDimension
  2
*D13
 10
2638.104628172253
 20
3164.499898781861
 30
0.0
 11
2298.104628172254
 21
3164.499898781861
 31
0.0
 70
   160
 71
     5
 42
45.0
 73
     0
 74
     0
 75
     0
  3
STANDARD
100
AcDbAlignedDimension
 13
2683.104628172253
 23
3232.045459898528
 33
0.0
 14
2638.104628172253
 24
3308.703627873603
 34
0.0
100
AcDbRotatedDimension
1001
ACAD
1000
DSTYLE
1002
{
1070
   343
1005
95D
1070
   173
1070
     1
1070
   344
1005
4A
1070
    41
1040
2.0
1070
    43
1040
10.0
1070
    45
1040
1.0
1070
    73
1070
     0
1070
    74
1070
     0
1070
   140
1040
2.5
1070
   172
1070
     1
1070
   179
1070
     1
1070
   271
1070
     1
1070
   272
1070
     1
1070
   341
1005
4A
1070
   342
1005
0
1002
}
  0
DIMENSION
  5
6081
330
17
100
AcDbEntity
  8
DIM
100
AcDbDimension
  2
*D14
 10
2578.104628172253
 20
3062.499898781861
 30
0.0
 11
2298.104628172254
 21
3062.499898781861
 31
0.0
 70
   160
 71
     5
 42
105.0
 73
     0
 74
     0
 75
     0
  3
STANDARD
100
AcDbAlignedDimension
 13
2683.104628172253
 23
3232.045459898528
 33
0.0
 14
2578.104628172253
 24
3267.95178567765
 34
0.0
100
AcDbRotatedDimension
1001
ACAD
1000
DSTYLE
1002
{
1070
    41
1040
2.0
1070
    43
1040
10.0
1070
    45
1040
1.0
1070
    73
1070
     0
1070
    74
1070
     0
1070
   140
1040
2.5
1070
   172
1070
     1
1070
   179
1070
     1
1070
   271
1070
     1
1070
   272
1070
     1
1070
   341
1005
4A
1070
   342
1005
4A
1002
}
  0
DIMENSION
  5
6090
330
17
100
AcDbEntity
  8
DIM
100
AcDbDimension
  2
*D15
 10
2484.101413517466
 20
2960.499898781861
 30
0.0
 11
2583.60302084486
 21
2998.749898781861
 31
0.0
 70
    32
 71
     5
 42
199.0032146547874
 73
     0
 74
     0
 75
     0
  3
STANDARD
100
AcDbAlignedDimension
 13
2683.104628172253
 23
3232.045459898528
 33
0.0
 14
2484.101413517466
 24
3268.672938402114
 34
0.0
100
AcDbRotatedDimension
1001
ACAD
1000
DSTYLE
1002
{
1070
    41
1040
2.0
1070
    43
1040
10.0
1070
    45
1040
1.0
1070
    73
1070
     0
1070
    74
1070
     0
1070
   140
1040
2.5
1070
   172
1070
     1
1070
   179
1070
     1
1070
   271
1070
     1
1070
   272
1070
     1
1070
   341
1005
4A
1070
   342
1005
4A
1002
}
  0
DIMENSION
  5
609D
330
17
100
AcDbEntity
  8
DIM
100
AcDbDimension
  2
*D16
 10
2431.104628172254
 20
2858.499898781861
 30
0.0
 11
2557.104628172254
 21
2896.749898781861
 31
0.0
 70
    32
 71
     5
 42
252.0
 73
     0
 74
     0
 75
     0
  3
STANDARD
100
AcDbAlignedDimension
 13
2683.104628172253
 23
3232.045459898528
 33
0.0
 14
2431.104628172254
 24
3275.063339337745
 34
0.0
100
AcDbRotatedDimension
1001
ACAD
1000
DSTYLE
1002
{
1070
    41
1040
2.0
1070
    43
1040
10.0
1070
    45
1040
1.0
1070
    73
1070
     0
1070
    74
1070
     0
1070
   140
1040
2.5
1070
   172
1070
     1
1070
   179
1070
     1
1070
   271
1070
     1
1070
   272
1070
     1
1070
   341
1005
4A
1070
   342
1005
4A
1002
}
  0
DIMENSION
  5
60AA
330
17
100
AcDbEntity
  8
DIM
100
AcDbDimension
  2
*D17
 10
2396.104628172254
 20
2756.499898781861
 30
0.0
 11
2539.604628172253
 21
2794.749898781861
 31
0.0
 70
    32
 71
     5
 42
287.0
 73
     0
 74
     0
 75
     0
  3
STANDARD
100
AcDbAlignedDimension
 13
2683.104628172253
 23
3232.045459898528
 33
0.0
 14
2396.104628172254
 24
3307.643223498258
 34
0.0
100
AcDbRotatedDimension
1001
ACAD
1000
DSTYLE
1002
{
1070
    41
1040
2.0
1070
    43
1040
10.0
1070
    45
1040
1.0
1070
    73
1070
     0
1070
    74
1070
     0
1070
   140
1040
2.5
1070
   172
1070
     1
1070
   179
1070
     1
1070
   271
1070
     1
1070
   272
1070
     1
1070
   341
1005
4A
1070
   342
1005
4A
1002
}
  0
DIMENSION
  5
60B7
330
17
100
AcDbEntity
  8
DIM
100
AcDbDimension
  2
*D18
 10
2807.104628172252
 20
3062.499898781861
 30
0.0
 11
2745.104628172252
 21
3100.749898781861
 31
0.0
 70
    32
 71
     5
 42
123.9999999999982
 73
     0
 74
     0
 75
     0
  3
STANDARD
100
AcDbAlignedDimension
 13
2683.104628172253
 23
3232.045459898528
 33
0.0
 14
2807.104628172252
 24
3294.959352735042
 34
0.0
100
AcDbRotatedDimension
1001
ACAD
1000
DSTYLE
1002
{
1070
    41
1040
2.0
1070
    43
1040
10.0
1070
    45
1040
1.0
1070
    73
1070
     0
1070
    74
1070
     0
1070
   140
1040
2.5
1070
   172
1070
     1
1070
   179
1070
     1
1070
   271
1070
     1
1070
   272
1070
     1
1070
   341
1005
4A
1070
   342
1005
4A
1002
}
  0
DIMENSION
  5
60C6
330
17
100
AcDbEntity
  8
DIM
100
AcDbDimension
  2
*D19
 10
2937.104628172253
 20
2960.499898781861
 30
0.0
 11
2810.104628172254
 21
2998.749898781861
 31
0.0
 70
    32
 71
     5
 42
254.0
 73
     0
 74
     0
 75
     0
  3
STANDARD
100
AcDbAlignedDimension
 13
2683.104628172253
 23
3232.045459898528
 33
0.0
 14
2937.104628172253
 24
3293.124318837533
 34
0.0
100
AcDbRotatedDimension
1001
ACAD
1000
DSTYLE
1002
{
1070
    41
1040
2.0
1070
    43
1040
10.0
1070
    45
1040
1.0
1070
    73
1070
     0
1070
    74
1070
     0
1070
   140
1040
2.5
1070
   172
1070
     1
1070
   179
1070
     1
1070
   271
1070
     1
1070
   272
1070
     1
1070
   341
1005
4A
1070
   342
1005
4A
1002
}
  0
LINE
  5
63BD
330
17
100
AcDbEntity
  8
HID
100
AcDbLine
 10
2398.745736848498
 20
3449.313453256425
 30
0.0
 11
2481.018150208015
 21
3496.813453256425
 31
0.0
  0
LINE
  5
63BE
330
17
100
AcDbEntity
  8
HID
100
AcDbLine
 10
2448.447642132328
 20
3513.227228071849
 30
0.0
 11
2461.438023189093
 21
3520.727228071849
 31
0.0
  0
LINE
  5
63C0
330
17
100
AcDbEntity
  8
HID
100
AcDbLine
 10
2379.995736848497
 20
3481.789405898339
 30
0.0
 11
2398.745736848498
 21
3449.313453256425
 31
0.0
  0
LINE
  5
63C1
330
17
100
AcDbEntity
  8
HID
100
AcDbLine
 10
2361.245736848497
 20
3514.265358540254
 30
0.0
 11
2443.518150208014
 21
3561.765358540256
 31
0.0
  0
LINE
  5
63C2
330
17
100
AcDbEntity
  8
HID
100
AcDbLine
 10
2379.995736848497
 20
3481.789405898339
 30
0.0
 11
2361.245736848497
 21
3514.265358540254
 31
0.0
  0
ARC
  5
63C3
330
17
100
AcDbEntity
  8
HID
100
AcDbCircle
 10
2444.947642132328
 20
3519.289405898339
 30
0.0
 40
6.999999999999826
100
AcDbArc
 50
120.0000000000002
 51
300.0000000000002
  0
CIRCLE
  5
63C4
330
17
100
AcDbEntity
  8
HID
100
AcDbCircle
 10
2401.646371943106
 20
3494.28940589834
 30
0.0
 40
8.499999999999719
  0
LINE
  5
63C5
330
17
100
AcDbEntity
  8
HID
100
AcDbLine
 10
2454.438023189093
 20
3532.851583724831
 30
0.0
 11
2456.268150208014
 21
3539.681710743752
 31
0.0
  0
LINE
  5
63C6
330
17
100
AcDbEntity
  8
HID
100
AcDbLine
 10
2441.447642132327
 20
3525.351583724832
 30
0.0
 11
2454.438023189093
 21
3532.851583724831
 31
0.0
  0
LINE
  5
63C7
330
17
100
AcDbEntity
  8
HID
100
AcDbLine
 10
2456.268150208014
 20
3539.681710743752
 30
0.0
 11
2443.518150208014
 21
3561.765358540256
 31
0.0
  0
LINE
  5
63C8
330
17
100
AcDbEntity
  8
HID
100
AcDbLine
 10
2986.213519497616
 20
3481.789405898365
 30
0.0
 11
2967.463519497616
 21
3449.31345325645
 31
0.0
  0
LINE
  5
63C9
330
17
100
AcDbEntity
  8
HID
100
AcDbLine
 10
2967.463519497616
 20
3449.31345325645
 30
0.0
 11
2885.191106138097
 21
3496.813453256454
 31
0.0
  0
LINE
  5
63CA
330
17
100
AcDbEntity
  8
HID
100
AcDbLine
 10
2481.018150208015
 20
3496.813453256425
 30
0.0
 11
2468.268150208015
 21
3518.897101052927
 31
0.0
  0
LINE
  5
63CB
330
17
100
AcDbEntity
  8
HID
100
AcDbLine
 10
2461.438023189093
 20
3520.727228071849
 30
0.0
 11
2468.268150208015
 21
3518.897101052927
 31
0.0
  0
LINE
  5
63CC
330
17
100
AcDbEntity
  8
HID
100
AcDbLine
 10
2986.213519497616
 20
3481.789405898365
 30
0.0
 11
3004.963519497616
 21
3514.26535854028
 31
0.0
  0
LINE
  5
63CD
330
17
100
AcDbEntity
  8
HID
100
AcDbLine
 10
3004.963519497616
 20
3514.26535854028
 30
0.0
 11
2922.691106138097
 21
3561.765358540283
 31
0.0
  0
LINE
  5
63CE
330
17
100
AcDbEntity
  8
HID
100
AcDbLine
 10
2917.761614213786
 20
3513.227228071875
 30
0.0
 11
2904.771233157019
 21
3520.727228071878
 31
0.0
  0
LINE
  5
63CF
330
17
100
AcDbEntity
  8
HID
100
AcDbLine
 10
2924.761614213786
 20
3525.351583724859
 30
0.0
 11
2911.771233157019
 21
3532.851583724859
 31
0.0
  0
LINE
  5
63D0
330
17
100
AcDbEntity
  8
HID
100
AcDbLine
 10
2909.941106138097
 20
3539.681710743779
 30
0.0
 11
2922.691106138097
 21
3561.765358540283
 31
0.0
  0
LINE
  5
63D1
330
17
100
AcDbEntity
  8
HID
100
AcDbLine
 10
2885.191106138097
 20
3496.813453256454
 30
0.0
 11
2897.941106138097
 21
3518.897101052954
 31
0.0
  0
LINE
  5
63D2
330
17
100
AcDbEntity
  8
HID
100
AcDbLine
 10
2904.771233157019
 20
3520.727228071878
 30
0.0
 11
2897.941106138097
 21
3518.897101052954
 31
0.0
  0
LINE
  5
63D3
330
17
100
AcDbEntity
  8
HID
100
AcDbLine
 10
2911.771233157019
 20
3532.851583724859
 30
0.0
 11
2909.941106138097
 21
3539.681710743779
 31
0.0
  0
CIRCLE
  5
63D4
330
17
100
AcDbEntity
  8
HID
100
AcDbCircle
 10
2964.562884403007
 20
3494.289405898365
 30
0.0
 40
8.499999999999696
  0
ARC
  5
63D5
330
17
100
AcDbEntity
  8
HID
100
AcDbCircle
 10
2921.261614213785
 20
3519.289405898369
 30
0.0
 40
6.999999999999655
100
AcDbArc
 50
239.9999999999997
 51
59.99999999999975
  0
LINE
  5
63D6
330
17
100
AcDbEntity
  8
HID
100
AcDbLine
 10
2645.604628173067
 20
3886.789405898372
 30
0.0
 11
2645.604628173067
 21
3981.789405898372
 31
0.0
  0
LINE
  5
63D7
330
17
100
AcDbEntity
  8
HID
100
AcDbLine
 10
2720.604628173068
 20
3886.789405898372
 30
0.0
 11
2720.604628173068
 21
3981.789405898372
 31
0.0
  0
LINE
  5
63D8
330
17
100
AcDbEntity
  8
HID
100
AcDbLine
 10
2683.104628173067
 20
3886.789405898372
 30
0.0
 11
2720.604628173068
 21
3886.789405898372
 31
0.0
  0
CIRCLE
  5
63D9
330
17
100
AcDbEntity
  8
HID
100
AcDbCircle
 10
2683.104628173067
 20
3911.789405898372
 30
0.0
 40
8.5
  0
LINE
  5
63DA
330
17
100
AcDbEntity
  8
HID
100
AcDbLine
 10
2683.104628173067
 20
3886.789405898372
 30
0.0
 11
2645.604628173067
 21
3886.789405898372
 31
0.0
  0
LINE
  5
63DB
330
17
100
AcDbEntity
  8
HID
100
AcDbLine
 10
2695.104628173067
 20
3981.789405898372
 30
0.0
 11
2720.604628173068
 21
3981.789405898372
 31
0.0
  0
LINE
  5
63DC
330
17
100
AcDbEntity
  8
HID
100
AcDbLine
 10
2645.604628173067
 20
3981.789405898372
 30
0.0
 11
2671.00762681693
 21
3981.789405898372
 31
0.0
  0
LINE
  5
63DD
330
17
100
AcDbEntity
  8
HID
100
AcDbLine
 10
2690.104628173068
 20
3961.789405898372
 30
0.0
 11
2690.104628173068
 21
3976.789405898372
 31
0.0
  0
LINE
  5
63DE
330
17
100
AcDbEntity
  8
HID
100
AcDbLine
 10
2676.104628173067
 20
3961.789405898372
 30
0.0
 11
2676.104628173067
 21
3976.789405898372
 31
0.0
  0
ARC
  5
63DF
330
17
100
AcDbEntity
  8
HID
100
AcDbCircle
 10
2683.104628173067
 20
3961.789405898372
 30
0.0
 40
7.0
100
AcDbArc
 50
180.0
 51
0.0
  0
LINE
  5
63E0
330
17
100
AcDbEntity
  8
HID
100
AcDbLine
 10
2690.104628173068
 20
3976.789405898372
 30
0.0
 11
2695.104628173067
 21
3981.789405898372
 31
0.0
  0
LINE
  5
63E1
330
17
100
AcDbEntity
  8
HID
100
AcDbLine
 10
2676.104628173067
 20
3976.789405898372
 30
0.0
 11
2671.104628173067
 21
3981.789405898372
 31
0.0
  0
LINE
  5
63E4
330
17
100
AcDbEntity
  8
CEN
100
AcDbLine
 10
2762.798738889157
 20
3320.214092188975
 30
0.0
 11
2703.410517455349
 21
3320.214092188975
 31
0.0
  0
LINE
  5
63E5
330
17
100
AcDbEntity
  8
CEN
100
AcDbLine
 10
2733.104628172254
 20
3349.908202905879
 30
0.0
 11
2733.104628172254
 21
3290.519981472071
 31
0.0
  0
DIMENSION
  5
63E6
330
17
100
AcDbEntity
  8
DIM
100
AcDbDimension
  2
*D20
 10
2733.104628172254
 20
3164.49989878186
 30
0.0
 11
2851.332422306266
 21
3164.49989878186
 31
0.0
 70
   160
 71
     5
 42
50.0
 73
     0
 74
     0
 75
     0
  3
STANDARD
100
AcDbAlignedDimension
 13
2683.104628172253
 23
3232.045459898528
 33
0.0
 14
2733.104628172254
 24
3290.519981472071
 34
0.0
100
AcDbRotatedDimension
1001
ACAD
1000
DSTYLE
1002
{
1070
    41
1040
2.0
1070
    43
1040
10.0
1070
    45
1040
1.0
1070
    73
1070
     0
1070
    74
1070
     0
1070
   140
1040
2.5
1070
   172
1070
     1
1070
   173
1070
     1
1070
   179
1070
     1
1070
   271
1070
     1
1070
   272
1070
     1
1070
   341
1005
4A
1070
   343
1005
95D
1070
   344
1005
4A
1002
}
  0
DIMENSION
  5
6483
330
17
100
AcDbEntity
  8
DIM
100
AcDbDimension
  2
*D21
 10
3008.104628172254
 20
2960.499898781861
 30
0.0
 11
3141.514151981777
 21
2998.749898781861
 31
0.0
 70
    32
 71
     5
 42
71.0
 73
     0
 74
     0
 75
     0
  3
STANDARD
100
AcDbAlignedDimension
 13
2937.104628172253
 23
3293.124318837533
 33
0.0
 14
3008.104628172254
 24
3288.489405898371
 34
0.0
100
AcDbRotatedDimension
1001
ACAD
1000
DSTYLE
1002
{
1070
     3
1000
（<>）
1070
    41
1040
2.0
1070
    43
1040
10.0
1070
    45
1040
1.0
1070
    73
1070
     0
1070
    74
1070
     0
1070
   140
1040
2.5
1070
   172
1070
     1
1070
   179
1070
     1
1070
   271
1070
     1
1070
   272
1070
     1
1070
   341
1005
4A
1070
   342
1005
4A
1002
}
  0
DIMENSION
  5
6503
330
17
100
AcDbEntity
  8
DIM
100
AcDbDimension
  2
*D22
 10
2358.104628172253
 20
2756.499898781861
 30
0.0
 11
2221.457009124634
 21
2794.749898781861
 31
0.0
 70
    32
 71
     5
 42
38.0
 73
     0
 74
     0
 75
     0
  3
STANDARD
100
AcDbAlignedDimension
 13
2396.104628172254
 23
3307.643223498258
 33
0.0
 14
2358.104628172253
 24
3288.489405898371
 34
0.0
100
AcDbRotatedDimension
1001
ACAD
1000
DSTYLE
1002
{
1070
     3
1000
（<>）
1070
    41
1040
2.0
1070
    43
1040
10.0
1070
    45
1040
1.0
1070
    73
1070
     0
1070
    74
1070
     0
1070
   140
1040
2.5
1070
   172
1070
     1
1070
   179
1070
     1
1070
   271
1070
     1
1070
   272
1070
     1
1070
   341
1005
4A
1070
   342
1005
4A
1002
}
  0
DIMENSION
  5
658B
330
17
100
AcDbEntity
  8
DIM
100
AcDbDimension
  2
*D23
 10
3354.504628172253
 20
3990.889405898371
 30
0.0
 11
3316.254628172252
 21
4102.603691612657
 31
0.0
 70
    32
 71
     5
 42
29.09999999999854
 73
     0
 74
     0
 75
     0
  3
STANDARD
100
AcDbAlignedDimension
 13
2683.104628173067
 23
3961.789405898372
 33
0.0
 14
2980.504628172254
 24
3990.889405898371
 34
0.0
 50
90.0
100
AcDbRotatedDimension
1001
ACAD
1000
DSTYLE
1002
{
1070
    41
1040
2.0
1070
    43
1040
10.0
1070
    45
1040
1.0
1070
    73
1070
     0
1070
    74
1070
     0
1070
   140
1040
2.5
1070
   172
1070
     1
1070
   179
1070
     1
1070
   271
1070
     1
1070
   272
1070
     1
1070
   341
1005
4A
1070
   342
1005
4A
1002
}
  0
DIMENSION
  5
65A5
330
17
100
AcDbEntity
  8
DIM
100
AcDbDimension
  2
*D24
 10
3354.504628172252
 20
3494.289405898364
 30
0.0
 11
3316.254628172252
 21
3728.039405898369
 31
0.0
 70
    32
 71
     5
 42
467.5000000000072
 73
     0
 74
     0
 75
     0
  3
STANDARD
100
AcDbAlignedDimension
 13
2717.104628173068
 23
3961.789405898372
 33
0.0
 14
2964.562884403007
 24
3494.289405898365
 34
0.0
 50
90.0
100
AcDbRotatedDimension
1001
ACAD
1000
DSTYLE
1002
{
1070
    41
1040
2.0
1070
    43
1040
10.0
1070
    45
1040
1.0
1070
    73
1070
     0
1070
    74
1070
     0
1070
   140
1040
2.5
1070
   172
1070
     1
1070
   179
1070
     1
1070
   271
1070
     1
1070
   272
1070
     1
1070
   341
1005
4A
1070
   342
1005
4A
1002
}
  0
DIMENSION
  5
65BB
330
17
100
AcDbEntity
  8
DIM
100
AcDbDimension
  2
*D25
 10
3355.18270101629
 20
3260.88940589837
 30
0.0
 11
3316.93270101629
 21
3377.589405898368
 31
0.0
 70
    32
 71
     5
 42
233.3999999999942
 73
     0
 74
     0
 75
     0
  3
STANDARD
100
AcDbAlignedDimension
 13
2964.562884403007
 23
3494.289405898365
 33
0.0
 14
2980.504628172254
 24
3260.889405898371
 34
0.0
 50
90.0
100
AcDbRotatedDimension
1001
ACAD
1000
DSTYLE
1002
{
1070
     3
1000
（<>）
1070
    41
1040
2.0
1070
    43
1040
10.0
1070
    45
1040
1.0
1070
    73
1070
     0
1070
    74
1070
     0
1070
   140
1040
2.5
1070
   172
1070
     1
1070
   179
1070
     1
1070
   271
1070
     1
1070
   272
1070
     1
1070
   341
1005
4A
1070
   342
1005
4A
1002
}
  0
DIMENSION
  5
6616
330
17
100
AcDbEntity
  8
DIM
100
AcDbDimension
  2
*D26
 10
3150.504628172253
 20
3322.089227580216
 30
0.0
 11
3112.254628172253
 21
3656.489316739294
 31
0.0
 70
    32
 71
     5
 42
668.8001783181539
 73
     0
 74
     0
 75
     0
  3
STANDARD
100
AcDbAlignedDimension
 13
2980.504628172254
 23
3990.889405898371
 33
0.0
 14
2966.069536914937
 24
3322.089227580217
 34
0.0
 50
90.0
100
AcDbRotatedDimension
1001
ACAD
1000
DSTYLE
1002
{
1070
    41
1040
2.0
1070
    43
1040
10.0
1070
    45
1040
1.0
1070
    73
1070
     0
1070
    74
1070
     0
1070
   140
1040
2.5
1070
   172
1070
     1
1070
   179
1070
     1
1070
   271
1070
     1
1070
   272
1070
     1
1070
   341
1005
4A
1070
   342
1005
4A
1002
}
  0
DIMENSION
  5
663D
330
17
100
AcDbEntity
  8
DIM
100
AcDbDimension
  2
*D27
 10
3252.504628172253
 20
3990.889405898371
 30
0.0
 11
3214.254628172252
 21
3655.551749043673
 31
0.0
 70
    32
 71
     5
 42
670.6753137093955
 73
     0
 74
     0
 75
     0
  3
STANDARD
100
AcDbAlignedDimension
 13
2762.798738889157
 23
3320.214092188975
 33
0.0
 14
2980.504628172254
 24
3990.889405898371
 34
0.0
 50
90.0
100
AcDbRotatedDimension
1001
ACAD
1000
DSTYLE
1002
{
1070
    41
1040
2.0
1070
    43
1040
10.0
1070
    45
1040
1.0
1070
    73
1070
     0
1070
    74
1070
     0
1070
   140
1040
2.5
1070
   172
1070
     1
1070
   179
1070
     1
1070
   271
1070
     1
1070
   272
1070
     1
1070
   341
1005
4A
1070
   342
1005
4A
1002
}
  0
DIMENSION
  5
66A6
330
17
100
AcDbEntity
  8
DIM
100
AcDbDimension
  2
*D28
 10
2690.104628173068
 20
4083.903061058413
 30
0.0
 11
2800.199866268306
 21
4122.153061058413
 31
0.0
 70
    32
 71
     5
 42
14.0
 73
     0
 74
     0
 75
     0
  3
STANDARD
100
AcDbAlignedDimension
 13
2676.104628173067
 23
3976.789405898372
 33
0.0
 14
2690.104628173068
 24
3976.789405898372
 34
0.0
100
AcDbRotatedDimension
1001
ACAD
1000
DSTYLE
1002
{
1070
    41
1040
2.0
1070
    43
1040
10.0
1070
    45
1040
1.0
1070
    73
1070
     0
1070
    74
1070
     0
1070
   140
1040
2.5
1070
   172
1070
     1
1070
   179
1070
     1
1070
   271
1070
     1
1070
   272
1070
     1
1070
   341
1005
4A
1070
   342
1005
4A
1002
}
  0
DIMENSION
  5
66C8
330
17
100
AcDbEntity
  8
DIM
100
AcDbDimension
  2
*D29
 10
2964.562884403007
 20
4192.0701890501
 30
0.0
 11
2683.104628173057
 21
4230.320189050099
 31
0.0
 70
    32
 71
     5
 42
562.9165124599003
 73
     0
 74
     0
 75
     0
  3
STANDARD
100
AcDbAlignedDimension
 13
2401.646371943106
 23
3494.28940589834
 33
0.0
 14
2964.562884403007
 24
3494.289405898365
 34
0.0
100
AcDbRotatedDimension
1001
ACAD
1000
DSTYLE
1002
{
1070
    41
1040
2.0
1070
    43
1040
10.0
1070
    45
1040
1.0
1070
    73
1070
     0
1070
    74
1070
     0
1070
   140
1040
2.5
1070
   172
1070
     1
1070
   179
1070
     1
1070
   271
1070
     1
1070
   272
1070
     1
1070
   341
1005
4A
1070
   342
1005
4A
1002
}
  0
DIMENSION
  5
69FB
330
17
100
AcDbEntity
  8
DIM
100
AcDbDimension
  2
*D30
 10
1509.686687644512
 20
758.1372030833243
 30
0.0
 11
1471.436687644512
 21
818.137203083325
 31
0.0
 70
    32
 71
     5
 42
120.0000000000009
 73
     0
 74
     0
 75
     0
  3
STANDARD
100
AcDbAlignedDimension
 13
1387.55710160405
 23
878.1372030833253
 33
0.0
 14
1390.415992928343
 24
758.1372030833245
 34
0.0
 50
90.0
100
AcDbRotatedDimension
1001
ACAD
1000
DSTYLE
1002
{
1070
    41
1040
2.0
1070
    43
1040
10.0
1070
    45
1040
1.0
1070
    73
1070
     0
1070
    74
1070
     0
1070
   140
1040
2.5
1070
   172
1070
     1
1070
   179
1070
     1
1070
   271
1070
     1
1070
   272
1070
     1
1070
   341
1005
4A
1070
   342
1005
4A
1002
}
  0
DIMENSION
  5
6A15
330
17
100
AcDbEntity
  8
DIM
100
AcDbDimension
  2
*D31
 10
1611.686687644512
 20
758.1372030833243
 30
0.0
 11
1573.436687644512
 21
840.3872030833237
 31
0.0
 70
    32
 71
     5
 42
164.4999999999983
 73
     0
 74
     0
 75
     0
  3
STANDARD
100
AcDbAlignedDimension
 13
1131.975512402148
 23
922.6372030833228
 33
0.0
 14
1390.415992928343
 24
758.1372030833245
 34
0.0
 50
90.0
100
AcDbRotatedDimension
1001
ACAD
1000
DSTYLE
1002
{
1070
    41
1040
2.0
1070
    43
1040
10.0
1070
    45
1040
5.0
1070
    73
1070
     0
1070
    74
1070
     0
1070
   140
1040
2.5
1070
   172
1070
     1
1070
   179
1070
     1
1070
   271
1070
     1
1070
   272
1070
     1
1070
   341
1005
4A
1070
   342
1005
4A
1002
}
  0
DIMENSION
  5
6A2D
330
17
100
AcDbEntity
  8
DIM
100
AcDbDimension
  2
*D32
 10
1713.686687644512
 20
758.1372030833243
 30
0.0
 11
1675.436687644512
 21
858.1372030833239
 31
0.0
 70
    32
 71
     5
 42
199.9999999999986
 73
     0
 74
     0
 75
     0
  3
STANDARD
100
AcDbAlignedDimension
 13
1331.442857583842
 23
958.1372030833231
 33
0.0
 14
1390.415992928343
 24
758.1372030833245
 34
0.0
 50
90.0
100
AcDbRotatedDimension
1001
ACAD
1000
DSTYLE
1002
{
1070
    41
1040
2.0
1070
    43
1040
10.0
1070
    45
1040
1.0
1070
    73
1070
     0
1070
    74
1070
     0
1070
   140
1040
2.5
1070
   172
1070
     1
1070
   179
1070
     1
1070
   271
1070
     1
1070
   272
1070
     1
1070
   341
1005
4A
1070
   342
1005
4A
1002
}
  0
DIMENSION
  5
6A43
330
17
100
AcDbEntity
  8
DIM
100
AcDbDimension
  2
*D33
 10
1815.686687644512
 20
1008.137203083319
 30
0.0
 11
1777.436687644512
 21
883.1372030833218
 31
0.0
 70
    32
 71
     5
 42
249.9999999999945
 73
     0
 74
     0
 75
     0
  3
STANDARD
100
AcDbAlignedDimension
 13
1390.415992928343
 23
758.1372030833245
 33
0.0
 14
1387.55710160405
 24
1008.137203083319
 34
0.0
 50
90.0
100
AcDbRotatedDimension
1001
ACAD
1000
DSTYLE
1002
{
1070
    41
1040
2.0
1070
    43
1040
10.0
1070
    45
1040
1.0
1070
    73
1070
     0
1070
    74
1070
     0
1070
   140
1040
2.5
1070
   172
1070
     1
1070
   179
1070
     1
1070
   271
1070
     1
1070
   272
1070
     1
1070
   341
1005
4A
1070
   342
1005
4A
1002
}
  0
DIMENSION
  5
6A62
330
17
100
AcDbEntity
  8
DIM
100
AcDbDimension
  2
*D34
 10
1917.686687644511
 20
1607.43720308332
 30
0.0
 11
1879.436687644511
 21
1182.787203083322
 31
0.0
 70
    32
 71
     5
 42
849.2999999999955
 73
     0
 74
     0
 75
     0
  3
STANDARD
100
AcDbAlignedDimension
 13
1390.415992928343
 23
758.1372030833245
 33
0.0
 14
977.198411094379
 24
1607.43720308332
 34
0.0
 50
90.0
100
AcDbRotatedDimension
1001
ACAD
1000
DSTYLE
1002
{
1070
     3
1000
（<>）
1070
    41
1040
2.0
1070
    43
1040
10.0
1070
    45
1040
10.0
1070
    73
1070
     0
1070
    74
1070
     0
1070
   140
1040
2.5
1070
   172
1070
     1
1070
   179
1070
     1
1070
   271
1070
     1
1070
   272
1070
     1
1070
   341
1005
4A
1070
   342
1005
4A
1002
}
  0
DIMENSION
  5
6A78
330
17
100
AcDbEntity
  8
DIM
100
AcDbDimension
  2
*D35
 10
2019.686687644512
 20
2939.637203083325
 30
0.0
 11
1981.436687644511
 21
1848.887203083324
 31
0.0
 70
    32
 71
     5
 42
2181.500000000001
 73
     0
 74
     0
 75
     0
  3
STANDARD
100
AcDbAlignedDimension
 13
1390.415992928343
 23
758.1372030833245
 33
0.0
 14
1341.557101604074
 24
2939.637203083325
 34
0.0
 50
90.0
100
AcDbRotatedDimension
1001
ACAD
1000
DSTYLE
1002
{
1070
    41
1040
2.0
1070
    43
1040
10.0
1070
    45
1040
1.0
1070
    73
1070
     0
1070
    74
1070
     0
1070
   140
1040
2.5
1070
   172
1070
     1
1070
   179
1070
     1
1070
   271
1070
     1
1070
   272
1070
     1
1070
   341
1005
4A
1070
   342
1005
4A
1002
}
  0
LINE
  5
6BA4
330
17
100
AcDbEntity
  8
0
100
AcDbLine
 10
989.773998325875
 20
1671.210089549651
 30
0.0
 11
975.0012553094409
 21
1661.790297482679
 31
0.0
  0
LINE
  5
6BA5
330
17
100
AcDbEntity
  8
0
100
AcDbLine
 10
989.773998325875
 20
1678.664316616941
 30
0.0
 11
975.0012553094409
 21
1688.084108683913
 31
0.0
  0
LINE
  5
6BA6
330
17
100
AcDbEntity
  8
0
100
AcDbLine
 10
980.5424639154978
 20
1659.437203083296
 30
0.0
 11
998.0874478041958
 21
1659.437203083296
 31
0.0
  0
LINE
  5
6BA7
330
17
100
AcDbEntity
  8
0
100
AcDbLine
 10
979.9628247140633
 20
1633.800110360641
 30
0.0
 11
993.5795241267504
 21
1642.304053257217
 31
0.0
  0
LINE
  5
6BA8
330
17
100
AcDbEntity
  8
0
100
AcDbLine
 10
979.9628247140633
 20
1658.07429580595
 30
0.0
 11
993.5795241267504
 21
1649.570352909374
 31
0.0
  0
LINE
  5
6BA9
330
17
100
AcDbEntity
  8
0
100
AcDbLine
 10
1015.222711094446
 20
1694.752723481308
 30
0.0
 11
985.0336002269038
 21
1694.752723481308
 31
0.0
  0
ARC
  5
6BAA
330
17
100
AcDbEntity
  8
0
100
AcDbCircle
 10
999.0555124022145
 20
1644.744484172244
 30
0.0
 40
90.83333333333326
100
AcDbArc
 50
56.60151153206631
 51
123.3984884679337
  0
ELLIPSE
  5
6BAB
330
17
100
AcDbEntity
  8
0
100
AcDbEllipse
 10
975.4727110944466
 20
1674.937203083296
 30
0.0
 11
0.0
 21
-8.800000000000409
 31
0.0
210
0.0
220
0.0
230
1.0
 40
0.7272727272726521
 41
0.0
 42
6.283185307179586
  0
ELLIPSE
  5
6BAC
330
17
100
AcDbEntity
  8
0
100
AcDbEllipse
 10
971.8727110944461
 20
1674.937203083296
 30
0.0
 11
0.0
 21
-8.800000000000409
 31
0.0
210
0.0
220
0.0
230
1.0
 40
0.7272727272726521
 41
3.141592653589793
 42
6.283185307179586
  0
LINE
  5
6BAD
330
17
100
AcDbEntity
  8
0
100
AcDbLine
 10
953.9714238630175
 20
1671.210089549651
 30
0.0
 11
968.7441668794516
 21
1661.790297482679
 31
0.0
  0
LINE
  5
6BAE
330
17
100
AcDbEntity
  8
0
100
AcDbLine
 10
950.8214238630159
 20
1671.210089549651
 30
0.0
 11
953.6148941581421
 21
1669.428842201336
 31
0.0
  0
SPLINE
  5
6BAF
330
17
100
AcDbEntity
  8
0
100
AcDbSpline
210
0.0
220
0.0
230
1.0
 70
     8
 71
     3
 72
    18
 73
    14
 74
     0
 42
0.0000000001
 43
0.0000000001
 40
0.6632107530124897
 40
0.6632107530124897
 40
0.6632107530124897
 40
0.6632107530124897
 40
0.8823300790087184
 40
0.8823300790087184
 40
1.217886221126945
 40
1.217886221126945
 40
1.553442363245172
 40
1.553442363245172
 40
1.888998505363399
 40
1.888998505363399
 40
2.224554647481627
 40
2.224554647481627
 40
2.47838629607988
 40
2.47838629607988
 40
2.47838629607988
 40
2.47838629607988
 10
924.4118219619911
 20
1687.701236905116
 30
0.0
 10
923.6161386484935
 20
1686.983084925756
 30
0.0
 10
922.8848840548588
 20
1686.161497978919
 30
0.0
 10
921.2470658408626
 20
1683.862906719252
 30
0.0
 10
920.4547225411049
 20
1682.270265923195
 30
0.0
 10
919.3668579968278
 20
1678.859848423434
 30
0.0
 10
919.0717539733512
 20
1677.043044918206
 30
0.0
 10
919.0169536144392
 20
1673.397094199003
 30
0.0
 10
919.2572762867319
 20
1671.568972793543
 30
0.0
 10
920.2426083109665
 20
1668.114873430504
 30
0.0
 10
920.9872462183618
 20
1666.489881029355
 30
0.0
 10
922.6550834559063
 20
1663.97620929651
 30
0.0
 10
923.4901407691475
 20
1663.004994763461
 30
0.0
 10
924.4118219619911
 20
1662.172979921704
 30
0.0
  0
ELLIPSE
  5
6BB0
330
17
100
AcDbEntity
  8
0
100
AcDbEllipse
 10
961.2227110944466
 20
1674.937203083296
 30
0.0
 11
0.0
 21
-31.0
 31
0.0
210
0.0
220
0.0
230
1.0
 40
0.8101527970886836
 41
3.693647737311384
 42
5.121950921263657
  0
ELLIPSE
  5
6BB1
330
17
100
AcDbEntity
  8
0
100
AcDbEllipse
 10
958.2227110944465
 20
1674.937203083296
 30
0.0
 11
0.0
 21
-31.0
 31
0.0
210
0.0
220
0.0
230
1.0
 40
0.8101527970886836
 41
3.644396961410063
 42
5.131397777794829
  0
LINE
  5
6BB2
330
17
100
AcDbEntity
  8
0
100
AcDbLine
 10
924.4118219619911
 20
1694.937203083296
 30
0.0
 11
924.4118219619911
 21
1654.937203083296
 31
0.0
  0
LINE
  5
6BB3
330
17
100
AcDbEntity
  8
0
100
AcDbLine
 10
923.9118219619911
 20
1694.937203083296
 30
0.0
 11
923.9118219619911
 21
1654.937203083296
 31
0.0
  0
ELLIPSE
  5
6BB4
330
17
100
AcDbEntity
  8
0
100
AcDbEllipse
 10
931.9260620947122
 20
1674.937203083296
 30
0.0
 11
-0.0000000000009747
 21
20.13425223725221
 31
0.0
210
0.0
220
0.0
230
1.0
 40
0.3111235549702221
 41
0.3455858681091553
 42
2.796006785480506
  0
ELLIPSE
  5
6BB5
330
17
100
AcDbEntity
  8
0
100
AcDbEllipse
 10
975.4727110944466
 20
1657.396437348266
 30
0.0
 11
-5.0
 21
0.0
 31
0.0
210
0.0
220
0.0
230
1.0
 40
0.3081531470059417
 41
3.597134616666659
 42
5.827643344102719
  0
LINE
  5
6BB6
330
17
100
AcDbEntity
  8
0
100
AcDbLine
 10
974.7227110944466
 20
1658.937203083296
 30
0.0
 11
975.4727110944466
 21
1658.937203083296
 31
0.0
  0
ELLIPSE
  5
6BB7
330
17
100
AcDbEntity
  8
0
100
AcDbEllipse
 10
974.7227110944466
 20
1657.396437348266
 30
0.0
 11
-5.0
 21
0.0
 31
0.0
210
0.0
220
0.0
230
1.0
 40
0.3081531470059417
 41
4.712388980384689
 42
5.827643344102719
  0
LINE
  5
6BB8
330
17
100
AcDbEntity
  8
0
100
AcDbLine
 10
955.7314028865464
 20
1659.437203083296
 30
0.0
 11
944.6079743846974
 21
1659.437203083296
 31
0.0
  0
LINE
  5
6BB9
330
17
100
AcDbEntity
  8
0
100
AcDbLine
 10
975.4727110944466
 20
1666.137203083295
 30
0.0
 11
971.8727110944461
 21
1666.137203083295
 31
0.0
  0
ELLIPSE
  5
6BBA
330
17
100
AcDbEntity
  8
0
100
AcDbEllipse
 10
971.8727110944461
 20
1664.310998220637
 30
0.0
 11
-4.706945021173851
 21
0.0
 31
0.0
210
0.0
220
0.0
230
-1.0
 40
0.7167696079230881
 41
3.985342887398487
 42
5.439435073370891
  0
LINE
  5
6BBB
330
17
100
AcDbEntity
  8
0
100
AcDbLine
 10
953.6148941581421
 20
1667.969147760318
 30
0.0
 11
953.6148941581421
 21
1661.528797496929
 31
0.0
  0
LINE
  5
6BBC
330
17
100
AcDbEntity
  8
0
100
AcDbLine
 10
980.542463915496
 20
1665.323631326684
 30
0.0
 11
980.5424639154978
 21
1659.437203083296
 31
0.0
  0
ELLIPSE
  5
6BBD
330
17
100
AcDbEntity
  8
0
100
AcDbEllipse
 10
961.2227110944466
 20
1674.937203083296
 30
0.0
 11
0.0
 21
-31.0
 31
0.0
210
0.0
220
0.0
230
1.0
 40
0.8101527970886836
 41
7.330382858376178
 42
7.65107792606039
  0
LINE
  5
6BBE
330
17
100
AcDbEntity
  8
0
100
AcDbLine
 10
985.033600226902
 20
1665.078616130132
 30
0.0
 11
985.0336002269038
 21
1659.437203083296
 31
0.0
  0
LINE
  5
6BBF
330
17
100
AcDbEntity
  8
0
100
AcDbLine
 10
943.1048043357447
 20
1659.437203083296
 30
0.0
 11
933.1079743846991
 21
1659.437203083296
 31
0.0
  0
ELLIPSE
  5
6BC0
330
17
100
AcDbEntity
  8
0
100
AcDbEllipse
 10
979.072711094447
 20
1645.937203083296
 30
0.0
 11
0.0
 21
-2.015999999999507
 31
0.0
210
0.0
220
0.0
230
1.0
 40
0.8591521862943896
 41
0.0
 42
6.283185307179586
  0
LINE
  5
6BC1
330
17
100
AcDbEntity
  8
0
100
AcDbLine
 10
979.072711094447
 20
1643.921203083296
 30
0.0
 11
975.4727110944466
 21
1643.921203083296
 31
0.0
  0
LINE
  5
6BC2
330
17
100
AcDbEntity
  8
0
100
AcDbLine
 10
979.072711094447
 20
1647.953203083295
 30
0.0
 11
975.4727110944466
 21
1647.953203083295
 31
0.0
  0
ELLIPSE
  5
6BC3
330
17
100
AcDbEntity
  8
0
100
AcDbEllipse
 10
975.4727110944466
 20
1645.937203083296
 30
0.0
 11
0.0
 21
-2.015999999999507
 31
0.0
210
0.0
220
0.0
230
1.0
 40
0.8591521862943896
 41
3.141592653589793
 42
6.283185307179586
  0
LINE
  5
6BC4
330
17
100
AcDbEntity
  8
0
100
AcDbLine
 10
970.9825974748298
 20
1633.800110360641
 30
0.0
 11
957.3658980621429
 21
1642.304053257217
 31
0.0
  0
ELLIPSE
  5
6BC5
330
17
100
AcDbEntity
  8
0
100
AcDbEllipse
 10
957.9871395092967
 20
1645.937203083296
 30
0.0
 11
0.0
 21
3.822219999999106
 31
0.0
210
0.0
220
0.0
230
1.0
 40
0.5232561181722842
 41
0.3158459890366398
 42
2.825746664553153
  0
ELLIPSE
  5
6BC6
330
17
100
AcDbEntity
  8
0
100
AcDbEllipse
 10
957.2371395092966
 20
1645.937203083296
 30
0.0
 11
0.0
 21
3.822219999999106
 31
0.0
210
0.0
220
0.0
230
1.0
 40
0.5232561181722842
 41
0.3158459890366398
 42
2.825746664553153
  0
LINE
  5
6BC7
330
17
100
AcDbEntity
  8
0
100
AcDbLine
 10
970.2325974748298
 20
1633.800110360641
 30
0.0
 11
956.6158980621429
 21
1642.304053257217
 31
0.0
  0
LINE
  5
6BC8
330
17
100
AcDbEntity
  8
0
100
AcDbLine
 10
974.7227110944466
 20
1632.937203083295
 30
0.0
 11
975.4727110944466
 21
1632.937203083295
 31
0.0
  0
ELLIPSE
  5
6BC9
330
17
100
AcDbEntity
  8
0
100
AcDbEllipse
 10
975.4727110944466
 20
1634.477968818324
 30
0.0
 11
-5.0
 21
0.0
 31
0.0
210
0.0
220
0.0
230
-1.0
 40
0.3081531470059417
 41
3.597134616666659
 42
5.827643344102719
  0
ELLIPSE
  5
6BCA
330
17
100
AcDbEntity
  8
0
100
AcDbEllipse
 10
974.7227110944466
 20
1634.477968818324
 30
0.0
 11
-5.0
 21
0.0
 31
0.0
210
0.0
220
0.0
230
-1.0
 40
0.3081531470059417
 41
4.712388980384689
 42
5.827643344102719
  0
LINE
  5
6BCB
330
17
100
AcDbEntity
  8
0
100
AcDbLine
 10
952.5610910944477
 20
1608.121893083295
 30
0.0
 11
951.8760210944462
 21
1627.739703083295
 31
0.0
  0
LINE
  5
6BCC
330
17
100
AcDbEntity
  8
0
100
AcDbLine
 10
953.7470010944478
 20
1607.437203083296
 30
0.0
 11
953.153351094447
 21
1624.437203083296
 31
0.0
  0
LINE
  5
6BCD
330
17
100
AcDbEntity
  8
0
100
AcDbLine
 10
953.1533610944467
 20
1624.437203083296
 30
0.0
 11
951.8760310944479
 21
1627.739703083295
 31
0.0
  0
LINE
  5
6BCE
330
17
100
AcDbEntity
  8
0
100
AcDbLine
 10
952.4727110944466
 20
1630.145703083295
 30
0.0
 11
952.4727110944466
 21
1628.937203083296
 31
0.0
  0
ARC
  5
6BCF
330
17
100
AcDbEntity
  8
0
100
AcDbCircle
 10
950.9727110944465
 20
1628.937203083296
 30
0.0
 40
1.5
100
AcDbArc
 50
307.0287199999689
 51
0.0
  0
ARC
  5
6BD0
330
17
100
AcDbEntity
  8
0
100
AcDbCircle
 10
950.9727110944465
 20
1628.937203083296
 30
0.0
 40
1.5
100
AcDbArc
 50
307.0287199999689
 51
0.0
  0
LINE
  5
6BD1
330
17
100
AcDbEntity
  8
0
100
AcDbLine
 10
953.7470010944478
 20
1607.437203083296
 30
0.0
 11
952.5610910944477
 21
1608.121893083295
 31
0.0
  0
LINE
  5
6BD2
330
17
100
AcDbEntity
  8
0
100
AcDbLine
 10
951.8760210944462
 20
1627.739703083295
 30
0.0
 11
979.0693910944471
 21
1627.739703083295
 31
0.0
  0
LINE
  5
6BD3
330
17
100
AcDbEntity
  8
0
100
AcDbLine
 10
951.9913510944467
 20
1624.437203083296
 30
0.0
 11
978.9540750883832
 21
1624.437203083296
 31
0.0
  0
LINE
  5
6BD4
330
17
100
AcDbEntity
  8
0
100
AcDbLine
 10
953.7470110944475
 20
1607.437203083296
 30
0.0
 11
977.1984210944472
 21
1607.437203083296
 31
0.0
  0
LINE
  5
6BD5
330
17
100
AcDbEntity
  8
0
100
AcDbLine
 10
978.3843310944474
 20
1608.121893083295
 30
0.0
 11
979.0694010944468
 21
1627.739703083295
 31
0.0
  0
LINE
  5
6BD6
330
17
100
AcDbEntity
  8
0
100
AcDbLine
 10
977.1984210944472
 20
1607.437203083296
 30
0.0
 11
977.7920810944477
 21
1624.437203083296
 31
0.0
  0
LINE
  5
6BD7
330
17
100
AcDbEntity
  8
0
100
AcDbLine
 10
977.7920610944462
 20
1624.437203083296
 30
0.0
 11
979.0693910944471
 21
1627.739703083295
 31
0.0
  0
LINE
  5
6BD8
330
17
100
AcDbEntity
  8
0
100
AcDbLine
 10
978.4727110944466
 20
1630.145703083295
 30
0.0
 11
978.4727110944466
 21
1628.937203083296
 31
0.0
  0
ARC
  5
6BD9
330
17
100
AcDbEntity
  8
0
100
AcDbCircle
 10
979.9727110944466
 20
1628.937203083296
 30
0.0
 40
1.5
100
AcDbArc
 50
180.0
 51
232.9712800000311
  0
ARC
  5
6BDA
330
17
100
AcDbEntity
  8
0
100
AcDbCircle
 10
979.9727110944466
 20
1628.937203083296
 30
0.0
 40
1.5
100
AcDbArc
 50
180.0
 51
232.9712800000311
  0
LINE
  5
6BDB
330
17
100
AcDbEntity
  8
0
100
AcDbLine
 10
977.1984210944472
 20
1607.437203083296
 30
0.0
 11
978.3843310944474
 21
1608.121893083295
 31
0.0
  0
LINE
  5
6BDC
330
17
100
AcDbEntity
  8
0
100
AcDbLine
 10
954.9790143587003
 20
1652.43720734586
 30
0.0
 11
944.6079743846974
 21
1652.43720734586
 31
0.0
  0
ELLIPSE
  5
6BDD
330
17
100
AcDbEntity
  8
0
100
AcDbEllipse
 10
953.273773801621
 20
1648.993180242719
 30
0.0
 11
-0.8679725078059576
 21
17.95922830681291
 31
0.0
210
0.0
220
0.0
230
-1.0
 40
0.7190469609725391
 41
3.270638671782762
 42
4.599233869711473
  0
LINE
  5
6BDE
330
17
100
AcDbEntity
  8
0
100
AcDbLine
 10
952.4727110944466
 20
1628.937203083296
 30
0.0
 11
952.4727110944466
 21
1633.245717254693
 31
0.0
  0
LINE
  5
6BDF
330
17
100
AcDbEntity
  8
0
100
AcDbLine
 10
978.4727110944466
 20
1628.937203083296
 30
0.0
 11
978.4727110944466
 21
1633.245356230301
 31
0.0
  0
ELLIPSE
  5
6BE0
330
17
100
AcDbEntity
  8
0
100
AcDbEllipse
 10
937.4022030187576
 20
1654.937203083296
 30
0.0
 11
0.0
 21
-15.0
 31
0.0
210
0.0
220
0.0
230
-1.0
 40
0.8660254037844424
 41
0.0
 42
1.570796326794896
  0
ELLIPSE
  5
6BE1
330
17
100
AcDbEntity
  8
0
100
AcDbEllipse
 10
936.9022030187577
 20
1654.937203083296
 30
0.0
 11
0.0
 21
-15.0
 31
0.0
210
0.0
220
0.0
230
-1.0
 40
0.8660254037844424
 41
0.0
 42
1.570796326794896
  0
LINE
  5
6BE2
330
17
100
AcDbEntity
  8
0
100
AcDbLine
 10
936.9022030187577
 20
1639.937203083296
 30
0.0
 11
937.4022030187576
 21
1639.937203083296
 31
0.0
  0
ARC
  5
6BE3
330
17
100
AcDbEntity
  8
0
100
AcDbCircle
 10
928.2908020179991
 20
1654.685660308765
 30
0.0
 40
2.0
100
AcDbArc
 50
306.6950794066205
 51
40.83193513725064
  0
ELLIPSE
  5
6BE4
330
17
100
AcDbEntity
  8
0
100
AcDbEllipse
 10
930.5205015981343
 20
1648.951033083304
 30
0.0
 11
0.0
 21
-4.499999999999545
 31
0.0
210
0.0
220
0.0
230
-1.0
 40
0.579706585811091
 41
0.0
 42
2.733788927252468
  0
LINE
  5
6BE5
330
17
100
AcDbEntity
  8
0
100
AcDbLine
 10
943.1048043357447
 20
1652.437207345859
 30
0.0
 11
933.1079743846991
 21
1652.437207345859
 31
0.0
  0
LINE
  5
6BE6
330
17
100
AcDbEntity
  8
0
100
AcDbLine
 10
930.5205015981343
 20
1644.451033083304
 30
0.0
 11
940.8638329856392
 21
1644.451033083301
 31
0.0
  0
LINE
  5
6BE7
330
17
100
AcDbEntity
  8
0
100
AcDbLine
 10
942.3117407740434
 20
1639.937203083296
 30
0.0
 11
937.4022030187576
 21
1639.937203083296
 31
0.0
  0
LINE
  5
6BE8
330
17
100
AcDbEntity
  8
0
100
AcDbLine
 10
970.9825974748298
 20
1658.07429580595
 30
0.0
 11
957.3658980621429
 21
1649.570352909374
 31
0.0
  0
LINE
  5
6BE9
330
17
100
AcDbEntity
  8
0
100
AcDbLine
 10
970.2325974748298
 20
1658.07429580595
 30
0.0
 11
956.6158980621429
 21
1649.570352909374
 31
0.0
  0
LINE
  5
6BEA
330
17
100
AcDbEntity
  8
0
100
AcDbLine
 10
944.6079743846974
 20
1659.437203083296
 30
0.0
 11
944.6079743846974
 21
1652.43720734586
 31
0.0
  0
LINE
  5
6BEB
330
17
100
AcDbEntity
  8
0
100
AcDbLine
 10
947.8579743846974
 20
1659.437203083296
 30
0.0
 11
947.8579743846974
 21
1652.43720734586
 31
0.0
  0
LINE
  5
6BEC
330
17
100
AcDbEntity
  8
0
100
AcDbLine
 10
936.1079743846993
 20
1659.437203083296
 30
0.0
 11
936.1079743846993
 21
1652.43720734586
 31
0.0
  0
LINE
  5
6BED
330
17
100
AcDbEntity
  8
0
100
AcDbLine
 10
933.1079743846991
 20
1659.437203083296
 30
0.0
 11
933.1079743846991
 21
1652.43720734586
 31
0.0
  0
LINE
  5
6BEE
330
17
100
AcDbEntity
  8
0
100
AcDbLine
 10
950.4727110944466
 20
1721.49346371943
 30
0.0
 11
950.4727110944466
 21
1719.937203083296
 31
0.0
  0
LINE
  5
6BEF
330
17
100
AcDbEntity
  8
0
100
AcDbLine
 10
951.9966569905852
 20
1722.437203083296
 30
0.0
 11
980.4727110944465
 21
1722.437203083296
 31
0.0
  0
LINE
  5
6BF0
330
17
100
AcDbEntity
  8
0
100
AcDbLine
 10
951.180899175956
 20
1721.937203083295
 30
0.0
 11
980.4727110944465
 21
1721.937203083296
 31
0.0
  0
LINE
  5
6BF1
330
17
100
AcDbEntity
  8
0
100
AcDbLine
 10
951.9966569905852
 20
1722.437203083296
 30
0.0
 11
979.9727110944466
 21
1722.437203083296
 31
0.0
  0
LINE
  5
6BF2
330
17
100
AcDbEntity
  8
0
100
AcDbLine
 10
980.4727110944465
 20
1719.937203083296
 30
0.0
 11
950.4727110944466
 21
1719.937203083296
 31
0.0
  0
LINE
  5
6BF3
330
17
100
AcDbEntity
  8
0
100
AcDbLine
 10
979.9727110944466
 20
1722.437203083296
 30
0.0
 11
965.4727110944465
 21
1722.437203083296
 31
0.0
  0
LINE
  5
6BF4
330
17
100
AcDbEntity
  8
0
100
AcDbLine
 10
979.9727110944466
 20
1719.437203083296
 30
0.0
 11
950.9727110944465
 21
1719.437203083296
 31
0.0
  0
LINE
  5
6BF5
330
17
100
AcDbEntity
  8
0
100
AcDbLine
 10
977.9727110944465
 20
1719.437203083296
 30
0.0
 11
977.9727110944465
 21
1712.437203083296
 31
0.0
  0
LINE
  5
6BF6
330
17
100
AcDbEntity
  8
0
100
AcDbLine
 10
980.4727110944465
 20
1721.937203083296
 30
0.0
 11
980.4727110944465
 21
1719.937203083296
 31
0.0
  0
LINE
  5
6BF7
330
17
100
AcDbEntity
  8
0
100
AcDbLine
 10
979.9727110944466
 20
1722.437203083296
 30
0.0
 11
980.4727110944465
 21
1721.937203083296
 31
0.0
  0
LINE
  5
6BF8
330
17
100
AcDbEntity
  8
0
100
AcDbLine
 10
980.4727110944465
 20
1719.937203083296
 30
0.0
 11
979.9727110944466
 21
1719.437203083296
 31
0.0
  0
LINE
  5
6BF9
330
17
100
AcDbEntity
  8
0
100
AcDbLine
 10
950.4727110944466
 20
1719.937203083296
 30
0.0
 11
950.9727110944465
 21
1719.437203083296
 31
0.0
  0
LINE
  5
6BFA
330
17
100
AcDbEntity
  8
0
100
AcDbLine
 10
952.9727110944465
 20
1719.437203083296
 30
0.0
 11
952.9727110944465
 21
1712.437203083296
 31
0.0
  0
LINE
  5
6BFB
330
17
100
AcDbEntity
  8
0
100
AcDbLine
 10
975.4727110944466
 20
1683.737203083296
 30
0.0
 11
971.8727110944461
 21
1683.737203083296
 31
0.0
  0
LINE
  5
6BFC
330
17
100
AcDbEntity
  8
0
100
AcDbLine
 10
953.9714238630175
 20
1678.664316616941
 30
0.0
 11
968.7441668794516
 21
1688.084108683913
 31
0.0
  0
ELLIPSE
  5
6BFD
330
17
100
AcDbEntity
  8
0
100
AcDbEllipse
 10
954.7957657907453
 20
1674.937203083296
 30
0.0
 11
0.0
 21
3.966658014797872
 31
0.0
210
0.0
220
0.0
230
1.0
 40
0.6072180340382411
 41
0.3493058667721709
 42
2.792286786817622
  0
ELLIPSE
  5
6BFE
330
17
100
AcDbEntity
  8
0
100
AcDbEllipse
 10
951.6457657907437
 20
1674.937203083296
 30
0.0
 11
0.0
 21
3.966658014797872
 31
0.0
210
0.0
220
0.0
230
1.0
 40
0.6072180340382411
 41
0.3493058667721709
 42
2.792286786817622
  0
LINE
  5
6BFF
330
17
100
AcDbEntity
  8
0
100
AcDbLine
 10
950.8214238630159
 20
1678.664316616941
 30
0.0
 11
953.6148941581421
 21
1680.445563965254
 31
0.0
  0
ELLIPSE
  5
6C00
330
17
100
AcDbEntity
  8
0
100
AcDbEllipse
 10
965.4727110944465
 20
1680.445563965254
 30
0.0
 11
0.0
 21
-15.72196648595286
 31
0.0
210
0.0
220
0.0
230
1.0
 40
0.7542197057154546
 41
-2.945090338853026
 42
-1.720057908898253
  0
ELLIPSE
  5
6C01
330
17
100
AcDbEntity
  8
0
100
AcDbEllipse
 10
969.7072906505662
 20
1680.445563965254
 30
0.0
 11
0.0
 21
-15.72196648595286
 31
0.0
210
0.0
220
0.0
230
-1.0
 40
0.7542197057154546
 41
-2.945090338853026
 42
-1.80581093177489
  0
LINE
  5
6C02
330
17
100
AcDbEntity
  8
0
100
AcDbLine
 10
985.033600226902
 20
1694.937203083296
 30
0.0
 11
985.033600226902
 21
1684.795790036459
 31
0.0
  0
ELLIPSE
  5
6C03
330
17
100
AcDbEntity
  8
0
100
AcDbEllipse
 10
972.0432191701354
 20
1694.937203083296
 30
0.0
 11
0.0
 21
15.0
 31
0.0
210
0.0
220
0.0
230
-1.0
 40
0.8660254037844424
 41
0.9272952180016257
 42
1.570796326794896
  0
LINE
  5
6C04
330
17
100
AcDbEntity
  8
0
100
AcDbLine
 10
981.4727110944465
 20
1711.437203083296
 30
0.0
 11
965.4727110944465
 21
1711.437203083296
 31
0.0
  0
LINE
  5
6C05
330
17
100
AcDbEntity
  8
0
100
AcDbLine
 10
980.4727110944465
 20
1712.437203083296
 30
0.0
 11
965.4727110944465
 21
1712.437203083296
 31
0.0
  0
LINE
  5
6C06
330
17
100
AcDbEntity
  8
0
100
AcDbLine
 10
979.9727110944466
 20
1702.437203083296
 30
0.0
 11
965.4727110944465
 21
1702.437203083296
 31
0.0
  0
LINE
  5
6C07
330
17
100
AcDbEntity
  8
0
100
AcDbLine
 10
949.4727110944465
 20
1710.937203083296
 30
0.0
 11
949.4727110944465
 21
1711.437203083296
 31
0.0
  0
LINE
  5
6C08
330
17
100
AcDbEntity
  8
0
100
AcDbLine
 10
950.4727110944466
 20
1712.437203083296
 30
0.0
 11
949.4727110944465
 21
1711.437203083296
 31
0.0
  0
ARC
  5
6C09
330
17
100
AcDbEntity
  8
0
100
AcDbCircle
 10
950.9727110944465
 20
1703.937203083296
 30
0.0
 40
1.5
100
AcDbArc
 50
180.0
 51
270.0
  0
LINE
  5
6C0A
330
17
100
AcDbEntity
  8
0
100
AcDbLine
 10
949.4727110944465
 20
1711.437203083296
 30
0.0
 11
965.4727110944465
 21
1711.437203083296
 31
0.0
  0
LINE
  5
6C0B
330
17
100
AcDbEntity
  8
0
100
AcDbLine
 10
950.4727110944466
 20
1712.437203083296
 30
0.0
 11
965.4727110944465
 21
1712.437203083296
 31
0.0
  0
LINE
  5
6C0C
330
17
100
AcDbEntity
  8
0
100
AcDbLine
 10
950.9727110944465
 20
1702.437203083296
 30
0.0
 11
965.4727110944465
 21
1702.437203083296
 31
0.0
  0
LINE
  5
6C0D
330
17
100
AcDbEntity
  8
0
100
AcDbLine
 10
980.4727110944465
 20
1712.437203083296
 30
0.0
 11
981.4727110944465
 21
1711.437203083296
 31
0.0
  0
ARC
  5
6C0E
330
17
100
AcDbEntity
  8
0
100
AcDbCircle
 10
979.9727110944466
 20
1703.937203083296
 30
0.0
 40
1.5
100
AcDbArc
 50
270.0
 51
0.0
  0
LINE
  5
6C0F
330
17
100
AcDbEntity
  8
0
100
AcDbLine
 10
981.4727110944465
 20
1703.937203083296
 30
0.0
 11
981.4727110944465
 21
1711.437203083296
 31
0.0
  0
LINE
  5
6C10
330
17
100
AcDbEntity
  8
0
100
AcDbLine
 10
953.9727110944467
 20
1693.061503083295
 30
0.0
 11
953.9727110944467
 21
1700.937203083296
 31
0.0
  0
ARC
  5
6C11
330
17
100
AcDbEntity
  8
0
100
AcDbCircle
 10
952.4727110944466
 20
1700.937203083296
 30
0.0
 40
1.5
100
AcDbArc
 50
0.0
 51
90.0
  0
LINE
  5
6C12
330
17
100
AcDbEntity
  8
0
100
AcDbLine
 10
976.9727110944465
 20
1693.061503083295
 30
0.0
 11
976.9727110944465
 21
1700.937203083296
 31
0.0
  0
ARC
  5
6C13
330
17
100
AcDbEntity
  8
0
100
AcDbCircle
 10
978.4727110944466
 20
1700.937203083296
 30
0.0
 40
1.5
100
AcDbArc
 50
90.0
 51
180.0
  0
LINE
  5
6C14
330
17
100
AcDbEntity
  8
0
100
AcDbLine
 10
947.3663046338959
 20
1710.937203083296
 30
0.0
 11
947.3663046338959
 21
1703.937203083296
 31
0.0
  0
LINE
  5
6C15
330
17
100
AcDbEntity
  8
0
100
AcDbLine
 10
955.866304633894
 20
1710.937203083296
 30
0.0
 11
955.8663046338958
 21
1703.937203083296
 31
0.0
  0
LINE
  5
6C16
330
17
100
AcDbEntity
  8
0
100
AcDbLine
 10
957.543777671305
 20
1710.937203083296
 30
0.0
 11
947.3663046338959
 21
1710.937203083296
 31
0.0
  0
LINE
  5
6C17
330
17
100
AcDbEntity
  8
0
100
AcDbLine
 10
957.5437776713068
 20
1703.937203083296
 30
0.0
 11
947.3663046338959
 21
1703.937203083296
 31
0.0
  0
LINE
  5
6C18
330
17
100
AcDbEntity
  8
0
100
AcDbLine
 10
983.579117554999
 20
1710.937203083296
 30
0.0
 11
983.579117554999
 21
1703.937203083296
 31
0.0
  0
LINE
  5
6C19
330
17
100
AcDbEntity
  8
0
100
AcDbLine
 10
983.579117554999
 20
1710.937203083296
 30
0.0
 11
981.4727110944465
 21
1710.937203083296
 31
0.0
  0
LINE
  5
6C1A
330
17
100
AcDbEntity
  8
0
100
AcDbLine
 10
983.579117554999
 20
1703.937203083296
 30
0.0
 11
981.4727110944465
 21
1703.937203083296
 31
0.0
  0
ELLIPSE
  5
6C1B
330
17
100
AcDbEntity
  8
0
100
AcDbEllipse
 10
971.8727110944461
 20
1685.563407945953
 30
0.0
 11
-4.706945021173851
 21
0.0
 31
0.0
210
0.0
220
0.0
230
1.0
 40
0.7167696079230881
 41
3.985342887398487
 42
5.439435073370891
  0
ELLIPSE
  5
6C1C
330
17
100
AcDbEntity
  8
0
100
AcDbEllipse
 10
961.2227110944466
 20
1674.937203083296
 30
0.0
 11
0.0
 21
-31.0
 31
0.0
210
0.0
220
0.0
230
1.0
 40
0.8101527970886836
 41
8.056885341888573
 42
8.746925324490071
  0
ELLIPSE
  5
6C1D
330
17
100
AcDbEntity
  8
0
100
AcDbEllipse
 10
937.4022030187576
 20
1694.937203083296
 30
0.0
 11
0.0
 21
15.0
 31
0.0
210
0.0
220
0.0
230
1.0
 40
0.8660254037844424
 41
0.0
 42
1.570796326794896
  0
ELLIPSE
  5
6C1E
330
17
100
AcDbEntity
  8
0
100
AcDbEllipse
 10
936.9022030187577
 20
1694.937203083296
 30
0.0
 11
0.0
 21
15.0
 31
0.0
210
0.0
220
0.0
230
1.0
 40
0.8660254037844424
 41
0.0
 42
1.570796326794896
  0
LINE
  5
6C1F
330
17
100
AcDbEntity
  8
0
100
AcDbLine
 10
936.9022030187577
 20
1709.937203083296
 30
0.0
 11
937.4022030187576
 21
1709.937203083296
 31
0.0
  0
ARC
  5
6C20
330
17
100
AcDbEntity
  8
0
100
AcDbCircle
 10
928.2908020179991
 20
1695.188745857826
 30
0.0
 40
2.0
100
AcDbArc
 50
319.1680648627494
 51
53.30492059337956
  0
ELLIPSE
  5
6C21
330
17
100
AcDbEntity
  8
0
100
AcDbEllipse
 10
930.5205015981343
 20
1700.923373083288
 30
0.0
 11
0.0
 21
4.499999999999545
 31
0.0
210
0.0
220
0.0
230
1.0
 40
0.579706585811091
 41
0.0
 42
2.733788927252468
  0
LINE
  5
6C22
330
17
100
AcDbEntity
  8
0
100
AcDbLine
 10
947.3663046338959
 20
1709.937203083296
 30
0.0
 11
937.4022030187576
 21
1709.937203083296
 31
0.0
  0
LINE
  5
6C23
330
17
100
AcDbEntity
  8
0
100
AcDbLine
 10
930.5205015981343
 20
1705.423373083288
 30
0.0
 11
947.3663046338959
 21
1705.423373083293
 31
0.0
  0
LINE
  5
6C24
330
17
100
AcDbEntity
  8
0
100
AcDbLine
 10
980.4727110944465
 20
1724.437203083296
 30
0.0
 11
955.4692187193548
 21
1724.437203083296
 31
0.0
  0
LINE
  5
6C25
330
17
100
AcDbEntity
  8
0
100
AcDbLine
 10
977.9727110944465
 20
1729.437203083296
 30
0.0
 11
966.2250721386742
 21
1729.437203083296
 31
0.0
  0
LINE
  5
6C26
330
17
100
AcDbEntity
  8
0
100
AcDbLine
 10
973.4727110944465
 20
1729.437203083296
 30
0.0
 11
973.4727110944465
 21
1731.900750279115
 31
0.0
  0
LINE
  5
6C27
330
17
100
AcDbEntity
  8
0
100
AcDbLine
 10
980.4727110944465
 20
1724.437203083296
 30
0.0
 11
980.4727110944465
 21
1722.437203083296
 31
0.0
  0
LINE
  5
6C28
330
17
100
AcDbEntity
  8
0
100
AcDbLine
 10
977.9727110944465
 20
1729.437203083296
 30
0.0
 11
977.9727110944465
 21
1724.437203083296
 31
0.0
  0
LINE
  5
6C29
330
17
100
AcDbEntity
  8
0
100
AcDbLine
 10
1017.222711094446
 20
1733.742502892446
 30
0.0
 11
1017.222711094446
 21
1644.752723481307
 31
0.0
  0
LINE
  5
6C2A
330
17
100
AcDbEntity
  8
0
100
AcDbLine
 10
1047.222711094446
 20
1721.754973162948
 30
0.0
 11
1047.222711094446
 21
1644.752723481307
 31
0.0
  0
ELLIPSE
  5
6C2B
330
17
100
AcDbEntity
  8
0
100
AcDbEllipse
 10
992.9582826795964
 20
1645.937203083296
 30
0.0
 11
0.0
 21
3.822219999999106
 31
0.0
210
0.0
220
0.0
230
-1.0
 40
0.5232561181722842
 41
0.3158459890366398
 42
2.825746664553153
  0
LINE
  5
6C2C
330
17
100
AcDbEntity
  8
0
100
AcDbLine
 10
988.9890540828753
 20
1652.43720734586
 30
0.0
 11
998.0874478041975
 21
1652.43720734586
 31
0.0
  0
LINE
  5
6C2D
330
17
100
AcDbEntity
  8
0
100
AcDbLine
 10
998.0874478041958
 20
1659.437203083296
 30
0.0
 11
998.0874478041958
 21
1652.43720734586
 31
0.0
  0
LINE
  5
6C2E
330
17
100
AcDbEntity
  8
0
100
AcDbLine
 10
1047.222711094446
 20
1644.752723481307
 30
0.0
 11
994.8598254921678
 21
1644.752723481308
 31
0.0
  0
ELLIPSE
  5
6C2F
330
17
100
AcDbEntity
  8
0
100
AcDbEllipse
 10
988.949656398149
 20
1674.937203083296
 30
0.0
 11
0.0
 21
3.966658014797872
 31
0.0
210
0.0
220
0.0
230
-1.0
 40
0.6072180340382411
 41
0.3493058667721709
 42
2.792286786817622
  0
LINE
  5
6C30
330
17
100
AcDbEntity
  8
0
100
AcDbLine
 10
1015.222711094446
 20
1734.127458674608
 30
0.0
 11
1015.222711094446
 21
1694.752723481308
 31
0.0
  0
ARC
  5
6C31
330
17
100
AcDbEntity
  8
0
100
AcDbCircle
 10
1099.055512402214
 20
1796.41115083891
 30
0.0
 40
90.83333333333326
100
AcDbArc
 50
236.6015115320663
 51
250.3800348466885
  0
LINE
  5
6C32
330
17
100
AcDbEntity
  8
0
100
AcDbLine
 10
880.709247213281
 20
1607.608144035862
 30
0.0
 11
881.7615831749364
 21
1608.606773570333
 31
0.0
  0
LINE
  5
6C33
330
17
100
AcDbEntity
  8
0
100
AcDbLine
 10
881.7615831749364
 20
1608.606773570333
 30
0.0
 11
869.2748639840521
 21
1608.606773570333
 31
0.0
  0
LINE
  5
6C34
330
17
100
AcDbEntity
  8
0
100
AcDbLine
 10
882.495363984052
 20
1622.608144035862
 30
0.0
 11
882.495363984052
 21
1625.608144035862
 31
0.0
  0
LINE
  5
6C35
330
17
100
AcDbEntity
  8
0
100
AcDbLine
 10
882.495363984052
 20
1624.620787035862
 30
0.0
 11
881.3333639840521
 21
1622.608144035862
 31
0.0
  0
LINE
  5
6C36
330
17
100
AcDbEntity
  8
0
100
AcDbLine
 10
886.0808789205322
 20
1632.608144035862
 30
0.0
 11
886.0808789205322
 21
1625.608144034837
 31
0.0
  0
LINE
  5
6C37
330
17
100
AcDbEntity
  8
0
100
AcDbLine
 10
869.2748639840521
 20
1625.608144034837
 30
0.0
 11
886.0808789205322
 21
1625.608144034837
 31
0.0
  0
LINE
  5
6C38
330
17
100
AcDbEntity
  8
0
100
AcDbLine
 10
886.0808789205322
 20
1632.608144035862
 30
0.0
 11
869.2748639840521
 21
1632.608144035862
 31
0.0
  0
LINE
  5
6C39
330
17
100
AcDbEntity
  8
0
100
AcDbLine
 10
882.495363984052
 20
1622.608144035862
 30
0.0
 11
869.2748639840521
 21
1622.608144035862
 31
0.0
  0
LINE
  5
6C3A
330
17
100
AcDbEntity
  8
0
100
AcDbLine
 10
881.7615831749364
 20
1608.606773570333
 30
0.0
 11
882.495363984052
 21
1622.608144035862
 31
0.0
  0
LINE
  5
6C3B
330
17
100
AcDbEntity
  8
0
100
AcDbLine
 10
880.599583160988
 20
1608.606773570333
 30
0.0
 11
881.3333639840518
 21
1622.608144035862
 31
0.0
  0
TEXT
  5
6C74
330
17
100
AcDbEntity
  8
DIM
100
AcDbText
 10
164.1017657954682
 20
4761.073561242355
 30
0.0
 40
96.0
  1
「貯湯タンクユニット
 41
0.8
100
AcDbText
  0
TEXT
  5
6C75
330
17
100
AcDbEntity
  8
DIM
100
AcDbText
 10
601.0542562273914
 20
4612.757420305525
 30
0.0
 40
96.0
  1
給湯専用タイプ４６０Ｌ外形図」
 41
0.8
100
AcDbText
  0
LEADER
  5
6D93
330
17
100
AcDbEntity
  8
DIM
100
AcDbLeader
  3
STANDARD
 76
     2
 10
2951.376791581436
 20
3315.428307852311
 30
0.0
 10
3295.965475627225
 20
3154.605658780281
 30
0.0
1001
ACAD
1000
DSTYLE
1002
{
1070
    43
1040
6.0
1070
    73
1070
     0
1070
    74
1070
     0
1070
   172
1070
     1
1070
   179
1070
     1
1070
   271
1070
     1
1070
   272
1070
     1
1070
   341
1005
4A
1070
   342
1005
1F7
1002
}
1001
SSE_BALOON
1005
6D94
  0
INSERT
  5
6D94
330
17
100
AcDbEntity
  8
DIM
100
AcDbBlockReference
 66
     1
  2
SSE_BALOON1
 10
3336.743054977909
 20
3135.574394442389
 30
0.0
 41
45.0
 42
45.0
 43
45.0
1001
SSE_BALOON
1005
6D93
  0
ATTRIB
  5
6D95
330
6D94
100
AcDbEntity
  8
DIMTEXT
100
AcDbText
 10
3332.457340692195
 20
3117.574394442389
 30
0.0
 40
36.0
  1
1
 72
     4
 11
3336.743054977909
 21
3135.574394442389
 31
0.0
100
AcDbAttribute
  2
BAL_NUM
 70
     0
280
     0
  0
SEQEND
  5
6D96
330
6D94
100
AcDbEntity
  8
DIM
  0
LEADER
  5
6D97
330
17
100
AcDbEntity
  8
DIM
100
AcDbLeader
  3
STANDARD
 76
     2
 10
2817.513893704898
 20
3310.269520489836
 30
0.0
 10
3299.267267853769
 20
2990.035274771764
 30
0.0
1001
ACAD
1000
DSTYLE
1002
{
1070
    43
1040
6.0
1070
    73
1070
     0
1070
    74
1070
     0
1070
   172
1070
     1
1070
   179
1070
     1
1070
   271
1070
     1
1070
   272
1070
     1
1070
   341
1005
4A
1070
   342
1005
1F7
1002
}
1001
SSE_BALOON
1005
6D98
  0
INSERT
  5
6D98
330
17
100
AcDbEntity
  8
DIM
100
AcDbBlockReference
 66
     1
  2
SSE_BALOON1
 10
3336.743054977909
 20
2965.124125070753
 30
0.0
 41
45.0
 42
45.0
 43
45.0
1001
SSE_BALOON
1005
6D97
  0
ATTRIB
  5
6D99
330
6D98
100
AcDbEntity
  8
DIMTEXT
100
AcDbText
 10
3324.743054977909
 20
2947.124125070753
 30
0.0
 40
36.0
  1
2
 72
     4
 11
3336.743054977909
 21
2965.124125070753
 31
0.0
100
AcDbAttribute
  2
BAL_NUM
 70
     0
280
     0
  0
SEQEND
  5
6D9A
330
6D98
100
AcDbEntity
  8
DIM
  0
CIRCLE
  5
6D9B
330
17
100
AcDbEntity
  8
0
100
AcDbCircle
 10
2733.104628172254
 20
3320.214092188975
 30
0.0
 40
13.6
  0
LEADER
  5
6D9C
330
17
100
AcDbEntity
  8
DIM
100
AcDbLeader
  3
STANDARD
 76
     2
 10
2385.591631003488
 20
3323.62023294409
 30
0.0
 10
1978.53819370353
 20
3200.066506382176
 30
0.0
1001
ACAD
1000
DSTYLE
1002
{
1070
    43
1040
6.0
1070
    73
1070
     0
1070
    74
1070
     0
1070
   172
1070
     1
1070
   179
1070
     1
1070
   271
1070
     1
1070
   272
1070
     1
1070
   341
1005
4A
1070
   342
1005
1F7
1002
}
1001
SSE_BALOON
1005
6D9D
  0
INSERT
  5
6D9D
330
17
100
AcDbEntity
  8
DIM
100
AcDbBlockReference
 66
     1
  2
SSE_BALOON1
 10
1935.478095358494
 20
3186.996390448648
 30
0.0
 41
45.0
 42
45.0
 43
45.0
1001
SSE_BALOON
1005
6D9C
  0
ATTRIB
  5
6D9E
330
6D9D
100
AcDbEntity
  8
DIMTEXT
100
AcDbText
 10
1923.478095358494
 20
3168.996390448648
 30
0.0
 40
36.0
  1
3
 72
     4
 11
1935.478095358494
 21
3186.996390448648
 31
0.0
100
AcDbAttribute
  2
BAL_NUM
 70
     0
280
     0
  0
SEQEND
  5
6D9F
330
6D9D
100
AcDbEntity
  8
DIM
  0
LEADER
  5
6DA0
330
17
100
AcDbEntity
  8
DIM
100
AcDbLeader
  3
STANDARD
 76
     2
 10
2419.249564681372
 20
3289.63127384435
 30
0.0
 10
1976.941772849204
 20
3103.100901781072
 30
0.0
1001
ACAD
1000
DSTYLE
1002
{
1070
    43
1040
6.0
1070
    73
1070
     0
1070
    74
1070
     0
1070
   172
1070
     1
1070
   179
1070
     1
1070
   271
1070
     1
1070
   272
1070
     1
1070
   341
1005
4A
1070
   342
1005
1F7
1002
}
1001
SSE_BALOON
1005
6DA1
  0
INSERT
  5
6DA1
330
17
100
AcDbEntity
  8
DIM
100
AcDbBlockReference
 66
     1
  2
SSE_BALOON1
 10
1935.478095358494
 20
3085.61480876558
 30
0.0
 41
45.0
 42
45.0
 43
45.0
1001
SSE_BALOON
1005
6DA0
  0
ATTRIB
  5
6DA2
330
6DA1
100
AcDbEntity
  8
DIMTEXT
100
AcDbText
 10
1922.620952501351
 20
3067.614808765581
 30
0.0
 40
36.0
  1
4
 72
     4
 11
1935.478095358494
 21
3085.61480876558
 31
0.0
100
AcDbAttribute
  2
BAL_NUM
 70
     0
280
     0
  0
SEQEND
  5
6DA3
330
6DA1
100
AcDbEntity
  8
DIM
  0
LEADER
  5
6DA4
330
17
100
AcDbEntity
  8
DIM
100
AcDbLeader
  3
STANDARD
 76
     2
 10
2492.338720770986
 20
3337.416014753141
 30
0.0
 10
2523.593164325006
 20
3514.930219499401
 30
0.0
1001
ACAD
1000
DSTYLE
1002
{
1070
    43
1040
6.0
1070
    73
1070
     0
1070
    74
1070
     0
1070
   172
1070
     1
1070
   179
1070
     1
1070
   271
1070
     1
1070
   272
1070
     1
1070
   341
1005
4A
1070
   342
1005
1F7
1002
}
1001
SSE_BALOON
1005
6DA5
  0
INSERT
  5
6DA5
330
17
100
AcDbEntity
  8
DIM
100
AcDbBlockReference
 66
     1
  2
SSE_BALOON1
 10
2531.396169715875
 20
3559.248535203747
 30
0.0
 41
45.0
 42
45.0
 43
45.0
1001
SSE_BALOON
1005
6DA4
  0
ATTRIB
  5
6DA6
330
6DA5
100
AcDbEntity
  8
DIMTEXT
100
AcDbText
 10
2520.253312573017
 20
3541.248535203747
 30
0.0
 40
36.0
  1
6
 72
     4
 11
2531.396169715875
 21
3559.248535203747
 31
0.0
100
AcDbAttribute
  2
BAL_NUM
 70
     0
280
     0
  0
SEQEND
  5
6DA7
330
6DA5
100
AcDbEntity
  8
DIM
  0
LEADER
  5
6DA9
330
17
100
AcDbEntity
  8
DIM
100
AcDbLeader
  3
STANDARD
 76
     2
 10
2585.498969506026
 20
3338.647657179562
 30
0.0
 10
2618.78801465186
 20
3515.029195211805
 30
0.0
1001
ACAD
1000
DSTYLE
1002
{
1070
    43
1040
6.0
1070
    73
1070
     0
1070
    74
1070
     0
1070
   172
1070
     1
1070
   179
1070
     1
1070
   271
1070
     1
1070
   272
1070
     1
1070
   341
1005
4A
1070
   342
1005
1F7
1002
}
1001
SSE_BALOON
1005
6DAA
  0
INSERT
  5
6DAA
330
17
100
AcDbEntity
  8
DIM
100
AcDbBlockReference
 66
     1
  2
SSE_BALOON1
 10
2627.133670448566
 20
3559.248535203747
 30
0.0
 41
45.0
 42
45.0
 43
45.0
1001
SSE_BALOON
1005
6DA9
  0
ATTRIB
  5
6DAB
330
6DAA
100
AcDbEntity
  8
DIMTEXT
100
AcDbText
 10
2615.133670448566
 20
3541.248535203747
 30
0.0
 40
36.0
  1
7
 72
     4
 11
2627.133670448566
 21
3559.248535203747
 31
0.0
100
AcDbAttribute
  2
BAL_NUM
 70
     0
280
     0
  0
SEQEND
  5
6DAC
330
6DAA
100
AcDbEntity
  8
DIM
  0
LEADER
  5
6EC4
330
17
100
AcDbEntity
  8
DIM
100
AcDbLeader
  3
STANDARD
 76
     2
 10
2648.388015775732
 20
3340.835944607862
 30
0.0
 10
2720.698854727818
 20
3517.598819277798
 30
0.0
1001
ACAD
1000
DSTYLE
1002
{
1070
    43
1040
6.0
1070
    73
1070
     0
1070
    74
1070
     0
1070
   172
1070
     1
1070
   179
1070
     1
1070
   271
1070
     1
1070
   272
1070
     1
1070
   341
1005
4A
1070
   342
1005
1F7
1002
}
1001
SSE_BALOON
1005
6EC5
  0
INSERT
  5
6EC5
330
17
100
AcDbEntity
  8
DIM
100
AcDbBlockReference
 66
     1
  2
SSE_BALOON1
 10
2737.737081257824
 20
3559.248535203747
 30
0.0
 41
45.0
 42
45.0
 43
45.0
1001
SSE_BALOON
1005
6EC4
  0
ATTRIB
  5
6EC6
330
6EC5
100
AcDbEntity
  8
DIMTEXT
100
AcDbText
 10
2725.737081257824
 20
3541.248535203747
 30
0.0
 40
36.0
  1
5
 72
     4
 11
2737.737081257824
 21
3559.248535203747
 31
0.0
100
AcDbAttribute
  2
BAL_NUM
 70
     0
280
     0
  0
SEQEND
  5
6EC7
330
6EC5
100
AcDbEntity
  8
DIM
  0
LEADER
  5
6EC8
330
17
100
AcDbEntity
  8
DIM
100
AcDbLeader
  3
STANDARD
 76
     2
 10
2739.392465163398
 20
3332.273242489589
 30
0.0
 10
2820.678196587913
 20
3518.023099081309
 30
0.0
1001
ACAD
1000
DSTYLE
1002
{
1070
    43
1040
6.0
1070
    73
1070
     0
1070
    74
1070
     0
1070
   172
1070
     1
1070
   179
1070
     1
1070
   271
1070
     1
1070
   272
1070
     1
1070
   341
1005
4A
1070
   342
1005
1F7
1002
}
1001
SSE_BALOON
1005
6EC9
  0
INSERT
  5
6EC9
330
17
100
AcDbEntity
  8
DIM
100
AcDbBlockReference
 66
     1
  2
SSE_BALOON1
 10
2838.718801248366
 20
3559.248535203747
 30
0.0
 41
45.0
 42
45.0
 43
45.0
1001
SSE_BALOON
1005
6EC8
  0
ATTRIB
  5
6ECA
330
6EC9
100
AcDbEntity
  8
DIMTEXT
100
AcDbText
 10
2826.718801248366
 20
3541.248535203747
 30
0.0
 40
36.0
  1
8
 72
     4
 11
2838.718801248366
 21
3559.248535203747
 31
0.0
100
AcDbAttribute
  2
BAL_NUM
 70
     0
280
     0
  0
SEQEND
  5
6ECB
330
6EC9
100
AcDbEntity
  8
DIM
  0
LEADER
  5
6ED8
330
17
100
AcDbEntity
  8
DIM
100
AcDbLeader
  3
STANDARD
 73
     0
 75
     1
 40
128.0
 41
362.0571428571428
 76
     3
 10
1323.189173189842
 20
958.1372030833231
 30
0.0
 10
1132.636879433295
 20
264.7396428221644
 30
0.0
 10
1081.636879433295
 20
264.7396428221644
 30
0.0
340
6ED9
213
335.8298547265183
223
0.0
233
0.0
1001
ACAD
1000
DSTYLE
1002
{
1070
   147
1040
1.0
1070
    77
1070
     1
1070
    43
1040
10.0
1070
    73
1070
     0
1070
    74
1070
     0
1070
   172
1070
     1
1070
   179
1070
     1
1070
   271
1070
     1
1070
   272
1070
     1
1070
   341
1005
1F7
1070
   342
1005
1F7
1002
}
  0
MTEXT
  5
6ED9
102
{ACAD_XDICTIONARY
360
6FC7
102
}
102
{ACAD_REACTORS
330
6ED8
102
}
330
17
100
AcDbEntity
  8
DIM
100
AcDbMText
 10
728.8070247067768
 20
281.7396428221645
 30
0.0
 40
48.0
 41
0.0
 46
0.0
 71
     9
 72
     1
  1
ヒートポンプ　　\P配管口B　R1／2
 73
     1
 44
1.0
  0
LEADER
  5
6EDD
330
17
100
AcDbEntity
  8
DIM
100
AcDbLeader
  3
STANDARD
 73
     0
 40
48.00000000000001
 41
312.3200000000001
 76
     2
 10
1022.474719611156
 20
4024.795460546902
 30
0.0
 10
501.3637025324761
 20
4144.973050703974
 30
0.0
340
6EDE
1001
ACAD
1000
DSTYLE
1002
{
1070
   147
1040
1.0
1070
    77
1070
     1
1070
    43
1040
6.0
1070
    73
1070
     0
1070
    74
1070
     0
1070
   172
1070
     1
1070
   179
1070
     1
1070
   271
1070
     1
1070
   272
1070
     1
1070
   341
1005
1F7
1070
   342
1005
1F7
1002
}
  0
MTEXT
  5
6EDE
102
{ACAD_REACTORS
330
6EDD
102
}
330
17
100
AcDbEntity
  8
DIM
100
AcDbMText
 10
484.3637025324761
 20
4161.973050703974
 30
0.0
 40
48.0
 41
556.0478873443667
 46
0.0
 71
     9
 72
     1
  1
上部振止め金具
 73
     1
 44
1.0
  0
TEXT
  5
6F17
330
17
100
AcDbEntity
  8
DIM
100
AcDbText
 10
2930.614693107334
 20
164.5058098975461
 30
0.0
 40
65.0
  1
E34-000371
 41
0.8
100
AcDbText
  0
ENDSEC
  0
SECTION
  2
OBJECTS
  0
DICTIONARY
  5
C
330
0
100
AcDbDictionary
281
     1
  3
ACAD_COLOR
350
5CC8
  3
ACAD_GROUP
350
D
  3
ACAD_LAYOUT
350
34
  3
ACAD_MATERIAL
350
5C9E
  3
ACAD_MLEADERSTYLE
350
5CED
  3
ACAD_MLINESTYLE
350
1A
  3
ACAD_PLOTSETTINGS
350
35
  3
ACAD_PLOTSTYLENAME
350
32
  3
ACAD_SCALELIST
350
5CCB
  3
ACAD_TABLESTYLE
350
5CC9
  3
ACAD_VISUALSTYLE
350
5CB7
  3
AcadDim
350
4368
  3
ACDB_RECOMPOSE_DATA
350
69B4
  3
AcDbVariableDictionary
350
44
  0
DICTIONARY
  5
51B7
330
2
100
AcDbDictionary
280
     1
281
     1
  3
ACAD_LAYERSTATES
360
51B8
  0
DICTIONARY
  5
6982
330
E
100
AcDbDictionary
280
     1
281
     1
  3
ADSK_XREC_LAYER_RECONCILED
360
6983
  0
DICTIONARY
  5
6986
330
21
100
AcDbDictionary
280
     1
281
     1
  3
ADSK_XREC_LAYER_RECONCILED
360
6987
  0
DICTIONARY
  5
6988
330
22
100
AcDbDictionary
280
     1
281
     1
  3
ADSK_XREC_LAYER_RECONCILED
360
6989
  0
DICTIONARY
  5
698A
330
23
100
AcDbDictionary
280
     1
281
     1
  3
ADSK_XREC_LAYER_RECONCILED
360
698B
  0
DICTIONARY
  5
698C
330
24
100
AcDbDictionary
280
     1
281
     1
  3
ADSK_XREC_LAYER_RECONCILED
360
698D
  0
DICTIONARY
  5
698E
330
25
100
AcDbDictionary
280
     1
281
     1
  3
ADSK_XREC_LAYER_RECONCILED
360
698F
  0
DICTIONARY
  5
6992
330
27
100
AcDbDictionary
280
     1
281
     1
  3
ADSK_XREC_LAYER_RECONCILED
360
6993
  0
DICTIONARY
  5
5EA6
330
17
100
AcDbDictionary
280
     1
281
     1
  3
ACAD_SORTENTS
360
5EA7
  0
DICTIONARY
  5
6FC4
330
4366
100
AcDbDictionary
280
     1
281
     1
  3
ACAD_MTEXT_2008_RT
360
6FC5
  0
DICTIONARY
  5
6FC7
330
6ED9
100
AcDbDictionary
280
     1
281
     1
  3
ACAD_MTEXT_2008_RT
360
6FC8
  0
DICTIONARY
  5
5CC8
102
{ACAD_REACTORS
330
C
102
}
330
C
100
AcDbDictionary
281
     1
  0
DICTIONARY
  5
D
102
{ACAD_REACTORS
330
C
102
}
330
C
100
AcDbDictionary
281
     1
  3
*A1
350
E1
  3
*A2
350
E6
  3
*A3
350
173
  0
DICTIONARY
  5
34
102
{ACAD_REACTORS
330
C
102
}
330
C
100
AcDbDictionary
281
     1
  3
Model
350
36
  3
ﾚｲｱｳﾄ1
350
37
  0
DICTIONARY
  5
5C9E
102
{ACAD_REACTORS
330
C
102
}
330
C
100
AcDbDictionary
281
     1
  3
ByBlock
350
5CA7
  3
ByLayer
350
5C9F
  3
Global
350
5CAF
  0
DICTIONARY
  5
5CED
102
{ACAD_REACTORS
330
C
102
}
330
C
100
AcDbDictionary
281
     1
  3
Standard
350
5CEE
  0
DICTIONARY
  5
1A
102
{ACAD_REACTORS
330
C
102
}
330
C
100
AcDbDictionary
281
     1
  3
STANDARD
350
1B
  0
DICTIONARY
  5
35
102
{ACAD_REACTORS
330
C
102
}
330
C
100
AcDbDictionary
281
     1
  0
ACDBDICTIONARYWDFLT
  5
32
102
{ACAD_REACTORS
330
C
102
}
330
C
100
AcDbDictionary
281
     1
  3
Normal
350
33
100
AcDbDictionaryWithDefault
340
33
  0
DICTIONARY
  5
5CCB
102
{ACAD_REACTORS
330
C
102
}
330
C
100
AcDbDictionary
281
     1
  3
A0
350
5CCC
  3
A1
350
5CCD
  3
A2
350
5CCE
  3
A3
350
5CCF
  3
A4
350
5CD0
  3
A5
350
5CD1
  3
A6
350
5CD2
  3
A7
350
5CD3
  3
A8
350
5CD4
  3
A9
350
5CD5
  3
B0
350
5CD6
  3
B1
350
5CD7
  3
B2
350
5CD8
  3
B3
350
5CD9
  3
B4
350
5CDA
  3
B5
350
5CDB
  3
B6
350
5CDC
  3
B7
350
5CDD
  3
B8
350
5CDE
  3
B9
350
5CDF
  3
C0
350
5CE0
  3
C1
350
5CE1
  3
C2
350
5CE2
  3
C3
350
5CE3
  3
C4
350
5CE4
  3
C5
350
5CE5
  3
C6
350
5CE6
  3
C7
350
5CE7
  3
C8
350
5CE8
  3
C9
350
5CE9
  3
D0
350
5CEA
  3
D1
350
5CEB
  3
D2
350
5CEC
  0
DICTIONARY
  5
5CC9
102
{ACAD_REACTORS
330
C
102
}
330
C
100
AcDbDictionary
281
     1
  3
Standard
350
5CCA
  0
DICTIONARY
  5
5CB7
102
{ACAD_REACTORS
330
C
102
}
330
C
100
AcDbDictionary
281
     1
  3
2dWireframe
350
5CBD
  3
3D Hidden
350
5CBF
  3
3dWireframe
350
5CBE
  3
Basic
350
5CBC
  3
Brighten
350
5CC3
  3
ColorChange
350
5CC7
  3
Conceptual
350
5CC0
  3
Dim
350
5CC2
  3
Facepattern
350
5CC6
  3
Flat
350
5CB8
  3
FlatWithEdges
350
5CB9
  3
Gouraud
350
5CBA
  3
GouraudWithEdges
350
5CBB
  3
Linepattern
350
5CC5
  3
Realistic
350
5CC1
  3
Thicken
350
5CC4
  0
XRECORD
  5
4368
102
{ACAD_REACTORS
330
C
102
}
330
C
100
AcDbXrecord
280
     1
 90
   990106
  3

 60
     0
 61
     0
 62
     4
 63
     4
 64
     1
 65
     0
 66
     0
 67
     2
 68
     1
 69
     0
 70
     0
 71
     0
 72
     0
 40
48.0
170
     1
340
6EDE
  0
XRECORD
  5
69B4
102
{ACAD_REACTORS
330
C
102
}
330
C
100
AcDbXrecord
280
     1
 90
        1
330
4366
330
5CCA
330
6ED9
  0
DICTIONARY
  5
44
102
{ACAD_REACTORS
330
C
102
}
330
C
100
AcDbDictionary
281
     1
  3
CANNOSCALE
350
69B8
  3
CMLEADERSTYLE
350
69B6
  3
CTABLESTYLE
350
69B5
  3
DIMASSOC
350
45
  3
LIGHTINGUNITS
350
69B9
  3
MSLTSCALE
350
69B7
  0
DICTIONARY
  5
51B8
102
{ACAD_REACTORS
330
51B7
102
}
330
51B7
100
AcDbDictionary
281
     1
  0
XRECORD
  5
6983
102
{ACAD_REACTORS
330
6982
102
}
330
6982
100
AcDbXrecord
280
     1
290
     1
  0
XRECORD
  5
6987
102
{ACAD_REACTORS
330
6986
102
}
330
6986
100
AcDbXrecord
280
     1
290
     1
  0
XRECORD
  5
6989
102
{ACAD_REACTORS
330
6988
102
}
330
6988
100
AcDbXrecord
280
     1
290
     1
  0
XRECORD
  5
698B
102
{ACAD_REACTORS
330
698A
102
}
330
698A
100
AcDbXrecord
280
     1
290
     1
  0
XRECORD
  5
698D
102
{ACAD_REACTORS
330
698C
102
}
330
698C
100
AcDbXrecord
280
     1
290
     1
  0
XRECORD
  5
698F
102
{ACAD_REACTORS
330
698E
102
}
330
698E
100
AcDbXrecord
280
     1
290
     1
  0
XRECORD
  5
6993
102
{ACAD_REACTORS
330
6992
102
}
330
6992
100
AcDbXrecord
280
     1
290
     1
  0
SORTENTSTABLE
  5
5EA7
102
{ACAD_REACTORS
330
5EA6
102
}
330
5EA6
100
AcDbSortentsTable
330
17
331
3B68
  5
3B68
331
3BC7
  5
3BC7
331
5C7D
  5
5C7D
331
6C19
  5
6C19
331
63D7
  5
5FA1
331
6BDA
  5
6BDA
331
788
  5
788
331
6D1
  5
6D1
331
623
  5
623
331
662
  5
662
331
6C21
  5
6C21
331
6BAB
  5
6BAB
331
63DF
  5
5FC8
331
6BE2
  5
6BE2
331
5E4
  5
5E4
331
708
  5
708
331
845
  5
845
331
757
  5
757
331
7CF
  5
7CF
331
6D9
  5
6D9
331
62B
  5
62B
331
6C29
  5
6C29
331
6BB3
  5
6BB3
331
6BEA
  5
6BEA
331
5B5
  5
5B5
331
5EC
  5
5EC
331
66A
  5
66A
331
790
  5
790
331
806
  5
806
331
87C
  5
87C
331
35BA
  5
35BA
331
3A89
  5
3A89
331
84D
  5
84D
331
75F
  5
75F
331
7D7
  5
7D7
331
80E
  5
80E
331
798
  5
798
331
6E1
  5
6E1
331
6BF2
  5
6BF2
331
6616
  5
6616
331
5BD
  5
5BD
331
633
  5
633
331
720
  5
720
331
35C2
  5
35C2
331
3A91
  5
3A91
331
855
  5
855
331
767
  5
767
331
7DF
  5
7DF
331
7A0
  5
7A0
331
5FC
  5
5FC
331
728
  5
728
331
816
  5
816
331
81E
  5
81E
331
894
  5
894
331
35D2
  5
35D2
331
3B80
  5
3B80
331
5F0B
  5
5EAB
331
5C85
  5
5C85
331
5FC2
  5
5F33
331
5C8D
  5
5C8D
331
5F1B
  5
5EBB
331
5C95
  5
5C95
331
5FCA
  5
63D7
331
6081
  5
63DB
331
6BFA
  5
6BFA
331
6BBB
  5
6BBB
331
7A8
  5
7A8
331
769
  5
769
331
6E9
  5
6E9
331
63B
  5
63B
331
6C02
  5
6C02
331
63C0
  5
5F8A
331
6BC3
  5
6BC3
331
58E
  5
58E
331
5C5
  5
5C5
331
604
  5
604
331
730
  5
730
331
7E7
  5
7E7
331
7B0
  5
7B0
331
771
  5
771
331
6F1
  5
6F1
331
5CD
  5
5CD
331
6C0A
  5
6C0A
331
63C8
  5
5F92
331
6BCB
  5
6BCB
331
596
  5
596
331
60C
  5
60C
331
738
  5
738
331
826
  5
826
331
85D
  5
85D
331
8A4
  5
8A4
331
35DA
  5
35DA
331
865
  5
865
331
740
  5
740
331
7B8
  5
7B8
331
7EF
  5
7EF
331
779
  5
779
331
6C2
  5
6C2
331
6F9
  5
6F9
331
614
  5
614
331
6C12
  5
6C12
331
66A6
  5
66A6
331
6BD3
  5
6BD3
331
59E
  5
59E
331
5D5
  5
5D5
331
653
  5
653
331
82E
  5
82E
331
35F2
  5
35F2
331
836
  5
836
331
748
  5
748
331
7C0
  5
7C0
331
781
  5
781
331
6CA
  5
6CA
331
61C
  5
61C
331
5A6
  5
5A6
331
5DD
  5
5DD
331
65B
  5
65B
331
701
  5
701
331
7F7
  5
7F7
331
86D
  5
86D
331
3A7A
  5
3A7A
331
2213
  5
2213
331
83E
  5
83E
331
7FF
  5
7FF
331
875
  5
875
331
3B69
  5
3B69
331
5C7E
  5
5C7E
331
3B79
  5
3B79
331
63D0
  5
5F9A
331
5F4B
  5
5F83
331
6C1A
  5
6C1A
331
6BA4
  5
6BA4
331
63D8
  5
5FA2
331
6BDB
  5
6BDB
331
750
  5
750
331
7C8
  5
7C8
331
789
  5
789
331
6D2
  5
6D2
331
624
  5
624
331
6C22
  5
6C22
331
6BAC
  5
6BAC
331
63E0
  5
5FC9
331
6A15
  5
6A15
331
6BE3
  5
6BE3
331
5E5
  5
5E5
331
663
  5
663
331
709
  5
709
331
846
  5
846
331
758
  5
758
331
7D0
  5
7D0
331
6DA
  5
6DA
331
62C
  5
62C
331
6C2A
  5
6C2A
331
6BB4
  5
6BB4
331
6BEB
  5
6BEB
331
5ED
  5
5ED
331
66B
  5
66B
331
791
  5
791
331
807
  5
807
331
87D
  5
87D
331
35BB
  5
35BB
331
3A8A
  5
3A8A
331
84E
  5
84E
331
7D8
  5
7D8
331
80F
  5
80F
331
35C3
  5
35C3
331
6E2
  5
6E2
331
634
  5
634
331
721
  5
721
331
5BE
  5
5BE
331
6A2D
  5
6A2D
331
6BF3
  5
6BF3
331
577
  5
577
331
5F5
  5
5F5
331
799
  5
799
331
760
  5
760
331
856
  5
856
331
729
  5
729
331
57F
  5
57F
331
5FD
  5
5FD
331
7A1
  5
7A1
331
817
  5
817
331
35CB
  5
35CB
331
35D3
  5
35D3
331
81F
  5
81F
331
895
  5
895
331
5F0C
  5
5EAC
331
5FC3
  5
5F35
331
3B91
  5
3B91
331
5C8E
  5
5C8E
331
5C96
  5
5C96
331
6BFB
  5
6BFB
331
6BBC
  5
6BBC
331
7E0
  5
7E0
331
731
  5
731
331
6EA
  5
6EA
331
605
  5
605
331
6C03
  5
6C03
331
63C1
  5
5F8B
331
6BC4
  5
6BC4
331
58F
  5
58F
331
5C6
  5
5C6
331
63C
  5
63C
331
76A
  5
76A
331
7A9
  5
7A9
331
35DB
  5
35DB
331
739
  5
739
331
6F2
  5
6F2
331
5CE
  5
5CE
331
6C0B
  5
6C0B
331
63C9
  5
5F93
331
6BCC
  5
6BCC
331
597
  5
597
331
60D
  5
60D
331
772
  5
772
331
7E8
  5
7E8
331
827
  5
827
331
85E
  5
85E
331
8A5
  5
8A5
331
866
  5
866
331
7B9
  5
7B9
331
7F0
  5
7F0
331
82F
  5
82F
331
6FA
  5
6FA
331
615
  5
615
331
654
  5
654
331
6C13
  5
6C13
331
6BD4
  5
6BD4
331
5D6
  5
5D6
331
77A
  5
77A
331
741
  5
741
331
220C
  5
220C
331
837
  5
837
331
7C1
  5
7C1
331
7F8
  5
7F8
331
86E
  5
86E
331
35F3
  5
35F3
331
61D
  5
61D
331
6CB
  5
6CB
331
702
  5
702
331
5A7
  5
5A7
331
5DE
  5
5DE
331
782
  5
782
331
749
  5
749
331
83F
  5
83F
331
876
  5
876
331
3A7B
  5
3A7B
331
4E38
  5
4E38
331
5F34
  5
5F46
331
5C7F
  5
5C7F
331
5F44
  5
5F4C
331
63D1
  5
5F9B
331
60AA
  5
63DE
331
5F4C
  5
5F84
331
6C1B
  5
6C1B
331
6BA5
  5
6BA5
331
6BDC
  5
6BDC
331
63D9
  5
5FC2
331
7C9
  5
7C9
331
800
  5
800
331
6C23
  5
6C23
331
6BAD
  5
6BAD
331
63E1
  5
5FCA
331
6BE4
  5
6BE4
331
625
  5
625
331
6D3
  5
6D3
331
70A
  5
70A
331
78A
  5
78A
331
751
  5
751
331
35BC
  5
35BC
331
847
  5
847
331
7D1
  5
7D1
331
808
  5
808
331
87E
  5
87E
331
6DB
  5
6DB
331
6C2B
  5
6C2B
331
6BB5
  5
6BB5
331
6BEC
  5
6BEC
331
5B7
  5
5B7
331
5EE
  5
5EE
331
66C
  5
66C
331
792
  5
792
331
759
  5
759
331
35C4
  5
35C4
331
84F
  5
84F
331
7D9
  5
7D9
331
810
  5
810
331
886
  5
886
331
6E3
  5
6E3
331
635
  5
635
331
722
  5
722
331
5BF
  5
5BF
331
6BF4
  5
6BF4
331
578
  5
578
331
5F6
  5
5F6
331
79A
  5
79A
331
761
  5
761
331
857
  5
857
331
72A
  5
72A
331
5FE
  5
5FE
331
7A2
  5
7A2
331
818
  5
818
331
35CC
  5
35CC
331
35D4
  5
35D4
331
896
  5
896
331
5C87
  5
5C87
331
5C8F
  5
5C8F
331
3B92
  5
3B92
331
4379
  5
4379
331
5F15
  5
5EB5
331
5FC4
  5
5EE7
331
5C97
  5
5C97
331
6BFC
  5
6BFC
331
6BBD
  5
6BBD
331
588
  5
588
331
732
  5
732
331
6EB
  5
6EB
331
63D
  5
63D
331
5C7
  5
5C7
331
6C04
  5
6C04
331
63C2
  5
5F8C
331
6BC5
  5
6BC5
331
590
  5
590
331
76B
  5
76B
331
7AA
  5
7AA
331
7E1
  5
7E1
331
820
  5
820
331
35DC
  5
35DC
331
85F
  5
85F
331
7E9
  5
7E9
331
73A
  5
73A
331
64D
  5
64D
331
6C0C
  5
6C0C
331
6BCD
  5
6BCD
331
63CA
  5
5F94
331
598
  5
598
331
5CF
  5
5CF
331
60E
  5
60E
331
773
  5
773
331
7B2
  5
7B2
331
828
  5
828
331
1B75
  5
1B75
331
830
  5
830
331
867
  5
867
331
7BA
  5
7BA
331
7F1
  5
7F1
331
6C4
  5
6C4
331
616
  5
616
331
6FB
  5
6FB
331
6C14
  5
6C14
331
6BD5
  5
6BD5
331
5A0
  5
5A0
331
5D7
  5
5D7
331
77B
  5
77B
331
742
  5
742
331
220D
  5
220D
331
838
  5
838
331
7C2
  5
7C2
331
7F9
  5
7F9
331
86F
  5
86F
331
35F4
  5
35F4
331
6CC
  5
6CC
331
703
  5
703
331
61E
  5
61E
331
65D
  5
65D
331
5DF
  5
5DF
331
783
  5
783
331
74A
  5
74A
331
877
  5
877
331
3A7C
  5
3A7C
331
5F35
  5
5F47
331
600C
  5
63DA
331
3B7B
  5
3B7B
331
5F45
  5
5F7D
331
63D2
  5
5F9C
331
6C1C
  5
6C1C
331
6BA6
  5
6BA6
331
6BDD
  5
6BDD
331
63DA
  5
5FC3
331
66C8
  5
66C8
331
5A8
  5
5A8
331
840
  5
840
331
7CA
  5
7CA
331
801
  5
801
331
6C24
  5
6C24
331
6BAE
  5
6BAE
331
6BE5
  5
6BE5
331
626
  5
626
331
6D4
  5
6D4
331
70B
  5
70B
331
78B
  5
78B
331
752
  5
752
331
35BD
  5
35BD
331
848
  5
848
331
7D2
  5
7D2
331
809
  5
809
331
87F
  5
87F
331
3A84
  5
3A84
331
6C2C
  5
6C2C
331
6BB6
  5
6BB6
331
6BED
  5
6BED
331
6DC
  5
6DC
331
793
  5
793
331
75A
  5
75A
331
850
  5
850
331
1B5E
  5
1B5E
331
35C5
  5
35C5
331
7DA
  5
7DA
331
811
  5
811
331
6E4
  5
6E4
331
723
  5
723
331
6BF5
  5
6BF5
331
636
  5
636
331
675
  5
675
331
79B
  5
79B
331
762
  5
762
331
35CD
  5
35CD
331
72B
  5
72B
331
5FF
  5
5FF
331
7A3
  5
7A3
331
819
  5
819
331
88F
  5
88F
331
35D5
  5
35D5
331
897
  5
897
331
5C80
  5
5C80
331
5C88
  5
5C88
331
5FC5
  5
5F31
331
5C90
  5
5C90
331
5F16
  5
5EB6
331
5C98
  5
5C98
331
3AEC
  5
3AEC
331
6BFD
  5
6BFD
331
6BBE
  5
6BBE
331
5C0
  5
5C0
331
733
  5
733
331
6EC
  5
6EC
331
5C8
  5
5C8
331
6C05
  5
6C05
331
63C3
  5
5F8D
331
6BC6
  5
6BC6
331
591
  5
591
331
76C
  5
76C
331
7AB
  5
7AB
331
7E2
  5
7E2
331
821
  5
821
331
858
  5
858
331
35DD
  5
35DD
331
860
  5
860
331
7EA
  5
7EA
331
73B
  5
73B
331
6F4
  5
6F4
331
6C0D
  5
6C0D
331
6BCE
  5
6BCE
331
63CB
  5
5F95
331
599
  5
599
331
5D0
  5
5D0
331
60F
  5
60F
331
774
  5
774
331
7B3
  5
7B3
331
829
  5
829
331
831
  5
831
331
7BB
  5
7BB
331
7F2
  5
7F2
331
868
  5
868
331
6C5
  5
6C5
331
617
  5
617
331
6C15
  5
6C15
331
6BD6
  5
6BD6
331
5A1
  5
5A1
331
5D8
  5
5D8
331
656
  5
656
331
6FC
  5
6FC
331
77C
  5
77C
331
743
  5
743
331
839
  5
839
331
7C3
  5
7C3
331
7FA
  5
7FA
331
870
  5
870
331
6CD
  5
6CD
331
61F
  5
61F
331
65E
  5
65E
331
704
  5
704
331
784
  5
784
331
74B
  5
74B
331
3A7D
  5
3A7D
331
53F1
  5
53F1
331
3B64
  5
3B64
331
5FED
  5
63D9
331
5F36
  5
5F48
331
4E52
  5
4E52
331
5C79
  5
5C79
331
63D3
  5
5F9D
331
6C1D
  5
6C1D
331
6BA7
  5
6BA7
331
6BDE
  5
6BDE
331
63DB
  5
5FC4
331
5A9
  5
5A9
331
5E0
  5
5E0
331
841
  5
841
331
7CB
  5
7CB
331
802
  5
802
331
878
  5
878
331
6D5
  5
6D5
331
627
  5
627
331
6C25
  5
6C25
331
6BAF
  5
6BAF
331
6BE6
  5
6BE6
331
5B1
  5
5B1
331
666
  5
666
331
70C
  5
70C
331
78C
  5
78C
331
753
  5
753
331
35BE
  5
35BE
331
849
  5
849
331
7D3
  5
7D3
331
80A
  5
80A
331
880
  5
880
331
3A85
  5
3A85
331
62F
  5
62F
331
6DD
  5
6DD
331
6C2D
  5
6C2D
331
6BB7
  5
6BB7
331
6BEE
  5
6BEE
331
5B9
  5
5B9
331
5F0
  5
5F0
331
794
  5
794
331
75B
  5
75B
331
851
  5
851
331
35C6
  5
35C6
331
7DB
  5
7DB
331
812
  5
812
331
6E5
  5
6E5
331
637
  5
637
331
5F8
  5
5F8
331
6BF6
  5
6BF6
331
57A
  5
57A
331
676
  5
676
331
724
  5
724
331
79C
  5
79C
331
763
  5
763
331
67E
  5
67E
331
72C
  5
72C
331
7A4
  5
7A4
331
81A
  5
81A
331
890
  5
890
331
35CE
  5
35CE
331
35D6
  5
35D6
331
5C81
  5
5C81
331
5F17
  5
5EB7
331
5C91
  5
5C91
331
5FC6
  5
5EDA
331
3B9C
  5
3B9C
331
5C99
  5
5C99
331
6BFE
  5
6BFE
331
6BBF
  5
6BBF
331
6483
  5
6483
331
5C1
  5
5C1
331
600
  5
600
331
7E3
  5
7E3
331
734
  5
734
331
6ED
  5
6ED
331
5C9
  5
5C9
331
6C06
  5
6C06
331
6BC7
  5
6BC7
331
63C4
  5
5F8E
331
609D
  5
63DD
331
6503
  5
6503
331
1D3
  5
1D3
331
592
  5
592
331
76D
  5
76D
331
7AC
  5
7AC
331
822
  5
822
331
859
  5
859
331
8A0
  5
8A0
331
35DE
  5
35DE
331
861
  5
861
331
7EB
  5
7EB
331
73C
  5
73C
331
6F5
  5
6F5
331
610
  5
610
331
6C0E
  5
6C0E
331
6A78
  5
6A78
331
6BCF
  5
6BCF
331
63CC
  5
5F96
331
658B
  5
658B
331
59A
  5
59A
331
5D1
  5
5D1
331
6BE
  5
6BE
331
775
  5
775
331
7B4
  5
7B4
331
82A
  5
82A
331
8A8
  5
8A8
331
35EE
  5
35EE
331
832
  5
832
331
7BC
  5
7BC
331
7F3
  5
7F3
331
869
  5
869
331
6C6
  5
6C6
331
618
  5
618
331
6C16
  5
6C16
331
6BD7
  5
6BD7
331
5A2
  5
5A2
331
5D9
  5
5D9
331
657
  5
657
331
6FD
  5
6FD
331
77D
  5
77D
331
744
  5
744
331
83A
  5
83A
331
7C4
  5
7C4
331
7FB
  5
7FB
331
871
  5
871
331
6CE
  5
6CE
331
65F
  5
65F
331
705
  5
705
331
785
  5
785
331
74C
  5
74C
331
3A7E
  5
3A7E
331
53F2
  5
53F2
331
3B65
  5
3B65
331
5F37
  5
5F49
331
3B6D
  5
3B6D
331
3CCC
  5
3CCC
331
5C7A
  5
5C7A
331
4EA3
  5
4EA3
331
5F47
  5
5F7F
331
63D4
  5
5F9E
331
620
  5
620
331
6C1E
  5
6C1E
331
6BA8
  5
6BA8
331
6BDF
  5
6BDF
331
63DC
  5
5FC5
331
5AA
  5
5AA
331
5E1
  5
5E1
331
842
  5
842
331
7CC
  5
7CC
331
803
  5
803
331
879
  5
879
331
6D6
  5
6D6
331
628
  5
628
331
5B2
  5
5B2
331
5E9
  5
5E9
331
70D
  5
70D
331
78D
  5
78D
331
754
  5
754
331
6BB0
  5
6BB0
331
6BE7
  5
6BE7
331
63E4
  5
63E4
331
65BB
  5
65BB
331
6C26
  5
6C26
331
35BF
  5
35BF
331
84A
  5
84A
331
7D4
  5
7D4
331
80B
  5
80B
331
881
  5
881
331
3A86
  5
3A86
331
630
  5
630
331
5BA
  5
5BA
331
5F1
  5
5F1
331
715
  5
715
331
795
  5
795
331
75C
  5
75C
331
6BEF
  5
6BEF
331
6C2E
  5
6C2E
331
852
  5
852
331
35C7
  5
35C7
331
7DC
  5
7DC
331
813
  5
813
331
6E6
  5
6E6
331
6BF7
  5
6BF7
331
57B
  5
57B
331
677
  5
677
331
725
  5
725
331
79D
  5
79D
331
764
  5
764
331
3A8E
  5
3A8E
331
72D
  5
72D
331
67F
  5
67F
331
7A5
  5
7A5
331
891
  5
891
331
35CF
  5
35CF
331
35D7
  5
35D7
331
5F08
  5
5EA8
331
3B85
  5
3B85
331
5C82
  5
5C82
331
3B8D
  5
3B8D
331
5C8A
  5
5C8A
331
5FC7
  5
5F06
331
3B95
  5
3B95
331
5C92
  5
5C92
331
5C9A
  5
5C9A
331
6BB8
  5
6BB8
331
6BFF
  5
6BFF
331
6BC0
  5
6BC0
331
63BD
  5
5F87
331
5C2
  5
5C2
331
601
  5
601
331
638
  5
638
331
7E4
  5
7E4
331
735
  5
735
331
6EE
  5
6EE
331
5CA
  5
5CA
331
593
  5
593
331
76E
  5
76E
331
7AD
  5
7AD
331
823
  5
823
331
85A
  5
85A
331
8A1
  5
8A1
331
6BC8
  5
6BC8
331
63C5
  5
5F8F
331
6C07
  5
6C07
331
862
  5
862
331
7EC
  5
7EC
331
73D
  5
73D
331
6F6
  5
6F6
331
611
  5
611
331
59B
  5
59B
331
1DC
  5
1DC
331
5D2
  5
5D2
331
650
  5
650
331
6BF
  5
6BF
331
776
  5
776
331
7B5
  5
7B5
331
82B
  5
82B
331
6BD0
  5
6BD0
331
63CD
  5
5F97
331
6C0F
  5
6C0F
331
941
  5
941
331
35EF
  5
35EF
331
833
  5
833
331
7BD
  5
7BD
331
7F4
  5
7F4
331
86A
  5
86A
331
619
  5
619
331
5A3
  5
5A3
331
5DA
  5
5DA
331
658
  5
658
331
6FE
  5
6FE
331
77E
  5
77E
331
745
  5
745
331
6C17
  5
6C17
331
83B
  5
83B
331
7C5
  5
7C5
331
7FC
  5
7FC
331
872
  5
872
331
6CF
  5
6CF
331
786
  5
786
331
74D
  5
74D
331
6C30
  5
6C30
331
3A7F
  5
3A7F
331
5653
  5
5653
331
5F38
  5
5F4A
331
5C7B
  5
5C7B
331
5F48
  5
5F80
331
4EA4
  5
4EA4
331
6BD8
  5
6BD8
331
63D5
  5
5F9F
331
621
  5
621
331
145
  5
145
331
5AB
  5
5AB
331
5E2
  5
5E2
331
660
  5
660
331
6BA9
  5
6BA9
331
6BE0
  5
6BE0
331
63DD
  5
5FC6
331
6C1F
  5
6C1F
331
843
  5
843
331
7CD
  5
7CD
331
804
  5
804
331
87A
  5
87A
331
6D7
  5
6D7
331
70E
  5
70E
331
14D
  5
14D
331
5B3
  5
5B3
331
629
  5
629
331
668
  5
668
331
78E
  5
78E
331
755
  5
755
331
6BB1
  5
6BB1
331
63E5
  5
63E5
331
6BE8
  5
6BE8
331
6C27
  5
6C27
331
35C0
  5
35C0
331
84B
  5
84B
331
882
  5
882
331
7D5
  5
7D5
331
80C
  5
80C
331
3A87
  5
3A87
331
631
  5
631
331
5BB
  5
5BB
331
5F2
  5
5F2
331
796
  5
796
331
75D
  5
75D
331
6BF0
  5
6BF0
331
60C6
  5
63E0
331
6C2F
  5
6C2F
331
1B61
  5
1B61
331
35C8
  5
35C8
331
853
  5
853
331
7DD
  5
7DD
331
814
  5
814
331
88A
  5
88A
331
6E7
  5
6E7
331
5FA
  5
5FA
331
678
  5
678
331
726
  5
726
331
79E
  5
79E
331
765
  5
765
331
3A8F
  5
3A8F
331
72E
  5
72E
331
7A6
  5
7A6
331
81C
  5
81C
331
892
  5
892
331
35D0
  5
35D0
331
4365
  5
4365
331
5C83
  5
5C83
331
436D
  5
436D
331
3B8E
  5
3B8E
331
5C8B
  5
5C8B
331
5FC8
  5
5F19
331
5FE0
  5
63D8
331
5C9B
  5
5C9B
331
6BF8
  5
6BF8
331
6BB9
  5
6BB9
331
639
  5
639
331
5C3
  5
5C3
331
680
  5
680
331
6BC1
  5
6BC1
331
63BE
  5
5F88
331
6C00
  5
6C00
331
35D8
  5
35D8
331
7E5
  5
7E5
331
736
  5
736
331
5CB
  5
5CB
331
594
  5
594
331
649
  5
649
331
6EF
  5
6EF
331
76F
  5
76F
331
7AE
  5
7AE
331
824
  5
824
331
85B
  5
85B
331
8A2
  5
8A2
331
6A62
  5
6A62
331
63C6
  5
5F90
331
6BC9
  5
6BC9
331
6C08
  5
6C08
331
863
  5
863
331
7ED
  5
7ED
331
73E
  5
73E
331
6F7
  5
6F7
331
612
  5
612
331
59C
  5
59C
331
5D3
  5
5D3
331
651
  5
651
331
777
  5
777
331
7B6
  5
7B6
331
82C
  5
82C
331
63CE
  5
5F98
331
6BD1
  5
6BD1
331
6C10
  5
6C10
331
942
  5
942
331
834
  5
834
331
7BE
  5
7BE
331
7F5
  5
7F5
331
86B
  5
86B
331
35F0
  5
35F0
331
6C8
  5
6C8
331
61A
  5
61A
331
5A4
  5
5A4
331
5DB
  5
5DB
331
659
  5
659
331
6FF
  5
6FF
331
77F
  5
77F
331
746
  5
746
331
83C
  5
83C
331
7C6
  5
7C6
331
7FD
  5
7FD
331
873
  5
873
331
787
  5
787
331
74E
  5
74E
331
6C31
  5
6C31
331
3BA6
  5
3BA6
331
5654
  5
5654
331
5F39
  5
5F4B
331
5C7C
  5
5C7C
331
3B77
  5
3B77
331
5F49
  5
5F81
331
69FB
  5
69FB
331
6BD9
  5
6BD9
331
63D6
  5
5FA0
331
65A5
  5
65A5
331
6C18
  5
6C18
331
6D0
  5
6D0
331
622
  5
622
331
5AC
  5
5AC
331
5E3
  5
5E3
331
661
  5
661
331
6BE1
  5
6BE1
331
6C20
  5
6C20
331
63DE
  5
5FC7
331
60B7
  5
63DF
331
6BAA
  5
6BAA
331
844
  5
844
331
7CE
  5
7CE
331
805
  5
805
331
87B
  5
87B
331
3A80
  5
3A80
331
6D8
  5
6D8
331
62A
  5
62A
331
5B4
  5
5B4
331
5EB
  5
5EB
331
669
  5
669
331
78F
  5
78F
331
756
  5
756
331
6C28
  5
6C28
331
6BB2
  5
6BB2
331
63E6
  5
63E6
331
6BE9
  5
6BE9
331
35C1
  5
35C1
331
84C
  5
84C
331
7D6
  5
7D6
331
80D
  5
80D
331
883
  5
883
331
3A88
  5
3A88
331
797
  5
797
331
75E
  5
75E
331
6E0
  5
6E0
331
5F3
  5
5F3
331
6BF1
  5
6BF1
331
5BC
  5
5BC
331
632
  5
632
331
35C9
  5
35C9
331
3A90
  5
3A90
331
815
  5
815
331
79F
  5
79F
331
727
  5
727
331
766
  5
766
331
7DE
  5
7DE
331
854
  5
854
331
57D
  5
57D
331
5FB
  5
5FB
331
7A7
  5
7A7
331
72F
  5
72F
331
81D
  5
81D
331
893
  5
893
331
35D1
  5
35D1
331
5F0A
  5
5EAA
331
4366
  5
4366
331
5C84
  5
5C84
331
436E
  5
436E
331
3B8F
  5
3B8F
331
5C8C
  5
5C8C
331
5FC9
  5
5F2F
331
5F2A
  5
5ECA
331
6BF9
  5
6BF9
331
6BBA
  5
6BBA
331
6090
  5
63DC
331
768
  5
768
331
6C01
  5
6C01
331
6A43
  5
6A43
331
6BC2
  5
6BC2
331
663D
  5
663D
331
5C4
  5
5C4
331
603
  5
603
331
63A
  5
63A
331
7E6
  5
7E6
331
7AF
  5
7AF
331
770
  5
770
331
6F0
  5
6F0
331
5CC
  5
5CC
331
6C09
  5
6C09
331
63C7
  5
5F91
331
6BCA
  5
6BCA
331
595
  5
595
331
60B
  5
60B
331
737
  5
737
331
825
  5
825
331
85C
  5
85C
331
8A3
  5
8A3
331
35D9
  5
35D9
331
864
  5
864
331
7EE
  5
7EE
331
7B7
  5
7B7
331
778
  5
778
331
6F8
  5
6F8
331
613
  5
613
331
6C11
  5
6C11
331
63CF
  5
5F99
331
6BD2
  5
6BD2
331
59D
  5
59D
331
5D4
  5
5D4
331
652
  5
652
331
73F
  5
73F
331
82D
  5
82D
331
35F1
  5
35F1
331
835
  5
835
331
747
  5
747
331
7BF
  5
7BF
331
780
  5
780
331
6C9
  5
6C9
331
61B
  5
61B
331
5A5
  5
5A5
331
5DC
  5
5DC
331
65A
  5
65A
331
700
  5
700
331
7F6
  5
7F6
331
86C
  5
86C
331
83D
  5
83D
331
74F
  5
74F
331
7C7
  5
7C7
331
7FE
  5
7FE
331
874
  5
874
331
2212
  5
2212
  0
XRECORD
  5
6FC5
102
{ACAD_REACTORS
330
6FC4
102
}
330
6FC4
100
AcDbXrecord
280
     1
 40
2880464.0
  1
\pxql;ヒートポンプ　　\P配管口A　R1／2
  0
XRECORD
  5
6FC8
102
{ACAD_REACTORS
330
6FC7
102
}
330
6FC7
100
AcDbXrecord
280
     1
 40
2880478.0
  1
\pxql;ヒートポンプ　　\P配管口B　R1／2
  0
GROUP
  5
E1
102
{ACAD_REACTORS
330
D
102
}
330
D
100
AcDbGroup
300
六角ナット M10 スタイル１
 70
     1
 71
     1
  0
GROUP
  5
E6
102
{ACAD_REACTORS
330
D
102
}
330
D
100
AcDbGroup
300
六角ナット１種 M10
 70
     1
 71
     1
  0
GROUP
  5
173
102
{ACAD_REACTORS
330
D
102
}
330
D
100
AcDbGroup
300

 70
     1
 71
     1
  0
LAYOUT
  5
36
102
{ACAD_REACTORS
330
34
102
}
330
34
100
AcDbPlotSettings
  1

  2
Docu3050② - 技術開発部 熱利用技術G.pc3
  4
A4
  6

 40
0.0
 41
0.0
 42
0.0156707763671875
 43
0.010650634765625
 44
210.0156707763672
 45
297.0106506347656
 46
0.0000000000000015
 47
0.0000000000000021
 48
0.0
 49
0.0
140
3570.0
141
5049.0
142
1.0
143
17.0
 70
 11940
 72
     1
 73
     0
 74
     4
  7
monochrome.ctb
 75
     0
147
0.0588235294117647
 76
     0
 77
     2
 78
   300
148
0.0
149
0.0
100
AcDbLayout
  1
Model
 70
     1
 71
     0
 10
0.0
 20
0.0
 11
12.0
 21
9.0
 12
0.0
 22
0.0
 32
0.0
 14
0.0
 24
0.0
 34
0.0
 15
0.0
 25
0.0
 35
0.0
146
0.0
 13
0.0
 23
0.0
 33
0.0
 16
1.0
 26
0.0
 36
0.0
 17
0.0
 27
1.0
 37
0.0
 76
     0
330
17
331
5C9C
1001
ACAD_PSEXT
1000
Docu3050② - 技術開発部 熱利用技術G.pc3
1000
FX DocuPrint 3050
1000
192.168.3.90
1000

1070
     0
  0
LAYOUT
  5
37
102
{ACAD_REACTORS
330
34
102
}
330
34
100
AcDbPlotSettings
  1

  2
EPSON LP-8300C
  4

  6

 40
0.0
 41
0.0
 42
0.0
 43
0.0
 44
0.0
 45
0.0
 46
0.0
 47
0.0
 48
0.0
 49
0.0
140
0.0
141
0.0
142
1.0
143
1.0
 70
   688
 72
     0
 73
     0
 74
     5
  7
monochrome.ctb
 75
    16
147
1.0
 76
     0
 77
     2
 78
   300
148
0.0
149
0.0
100
AcDbLayout
  1
ﾚｲｱｳﾄ1
 70
     0
 71
     1
 10
0.0
 20
0.0
 11
12.0
 21
9.0
 12
0.0
 22
0.0
 32
0.0
 14
1.000000000000000E+20
 24
1.000000000000000E+20
 34
1.000000000000000E+20
 15
-1.000000000000000E+20
 25
-1.000000000000000E+20
 35
-1.000000000000000E+20
146
0.0
 13
0.0
 23
0.0
 33
0.0
 16
1.0
 26
0.0
 36
0.0
 17
0.0
 27
1.0
 37
0.0
 76
     0
330
14
  0
MATERIAL
  5
5CA7
102
{ACAD_XDICTIONARY
360
5CA8
102
}
102
{ACAD_REACTORS
330
5C9E
102
}
330
5C9E
100
AcDbMaterial
  1
ByBlock
 72
     0
 43
0.0208333333333333
 43
0.0
 43
0.0
 43
0.0
 43
0.0
 43
0.0208333333333333
 43
0.0
 43
0.0
 43
0.0
 43
0.0
 43
1.0
 43
0.0
 43
0.0
 43
0.0
 43
0.0
 43
1.0
 77
     0
 47
0.0208333333333333
 47
0.0
 47
0.0
 47
0.0
 47
0.0
 47
0.0208333333333333
 47
0.0
 47
0.0
 47
0.0
 47
0.0
 47
1.0
 47
0.0
 47
0.0
 47
0.0
 47
0.0
 47
1.0
171
     0
 49
0.0208333333333333
 49
0.0
 49
0.0
 49
0.0
 49
0.0
 49
0.0208333333333333
 49
0.0
 49
0.0
 49
0.0
 49
0.0
 49
1.0
 49
0.0
 49
0.0
 49
0.0
 49
0.0
 49
1.0
175
     0
142
0.0208333333333333
142
0.0
142
0.0
142
0.0
142
0.0
142
0.0208333333333333
142
0.0
142
0.0
142
0.0
142
0.0
142
1.0
142
0.0
142
0.0
142
0.0
142
0.0
142
1.0
179
     0
144
0.0208333333333333
144
0.0
144
0.0
144
0.0
144
0.0
144
0.0208333333333333
144
0.0
144
0.0
144
0.0
144
0.0
144
1.0
144
0.0
144
0.0
144
0.0
144
0.0
144
1.0
147
0.0208333333333333
147
0.0
147
0.0
147
0.0
147
0.0
147
0.0208333333333333
147
0.0
147
0.0
147
0.0
147
0.0
147
1.0
147
0.0
147
0.0
147
0.0
147
0.0
147
1.0
  0
MATERIAL
  5
5C9F
102
{ACAD_XDICTIONARY
360
5CA0
102
}
102
{ACAD_REACTORS
330
5C9E
102
}
330
5C9E
100
AcDbMaterial
  1
ByLayer
 72
     0
 43
0.0208333333333333
 43
0.0
 43
0.0
 43
0.0
 43
0.0
 43
0.0208333333333333
 43
0.0
 43
0.0
 43
0.0
 43
0.0
 43
1.0
 43
0.0
 43
0.0
 43
0.0
 43
0.0
 43
1.0
 77
     0
 47
0.0208333333333333
 47
0.0
 47
0.0
 47
0.0
 47
0.0
 47
0.0208333333333333
 47
0.0
 47
0.0
 47
0.0
 47
0.0
 47
1.0
 47
0.0
 47
0.0
 47
0.0
 47
0.0
 47
1.0
171
     0
 49
0.0208333333333333
 49
0.0
 49
0.0
 49
0.0
 49
0.0
 49
0.0208333333333333
 49
0.0
 49
0.0
 49
0.0
 49
0.0
 49
1.0
 49
0.0
 49
0.0
 49
0.0
 49
0.0
 49
1.0
175
     0
142
0.0208333333333333
142
0.0
142
0.0
142
0.0
142
0.0
142
0.0208333333333333
142
0.0
142
0.0
142
0.0
142
0.0
142
1.0
142
0.0
142
0.0
142
0.0
142
0.0
142
1.0
179
     0
144
0.0208333333333333
144
0.0
144
0.0
144
0.0
144
0.0
144
0.0208333333333333
144
0.0
144
0.0
144
0.0
144
0.0
144
1.0
144
0.0
144
0.0
144
0.0
144
0.0
144
1.0
147
0.0208333333333333
147
0.0
147
0.0
147
0.0
147
0.0
147
0.0208333333333333
147
0.0
147
0.0
147
0.0
147
0.0
147
1.0
147
0.0
147
0.0
147
0.0
147
0.0
147
1.0
  0
MATERIAL
  5
5CAF
102
{ACAD_XDICTIONARY
360
5CB0
102
}
102
{ACAD_REACTORS
330
5C9E
102
}
330
5C9E
100
AcDbMaterial
  1
Global
 72
     0
 43
0.0208333333333333
 43
0.0
 43
0.0
 43
0.0
 43
0.0
 43
0.0208333333333333
 43
0.0
 43
0.0
 43
0.0
 43
0.0
 43
1.0
 43
0.0
 43
0.0
 43
0.0
 43
0.0
 43
1.0
 77
     0
 47
0.0208333333333333
 47
0.0
 47
0.0
 47
0.0
 47
0.0
 47
0.0208333333333333
 47
0.0
 47
0.0
 47
0.0
 47
0.0
 47
1.0
 47
0.0
 47
0.0
 47
0.0
 47
0.0
 47
1.0
171
     0
 49
0.0208333333333333
 49
0.0
 49
0.0
 49
0.0
 49
0.0
 49
0.0208333333333333
 49
0.0
 49
0.0
 49
0.0
 49
0.0
 49
1.0
 49
0.0
 49
0.0
 49
0.0
 49
0.0
 49
1.0
175
     0
142
0.0208333333333333
142
0.0
142
0.0
142
0.0
142
0.0
142
0.0208333333333333
142
0.0
142
0.0
142
0.0
142
0.0
142
1.0
142
0.0
142
0.0
142
0.0
142
0.0
142
1.0
179
     0
144
0.0208333333333333
144
0.0
144
0.0
144
0.0
144
0.0
144
0.0208333333333333
144
0.0
144
0.0
144
0.0
144
0.0
144
1.0
144
0.0
144
0.0
144
0.0
144
0.0
144
1.0
147
0.0208333333333333
147
0.0
147
0.0
147
0.0
147
0.0
147
0.0208333333333333
147
0.0
147
0.0
147
0.0
147
0.0
147
1.0
147
0.0
147
0.0
147
0.0
147
0.0
147
1.0
  0
MLEADERSTYLE
  5
5CEE
102
{ACAD_REACTORS
330
5CED
102
}
330
5CED
100
AcDbMLeaderStyle
170
     2
171
     1
172
     0
 90
        2
 40
0.0
 41
0.0
173
     1
 91
-1056964608
340
11
 92
       -2
290
     1
 42
2.0
291
     1
 43
0.36
  3
Standard
 44
4.0
300

342
F
174
     1
178
     6
175
     1
176
     0
 93
-1056964608
 45
4.0
292
     0
297
     0
 46
4.0
 94
-1056964608
 47
1.0
 49
1.0
140
1.0
293
     1
141
0.0
294
     1
177
     0
142
1.0
295
     1
296
     0
143
0.125
1001
ACAD_MLEADERVER
1070
     2
  0
MLINESTYLE
  5
1B
102
{ACAD_REACTORS
330
1A
102
}
330
1A
100
AcDbMlineStyle
  2
STANDARD
 70
     0
  3

 62
   256
 51
90.0
 52
90.0
 71
     2
 49
0.5
 62
   256
  6
BYLAYER
 49
-0.5
 62
   256
  6
BYLAYER
  0
ACDBPLACEHOLDER
  5
33
102
{ACAD_REACTORS
330
32
102
}
330
32
  0
SCALE
  5
5CCC
102
{ACAD_REACTORS
330
5CCB
102
}
330
5CCB
100
AcDbScale
 70
     0
300
1:1
140
1.0
141
1.0
290
     1
  0
SCALE
  5
5CCD
102
{ACAD_REACTORS
330
5CCB
102
}
330
5CCB
100
AcDbScale
 70
     0
300
1:2
140
1.0
141
2.0
290
     0
  0
SCALE
  5
5CCE
102
{ACAD_REACTORS
330
5CCB
102
}
330
5CCB
100
AcDbScale
 70
     0
300
1:4
140
1.0
141
4.0
290
     0
  0
SCALE
  5
5CCF
102
{ACAD_REACTORS
330
5CCB
102
}
330
5CCB
100
AcDbScale
 70
     0
300
1:5
140
1.0
141
5.0
290
     0
  0
SCALE
  5
5CD0
102
{ACAD_REACTORS
330
5CCB
102
}
330
5CCB
100
AcDbScale
 70
     0
300
1:8
140
1.0
141
8.0
290
     0
  0
SCALE
  5
5CD1
102
{ACAD_REACTORS
330
5CCB
102
}
330
5CCB
100
AcDbScale
 70
     0
300
1:10
140
1.0
141
10.0
290
     0
  0
SCALE
  5
5CD2
102
{ACAD_REACTORS
330
5CCB
102
}
330
5CCB
100
AcDbScale
 70
     0
300
1:16
140
1.0
141
16.0
290
     0
  0
SCALE
  5
5CD3
102
{ACAD_REACTORS
330
5CCB
102
}
330
5CCB
100
AcDbScale
 70
     0
300
1:20
140
1.0
141
20.0
290
     0
  0
SCALE
  5
5CD4
102
{ACAD_REACTORS
330
5CCB
102
}
330
5CCB
100
AcDbScale
 70
     0
300
1:30
140
1.0
141
30.0
290
     0
  0
SCALE
  5
5CD5
102
{ACAD_REACTORS
330
5CCB
102
}
330
5CCB
100
AcDbScale
 70
     0
300
1:40
140
1.0
141
40.0
290
     0
  0
SCALE
  5
5CD6
102
{ACAD_REACTORS
330
5CCB
102
}
330
5CCB
100
AcDbScale
 70
     0
300
1:50
140
1.0
141
50.0
290
     0
  0
SCALE
  5
5CD7
102
{ACAD_REACTORS
330
5CCB
102
}
330
5CCB
100
AcDbScale
 70
     0
300
1:100
140
1.0
141
100.0
290
     0
  0
SCALE
  5
5CD8
102
{ACAD_REACTORS
330
5CCB
102
}
330
5CCB
100
AcDbScale
 70
     0
300
2:1
140
2.0
141
1.0
290
     0
  0
SCALE
  5
5CD9
102
{ACAD_REACTORS
330
5CCB
102
}
330
5CCB
100
AcDbScale
 70
     0
300
4:1
140
4.0
141
1.0
290
     0
  0
SCALE
  5
5CDA
102
{ACAD_REACTORS
330
5CCB
102
}
330
5CCB
100
AcDbScale
 70
     0
300
8:1
140
8.0
141
1.0
290
     0
  0
SCALE
  5
5CDB
102
{ACAD_REACTORS
330
5CCB
102
}
330
5CCB
100
AcDbScale
 70
     0
300
10:1
140
10.0
141
1.0
290
     0
  0
SCALE
  5
5CDC
102
{ACAD_REACTORS
330
5CCB
102
}
330
5CCB
100
AcDbScale
 70
     0
300
100:1
140
100.0
141
1.0
290
     0
  0
SCALE
  5
5CDD
102
{ACAD_REACTORS
330
5CCB
102
}
330
5CCB
100
AcDbScale
 70
     0
300
1/128" = 1'-0"
140
0.0078125
141
12.0
290
     0
  0
SCALE
  5
5CDE
102
{ACAD_REACTORS
330
5CCB
102
}
330
5CCB
100
AcDbScale
 70
     0
300
1/64" = 1'-0"
140
0.015625
141
12.0
290
     0
  0
SCALE
  5
5CDF
102
{ACAD_REACTORS
330
5CCB
102
}
330
5CCB
100
AcDbScale
 70
     0
300
1/32" = 1'-0"
140
0.03125
141
12.0
290
     0
  0
SCALE
  5
5CE0
102
{ACAD_REACTORS
330
5CCB
102
}
330
5CCB
100
AcDbScale
 70
     0
300
1/16" = 1'-0"
140
0.0625
141
12.0
290
     0
  0
SCALE
  5
5CE1
102
{ACAD_REACTORS
330
5CCB
102
}
330
5CCB
100
AcDbScale
 70
     0
300
3/32" = 1'-0"
140
0.09375
141
12.0
290
     0
  0
SCALE
  5
5CE2
102
{ACAD_REACTORS
330
5CCB
102
}
330
5CCB
100
AcDbScale
 70
     0
300
1/8" = 1'-0"
140
0.125
141
12.0
290
     0
  0
SCALE
  5
5CE3
102
{ACAD_REACTORS
330
5CCB
102
}
330
5CCB
100
AcDbScale
 70
     0
300
3/16" = 1'-0"
140
0.1875
141
12.0
290
     0
  0
SCALE
  5
5CE4
102
{ACAD_REACTORS
330
5CCB
102
}
330
5CCB
100
AcDbScale
 70
     0
300
1/4" = 1'-0"
140
0.25
141
12.0
290
     0
  0
SCALE
  5
5CE5
102
{ACAD_REACTORS
330
5CCB
102
}
330
5CCB
100
AcDbScale
 70
     0
300
3/8" = 1'-0"
140
0.375
141
12.0
290
     0
  0
SCALE
  5
5CE6
102
{ACAD_REACTORS
330
5CCB
102
}
330
5CCB
100
AcDbScale
 70
     0
300
1/2" = 1'-0"
140
0.5
141
12.0
290
     0
  0
SCALE
  5
5CE7
102
{ACAD_REACTORS
330
5CCB
102
}
330
5CCB
100
AcDbScale
 70
     0
300
3/4" = 1'-0"
140
0.75
141
12.0
290
     0
  0
SCALE
  5
5CE8
102
{ACAD_REACTORS
330
5CCB
102
}
330
5CCB
100
AcDbScale
 70
     0
300
1" = 1'-0"
140
1.0
141
12.0
290
     0
  0
SCALE
  5
5CE9
102
{ACAD_REACTORS
330
5CCB
102
}
330
5CCB
100
AcDbScale
 70
     0
300
1-1/2" = 1'-0"
140
1.5
141
12.0
290
     0
  0
SCALE
  5
5CEA
102
{ACAD_REACTORS
330
5CCB
102
}
330
5CCB
100
AcDbScale
 70
     0
300
3" = 1'-0"
140
3.0
141
12.0
290
     0
  0
SCALE
  5
5CEB
102
{ACAD_REACTORS
330
5CCB
102
}
330
5CCB
100
AcDbScale
 70
     0
300
6" = 1'-0"
140
6.0
141
12.0
290
     0
  0
SCALE
  5
5CEC
102
{ACAD_REACTORS
330
5CCB
102
}
330
5CCB
100
AcDbScale
 70
     0
300
1'-0" = 1'-0"
140
12.0
141
12.0
290
     0
  0
TABLESTYLE
  5
5CCA
102
{ACAD_XDICTIONARY
360
69B2
102
}
102
{ACAD_REACTORS
330
5CC9
102
}
330
5CC9
100
AcDbTableStyle
  3
Standard
 70
     0
 71
     0
 40
1.5
 41
1.5
280
     0
281
     0
  7
STANDARD
140
4.5
170
     2
 62
     0
 63
     7
283
     0
 90
      512
 91
        0
  1

274
    -2
284
     1
 64
     0
275
    -2
285
     1
 65
     0
276
    -2
286
     1
 66
     0
277
    -2
287
     1
 67
     0
278
    -2
288
     1
 68
     0
279
    -2
289
     1
 69
     0
  7
STANDARD
140
6.0
170
     5
 62
     0
 63
     7
283
     0
 90
      512
 91
        0
  1

274
    -2
284
     1
 64
     0
275
    -2
285
     1
 65
     0
276
    -2
286
     1
 66
     0
277
    -2
287
     1
 67
     0
278
    -2
288
     1
 68
     0
279
    -2
289
     1
 69
     0
  7
STANDARD
140
4.5
170
     5
 62
     0
 63
     7
283
     0
 90
      512
 91
        0
  1

274
    -2
284
     1
 64
     0
275
    -2
285
     1
 65
     0
276
    -2
286
     1
 66
     0
277
    -2
287
     1
 67
     0
278
    -2
288
     1
 68
     0
279
    -2
289
     1
 69
     0
  0
VISUALSTYLE
  5
5CBD
102
{ACAD_REACTORS
330
5CB7
102
}
330
5CB7
100
AcDbVisualStyle
  2
2dWireframe
 70
     4
 71
     0
 72
     2
 73
     0
 90
        0
 40
-0.6
 41
-30.0
 62
     5
 63
     7
421
 16777215
 74
     1
 91
        4
 64
     7
 65
   257
 75
     1
175
     1
 42
1.0
 92
        0
 66
   257
 43
1.0
 76
     1
 77
     6
 78
     2
 67
     7
 79
     5
170
     0
171
     0
290
     0
174
     0
 93
        1
 44
0.0
173
     0
291
     0
 45
0.0
  0
VISUALSTYLE
  5
5CBF
102
{ACAD_REACTORS
330
5CB7
102
}
330
5CB7
100
AcDbVisualStyle
  2
3D Hidden
 70
     6
 71
     1
 72
     2
 73
     2
 90
        0
 40
-0.6
 41
-30.0
 62
     5
 63
     7
421
 16777215
 74
     2
 91
        2
 64
     7
 65
   257
 75
     2
175
     1
 42
40.0
 92
        0
 66
   257
 43
1.0
 76
     1
 77
     6
 78
     2
 67
     7
 79
     3
170
     0
171
     0
290
     0
174
     0
 93
        1
 44
0.0
173
     0
291
     0
 45
0.0
  0
VISUALSTYLE
  5
5CBE
102
{ACAD_REACTORS
330
5CB7
102
}
330
5CB7
100
AcDbVisualStyle
  2
3dWireframe
 70
     5
 71
     0
 72
     2
 73
     0
 90
        0
 40
-0.6
 41
-30.0
 62
     5
 63
     7
421
 16777215
 74
     1
 91
        4
 64
     7
 65
   257
 75
     1
175
     1
 42
1.0
 92
        0
 66
   257
 43
1.0
 76
     1
 77
     6
 78
     2
 67
     7
 79
     5
170
     0
171
     0
290
     0
174
     0
 93
        1
 44
0.0
173
     0
291
     0
 45
0.0
  0
VISUALSTYLE
  5
5CBC
102
{ACAD_REACTORS
330
5CB7
102
}
330
5CB7
100
AcDbVisualStyle
  2
Basic
 70
     7
 71
     1
 72
     0
 73
     1
 90
        0
 40
-0.6
 41
-30.0
 62
     5
 63
     7
421
 16777215
 74
     0
 91
        4
 64
     7
 65
   257
 75
     1
175
     1
 42
1.0
 92
        8
 66
     7
 43
1.0
 76
     1
 77
     6
 78
     2
 67
     7
 79
     5
170
     0
171
     0
290
     0
174
     0
 93
        1
 44
0.0
173
     0
291
     1
 45
0.0
  0
VISUALSTYLE
  5
5CC3
102
{ACAD_REACTORS
330
5CB7
102
}
330
5CB7
100
AcDbVisualStyle
  2
Brighten
 70
    12
 71
     2
 72
     2
 73
     0
 90
        0
 40
-0.6
 41
-30.0
 62
     5
 63
     7
421
 16777215
 74
     1
 91
        4
 64
     7
 65
   257
 75
     1
175
     1
 42
1.0
 92
        8
 66
     7
 43
1.0
 76
     1
 77
     6
 78
     2
 67
     7
 79
     5
170
     0
171
     0
290
     0
174
     0
 93
        1
 44
50.0
173
     0
291
     1
 45
0.0
  0
VISUALSTYLE
  5
5CC7
102
{ACAD_REACTORS
330
5CB7
102
}
330
5CB7
100
AcDbVisualStyle
  2
ColorChange
 70
    16
 71
     2
 72
     2
 73
     3
 90
        0
 40
-0.6
 41
-30.0
 62
     5
 63
     8
421
  8421504
 74
     1
 91
        4
 64
     7
 65
   257
 75
     1
175
     1
 42
1.0
 92
        8
 66
     8
424
  8421504
 43
1.0
 76
     1
 77
     6
 78
     2
 67
     7
 79
     5
170
     0
171
     0
290
     0
174
     0
 93
        1
 44
0.0
173
     0
291
     1
 45
0.0
  0
VISUALSTYLE
  5
5CC0
102
{ACAD_REACTORS
330
5CB7
102
}
330
5CB7
100
AcDbVisualStyle
  2
Conceptual
 70
     9
 71
     3
 72
     2
 73
     0
 90
        0
 40
-0.6
 41
-30.0
 62
     5
 63
     7
421
 16777215
 74
     2
 91
        2
 64
     7
 65
   257
 75
     1
175
     1
 42
40.0
 92
        8
 66
     7
 43
1.0
 76
     1
 77
     6
 78
     2
 67
     7
 79
     3
170
     0
171
     0
290
     0
174
     0
 93
        1
 44
0.0
173
     0
291
     0
 45
0.0
  0
VISUALSTYLE
  5
5CC2
102
{ACAD_REACTORS
330
5CB7
102
}
330
5CB7
100
AcDbVisualStyle
  2
Dim
 70
    11
 71
     2
 72
     2
 73
     0
 90
        0
 40
-0.6
 41
-30.0
 62
     5
 63
     7
421
 16777215
 74
     1
 91
        4
 64
     7
 65
   257
 75
     1
175
     1
 42
1.0
 92
        8
 66
     7
 43
1.0
 76
     1
 77
     6
 78
     2
 67
     7
 79
     5
170
     0
171
     0
290
     0
174
     0
 93
        1
 44
-50.0
173
     0
291
     1
 45
0.0
  0
VISUALSTYLE
  5
5CC6
102
{ACAD_REACTORS
330
5CB7
102
}
330
5CB7
100
AcDbVisualStyle
  2
Facepattern
 70
    15
 71
     2
 72
     2
 73
     0
 90
        0
 40
-0.6
 41
-30.0
 62
     5
 63
     7
421
 16777215
 74
     1
 91
        4
 64
     7
 65
   257
 75
     1
175
     1
 42
1.0
 92
        8
 66
     7
 43
1.0
 76
     1
 77
     6
 78
     2
 67
     7
 79
     5
170
     0
171
     0
290
     0
174
     0
 93
        1
 44
0.0
173
     0
291
     1
 45
0.0
  0
VISUALSTYLE
  5
5CB8
102
{ACAD_REACTORS
330
5CB7
102
}
330
5CB7
100
AcDbVisualStyle
  2
Flat
 70
     0
 71
     2
 72
     1
 73
     1
 90
        2
 40
-0.6
 41
30.0
 62
     5
 63
     7
421
 16777215
 74
     0
 91
        4
 64
     7
 65
   257
 75
     1
175
     1
 42
1.0
 92
        8
 66
     7
 43
1.0
 76
     1
 77
     6
 78
     2
 67
     7
 79
     5
170
     0
171
     0
290
     0
174
     0
 93
       13
 44
0.0
173
     0
291
     1
 45
0.0
  0
VISUALSTYLE
  5
5CB9
102
{ACAD_REACTORS
330
5CB7
102
}
330
5CB7
100
AcDbVisualStyle
  2
FlatWithEdges
 70
     1
 71
     2
 72
     1
 73
     1
 90
        2
 40
-0.6
 41
30.0
 62
     5
 63
     7
421
 16777215
 74
     1
 91
        4
 64
     7
 65
   257
 75
     1
175
     1
 42
1.0
 92
        0
 66
   257
 43
1.0
 76
     1
 77
     6
 78
     2
 67
     7
 79
     5
170
     0
171
     0
290
     0
174
     0
 93
       13
 44
0.0
173
     0
291
     1
 45
0.0
  0
VISUALSTYLE
  5
5CBA
102
{ACAD_REACTORS
330
5CB7
102
}
330
5CB7
100
AcDbVisualStyle
  2
Gouraud
 70
     2
 71
     2
 72
     2
 73
     1
 90
        2
 40
-0.6
 41
30.0
 62
     5
 63
     7
421
 16777215
 74
     0
 91
        4
 64
     7
 65
   257
 75
     1
175
     1
 42
1.0
 92
        0
 66
     7
 43
1.0
 76
     1
 77
     6
 78
     2
 67
     7
 79
     5
170
     0
171
     0
290
     0
174
     0
 93
       13
 44
0.0
173
     0
291
     1
 45
0.0
  0
VISUALSTYLE
  5
5CBB
102
{ACAD_REACTORS
330
5CB7
102
}
330
5CB7
100
AcDbVisualStyle
  2
GouraudWithEdges
 70
     3
 71
     2
 72
     2
 73
     1
 90
        2
 40
-0.6
 41
30.0
 62
     5
 63
     7
421
 16777215
 74
     1
 91
        4
 64
     7
 65
   257
 75
     1
175
     1
 42
1.0
 92
        0
 66
   257
 43
1.0
 76
     1
 77
     6
 78
     2
 67
     7
 79
     5
170
     0
171
     0
290
     0
174
     0
 93
       13
 44
0.0
173
     0
291
     1
 45
0.0
  0
VISUALSTYLE
  5
5CC5
102
{ACAD_REACTORS
330
5CB7
102
}
330
5CB7
100
AcDbVisualStyle
  2
Linepattern
 70
    14
 71
     2
 72
     2
 73
     0
 90
        0
 40
-0.6
 41
-30.0
 62
     5
 63
     7
421
 16777215
 74
     1
 91
        4
 64
     7
 65
   257
 75
     7
175
     7
 42
1.0
 92
        8
 66
     7
 43
1.0
 76
     1
 77
     6
 78
     2
 67
     7
 79
     5
170
     0
171
     0
290
     0
174
     0
 93
        1
 44
0.0
173
     0
291
     1
 45
0.0
  0
VISUALSTYLE
  5
5CC1
102
{ACAD_REACTORS
330
5CB7
102
}
330
5CB7
100
AcDbVisualStyle
  2
Realistic
 70
     8
 71
     2
 72
     2
 73
     0
 90
        0
 40
-0.6
 41
-30.0
 62
     5
 63
     7
421
 16777215
 74
     1
 91
        0
 64
     7
 65
   257
 75
     1
175
     1
 42
1.0
 92
        8
 66
     8
424
  7895160
 43
1.0
 76
     1
 77
     6
 78
     2
 67
     7
 79
     5
170
     0
171
     0
290
     0
174
     0
 93
       13
 44
0.0
173
     0
291
     0
 45
0.0
  0
VISUALSTYLE
  5
5CC4
102
{ACAD_REACTORS
330
5CB7
102
}
330
5CB7
100
AcDbVisualStyle
  2
Thicken
 70
    13
 71
     2
 72
     2
 73
     0
 90
        0
 40
-0.6
 41
-30.0
 62
     5
 63
     7
421
 16777215
 74
     1
 91
        4
 64
     7
 65
   257
 75
     1
175
     1
 42
1.0
 92
       12
 66
     7
 43
1.0
 76
     1
 77
     6
 78
     2
 67
     7
 79
     5
170
     0
171
     0
290
     0
174
     0
 93
        1
 44
0.0
173
     0
291
     1
 45
0.0
  0
DICTIONARYVAR
  5
69B8
102
{ACAD_REACTORS
330
44
102
}
330
44
100
DictionaryVariables
280
     0
  1
1:1
  0
DICTIONARYVAR
  5
69B6
102
{ACAD_REACTORS
330
44
102
}
330
44
100
DictionaryVariables
280
     0
  1
STANDARD
  0
DICTIONARYVAR
  5
69B5
102
{ACAD_REACTORS
330
44
102
}
330
44
100
DictionaryVariables
280
     0
  1
STANDARD
  0
DICTIONARYVAR
  5
45
102
{ACAD_REACTORS
330
44
102
}
330
44
100
DictionaryVariables
280
     0
  1
1
  0
DICTIONARYVAR
  5
69B9
102
{ACAD_REACTORS
330
44
102
}
330
44
100
DictionaryVariables
280
     0
  1
0
  0
DICTIONARYVAR
  5
69B7
102
{ACAD_REACTORS
330
44
102
}
330
44
100
DictionaryVariables
280
     0
  1
0
  0
DICTIONARY
  5
5CA8
330
5CA7
100
AcDbDictionary
280
     1
281
     1
  3
BUMPTILE
360
5CAA
  3
DIFFUSETILE
360
5CA9
  3
OPACITYTILE
360
5CAD
  3
REFLECTIONTILE
360
5CAC
  3
REFRACTIONTILE
360
5CAE
  3
SPECULARTILE
360
5CAB
  0
DICTIONARY
  5
5CA0
330
5C9F
100
AcDbDictionary
280
     1
281
     1
  3
BUMPTILE
360
5CA2
  3
DIFFUSETILE
360
5CA1
  3
OPACITYTILE
360
5CA5
  3
REFLECTIONTILE
360
5CA4
  3
REFRACTIONTILE
360
5CA6
  3
SPECULARTILE
360
5CA3
  0
DICTIONARY
  5
5CB0
330
5CAF
100
AcDbDictionary
280
     1
281
     1
  3
BUMPTILE
360
5CB2
  3
DIFFUSETILE
360
5CB1
  3
OPACITYTILE
360
5CB5
  3
REFLECTIONTILE
360
5CB4
  3
REFRACTIONTILE
360
5CB6
  3
SPECULARTILE
360
5CB3
  0
DICTIONARY
  5
69B2
330
5CCA
100
AcDbDictionary
280
     1
281
     1
  3
ACAD_ROUNDTRIP_2008_TABLESTYLE_CELLSTYLEMAP
360
6FC6
  0
XRECORD
  5
5CAA
102
{ACAD_REACTORS
330
5CA8
102
}
330
5CA8
100
AcDbXrecord
280
     1
270
     1
271
     1
  0
XRECORD
  5
5CA9
102
{ACAD_REACTORS
330
5CA8
102
}
330
5CA8
100
AcDbXrecord
280
     1
270
     1
271
     1
  0
XRECORD
  5
5CAD
102
{ACAD_REACTORS
330
5CA8
102
}
330
5CA8
100
AcDbXrecord
280
     1
270
     1
271
     1
  0
XRECORD
  5
5CAC
102
{ACAD_REACTORS
330
5CA8
102
}
330
5CA8
100
AcDbXrecord
280
     1
270
     1
271
     1
  0
XRECORD
  5
5CAE
102
{ACAD_REACTORS
330
5CA8
102
}
330
5CA8
100
AcDbXrecord
280
     1
270
     1
271
     1
  0
XRECORD
  5
5CAB
102
{ACAD_REACTORS
330
5CA8
102
}
330
5CA8
100
AcDbXrecord
280
     1
270
     1
271
     1
  0
XRECORD
  5
5CA2
102
{ACAD_REACTORS
330
5CA0
102
}
330
5CA0
100
AcDbXrecord
280
     1
270
     1
271
     1
  0
XRECORD
  5
5CA1
102
{ACAD_REACTORS
330
5CA0
102
}
330
5CA0
100
AcDbXrecord
280
     1
270
     1
271
     1
  0
XRECORD
  5
5CA5
102
{ACAD_REACTORS
330
5CA0
102
}
330
5CA0
100
AcDbXrecord
280
     1
270
     1
271
     1
  0
XRECORD
  5
5CA4
102
{ACAD_REACTORS
330
5CA0
102
}
330
5CA0
100
AcDbXrecord
280
     1
270
     1
271
     1
  0
XRECORD
  5
5CA6
102
{ACAD_REACTORS
330
5CA0
102
}
330
5CA0
100
AcDbXrecord
280
     1
270
     1
271
     1
  0
XRECORD
  5
5CA3
102
{ACAD_REACTORS
330
5CA0
102
}
330
5CA0
100
AcDbXrecord
280
     1
270
     1
271
     1
  0
XRECORD
  5
5CB2
102
{ACAD_REACTORS
330
5CB0
102
}
330
5CB0
100
AcDbXrecord
280
     1
270
     1
271
     1
  0
XRECORD
  5
5CB1
102
{ACAD_REACTORS
330
5CB0
102
}
330
5CB0
100
AcDbXrecord
280
     1
270
     1
271
     1
  0
XRECORD
  5
5CB5
102
{ACAD_REACTORS
330
5CB0
102
}
330
5CB0
100
AcDbXrecord
280
     1
270
     1
271
     1
  0
XRECORD
  5
5CB4
102
{ACAD_REACTORS
330
5CB0
102
}
330
5CB0
100
AcDbXrecord
280
     1
270
     1
271
     1
  0
XRECORD
  5
5CB6
102
{ACAD_REACTORS
330
5CB0
102
}
330
5CB0
100
AcDbXrecord
280
     1
270
     1
271
     1
  0
XRECORD
  5
5CB3
102
{ACAD_REACTORS
330
5CB0
102
}
330
5CB0
100
AcDbXrecord
280
     1
270
     1
271
     1
  0
CELLSTYLEMAP
  5
6FC6
102
{ACAD_REACTORS
330
69B2
102
}
330
69B2
100
AcDbCellStyleMap
 90
        3
300
CELLSTYLE
  1
TABLEFORMAT_BEGIN
 90
        5
170
     1
 91
        0
 92
    32768
 62
   257
 93
        1
300
CONTENTFORMAT
  1
CONTENTFORMAT_BEGIN
 90
        0
 91
        0
 92
      512
 93
        0
300

 40
0.0
140
1.0
 94
        5
 62
     0
340
F
144
6.0
309
CONTENTFORMAT_END
171
     1
301
MARGIN
  1
CELLMARGIN_BEGIN
 40
1.5
 40
1.5
 40
1.5
 40
1.5
 40
4.5
 40
4.5
309
CELLMARGIN_END
 94
        6
 95
        1
302
GRIDFORMAT
  1
GRIDFORMAT_BEGIN
 90
        0
 91
        1
 62
     0
 92
       -2
340
0
 93
        0
 40
1.125
309
GRIDFORMAT_END
 95
        2
302
GRIDFORMAT
  1
GRIDFORMAT_BEGIN
 90
        0
 91
        1
 62
     0
 92
       -2
340
0
 93
        0
 40
1.125
309
GRIDFORMAT_END
 95
        4
302
GRIDFORMAT
  1
GRIDFORMAT_BEGIN
 90
        0
 91
        1
 62
     0
 92
       -2
340
0
 93
        0
 40
1.125
309
GRIDFORMAT_END
 95
        8
302
GRIDFORMAT
  1
GRIDFORMAT_BEGIN
 90
        0
 91
        1
 62
     0
 92
       -2
340
0
 93
        0
 40
1.125
309
GRIDFORMAT_END
 95
       16
302
GRIDFORMAT
  1
GRIDFORMAT_BEGIN
 90
        0
 91
        1
 62
     0
 92
       -2
340
0
 93
        0
 40
1.125
309
GRIDFORMAT_END
 95
       32
302
GRIDFORMAT
  1
GRIDFORMAT_BEGIN
 90
        0
 91
        1
 62
     0
 92
       -2
340
0
 93
        0
 40
1.125
309
GRIDFORMAT_END
309
TABLEFORMAT_END
  1
CELLSTYLE_BEGIN
 90
        1
 91
        1
300
_TITLE
309
CELLSTYLE_END
300
CELLSTYLE
  1
TABLEFORMAT_BEGIN
 90
        5
170
     1
 91
        0
 92
        0
 62
   257
 93
        1
300
CONTENTFORMAT
  1
CONTENTFORMAT_BEGIN
 90
        0
 91
        0
 92
      512
 93
        0
300

 40
0.0
140
1.0
 94
        5
 62
     0
340
F
144
4.5
309
CONTENTFORMAT_END
171
     1
301
MARGIN
  1
CELLMARGIN_BEGIN
 40
1.5
 40
1.5
 40
1.5
 40
1.5
 40
4.5
 40
4.5
309
CELLMARGIN_END
 94
        6
 95
        1
302
GRIDFORMAT
  1
GRIDFORMAT_BEGIN
 90
        0
 91
        1
 62
     0
 92
       -2
340
0
 93
        0
 40
1.125
309
GRIDFORMAT_END
 95
        2
302
GRIDFORMAT
  1
GRIDFORMAT_BEGIN
 90
        0
 91
        1
 62
     0
 92
       -2
340
0
 93
        0
 40
1.125
309
GRIDFORMAT_END
 95
        4
302
GRIDFORMAT
  1
GRIDFORMAT_BEGIN
 90
        0
 91
        1
 62
     0
 92
       -2
340
0
 93
        0
 40
1.125
309
GRIDFORMAT_END
 95
        8
302
GRIDFORMAT
  1
GRIDFORMAT_BEGIN
 90
        0
 91
        1
 62
     0
 92
       -2
340
0
 93
        0
 40
1.125
309
GRIDFORMAT_END
 95
       16
302
GRIDFORMAT
  1
GRIDFORMAT_BEGIN
 90
        0
 91
        1
 62
     0
 92
       -2
340
0
 93
        0
 40
1.125
309
GRIDFORMAT_END
 95
       32
302
GRIDFORMAT
  1
GRIDFORMAT_BEGIN
 90
        0
 91
        1
 62
     0
 92
       -2
340
0
 93
        0
 40
1.125
309
GRIDFORMAT_END
309
TABLEFORMAT_END
  1
CELLSTYLE_BEGIN
 90
        2
 91
        1
300
_HEADER
309
CELLSTYLE_END
300
CELLSTYLE
  1
TABLEFORMAT_BEGIN
 90
        5
170
     1
 91
        0
 92
        0
 62
   257
 93
        1
300
CONTENTFORMAT
  1
CONTENTFORMAT_BEGIN
 90
        0
 91
        0
 92
      512
 93
        0
300

 40
0.0
140
1.0
 94
        2
 62
     0
340
F
144
4.5
309
CONTENTFORMAT_END
171
     1
301
MARGIN
  1
CELLMARGIN_BEGIN
 40
1.5
 40
1.5
 40
1.5
 40
1.5
 40
4.5
 40
4.5
309
CELLMARGIN_END
 94
        6
 95
        1
302
GRIDFORMAT
  1
GRIDFORMAT_BEGIN
 90
        0
 91
        1
 62
     0
 92
       -2
340
0
 93
        0
 40
1.125
309
GRIDFORMAT_END
 95
        2
302
GRIDFORMAT
  1
GRIDFORMAT_BEGIN
 90
        0
 91
        1
 62
     0
 92
       -2
340
0
 93
        0
 40
1.125
309
GRIDFORMAT_END
 95
        4
302
GRIDFORMAT
  1
GRIDFORMAT_BEGIN
 90
        0
 91
        1
 62
     0
 92
       -2
340
0
 93
        0
 40
1.125
309
GRIDFORMAT_END
 95
        8
302
GRIDFORMAT
  1
GRIDFORMAT_BEGIN
 90
        0
 91
        1
 62
     0
 92
       -2
340
0
 93
        0
 40
1.125
309
GRIDFORMAT_END
 95
       16
302
GRIDFORMAT
  1
GRIDFORMAT_BEGIN
 90
        0
 91
        1
 62
     0
 92
       -2
340
0
 93
        0
 40
1.125
309
GRIDFORMAT_END
 95
       32
302
GRIDFORMAT
  1
GRIDFORMAT_BEGIN
 90
        0
 91
        1
 62
     0
 92
       -2
340
0
 93
        0
 40
1.125
309
GRIDFORMAT_END
309
TABLEFORMAT_END
  1
CELLSTYLE_BEGIN
 90
        3
 91
        2
300
_DATA
309
CELLSTYLE_END
  0
ENDSEC
  0
EOF
