  0
SECTION
  2
HEADER
  9
$ACADVER
  1
AC1021
  9
$ACADMAINTVER
 70
    26
  9
$DWGCODEPAGE
  3
ANSI_932
  9
$LASTSAVEDBY
  1
yoshino
  9
$INSBASE
 10
0.0
 20
0.0
 30
0.0
  9
$EXTMIN
 10
-0.1089394419789227
 20
-0.1540714965132919
 30
-0.0015258207003612
  9
$EXTMAX
 10
3570.108956066087
 20
5049.154095007751
 30
0.0000000349246008
  9
$LIMMIN
 10
0.0
 20
0.0
  9
$LIMMAX
 10
3570.0
 20
5049.0
  9
$ORTHOMODE
 70
     0
  9
$REGENMODE
 70
     1
  9
$FILLMODE
 70
     1
  9
$QTEXTMODE
 70
     0
  9
$MIRRTEXT
 70
     0
  9
$LTSCALE
 40
17.0
  9
$ATTMODE
 70
     1
  9
$TEXTSIZE
 40
16.0
  9
$TRACEWID
 40
0.05
  9
$TEXTSTYLE
  7
STANDARD
  9
$CLAYER
  8
0
  9
$CELTYPE
  6
BYLAYER
  9
$CECOLOR
 62
   256
  9
$CELTSCALE
 40
1.0
  9
$DISPSILH
 70
     0
  9
$DIMSCALE
 40
17.0
  9
$DIMASZ
 40
3.0
  9
$DIMEXO
 40
2.0
  9
$DIMDLI
 40
6.0
  9
$DIMRND
 40
0.0
  9
$DIMDLE
 40
0.0
  9
$DIMEXE
 40
2.0
  9
$DIMTP
 40
0.0
  9
$DIMTM
 40
0.0
  9
$DIMTXT
 40
3.2
  9
$DIMCEN
 40
0.09
  9
$DIMTSZ
 40
0.0
  9
$DIMTOL
 70
     0
  9
$DIMLIM
 70
     0
  9
$DIMTIH
 70
     0
  9
$DIMTOH
 70
     0
  9
$DIMSE1
 70
     0
  9
$DIMSE2
 70
     0
  9
$DIMTAD
 70
     1
  9
$DIMZIN
 70
     8
  9
$DIMBLK
  1
Open30
  9
$DIMASO
 70
     1
  9
$DIMSHO
 70
     0
  9
$DIMPOST
  1

  9
$DIMAPOST
  1

  9
$DIMALT
 70
     0
  9
$DIMALTD
 70
     2
  9
$DIMALTF
 40
25.4
  9
$DIMLFAC
 40
1.0
  9
$DIMTOFL
 70
     1
  9
$DIMTVP
 40
0.0
  9
$DIMTIX
 70
     0
  9
$DIMSOXD
 70
     0
  9
$DIMSAH
 70
     0
  9
$DIMBLK1
  1

  9
$DIMBLK2
  1

  9
$DIMSTYLE
  2
STANDARD
  9
$DIMCLRD
 70
     0
  9
$DIMCLRE
 70
     0
  9
$DIMCLRT
 70
     0
  9
$DIMTFAC
 40
1.0
  9
$DIMGAP
 40
0.9999999999999996
  9
$DIMJUST
 70
     0
  9
$DIMSD1
 70
     0
  9
$DIMSD2
 70
     0
  9
$DIMTOLJ
 70
     1
  9
$DIMTZIN
 70
     0
  9
$DIMALTZ
 70
     0
  9
$DIMALTTZ
 70
     0
  9
$DIMUPT
 70
     0
  9
$DIMDEC
 70
     2
  9
$DIMTDEC
 70
     2
  9
$DIMALTU
 70
     2
  9
$DIMALTTD
 70
     2
  9
$DIMTXSTY
  7
STANDARD
  9
$DIMAUNIT
 70
     0
  9
$DIMADEC
 70
     4
  9
$DIMALTRND
 40
0.0
  9
$DIMAZIN
 70
     2
  9
$DIMDSEP
 70
    46
  9
$DIMATFIT
 70
     3
  9
$DIMFRAC
 70
     0
  9
$DIMLDRBLK
  1
Open30
  9
$DIMLUNIT
 70
     2
  9
$DIMLWD
 70
    -2
  9
$DIMLWE
 70
    -2
  9
$DIMTMOVE
 70
     0
  9
$DIMFXL
 40
1.0
  9
$DIMFXLON
 70
     0
  9
$DIMJOGANG
 40
0.7853981633974483
  9
$DIMTFILL
 70
     0
  9
$DIMTFILLCLR
 70
     0
  9
$DIMARCSYM
 70
     0
  9
$DIMLTYPE
  6

  9
$DIMLTEX1
  6

  9
$DIMLTEX2
  6

  9
$LUNITS
 70
     2
  9
$LUPREC
 70
     2
  9
$SKETCHINC
 40
0.1
  9
$FILLETRAD
 40
20.0
  9
$AUNITS
 70
     0
  9
$AUPREC
 70
     2
  9
$MENU
  1
dash
  9
$ELEVATION
 40
0.0
  9
$PELEVATION
 40
0.0
  9
$THICKNESS
 40
0.0
  9
$LIMCHECK
 70
     0
  9
$CHAMFERA
 40
0.0
  9
$CHAMFERB
 40
0.0
  9
$CHAMFERC
 40
0.0
  9
$CHAMFERD
 40
0.0
  9
$SKPOLY
 70
     0
  9
$TDCREATE
 40
2453136.600744352
  9
$TDUCREATE
 40
2453136.225744352
  9
$TDUPDATE
 40
2454838.821424687
  9
$TDUUPDATE
 40
2454838.446424687
  9
$TDINDWG
 40
7.0415314699
  9
$TDUSRTIMER
 40
7.0415298264
  9
$USRTIMER
 70
     1
  9
$ANGBASE
 50
0.0
  9
$ANGDIR
 70
     0
  9
$PDMODE
 70
    35
  9
$PDSIZE
 40
1.0
  9
$PLINEWID
 40
0.0
  9
$SPLFRAME
 70
     0
  9
$SPLINETYPE
 70
     6
  9
$SPLINESEGS
 70
     8
  9
$HANDSEED
  5
31FC8
  9
$SURFTAB1
 70
     6
  9
$SURFTAB2
 70
     6
  9
$SURFTYPE
 70
     6
  9
$SURFU
 70
     6
  9
$SURFV
 70
     6
  9
$UCSBASE
  2

  9
$UCSNAME
  2

  9
$UCSORG
 10
0.0
 20
0.0
 30
0.0
  9
$UCSXDIR
 10
1.0
 20
0.0
 30
0.0
  9
$UCSYDIR
 10
0.0
 20
1.0
 30
0.0
  9
$UCSORTHOREF
  2

  9
$UCSORTHOVIEW
 70
     0
  9
$UCSORGTOP
 10
0.0
 20
0.0
 30
0.0
  9
$UCSORGBOTTOM
 10
0.0
 20
0.0
 30
0.0
  9
$UCSORGLEFT
 10
0.0
 20
0.0
 30
0.0
  9
$UCSORGRIGHT
 10
0.0
 20
0.0
 30
0.0
  9
$UCSORGFRONT
 10
0.0
 20
0.0
 30
0.0
  9
$UCSORGBACK
 10
0.0
 20
0.0
 30
0.0
  9
$PUCSBASE
  2

  9
$PUCSNAME
  2

  9
$PUCSORG
 10
0.0
 20
0.0
 30
0.0
  9
$PUCSXDIR
 10
1.0
 20
0.0
 30
0.0
  9
$PUCSYDIR
 10
0.0
 20
1.0
 30
0.0
  9
$PUCSORTHOREF
  2

  9
$PUCSORTHOVIEW
 70
     0
  9
$PUCSORGTOP
 10
0.0
 20
0.0
 30
0.0
  9
$PUCSORGBOTTOM
 10
0.0
 20
0.0
 30
0.0
  9
$PUCSORGLEFT
 10
0.0
 20
0.0
 30
0.0
  9
$PUCSORGRIGHT
 10
0.0
 20
0.0
 30
0.0
  9
$PUCSORGFRONT
 10
0.0
 20
0.0
 30
0.0
  9
$PUCSORGBACK
 10
0.0
 20
0.0
 30
0.0
  9
$USERI1
 70
     0
  9
$USERI2
 70
     0
  9
$USERI3
 70
     0
  9
$USERI4
 70
     0
  9
$USERI5
 70
     0
  9
$USERR1
 40
0.0
  9
$USERR2
 40
3.2
  9
$USERR3
 40
0.0
  9
$USERR4
 40
0.0
  9
$USERR5
 40
0.0
  9
$WORLDVIEW
 70
     1
  9
$SHADEDGE
 70
     3
  9
$SHADEDIF
 70
    70
  9
$TILEMODE
 70
     1
  9
$MAXACTVP
 70
    48
  9
$PINSBASE
 10
0.0
 20
0.0
 30
0.0
  9
$PLIMCHECK
 70
     0
  9
$PEXTMIN
 10
1.000000000000000E+20
 20
1.000000000000000E+20
 30
1.000000000000000E+20
  9
$PEXTMAX
 10
-1.000000000000000E+20
 20
-1.000000000000000E+20
 30
-1.000000000000000E+20
  9
$PLIMMIN
 10
0.0
 20
0.0
  9
$PLIMMAX
 10
12.0
 20
9.0
  9
$UNITMODE
 70
     0
  9
$VISRETAIN
 70
     0
  9
$PLINEGEN
 70
     0
  9
$PSLTSCALE
 70
     0
  9
$TREEDEPTH
 70
  3020
  9
$CMLSTYLE
  2
STANDARD
  9
$CMLJUST
 70
     0
  9
$CMLSCALE
 40
1.0
  9
$PROXYGRAPHICS
 70
     1
  9
$MEASUREMENT
 70
     1
  9
$CELWEIGHT
370
    -1
  9
$ENDCAPS
280
     0
  9
$JOINSTYLE
280
     0
  9
$LWDISPLAY
290
     0
  9
$INSUNITS
 70
     0
  9
$HYPERLINKBASE
  1

  9
$STYLESHEET
  1
MONOCHROME.CTB
  9
$XEDIT
290
     1
  9
$CEPSNTYPE
380
     0
  9
$PSTYLEMODE
290
     1
  9
$FINGERPRINTGUID
  2
{F2A97C53-EF7E-49C1-956A-0F2CE1E6DF2C}
  9
$VERSIONGUID
  2
{1C0BE9AE-3F3C-48F3-BA9F-A17007274CE9}
  9
$EXTNAMES
290
     1
  9
$PSVPSCALE
 40
0.0
  9
$OLESTARTUP
290
     0
  9
$SORTENTS
280
    96
  9
$INDEXCTL
280
     0
  9
$HIDETEXT
280
     0
  9
$XCLIPFRAME
290
     0
  9
$HALOGAP
280
     0
  9
$OBSCOLOR
 70
   257
  9
$OBSLTYPE
280
     0
  9
$INTERSECTIONDISPLAY
280
     0
  9
$INTERSECTIONCOLOR
 70
   257
  9
$DIMASSOC
280
     1
  9
$PROJECTNAME
  1

  9
$CAMERADISPLAY
290
     0
  9
$LENSLENGTH
 40
50.0
  9
$CAMERAHEIGHT
 40
0.0
  9
$STEPSPERSEC
 40
2.0
  9
$STEPSIZE
 40
6.0
  9
$3DDWFPREC
 40
2.0
  9
$PSOLWIDTH
 40
0.25
  9
$PSOLHEIGHT
 40
4.0
  9
$LOFTANG1
 40
1.570796326794895
  9
$LOFTANG2
 40
1.570796326794895
  9
$LOFTMAG1
 40
0.0
  9
$LOFTMAG2
 40
0.0
  9
$LOFTPARAM
 70
     7
  9
$LOFTNORMALS
280
     1
  9
$LATITUDE
 40
37.795
  9
$LONGITUDE
 40
-122.394
  9
$NORTHDIRECTION
 40
0.0
  9
$TIMEZONE
 70
 -8000
  9
$LIGHTGLYPHDISPLAY
280
     1
  9
$TILEMODELIGHTSYNCH
280
     1
  9
$CMATERIAL
347
2EEBC
  9
$SOLIDHIST
280
     1
  9
$SHOWHIST
280
     1
  9
$DWFFRAME
280
     2
  9
$DGNFRAME
280
     0
  9
$REALWORLDSCALE
290
     1
  9
$INTERFERECOLOR
 62
     1
  9
$INTERFEREOBJVS
345
2EEDE
  9
$INTERFEREVPVS
346
2EEDB
  9
$CSHADOW
280
     0
  9
$SHADOWPLANELOCATION
 40
0.0
  0
ENDSEC
  0
SECTION
  2
CLASSES
  0
CLASS
  1
ACDBDICTIONARYWDFLT
  2
AcDbDictionaryWithDefault
  3
ObjectDBX Classes
 90
        0
 91
        1
280
     0
281
     0
  0
CLASS
  1
DICTIONARYVAR
  2
AcDbDictionaryVar
  3
ObjectDBX Classes
 90
        0
 91
        7
280
     0
281
     0
  0
CLASS
  1
MATERIAL
  2
AcDbMaterial
  3
ObjectDBX Classes
 90
     1153
 91
        3
280
     0
281
     0
  0
CLASS
  1
VISUALSTYLE
  2
AcDbVisualStyle
  3
ObjectDBX Classes
 90
     4095
 91
       16
280
     0
281
     0
  0
CLASS
  1
TABLESTYLE
  2
AcDbTableStyle
  3
ObjectDBX Classes
 90
     4095
 91
        1
280
     0
281
     0
  0
CLASS
  1
SCALE
  2
AcDbScale
  3
ObjectDBX Classes
 90
     1153
 91
       33
280
     0
281
     0
  0
CLASS
  1
MLEADERSTYLE
  2
AcDbMLeaderStyle
  3
ACDB_MLEADERSTYLE_CLASS
 90
     4095
 91
        1
280
     0
281
     0
  0
CLASS
  1
CELLSTYLEMAP
  2
AcDbCellStyleMap
  3
ObjectDBX Classes
 90
     1152
 91
        2
280
     0
281
     0
  0
CLASS
  1
SORTENTSTABLE
  2
AcDbSortentsTable
  3
ObjectDBX Classes
 90
        0
 91
        1
280
     0
281
     0
  0
ENDSEC
  0
SECTION
  2
TABLES
  0
TABLE
  2
VPORT
  5
8
330
0
100
AcDbSymbolTable
 70
     1
  0
VPORT
  5
2EEB6
330
8
100
AcDbSymbolTableRecord
100
AcDbViewportTableRecord
  2
*Active
 70
     0
 10
0.0
 20
0.0
 11
1.0
 21
1.0
 12
1785.000008312054
 22
2524.500011755619
 13
0.0
 23
0.0
 14
1.0
 24
1.0
 15
0.0
 25
0.0
 16
0.0
 26
0.0
 36
1.0
 17
0.0
 27
0.0
 37
0.0
 40
5089.066498523983
 41
1.565045992115637
 42
50.0
 43
0.0
 44
0.0
 50
0.0
 51
0.0
 71
     0
 72
  2000
 73
     1
 74
     3
 75
     0
 76
     0
 77
     0
 78
     0
281
     0
 65
     1
110
0.0
120
0.0
130
0.0
111
1.0
121
0.0
131
0.0
112
0.0
122
1.0
132
0.0
 79
     0
146
0.0
348
2EEDA
 60
     3
 61
     5
292
     1
282
     1
141
0.0
142
0.0
 63
   250
421
  3355443
  0
ENDTAB
  0
TABLE
  2
LTYPE
  5
5
330
0
100
AcDbSymbolTable
 70
     3
  0
LTYPE
  5
11
330
5
100
AcDbSymbolTableRecord
100
AcDbLinetypeTableRecord
  2
BYBLOCK
 70
     0
  3

 72
    65
 73
     0
 40
0.0
  0
LTYPE
  5
12
330
5
100
AcDbSymbolTableRecord
100
AcDbLinetypeTableRecord
  2
BYLAYER
 70
     0
  3

 72
    65
 73
     0
 40
0.0
  0
LTYPE
  5
13
330
5
100
AcDbSymbolTableRecord
100
AcDbLinetypeTableRecord
  2
CONTINUOUS
 70
     0
  3
Solid line
 72
    65
 73
     0
 40
0.0
  0
LTYPE
  5
1C
330
5
100
AcDbSymbolTableRecord
100
AcDbLinetypeTableRecord
  2
DASHED
 70
     0
  3
__ __ __ __ __ __ __ __ __ __ __ __ __ __ __
 72
    65
 73
     2
 40
3.0
 49
2.0
 74
     0
 49
-1.0
 74
     0
  0
LTYPE
  5
1D
330
5
100
AcDbSymbolTableRecord
100
AcDbLinetypeTableRecord
  2
CENTER
 70
     0
  3
____ _ ____ _ ____ _ ____ _ ____ _ ____ _ ____
 72
    65
 73
     4
 40
12.0
 49
9.0
 74
     0
 49
-1.0
 74
     0
 49
1.0
 74
     0
 49
-1.0
 74
     0
  0
ENDTAB
  0
TABLE
  2
LAYER
  5
2
102
{ACAD_XDICTIONARY
360
2C31C
102
}
330
0
100
AcDbSymbolTable
 70
     7
  0
LAYER
  5
E
102
{ACAD_XDICTIONARY
360
2EF0E
102
}
330
2
100
AcDbSymbolTableRecord
100
AcDbLayerTableRecord
  2
0
 70
     0
 62
     3
  6
CONTINUOUS
370
    25
390
33
347
2EECC
  0
LAYER
  5
21
102
{ACAD_XDICTIONARY
360
2EF10
102
}
330
2
100
AcDbSymbolTableRecord
100
AcDbLayerTableRecord
  2
CEN
 70
     0
 62
     4
  6
CENTER
370
    18
390
33
347
2EECC
  0
LAYER
  5
22
102
{ACAD_XDICTIONARY
360
2EF12
102
}
330
2
100
AcDbSymbolTableRecord
100
AcDbLayerTableRecord
  2
HID
 70
     0
 62
     2
  6
DASHED
370
    18
390
33
347
2EECC
  0
LAYER
  5
23
102
{ACAD_XDICTIONARY
360
2EF14
102
}
330
2
100
AcDbSymbolTableRecord
100
AcDbLayerTableRecord
  2
DIM
 70
     0
 62
     7
  6
CONTINUOUS
370
    18
390
33
347
2EECC
  0
LAYER
  5
24
102
{ACAD_XDICTIONARY
360
2EF16
102
}
330
2
100
AcDbSymbolTableRecord
100
AcDbLayerTableRecord
  2
WAKU
 70
     0
 62
     3
  6
CONTINUOUS
370
    25
390
33
347
2EECC
  0
LAYER
  5
27
102
{ACAD_XDICTIONARY
360
2EF18
102
}
330
2
100
AcDbSymbolTableRecord
100
AcDbLayerTableRecord
  2
DIMTEXT
 70
     0
 62
     7
  6
CONTINUOUS
370
    18
390
33
347
2EECC
  0
LAYER
  5
42A
330
2
100
AcDbSymbolTableRecord
100
AcDbLayerTableRecord
  2
Defpoints
 70
     0
 62
     7
  6
CONTINUOUS
290
     0
370
    -3
390
33
347
2EECC
  0
ENDTAB
  0
TABLE
  2
STYLE
  5
3
330
0
100
AcDbSymbolTable
 70
     1
  0
STYLE
  5
F
330
3
100
AcDbSymbolTableRecord
100
AcDbTextStyleTableRecord
  2
STANDARD
 70
     0
 40
0.0
 41
0.8
 50
0.0
 71
     0
 42
16.0
  3
sse
  4
bigfont
  0
ENDTAB
  0
TABLE
  2
VIEW
  5
6
330
0
100
AcDbSymbolTable
 70
     0
  0
ENDTAB
  0
TABLE
  2
UCS
  5
7
330
0
100
AcDbSymbolTable
 70
     0
  0
ENDTAB
  0
TABLE
  2
APPID
  5
9
330
0
100
AcDbSymbolTable
 70
    14
  0
APPID
  5
10
330
9
100
AcDbSymbolTableRecord
100
AcDbRegAppTableRecord
  2
ACAD
 70
     0
  0
APPID
  5
91
330
9
100
AcDbSymbolTableRecord
100
AcDbRegAppTableRecord
  2
SSE
 70
     0
  0
APPID
  5
92
330
9
100
AcDbSymbolTableRecord
100
AcDbRegAppTableRecord
  2
SSE_DIMTEXT
 70
     0
  0
APPID
  5
6B32
330
9
100
AcDbSymbolTableRecord
100
AcDbRegAppTableRecord
  2
GENIUS_GENODEF_13
 70
     0
  0
APPID
  5
6B33
330
9
100
AcDbSymbolTableRecord
100
AcDbRegAppTableRecord
  2
GENIUS_GENOBJ-N-CEN_13
 70
     0
  0
APPID
  5
6B34
330
9
100
AcDbSymbolTableRecord
100
AcDbRegAppTableRecord
  2
GENIUS_GENOBJ-N-FIL_13
 70
     0
  0
APPID
  5
B60B
330
9
100
AcDbSymbolTableRecord
100
AcDbRegAppTableRecord
  2
SSE_BALOON
 70
     0
  0
APPID
  5
1414F
330
9
100
AcDbSymbolTableRecord
100
AcDbRegAppTableRecord
  2
TYP
 70
     0
  0
APPID
  5
14150
330
9
100
AcDbSymbolTableRecord
100
AcDbRegAppTableRecord
  2
BNO
 70
     0
  0
APPID
  5
14151
330
9
100
AcDbSymbolTableRecord
100
AcDbRegAppTableRecord
  2
BLN
 70
     0
  0
APPID
  5
14152
330
9
100
AcDbSymbolTableRecord
100
AcDbRegAppTableRecord
  2
ETC
 70
     0
  0
APPID
  5
14153
330
9
100
AcDbSymbolTableRecord
100
AcDbRegAppTableRecord
  2
DEF
 70
     0
  0
APPID
  5
2EF0C
330
9
100
AcDbSymbolTableRecord
100
AcDbRegAppTableRecord
  2
ACAD_MLEADERVER
 70
     0
  0
APPID
  5
2F1E3
330
9
100
AcDbSymbolTableRecord
100
AcDbRegAppTableRecord
  2
ACAD_PSEXT
 70
     0
  0
ENDTAB
  0
TABLE
  2
DIMSTYLE
  5
A
330
0
100
AcDbSymbolTable
 70
     1
100
AcDbDimStyleTable
 71
     1
340
2C
  0
DIMSTYLE
105
2C
102
{ACAD_REACTORS
330
2FCF5
330
2FD3B
330
2FD18
330
2FD19
330
2FD16
330
2FD15
330
2FD25
330
2FD14
330
2FCF7
330
2FCF6
330
2FD03
330
2FCF3
330
2FCF4
330
2F6EC
330
2F6C0
330
2F914
330
2F8D4
330
2F8D3
330
2F6F4
330
2F6BF
330
2FD02
330
2F6F5
330
31DF0
330
2FD1D
330
31E95
330
31EC3
102
}
330
A
100
AcDbSymbolTableRecord
100
AcDbDimStyleTableRecord
  2
STANDARD
 70
     0
 40
17.0
340
F
  0
ENDTAB
  0
TABLE
  2
BLOCK_RECORD
  5
1
330
0
100
AcDbSymbolTable
 70
    32
  0
BLOCK_RECORD
  5
17
102
{ACAD_XDICTIONARY
360
30303
102
}
330
1
100
AcDbSymbolTableRecord
100
AcDbBlockTableRecord
  2
*MODEL_SPACE
340
36
 70
     0
280
     1
281
     0
  0
BLOCK_RECORD
  5
14
330
1
100
AcDbSymbolTableRecord
100
AcDbBlockTableRecord
  2
*PAPER_SPACE
340
37
 70
     0
280
     1
281
     0
  0
BLOCK_RECORD
  5
4A
330
1
100
AcDbSymbolTableRecord
100
AcDbBlockTableRecord
  2
_Open30
340
0
102
{BLKREFS
331
30301
331
31BF0
331
31BF1
331
31BF9
331
31BFA
331
31C02
331
31C03
331
31C0D
331
31C0E
331
31C16
331
31C17
331
31C28
331
31C29
331
31C31
331
31C32
331
31C3A
331
31C3B
331
31C43
331
31C44
331
31C5E
331
31C5F
331
31C72
331
31C73
331
31C88
331
31C89
331
31CE9
331
31CEA
331
31D1B
331
31D1C
331
31D95
331
31D96
331
31E1B
331
31E1C
331
31E24
331
31E25
331
31E2D
331
31E2E
331
31E37
331
31E38
331
31E41
331
31E42
331
31E86
331
31E87
331
31E8F
331
31E90
331
31EFA
331
31EFB
331
31F0C
331
31F0D
331
31F70
331
31F71
331
31F7B
331
31F7C
102
}
 70
     0
280
     1
281
     0
  0
BLOCK_RECORD
  5
2C2
330
1
100
AcDbSymbolTableRecord
100
AcDbBlockTableRecord
  2
dimstat
340
0
102
{BLKREFS
331
1549A
102
}
 70
     0
280
     1
281
     0
  0
BLOCK_RECORD
  5
2CD
330
1
100
AcDbSymbolTableRecord
100
AcDbBlockTableRecord
  2
dimstat2
340
0
102
{BLKREFS
331
15497
102
}
 70
     0
280
     1
281
     0
  0
BLOCK_RECORD
  5
5132
330
1
100
AcDbSymbolTableRecord
100
AcDbBlockTableRecord
  2
_DotSmall
340
0
 70
     0
280
     1
281
     0
  0
BLOCK_RECORD
  5
192FE
330
1
100
AcDbSymbolTableRecord
100
AcDbBlockTableRecord
  2
waku0
340
0
102
{BLKREFS
331
31976
102
}
 70
     0
280
     1
281
     0
  0
BLOCK_RECORD
  5
2D387
330
1
100
AcDbSymbolTableRecord
100
AcDbBlockTableRecord
  2
SSE_BALOON1
340
0
102
{BLKREFS
331
2FCDB
331
2FCDE
331
2FCE3
331
2FCEA
331
2FCED
331
2FCF0
102
}
 70
     0
280
     1
281
     0
  0
BLOCK_RECORD
  5
2FA9F
330
1
100
AcDbSymbolTableRecord
100
AcDbBlockTableRecord
  2
*D6
340
0
 70
     0
280
     1
281
     0
  0
BLOCK_RECORD
  5
2FAAD
330
1
100
AcDbSymbolTableRecord
100
AcDbBlockTableRecord
  2
*D7
340
0
 70
     0
280
     1
281
     0
  0
BLOCK_RECORD
  5
2FAB9
330
1
100
AcDbSymbolTableRecord
100
AcDbBlockTableRecord
  2
*D8
340
0
 70
     0
280
     1
281
     0
  0
BLOCK_RECORD
  5
2FAD1
330
1
100
AcDbSymbolTableRecord
100
AcDbBlockTableRecord
  2
*D9
340
0
 70
     0
280
     1
281
     0
  0
BLOCK_RECORD
  5
2FADF
330
1
100
AcDbSymbolTableRecord
100
AcDbBlockTableRecord
  2
*D10
340
0
 70
     0
280
     1
281
     0
  0
BLOCK_RECORD
  5
2FBAF
330
1
100
AcDbSymbolTableRecord
100
AcDbBlockTableRecord
  2
*D11
340
0
 70
     0
280
     1
281
     0
  0
BLOCK_RECORD
  5
2FBBC
330
1
100
AcDbSymbolTableRecord
100
AcDbBlockTableRecord
  2
*D12
340
0
 70
     0
280
     1
281
     0
  0
BLOCK_RECORD
  5
2FBC9
330
1
100
AcDbSymbolTableRecord
100
AcDbBlockTableRecord
  2
*D13
340
0
 70
     0
280
     1
281
     0
  0
BLOCK_RECORD
  5
2FD4F
330
1
100
AcDbSymbolTableRecord
100
AcDbBlockTableRecord
  2
*D14
340
0
 70
     0
280
     1
281
     0
  0
BLOCK_RECORD
  5
2FD5B
330
1
100
AcDbSymbolTableRecord
100
AcDbBlockTableRecord
  2
*D15
340
0
 70
     0
280
     1
281
     0
  0
BLOCK_RECORD
  5
2FD67
330
1
100
AcDbSymbolTableRecord
100
AcDbBlockTableRecord
  2
*D16
340
0
 70
     0
280
     1
281
     0
  0
BLOCK_RECORD
  5
2FD73
330
1
100
AcDbSymbolTableRecord
100
AcDbBlockTableRecord
  2
*D17
340
0
 70
     0
280
     1
281
     0
  0
BLOCK_RECORD
  5
2FD7F
330
1
100
AcDbSymbolTableRecord
100
AcDbBlockTableRecord
  2
*D18
340
0
 70
     0
280
     1
281
     0
  0
BLOCK_RECORD
  5
2FD8B
330
1
100
AcDbSymbolTableRecord
100
AcDbBlockTableRecord
  2
*D19
340
0
 70
     0
280
     1
281
     0
  0
BLOCK_RECORD
  5
2FD97
330
1
100
AcDbSymbolTableRecord
100
AcDbBlockTableRecord
  2
*D20
340
0
 70
     0
280
     1
281
     0
  0
BLOCK_RECORD
  5
2FDA3
330
1
100
AcDbSymbolTableRecord
100
AcDbBlockTableRecord
  2
*D21
340
0
 70
     0
280
     1
281
     0
  0
BLOCK_RECORD
  5
2FDAF
330
1
100
AcDbSymbolTableRecord
100
AcDbBlockTableRecord
  2
*D22
340
0
 70
     0
280
     1
281
     0
  0
BLOCK_RECORD
  5
2FDBB
330
1
100
AcDbSymbolTableRecord
100
AcDbBlockTableRecord
  2
*D23
340
0
 70
     0
280
     1
281
     0
  0
BLOCK_RECORD
  5
2FDD4
330
1
100
AcDbSymbolTableRecord
100
AcDbBlockTableRecord
  2
*D24
340
0
 70
     0
280
     1
281
     0
  0
BLOCK_RECORD
  5
2FDE0
330
1
100
AcDbSymbolTableRecord
100
AcDbBlockTableRecord
  2
*D25
340
0
 70
     0
280
     1
281
     0
  0
BLOCK_RECORD
  5
2FDEC
330
1
100
AcDbSymbolTableRecord
100
AcDbBlockTableRecord
  2
*D26
340
0
 70
     0
280
     1
281
     0
  0
BLOCK_RECORD
  5
2FDF9
330
1
100
AcDbSymbolTableRecord
100
AcDbBlockTableRecord
  2
*D27
340
0
 70
     0
280
     1
281
     0
  0
BLOCK_RECORD
  5
2FE21
330
1
100
AcDbSymbolTableRecord
100
AcDbBlockTableRecord
  2
*D28
340
0
 70
     0
280
     1
281
     0
  0
BLOCK_RECORD
  5
31DF1
330
1
100
AcDbSymbolTableRecord
100
AcDbBlockTableRecord
  2
*D29
340
0
 70
     0
280
     1
281
     0
  0
BLOCK_RECORD
  5
31E96
330
1
100
AcDbSymbolTableRecord
100
AcDbBlockTableRecord
  2
*D30
340
0
 70
     0
280
     1
281
     0
  0
BLOCK_RECORD
  5
31EC4
330
1
100
AcDbSymbolTableRecord
100
AcDbBlockTableRecord
  2
*D31
340
0
 70
     0
280
     1
281
     0
  0
ENDTAB
  0
ENDSEC
  0
SECTION
  2
BLOCKS
  0
BLOCK
  5
2A
330
17
100
AcDbEntity
  8
0
100
AcDbBlockBegin
  2
*MODEL_SPACE
 70
     0
 10
0.0
 20
0.0
 30
0.0
  3
*MODEL_SPACE
  1

  0
ENDBLK
  5
2B
330
17
100
AcDbEntity
  8
0
100
AcDbBlockEnd
  0
BLOCK
  5
28
330
14
100
AcDbEntity
 67
     1
  8
0
100
AcDbBlockBegin
  2
*PAPER_SPACE
 70
     0
 10
0.0
 20
0.0
 30
0.0
  3
*PAPER_SPACE
  1

  0
ENDBLK
  5
29
330
14
100
AcDbEntity
 67
     1
  8
0
100
AcDbBlockEnd
  0
BLOCK
  5
4E
330
4A
100
AcDbEntity
  8
0
100
AcDbBlockBegin
  2
_Open30
 70
     0
 10
0.0
 20
0.0
 30
0.0
  3
_Open30
  1

  0
LINE
  5
4B
330
4A
100
AcDbEntity
  8
0
  6
ByBlock
 62
     0
370
    -2
100
AcDbLine
 10
-1.0
 20
0.26794919
 30
0.0
 11
0.0
 21
0.0
 31
0.0
  0
LINE
  5
4C
330
4A
100
AcDbEntity
  8
0
  6
ByBlock
 62
     0
370
    -2
100
AcDbLine
 10
0.0
 20
0.0
 30
0.0
 11
-1.0
 21
-0.26794919
 31
0.0
  0
LINE
  5
4D
330
4A
100
AcDbEntity
  8
0
  6
ByBlock
 62
     0
370
    -2
100
AcDbLine
 10
0.0
 20
0.0
 30
0.0
 11
-1.0
 21
0.0
 31
0.0
  0
ENDBLK
  5
4F
330
4A
100
AcDbEntity
  8
0
100
AcDbBlockEnd
  0
BLOCK
  5
2C6
330
2C2
100
AcDbEntity
  8
0
100
AcDbBlockBegin
  2
dimstat
 70
     2
 10
0.0
 20
0.0
 30
0.0
  3
dimstat
  1

  0
ATTDEF
  5
2C3
330
2C2
100
AcDbEntity
  8
0
100
AcDbText
 10
0.0
 20
1.0
 30
0.0
 40
1.0
  1

 41
0.7
 51
15.0
100
AcDbAttributeDefinition
  3

  2
DIMEXT
 70
     1
280
     0
  0
ATTDEF
  5
2C4
330
2C2
100
AcDbEntity
  8
0
100
AcDbText
 10
0.0
 20
0.0
 30
0.0
 40
1.0
  1

 41
0.7
 51
15.0
100
AcDbAttributeDefinition
  3

  2
DIMBAL
 70
     1
280
     0
  0
ATTDEF
  5
2C5
330
2C2
100
AcDbEntity
  8
0
100
AcDbText
 10
1.50719045723035
 20
-0.911649989012119
 30
0.0
 40
1.0
  1

 41
0.7
 51
15.0
 72
     1
 11
1.50719045723035
 21
-0.911649989012119
 31
0.0
100
AcDbAttributeDefinition
  3

  2
SYMSCL
 70
     1
280
     0
  0
ENDBLK
  5
2C7
330
2C2
100
AcDbEntity
  8
0
100
AcDbBlockEnd
  0
BLOCK
  5
2CF
330
2CD
100
AcDbEntity
  8
0
100
AcDbBlockBegin
  2
dimstat2
 70
     2
 10
0.0
 20
0.0
 30
0.0
  3
dimstat2
  1

  0
ATTDEF
  5
2CE
330
2CD
100
AcDbEntity
  8
0
100
AcDbText
 10
0.0
 20
0.0
 30
0.0
 40
1.0
  1

 41
0.7
100
AcDbAttributeDefinition
  3

  2
DIMSIZ
 70
     1
280
     0
  0
ENDBLK
  5
2D0
330
2CD
100
AcDbEntity
  8
0
100
AcDbBlockEnd
  0
BLOCK
  5
5134
330
5132
100
AcDbEntity
  8
0
100
AcDbBlockBegin
  2
_DotSmall
 70
     0
 10
0.0
 20
0.0
 30
0.0
  3
_DotSmall
  1

  0
LWPOLYLINE
  5
5133
330
5132
100
AcDbEntity
  8
0
  6
ByBlock
 62
     0
100
AcDbPolyline
 90
        2
 70
     1
 43
0.5
 10
-0.0625
 20
0.0
 42
1.0
 10
0.0625
 20
0.0
 42
1.0
  0
ENDBLK
  5
5135
330
5132
100
AcDbEntity
  8
0
100
AcDbBlockEnd
  0
BLOCK
  5
19303
330
192FE
100
AcDbEntity
  8
0
100
AcDbBlockBegin
  2
waku0
 70
     0
 10
0.0
 20
0.0
 30
0.0
  3
waku0
  1

  0
LINE
  5
192FF
330
192FE
100
AcDbEntity
  8
0
100
AcDbLine
 10
0.0
 20
1.0
 30
0.0
 11
0.0
 21
0.0
 31
0.0
  0
LINE
  5
19300
330
192FE
100
AcDbEntity
  8
0
100
AcDbLine
 10
1.0
 20
1.0
 30
0.0
 11
0.0
 21
1.0
 31
0.0
  0
LINE
  5
19301
330
192FE
100
AcDbEntity
  8
0
100
AcDbLine
 10
1.0
 20
0.0
 30
0.0
 11
1.0
 21
1.0
 31
0.0
  0
LINE
  5
19302
330
192FE
100
AcDbEntity
  8
0
100
AcDbLine
 10
0.0
 20
0.0
 30
0.0
 11
1.0
 21
0.0
 31
0.0
  0
ENDBLK
  5
19304
330
192FE
100
AcDbEntity
  8
0
100
AcDbBlockEnd
  0
BLOCK
  5
2D38A
330
2D387
100
AcDbEntity
  8
0
100
AcDbBlockBegin
  2
SSE_BALOON1
 70
     2
 10
0.0
 20
0.0
 30
0.0
  3
SSE_BALOON1
  1

  0
CIRCLE
  5
2D388
330
2D387
100
AcDbEntity
  8
0
  6
ByBlock
 62
     0
370
    -2
100
AcDbCircle
 10
0.0
 20
0.0
 30
0.0
 40
1.0
  0
ATTDEF
  5
2D389
330
2D387
100
AcDbEntity
  8
DIMTEXT
100
AcDbText
 10
0.0
 20
0.0
 30
0.0
 40
1.0
  1

 72
     4
 11
0.0
 21
0.0
 31
0.0
100
AcDbAttributeDefinition
  3
番号
  2
BAL_NUM
 70
     0
280
     0
  0
ENDBLK
  5
2D38B
330
2D387
100
AcDbEntity
  8
0
100
AcDbBlockEnd
  0
BLOCK
  5
2FAA0
330
2FA9F
100
AcDbEntity
  8
0
100
AcDbBlockBegin
  2
*D6
 70
     1
 10
0.0
 20
0.0
 30
0.0
  3
*D6
  1

  0
LINE
  5
31D16
330
2FA9F
100
AcDbEntity
  8
DIM
 62
     0
370
    -2
100
AcDbLine
 10
1135.003746535529
 20
4002.311545485633
 30
0.0
 11
1482.133332575967
 21
4002.311545485633
 31
0.0
  0
LINE
  5
31D17
330
2FA9F
100
AcDbEntity
  8
DIM
 62
     0
370
    -2
100
AcDbLine
 10
1372.403746535526
 20
3912.311545485632
 30
0.0
 11
1482.133332575967
 21
3912.311545485632
 31
0.0
  0
LINE
  5
31D18
330
2FA9F
100
AcDbEntity
  8
DIM
 62
     0
370
    -2
100
AcDbLine
 10
1448.133332575967
 20
3861.311545485633
 30
0.0
 11
1448.133332575967
 21
3810.311545485633
 31
0.0
  0
LINE
  5
31D19
330
2FA9F
100
AcDbEntity
  8
DIM
 62
     0
370
    -2
100
AcDbLine
 10
1448.133332575967
 20
4053.311545485633
 30
0.0
 11
1448.133332575967
 21
4401.141259771348
 31
0.0
  0
LINE
  5
31D1A
330
2FA9F
100
AcDbEntity
  8
DIM
 62
     0
370
    -2
100
AcDbLine
 10
1448.133332575967
 20
3912.311545485632
 30
0.0
 11
1448.133332575967
 21
4002.311545485633
 31
0.0
  0
INSERT
  5
31D1B
330
2FA9F
100
AcDbEntity
  8
DIM
 62
     0
370
    -2
100
AcDbBlockReference
  2
_Open30
 10
1448.133332575967
 20
3912.311545485632
 30
0.0
 41
51.0
 42
51.0
 43
51.0
 50
90.0
  0
INSERT
  5
31D1C
330
2FA9F
100
AcDbEntity
  8
DIM
 62
     0
370
    -2
100
AcDbBlockReference
  2
_Open30
 10
1448.133332575967
 20
4002.311545485633
 30
0.0
 41
51.0
 42
51.0
 43
51.0
 50
270.0
  0
MTEXT
  5
31D1D
330
2FA9F
100
AcDbEntity
  8
DIM
 62
     0
100
AcDbMText
 10
1409.883332575966
 20
4268.865069295157
 30
0.0
 40
42.5
 41
0.0
 46
0.0
 71
     5
 72
     1
  1
\A1;最大90mm
 11
0.0000000000000001
 21
1.0
 31
0.0
 73
     1
 44
1.0
  0
POINT
  5
31D1E
330
2FA9F
100
AcDbEntity
  8
Defpoints
 62
     0
100
AcDbPoint
 10
1101.003746535529
 20
4002.311545485633
 30
0.0
  0
POINT
  5
31D1F
330
2FA9F
100
AcDbEntity
  8
Defpoints
 62
     0
100
AcDbPoint
 10
1338.403746535526
 20
3912.311545485632
 30
0.0
  0
POINT
  5
31D20
330
2FA9F
100
AcDbEntity
  8
Defpoints
 62
     0
100
AcDbPoint
 10
1448.133332575967
 20
3912.311545485632
 30
0.0
  0
ENDBLK
  5
2FAA1
330
2FA9F
100
AcDbEntity
  8
0
100
AcDbBlockEnd
  0
BLOCK
  5
2FAAE
330
2FAAD
100
AcDbEntity
  8
0
100
AcDbBlockBegin
  2
*D7
 70
     1
 10
0.0
 20
0.0
 30
0.0
  3
*D7
  1

  0
LINE
  5
31E8C
330
2FAAD
100
AcDbEntity
  8
DIM
 62
     0
370
    -2
100
AcDbLine
 10
720.0037465355274
 20
3922.711545485632
 30
0.0
 11
720.0037465355274
 21
4104.211545485631
 31
0.0
  0
LINE
  5
31E8D
330
2FAAD
100
AcDbEntity
  8
DIM
 62
     0
370
    -2
100
AcDbLine
 10
1362.003746535527
 20
3922.711545485632
 30
0.0
 11
1362.003746535527
 21
4104.211545485631
 31
0.0
  0
LINE
  5
31E8E
330
2FAAD
100
AcDbEntity
  8
DIM
 62
     0
370
    -2
100
AcDbLine
 10
771.0037465355274
 20
4070.211545485631
 30
0.0
 11
1311.003746535527
 21
4070.211545485631
 31
0.0
  0
INSERT
  5
31E8F
330
2FAAD
100
AcDbEntity
  8
DIM
 62
     0
370
    -2
100
AcDbBlockReference
  2
_Open30
 10
720.0037465355274
 20
4070.211545485631
 30
0.0
 41
51.0
 42
51.0
 43
51.0
 50
180.0
  0
INSERT
  5
31E90
330
2FAAD
100
AcDbEntity
  8
DIM
 62
     0
370
    -2
100
AcDbBlockReference
  2
_Open30
 10
1362.003746535527
 20
4070.211545485631
 30
0.0
 41
51.0
 42
51.0
 43
51.0
  0
MTEXT
  5
31E91
330
2FAAD
100
AcDbEntity
  8
DIM
 62
     0
100
AcDbMText
 10
1041.003746535527
 20
4108.461545485631
 30
0.0
 40
42.5
 41
0.0
 46
0.0
 71
     5
 72
     1
  1
\A1;（650）
 73
     1
 44
1.0
  0
POINT
  5
31E92
330
2FAAD
100
AcDbEntity
  8
Defpoints
 62
     0
100
AcDbPoint
 10
720.0037465355274
 20
3888.711545485632
 30
0.0
  0
POINT
  5
31E93
330
2FAAD
100
AcDbEntity
  8
Defpoints
 62
     0
100
AcDbPoint
 10
1362.003746535527
 20
3888.711545485632
 30
0.0
  0
POINT
  5
31E94
330
2FAAD
100
AcDbEntity
  8
Defpoints
 62
     0
100
AcDbPoint
 10
1362.003746535527
 20
4070.211545485631
 30
0.0
  0
ENDBLK
  5
2FAAF
330
2FAAD
100
AcDbEntity
  8
0
100
AcDbBlockEnd
  0
BLOCK
  5
2FABA
330
2FAB9
100
AcDbEntity
  8
0
100
AcDbBlockBegin
  2
*D8
 70
     1
 10
0.0
 20
0.0
 30
0.0
  3
*D8
  1

  0
LINE
  5
31E83
330
2FAB9
100
AcDbEntity
  8
DIM
 62
     0
370
    -2
100
AcDbLine
 10
1372.403746535526
 20
3912.311545485632
 30
0.0
 11
1482.133332575963
 21
3912.311545485632
 31
0.0
  0
LINE
  5
31E84
330
2FAB9
100
AcDbEntity
  8
DIM
 62
     0
370
    -2
100
AcDbLine
 10
1372.403746535526
 20
3190.311545485633
 30
0.0
 11
1482.133332575963
 21
3190.311545485633
 31
0.0
  0
LINE
  5
31E85
330
2FAB9
100
AcDbEntity
  8
DIM
 62
     0
370
    -2
100
AcDbLine
 10
1448.133332575963
 20
3861.311545485633
 30
0.0
 11
1448.133332575963
 21
3241.311545485633
 31
0.0
  0
INSERT
  5
31E86
330
2FAB9
100
AcDbEntity
  8
DIM
 62
     0
370
    -2
100
AcDbBlockReference
  2
_Open30
 10
1448.133332575963
 20
3912.311545485632
 30
0.0
 41
51.0
 42
51.0
 43
51.0
 50
90.0
  0
INSERT
  5
31E87
330
2FAB9
100
AcDbEntity
  8
DIM
 62
     0
370
    -2
100
AcDbBlockReference
  2
_Open30
 10
1448.133332575963
 20
3190.311545485633
 30
0.0
 41
51.0
 42
51.0
 43
51.0
 50
270.0
  0
MTEXT
  5
31E88
330
2FAB9
100
AcDbEntity
  8
DIM
 62
     0
100
AcDbMText
 10
1409.883332575962
 20
3551.311545485633
 30
0.0
 40
42.5
 41
0.0
 46
0.0
 71
     5
 72
     1
  1
\A1;（730）
 11
0.0000000000000001
 21
1.0
 31
0.0
 73
     1
 44
1.0
  0
POINT
  5
31E89
330
2FAB9
100
AcDbEntity
  8
Defpoints
 62
     0
100
AcDbPoint
 10
1338.403746535526
 20
3912.311545485632
 30
0.0
  0
POINT
  5
31E8A
330
2FAB9
100
AcDbEntity
  8
Defpoints
 62
     0
100
AcDbPoint
 10
1338.403746535526
 20
3190.311545485633
 30
0.0
  0
POINT
  5
31E8B
330
2FAB9
100
AcDbEntity
  8
Defpoints
 62
     0
100
AcDbPoint
 10
1448.133332575963
 20
3190.311545485633
 30
0.0
  0
ENDBLK
  5
2FABB
330
2FAB9
100
AcDbEntity
  8
0
100
AcDbBlockEnd
  0
BLOCK
  5
2FAD2
330
2FAD1
100
AcDbEntity
  8
0
100
AcDbBlockBegin
  2
*D9
 70
     1
 10
0.0
 20
0.0
 30
0.0
  3
*D9
  1

  0
LINE
  5
31CE4
330
2FAD1
100
AcDbEntity
  8
DIM
 62
     0
370
    -2
100
AcDbLine
 10
1378.371024900012
 20
687.9247180267774
 30
0.0
 11
1515.31136078918
 21
687.9247180267774
 31
0.0
  0
LINE
  5
31CE5
330
2FAD1
100
AcDbEntity
  8
DIM
 62
     0
370
    -2
100
AcDbLine
 10
1744.264657223027
 20
567.9247180267783
 30
0.0
 11
1447.31136078918
 21
567.9247180267783
 31
0.0
  0
LINE
  5
31CE6
330
2FAD1
100
AcDbEntity
  8
DIM
 62
     0
370
    -2
100
AcDbLine
 10
1481.31136078918
 20
738.9247180267774
 30
0.0
 11
1481.31136078918
 21
789.9247180267774
 31
0.0
  0
LINE
  5
31CE7
330
2FAD1
100
AcDbEntity
  8
DIM
 62
     0
370
    -2
100
AcDbLine
 10
1481.31136078918
 20
516.9247180267785
 30
0.0
 11
1481.31136078918
 21
348.9092067604179
 31
0.0
  0
LINE
  5
31CE8
330
2FAD1
100
AcDbEntity
  8
DIM
 62
     0
370
    -2
100
AcDbLine
 10
1481.31136078918
 20
687.9247180267774
 30
0.0
 11
1481.31136078918
 21
567.9247180267783
 31
0.0
  0
INSERT
  5
31CE9
330
2FAD1
100
AcDbEntity
  8
DIM
 62
     0
370
    -2
100
AcDbBlockReference
  2
_Open30
 10
1481.31136078918
 20
687.9247180267774
 30
0.0
 41
51.0
 42
51.0
 43
51.0
 50
270.0
  0
INSERT
  5
31CEA
330
2FAD1
100
AcDbEntity
  8
DIM
 62
     0
370
    -2
100
AcDbBlockReference
  2
_Open30
 10
1481.31136078918
 20
567.9247180267783
 30
0.0
 41
51.0
 42
51.0
 43
51.0
 50
90.0
  0
MTEXT
  5
31CEB
330
2FAD1
100
AcDbEntity
  8
DIM
 62
     0
100
AcDbMText
 10
1443.06136078918
 20
406.3853972366086
 30
0.0
 40
42.5
 41
0.0
 46
0.0
 71
     5
 72
     1
  1
\A1;120
 11
0.0000000000000001
 21
1.0
 31
0.0
 73
     1
 44
1.0
  0
POINT
  5
31CEC
330
2FAD1
100
AcDbEntity
  8
Defpoints
 62
     0
100
AcDbPoint
 10
1344.371024900012
 20
687.9247180267774
 30
0.0
  0
POINT
  5
31CED
330
2FAD1
100
AcDbEntity
  8
Defpoints
 62
     0
100
AcDbPoint
 10
1778.264657223027
 20
567.9247180267783
 30
0.0
  0
POINT
  5
31CEE
330
2FAD1
100
AcDbEntity
  8
Defpoints
 62
     0
100
AcDbPoint
 10
1481.31136078918
 20
567.9247180267783
 30
0.0
  0
ENDBLK
  5
2FAD3
330
2FAD1
100
AcDbEntity
  8
0
100
AcDbBlockEnd
  0
BLOCK
  5
2FAE0
330
2FADF
100
AcDbEntity
  8
0
100
AcDbBlockBegin
  2
*D10
 70
     1
 10
0.0
 20
0.0
 30
0.0
  3
*D10
  1

  0
LINE
  5
31E2A
330
2FADF
100
AcDbEntity
  8
DIM
 62
     0
370
    -2
100
AcDbLine
 10
968.0123343903408
 20
1417.224718026774
 30
0.0
 11
1821.31136078918
 21
1417.224718026773
 31
0.0
  0
LINE
  5
31E2B
330
2FADF
100
AcDbEntity
  8
DIM
 62
     0
370
    -2
100
AcDbLine
 10
1718.406373714782
 20
567.9247180267783
 30
0.0
 11
1821.31136078918
 21
567.9247180267783
 31
0.0
  0
LINE
  5
31E2C
330
2FADF
100
AcDbEntity
  8
DIM
 62
     0
370
    -2
100
AcDbLine
 10
1787.31136078918
 20
1366.224718026773
 30
0.0
 11
1787.31136078918
 21
618.9247180267783
 31
0.0
  0
INSERT
  5
31E2D
330
2FADF
100
AcDbEntity
  8
DIM
 62
     0
370
    -2
100
AcDbBlockReference
  2
_Open30
 10
1787.31136078918
 20
1417.224718026773
 30
0.0
 41
51.0
 42
51.0
 43
51.0
 50
90.0
  0
INSERT
  5
31E2E
330
2FADF
100
AcDbEntity
  8
DIM
 62
     0
370
    -2
100
AcDbBlockReference
  2
_Open30
 10
1787.31136078918
 20
567.9247180267783
 30
0.0
 41
51.0
 42
51.0
 43
51.0
 50
270.0
  0
MTEXT
  5
31E2F
330
2FADF
100
AcDbEntity
  8
DIM
 62
     0
100
AcDbMText
 10
1749.06136078918
 20
992.5747180267761
 30
0.0
 40
42.5
 41
0.0
 46
0.0
 71
     5
 72
     1
  1
\A1;（850）
 11
0.0000000000000001
 21
1.0
 31
0.0
 73
     1
 44
1.0
  0
POINT
  5
31E30
330
2FADF
100
AcDbEntity
  8
Defpoints
 62
     0
100
AcDbPoint
 10
934.0123343903409
 20
1417.224718026774
 30
0.0
  0
POINT
  5
31E31
330
2FADF
100
AcDbEntity
  8
Defpoints
 62
     0
100
AcDbPoint
 10
1684.406373714782
 20
567.9247180267783
 30
0.0
  0
POINT
  5
31E32
330
2FADF
100
AcDbEntity
  8
Defpoints
 62
     0
100
AcDbPoint
 10
1787.31136078918
 20
567.9247180267783
 30
0.0
  0
ENDBLK
  5
2FAE1
330
2FADF
100
AcDbEntity
  8
0
100
AcDbBlockEnd
  0
BLOCK
  5
2FBB0
330
2FBAF
100
AcDbEntity
  8
0
100
AcDbBlockBegin
  2
*D11
 70
     1
 10
0.0
 20
0.0
 30
0.0
  3
*D11
  1

  0
LINE
  5
31E3D
330
2FBAF
100
AcDbEntity
  8
DIM
 62
     0
370
    -2
100
AcDbLine
 10
1140.003746535444
 20
732.424718026706
 30
0.0
 11
1633.762879573534
 21
732.424718026706
 31
0.0
  0
LINE
  5
31E3E
330
2FBAF
100
AcDbEntity
  8
DIM
 62
     0
370
    -2
100
AcDbLine
 10
1396.862637859797
 20
567.9247180267777
 30
0.0
 11
1633.762879573534
 21
567.9247180267777
 31
0.0
  0
LINE
  5
31E3F
330
2FBAF
100
AcDbEntity
  8
DIM
 62
     0
370
    -2
100
AcDbLine
 10
1599.762879573534
 20
681.424718026706
 30
0.0
 11
1599.762879573534
 21
618.9247180267779
 31
0.0
  0
LINE
  5
31E40
330
2FBAF
100
AcDbEntity
  8
DIM
 62
     0
370
    -2
100
AcDbLine
 10
1599.762879573534
 20
567.9247180267777
 30
0.0
 11
1599.762879573534
 21
359.725608462681
 31
0.0
  0
INSERT
  5
31E41
330
2FBAF
100
AcDbEntity
  8
DIM
 62
     0
370
    -2
100
AcDbBlockReference
  2
_Open30
 10
1599.762879573534
 20
732.424718026706
 30
0.0
 41
51.0
 42
51.0
 43
51.0
 50
90.0
  0
INSERT
  5
31E42
330
2FBAF
100
AcDbEntity
  8
DIM
 62
     0
370
    -2
100
AcDbBlockReference
  2
_Open30
 10
1599.762879573534
 20
567.9247180267777
 30
0.0
 41
51.0
 42
51.0
 43
51.0
 50
270.0
  0
MTEXT
  5
31E43
330
2FBAF
100
AcDbEntity
  8
DIM
 62
     0
100
AcDbMText
 10
1561.512879573534
 20
417.2017989388717
 30
0.0
 40
42.5
 41
0.0
 46
0.0
 71
     5
 72
     1
  1
\A1;165
 11
0.0000000000000001
 21
1.0
 31
0.0
 73
     1
 44
1.0
  0
POINT
  5
31E44
330
2FBAF
100
AcDbEntity
  8
Defpoints
 62
     0
100
AcDbPoint
 10
1106.003746535444
 20
732.424718026706
 30
0.0
  0
POINT
  5
31E45
330
2FBAF
100
AcDbEntity
  8
Defpoints
 62
     0
100
AcDbPoint
 10
1362.862637859796
 20
567.9247180267777
 30
0.0
  0
POINT
  5
31E46
330
2FBAF
100
AcDbEntity
  8
Defpoints
 62
     0
100
AcDbPoint
 10
1599.762879573534
 20
567.9247180267777
 30
0.0
  0
ENDBLK
  5
2FBB1
330
2FBAF
100
AcDbEntity
  8
0
100
AcDbBlockEnd
  0
BLOCK
  5
2FBBD
330
2FBBC
100
AcDbEntity
  8
0
100
AcDbBlockBegin
  2
*D12
 70
     1
 10
0.0
 20
0.0
 30
0.0
  3
*D12
  1

  0
LINE
  5
31E33
330
2FBBC
100
AcDbEntity
  8
DIM
 62
     0
370
    -2
100
AcDbLine
 10
1396.862637859797
 20
567.9247180267777
 30
0.0
 11
1745.561227977229
 21
567.9247180267777
 31
0.0
  0
LINE
  5
31E34
330
2FBBC
100
AcDbEntity
  8
DIM
 62
     0
370
    -2
100
AcDbLine
 10
1394.003746535504
 20
817.9247180267722
 30
0.0
 11
1745.561227977229
 21
817.9247180267722
 31
0.0
  0
LINE
  5
31E35
330
2FBBC
100
AcDbEntity
  8
DIM
 62
     0
370
    -2
100
AcDbLine
 10
1711.561227977229
 20
766.9247180267722
 30
0.0
 11
1711.561227977228
 21
618.9247180267779
 31
0.0
  0
LINE
  5
31E36
330
2FBBC
100
AcDbEntity
  8
DIM
 62
     0
370
    -2
100
AcDbLine
 10
1711.561227977228
 20
567.9247180267777
 30
0.0
 11
1711.561227977228
 21
368.1624913332099
 31
0.0
  0
INSERT
  5
31E37
330
2FBBC
100
AcDbEntity
  8
DIM
 62
     0
370
    -2
100
AcDbBlockReference
  2
_Open30
 10
1711.561227977229
 20
817.9247180267722
 30
0.0
 41
51.0
 42
51.0
 43
51.0
 50
90.0
  0
INSERT
  5
31E38
330
2FBBC
100
AcDbEntity
  8
DIM
 62
     0
370
    -2
100
AcDbBlockReference
  2
_Open30
 10
1711.561227977228
 20
567.9247180267777
 30
0.0
 41
51.0
 42
51.0
 43
51.0
 50
270.0
  0
MTEXT
  5
31E39
330
2FBBC
100
AcDbEntity
  8
DIM
 62
     0
100
AcDbMText
 10
1673.311227977228
 20
428.8767770474958
 30
0.0
 40
42.5
 41
0.0
 46
0.0
 71
     5
 72
     1
  1
\A1;250
 11
0.0000000000000001
 21
1.0
 31
0.0
 73
     1
 44
1.0
  0
POINT
  5
31E3A
330
2FBBC
100
AcDbEntity
  8
Defpoints
 62
     0
100
AcDbPoint
 10
1362.862637859796
 20
567.9247180267777
 30
0.0
  0
POINT
  5
31E3B
330
2FBBC
100
AcDbEntity
  8
Defpoints
 62
     0
100
AcDbPoint
 10
1360.003746535504
 20
817.9247180267722
 30
0.0
  0
POINT
  5
31E3C
330
2FBBC
100
AcDbEntity
  8
Defpoints
 62
     0
100
AcDbPoint
 10
1711.561227977229
 20
817.9247180267722
 30
0.0
  0
ENDBLK
  5
2FBBE
330
2FBBC
100
AcDbEntity
  8
0
100
AcDbBlockEnd
  0
BLOCK
  5
2FBCA
330
2FBC9
100
AcDbEntity
  8
0
100
AcDbBlockBegin
  2
*D13
 70
     1
 10
0.0
 20
0.0
 30
0.0
  3
*D13
  1

  0
LINE
  5
31E21
330
2FBC9
100
AcDbEntity
  8
DIM
 62
     0
370
    -2
100
AcDbLine
 10
1223.938129764761
 20
2047.913369758561
 30
0.0
 11
1923.31136078918
 21
2047.91336975856
 31
0.0
  0
LINE
  5
31E22
330
2FBC9
100
AcDbEntity
  8
DIM
 62
     0
370
    -2
100
AcDbLine
 10
1396.862637859797
 20
567.9247180267781
 30
0.0
 11
1923.31136078918
 21
567.924718026778
 31
0.0
  0
LINE
  5
31E23
330
2FBC9
100
AcDbEntity
  8
DIM
 62
     0
370
    -2
100
AcDbLine
 10
1889.31136078918
 20
1996.91336975856
 30
0.0
 11
1889.31136078918
 21
618.924718026778
 31
0.0
  0
INSERT
  5
31E24
330
2FBC9
100
AcDbEntity
  8
DIM
 62
     0
370
    -2
100
AcDbBlockReference
  2
_Open30
 10
1889.31136078918
 20
2047.91336975856
 30
0.0
 41
51.0
 42
51.0
 43
51.0
 50
90.0
  0
INSERT
  5
31E25
330
2FBC9
100
AcDbEntity
  8
DIM
 62
     0
370
    -2
100
AcDbBlockReference
  2
_Open30
 10
1889.31136078918
 20
567.924718026778
 30
0.0
 41
51.0
 42
51.0
 43
51.0
 50
270.0
  0
MTEXT
  5
31E26
330
2FBC9
100
AcDbEntity
  8
DIM
 62
     0
100
AcDbMText
 10
1851.06136078918
 20
1307.91904389267
 30
0.0
 40
42.5
 41
0.0
 46
0.0
 71
     5
 72
     1
  1
\A1;（1480）
 11
0.0000000000000001
 21
1.0
 31
0.0
 73
     1
 44
1.0
  0
POINT
  5
31E27
330
2FBC9
100
AcDbEntity
  8
Defpoints
 62
     0
100
AcDbPoint
 10
1189.938129764761
 20
2047.913369758561
 30
0.0
  0
POINT
  5
31E28
330
2FBC9
100
AcDbEntity
  8
Defpoints
 62
     0
100
AcDbPoint
 10
1362.862637859796
 20
567.9247180267781
 30
0.0
  0
POINT
  5
31E29
330
2FBC9
100
AcDbEntity
  8
Defpoints
 62
     0
100
AcDbPoint
 10
1889.31136078918
 20
567.924718026778
 30
0.0
  0
ENDBLK
  5
2FBCB
330
2FBC9
100
AcDbEntity
  8
0
100
AcDbBlockEnd
  0
BLOCK
  5
2FD50
330
2FD4F
100
AcDbEntity
  8
0
100
AcDbBlockBegin
  2
*D14
 70
     1
 10
0.0
 20
0.0
 30
0.0
  3
*D14
  1

  0
LINE
  5
31BED
330
2FD4F
100
AcDbEntity
  8
DIM
 62
     0
370
    -2
100
AcDbLine
 10
2516.285152995033
 20
3260.211545485634
 30
0.0
 11
2225.218486327571
 21
3260.211545485634
 31
0.0
  0
LINE
  5
31BEE
330
2FD4F
100
AcDbEntity
  8
DIM
 62
     0
370
    -2
100
AcDbLine
 10
2393.88515299424
 20
3916.311545485631
 30
0.0
 11
2225.218486327572
 21
3916.311545485631
 31
0.0
  0
LINE
  5
31BEF
330
2FD4F
100
AcDbEntity
  8
DIM
 62
     0
370
    -2
100
AcDbLine
 10
2259.218486327571
 20
3311.211545485635
 30
0.0
 11
2259.218486327572
 21
3865.311545485631
 31
0.0
  0
INSERT
  5
31BF0
330
2FD4F
100
AcDbEntity
  8
DIM
 62
     0
370
    -2
100
AcDbBlockReference
  2
_Open30
 10
2259.218486327571
 20
3260.211545485634
 30
0.0
 41
51.0
 42
51.0
 43
51.0
 50
270.0
  0
INSERT
  5
31BF1
330
2FD4F
100
AcDbEntity
  8
DIM
 62
     0
370
    -2
100
AcDbBlockReference
  2
_Open30
 10
2259.218486327572
 20
3916.311545485631
 30
0.0
 41
51.0
 42
51.0
 43
51.0
 50
90.0
  0
MTEXT
  5
31BF2
330
2FD4F
100
AcDbEntity
  8
DIM
 62
     0
100
AcDbMText
 10
2220.968486327571
 20
3588.261545485633
 30
0.0
 40
42.5
 41
0.0
 46
0.0
 71
     5
 72
     1
  1
\A1;656
 11
0.0000000000000001
 21
1.0
 31
0.0
 73
     1
 44
1.0
  0
POINT
  5
31BF3
330
2FD4F
100
AcDbEntity
  8
Defpoints
 62
     0
100
AcDbPoint
 10
2550.285152995033
 20
3260.211545485634
 30
0.0
  0
POINT
  5
31BF4
330
2FD4F
100
AcDbEntity
  8
Defpoints
 62
     0
100
AcDbPoint
 10
2427.885152994241
 20
3916.311545485631
 30
0.0
  0
POINT
  5
31BF5
330
2FD4F
100
AcDbEntity
  8
Defpoints
 62
     0
100
AcDbPoint
 10
2259.218486327572
 20
3916.311545485631
 30
0.0
  0
ENDBLK
  5
2FD51
330
2FD4F
100
AcDbEntity
  8
0
100
AcDbBlockEnd
  0
BLOCK
  5
2FD5C
330
2FD5B
100
AcDbEntity
  8
0
100
AcDbBlockBegin
  2
*D15
 70
     1
 10
0.0
 20
0.0
 30
0.0
  3
*D15
  1

  0
LINE
  5
31BF6
330
2FD5B
100
AcDbEntity
  8
DIM
 62
     0
370
    -2
100
AcDbLine
 10
2393.88515299424
 20
3916.311545485631
 30
0.0
 11
1959.333914696435
 21
3916.311545485631
 31
0.0
  0
LINE
  5
31BF7
330
2FD5B
100
AcDbEntity
  8
DIM
 62
     0
370
    -2
100
AcDbLine
 10
2519.118486328366
 20
3221.211545485634
 30
0.0
 11
1959.333914696435
 21
3221.211545485634
 31
0.0
  0
LINE
  5
31BF8
330
2FD5B
100
AcDbEntity
  8
DIM
 62
     0
370
    -2
100
AcDbLine
 10
1993.333914696435
 20
3865.311545485631
 30
0.0
 11
1993.333914696435
 21
3272.211545485633
 31
0.0
  0
INSERT
  5
31BF9
330
2FD5B
100
AcDbEntity
  8
DIM
 62
     0
370
    -2
100
AcDbBlockReference
  2
_Open30
 10
1993.333914696435
 20
3916.311545485631
 30
0.0
 41
51.0
 42
51.0
 43
51.0
 50
90.0
  0
INSERT
  5
31BFA
330
2FD5B
100
AcDbEntity
  8
DIM
 62
     0
370
    -2
100
AcDbBlockReference
  2
_Open30
 10
1993.333914696435
 20
3221.211545485634
 30
0.0
 41
51.0
 42
51.0
 43
51.0
 50
270.0
  0
MTEXT
  5
31BFB
330
2FD5B
100
AcDbEntity
  8
DIM
 62
     0
100
AcDbMText
 10
1955.083914696434
 20
3568.761545485633
 30
0.0
 40
42.5
 41
0.0
 46
0.0
 71
     5
 72
     1
  1
\A1;695
 11
0.0000000000000001
 21
1.0
 31
0.0
 73
     1
 44
1.0
  0
POINT
  5
31BFC
330
2FD5B
100
AcDbEntity
  8
Defpoints
 62
     0
100
AcDbPoint
 10
2427.885152994241
 20
3916.311545485631
 30
0.0
  0
POINT
  5
31BFD
330
2FD5B
100
AcDbEntity
  8
Defpoints
 62
     0
100
AcDbPoint
 10
2553.118486328366
 20
3221.211545485634
 30
0.0
  0
POINT
  5
31BFE
330
2FD5B
100
AcDbEntity
  8
Defpoints
 62
     0
100
AcDbPoint
 10
1993.333914696435
 20
3221.211545485634
 30
0.0
  0
ENDBLK
  5
2FD5D
330
2FD5B
100
AcDbEntity
  8
0
100
AcDbBlockEnd
  0
BLOCK
  5
2FD68
330
2FD67
100
AcDbEntity
  8
0
100
AcDbBlockBegin
  2
*D16
 70
     1
 10
0.0
 20
0.0
 30
0.0
  3
*D16
  1

  0
LINE
  5
31BFF
330
2FD67
100
AcDbEntity
  8
DIM
 62
     0
370
    -2
100
AcDbLine
 10
2443.826896765094
 20
3451.711545485598
 30
0.0
 11
2443.826896765094
 21
4108.878212152296
 31
0.0
  0
LINE
  5
31C00
330
2FD67
100
AcDbEntity
  8
DIM
 62
     0
370
    -2
100
AcDbLine
 10
3006.743409224994
 20
3453.711545485624
 30
0.0
 11
3006.743409224994
 21
4108.878212152296
 31
0.0
  0
LINE
  5
31C01
330
2FD67
100
AcDbEntity
  8
DIM
 62
     0
370
    -2
100
AcDbLine
 10
2494.826896765094
 20
4074.878212152296
 30
0.0
 11
2955.743409224993
 21
4074.878212152296
 31
0.0
  0
INSERT
  5
31C02
330
2FD67
100
AcDbEntity
  8
DIM
 62
     0
370
    -2
100
AcDbBlockReference
  2
_Open30
 10
2443.826896765094
 20
4074.878212152296
 30
0.0
 41
51.0
 42
51.0
 43
51.0
 50
180.0
  0
INSERT
  5
31C03
330
2FD67
100
AcDbEntity
  8
DIM
 62
     0
370
    -2
100
AcDbBlockReference
  2
_Open30
 10
3006.743409224994
 20
4074.878212152296
 30
0.0
 41
51.0
 42
51.0
 43
51.0
  0
MTEXT
  5
31C04
330
2FD67
100
AcDbEntity
  8
DIM
 62
     0
100
AcDbMText
 10
2725.285152995044
 20
4113.128212152296
 30
0.0
 40
42.5
 41
0.0
 46
0.0
 71
     5
 72
     1
  1
\A1;563
 73
     1
 44
1.0
  0
POINT
  5
31C05
330
2FD67
100
AcDbEntity
  8
Defpoints
 62
     0
100
AcDbPoint
 10
2443.826896765094
 20
3417.711545485598
 30
0.0
  0
POINT
  5
31C06
330
2FD67
100
AcDbEntity
  8
Defpoints
 62
     0
100
AcDbPoint
 10
3006.743409224994
 20
3419.711545485625
 30
0.0
  0
POINT
  5
31C07
330
2FD67
100
AcDbEntity
  8
Defpoints
 62
     0
100
AcDbPoint
 10
3006.743409224994
 20
4074.878212152296
 30
0.0
  0
ENDBLK
  5
2FD69
330
2FD67
100
AcDbEntity
  8
0
100
AcDbBlockEnd
  0
BLOCK
  5
2FD74
330
2FD73
100
AcDbEntity
  8
0
100
AcDbBlockBegin
  2
*D17
 70
     1
 10
0.0
 20
0.0
 30
0.0
  3
*D17
  1

  0
LINE
  5
31C08
330
2FD73
100
AcDbEntity
  8
DIM
 62
     0
370
    -2
100
AcDbLine
 10
2484.285152995033
 20
3209.711545485634
 30
0.0
 11
2484.285152995033
 21
2742.823787472843
 31
0.0
  0
LINE
  5
31C09
330
2FD73
100
AcDbEntity
  8
DIM
 62
     0
370
    -2
100
AcDbLine
 10
2400.285152994241
 20
3179.911545485633
 30
0.0
 11
2400.285152994241
 21
2742.823787472843
 31
0.0
  0
LINE
  5
31C0A
330
2FD73
100
AcDbEntity
  8
DIM
 62
     0
370
    -2
100
AcDbLine
 10
2535.285152995033
 20
2776.823787472844
 30
0.0
 11
2586.285152995033
 21
2776.823787472844
 31
0.0
  0
LINE
  5
31C0B
330
2FD73
100
AcDbEntity
  8
DIM
 62
     0
370
    -2
100
AcDbLine
 10
2349.285152994241
 20
2776.823787472844
 30
0.0
 11
2146.52858156567
 21
2776.823787472844
 31
0.0
  0
LINE
  5
31C0C
330
2FD73
100
AcDbEntity
  8
DIM
 62
     0
370
    -2
100
AcDbLine
 10
2484.285152995033
 20
2776.823787472844
 30
0.0
 11
2400.285152994241
 21
2776.823787472844
 31
0.0
  0
INSERT
  5
31C0D
330
2FD73
100
AcDbEntity
  8
DIM
 62
     0
370
    -2
100
AcDbBlockReference
  2
_Open30
 10
2484.285152995033
 20
2776.823787472844
 30
0.0
 41
51.0
 42
51.0
 43
51.0
 50
180.0
  0
INSERT
  5
31C0E
330
2FD73
100
AcDbEntity
  8
DIM
 62
     0
370
    -2
100
AcDbBlockReference
  2
_Open30
 10
2400.285152994241
 20
2776.823787472844
 30
0.0
 41
51.0
 42
51.0
 43
51.0
  0
MTEXT
  5
31C0F
330
2FD73
100
AcDbEntity
  8
DIM
 62
     0
100
AcDbMText
 10
2215.176200613289
 20
2815.073787472844
 30
0.0
 40
42.5
 41
0.0
 46
0.0
 71
     5
 72
     1
  1
\A1;（84）
 73
     1
 44
1.0
  0
POINT
  5
31C10
330
2FD73
100
AcDbEntity
  8
Defpoints
 62
     0
100
AcDbPoint
 10
2484.285152995033
 20
3243.711545485635
 30
0.0
  0
POINT
  5
31C11
330
2FD73
100
AcDbEntity
  8
Defpoints
 62
     0
100
AcDbPoint
 10
2400.285152994241
 20
3213.911545485633
 30
0.0
  0
POINT
  5
31C12
330
2FD73
100
AcDbEntity
  8
Defpoints
 62
     0
100
AcDbPoint
 10
2400.285152994241
 20
2776.823787472844
 30
0.0
  0
ENDBLK
  5
2FD75
330
2FD73
100
AcDbEntity
  8
0
100
AcDbBlockEnd
  0
BLOCK
  5
2FD80
330
2FD7F
100
AcDbEntity
  8
0
100
AcDbBlockBegin
  2
*D18
 70
     1
 10
0.0
 20
0.0
 30
0.0
  3
*D18
  1

  0
LINE
  5
31C13
330
2FD7F
100
AcDbEntity
  8
DIM
 62
     0
370
    -2
100
AcDbLine
 10
2725.285152995054
 20
3108.351300457687
 30
0.0
 11
2725.285152995054
 21
2742.823787472843
 31
0.0
  0
LINE
  5
31C14
330
2FD7F
100
AcDbEntity
  8
DIM
 62
     0
370
    -2
100
AcDbLine
 10
2484.285152995033
 20
3209.711545485634
 30
0.0
 11
2484.285152995033
 21
2742.823787472843
 31
0.0
  0
LINE
  5
31C15
330
2FD7F
100
AcDbEntity
  8
DIM
 62
     0
370
    -2
100
AcDbLine
 10
2674.285152995054
 20
2776.823787472844
 30
0.0
 11
2535.285152995033
 21
2776.823787472844
 31
0.0
  0
INSERT
  5
31C16
330
2FD7F
100
AcDbEntity
  8
DIM
 62
     0
370
    -2
100
AcDbBlockReference
  2
_Open30
 10
2725.285152995054
 20
2776.823787472844
 30
0.0
 41
51.0
 42
51.0
 43
51.0
  0
INSERT
  5
31C17
330
2FD7F
100
AcDbEntity
  8
DIM
 62
     0
370
    -2
100
AcDbBlockReference
  2
_Open30
 10
2484.285152995033
 20
2776.823787472844
 30
0.0
 41
51.0
 42
51.0
 43
51.0
 50
180.0
  0
MTEXT
  5
31C18
330
2FD7F
100
AcDbEntity
  8
DIM
 62
     0
100
AcDbMText
 10
2604.785152995044
 20
2815.073787472844
 30
0.0
 40
42.5
 41
0.0
 46
0.0
 71
     5
 72
     1
  1
\A1;241
 73
     1
 44
1.0
  0
POINT
  5
31C19
330
2FD7F
100
AcDbEntity
  8
Defpoints
 62
     0
100
AcDbPoint
 10
2725.285152995054
 20
3142.351300457686
 30
0.0
  0
POINT
  5
31C1A
330
2FD7F
100
AcDbEntity
  8
Defpoints
 62
     0
100
AcDbPoint
 10
2484.285152995033
 20
3243.711545485635
 30
0.0
  0
POINT
  5
31C1B
330
2FD7F
100
AcDbEntity
  8
Defpoints
 62
     0
100
AcDbPoint
 10
2484.285152995033
 20
2776.823787472844
 30
0.0
  0
ENDBLK
  5
2FD81
330
2FD7F
100
AcDbEntity
  8
0
100
AcDbBlockEnd
  0
BLOCK
  5
2FD8C
330
2FD8B
100
AcDbEntity
  8
0
100
AcDbBlockBegin
  2
*D19
 70
     1
 10
0.0
 20
0.0
 30
0.0
  3
*D19
  1

  0
LINE
  5
31D92
330
2FD8B
100
AcDbEntity
  8
DIM
 62
     0
370
    -2
100
AcDbLine
 10
2549.785152995033
 20
3234.711545485634
 30
0.0
 11
2101.07877263295
 21
3234.711545485634
 31
0.0
  0
LINE
  5
31D93
330
2FD8B
100
AcDbEntity
  8
DIM
 62
     0
370
    -2
100
AcDbLine
 10
2393.88515299424
 20
3916.311545485631
 30
0.0
 11
2101.07877263295
 21
3916.311545485631
 31
0.0
  0
LINE
  5
31D94
330
2FD8B
100
AcDbEntity
  8
DIM
 62
     0
370
    -2
100
AcDbLine
 10
2135.07877263295
 20
3285.711545485634
 30
0.0
 11
2135.07877263295
 21
3865.311545485631
 31
0.0
  0
INSERT
  5
31D95
330
2FD8B
100
AcDbEntity
  8
DIM
 62
     0
370
    -2
100
AcDbBlockReference
  2
_Open30
 10
2135.07877263295
 20
3234.711545485634
 30
0.0
 41
51.0
 42
51.0
 43
51.0
 50
270.0
  0
INSERT
  5
31D96
330
2FD8B
100
AcDbEntity
  8
DIM
 62
     0
370
    -2
100
AcDbBlockReference
  2
_Open30
 10
2135.07877263295
 20
3916.311545485631
 30
0.0
 41
51.0
 42
51.0
 43
51.0
 50
90.0
  0
MTEXT
  5
31D97
330
2FD8B
100
AcDbEntity
  8
DIM
 62
     0
100
AcDbMText
 10
2096.828772632949
 20
3575.511545485634
 30
0.0
 40
42.5
 41
0.0
 46
0.0
 71
     5
 72
     1
  1
\A1;682
 11
0.0000000000000001
 21
1.0
 31
0.0
 73
     1
 44
1.0
  0
POINT
  5
31D98
330
2FD8B
100
AcDbEntity
  8
Defpoints
 62
     0
100
AcDbPoint
 10
2583.785152995033
 20
3234.711545485634
 30
0.0
  0
POINT
  5
31D99
330
2FD8B
100
AcDbEntity
  8
Defpoints
 62
     0
100
AcDbPoint
 10
2427.885152994241
 20
3916.311545485631
 30
0.0
  0
POINT
  5
31D9A
330
2FD8B
100
AcDbEntity
  8
Defpoints
 62
     0
100
AcDbPoint
 10
2135.07877263295
 20
3916.311545485631
 30
0.0
  0
ENDBLK
  5
2FD8D
330
2FD8B
100
AcDbEntity
  8
0
100
AcDbBlockEnd
  0
BLOCK
  5
2FD98
330
2FD97
100
AcDbEntity
  8
0
100
AcDbBlockBegin
  2
*D20
 70
     1
 10
0.0
 20
0.0
 30
0.0
  3
*D20
  1

  0
LINE
  5
31C25
330
2FD97
100
AcDbEntity
  8
DIM
 62
     0
370
    -2
100
AcDbLine
 10
2430.785152995033
 20
3263.211545485634
 30
0.0
 11
2329.885152994238
 21
3263.211545485634
 31
0.0
  0
LINE
  5
31C26
330
2FD97
100
AcDbEntity
  8
DIM
 62
     0
370
    -2
100
AcDbLine
 10
2393.88515299424
 20
3916.311545485631
 30
0.0
 11
2329.885152994239
 21
3916.311545485631
 31
0.0
  0
LINE
  5
31C27
330
2FD97
100
AcDbEntity
  8
DIM
 62
     0
370
    -2
100
AcDbLine
 10
2363.885152994238
 20
3314.211545485635
 30
0.0
 11
2363.885152994239
 21
3865.311545485631
 31
0.0
  0
INSERT
  5
31C28
330
2FD97
100
AcDbEntity
  8
DIM
 62
     0
370
    -2
100
AcDbBlockReference
  2
_Open30
 10
2363.885152994238
 20
3263.211545485634
 30
0.0
 41
51.0
 42
51.0
 43
51.0
 50
270.0
  0
INSERT
  5
31C29
330
2FD97
100
AcDbEntity
  8
DIM
 62
     0
370
    -2
100
AcDbBlockReference
  2
_Open30
 10
2363.885152994239
 20
3916.311545485631
 30
0.0
 41
51.0
 42
51.0
 43
51.0
 50
90.0
  0
MTEXT
  5
31C2A
330
2FD97
100
AcDbEntity
  8
DIM
 62
     0
100
AcDbMText
 10
2325.635152994238
 20
3589.761545485633
 30
0.0
 40
42.5
 41
0.0
 46
0.0
 71
     5
 72
     1
  1
\A1;653
 11
0.0000000000000001
 21
1.0
 31
0.0
 73
     1
 44
1.0
  0
POINT
  5
31C2B
330
2FD97
100
AcDbEntity
  8
Defpoints
 62
     0
100
AcDbPoint
 10
2464.785152995033
 20
3263.211545485634
 30
0.0
  0
POINT
  5
31C2C
330
2FD97
100
AcDbEntity
  8
Defpoints
 62
     0
100
AcDbPoint
 10
2427.885152994241
 20
3916.311545485631
 30
0.0
  0
POINT
  5
31C2D
330
2FD97
100
AcDbEntity
  8
Defpoints
 62
     0
100
AcDbPoint
 10
2363.885152994239
 20
3916.311545485631
 30
0.0
  0
ENDBLK
  5
2FD99
330
2FD97
100
AcDbEntity
  8
0
100
AcDbBlockEnd
  0
BLOCK
  5
2FDA4
330
2FDA3
100
AcDbEntity
  8
0
100
AcDbBlockBegin
  2
*D21
 70
     1
 10
0.0
 20
0.0
 30
0.0
  3
*D21
  1

  0
LINE
  5
31C2E
330
2FDA3
100
AcDbEntity
  8
DIM
 62
     0
370
    -2
100
AcDbLine
 10
2725.285152995054
 20
3108.351300457687
 30
0.0
 11
2725.285152995054
 21
2861.170304859794
 31
0.0
  0
LINE
  5
31C2F
330
2FDA3
100
AcDbEntity
  8
DIM
 62
     0
370
    -2
100
AcDbLine
 10
2573.285152995033
 20
3167.711545485634
 30
0.0
 11
2573.285152995033
 21
2861.170304859794
 31
0.0
  0
LINE
  5
31C30
330
2FDA3
100
AcDbEntity
  8
DIM
 62
     0
370
    -2
100
AcDbLine
 10
2674.285152995054
 20
2895.170304859794
 30
0.0
 11
2624.285152995033
 21
2895.170304859794
 31
0.0
  0
INSERT
  5
31C31
330
2FDA3
100
AcDbEntity
  8
DIM
 62
     0
370
    -2
100
AcDbBlockReference
  2
_Open30
 10
2725.285152995054
 20
2895.170304859794
 30
0.0
 41
51.0
 42
51.0
 43
51.0
  0
INSERT
  5
31C32
330
2FDA3
100
AcDbEntity
  8
DIM
 62
     0
370
    -2
100
AcDbBlockReference
  2
_Open30
 10
2573.285152995033
 20
2895.170304859794
 30
0.0
 41
51.0
 42
51.0
 43
51.0
 50
180.0
  0
MTEXT
  5
31C33
330
2FDA3
100
AcDbEntity
  8
DIM
 62
     0
100
AcDbMText
 10
2649.285152995044
 20
2933.420304859795
 30
0.0
 40
42.5
 41
0.0
 46
0.0
 71
     5
 72
     1
  1
\A1;152
 73
     1
 44
1.0
  0
POINT
  5
31C34
330
2FDA3
100
AcDbEntity
  8
Defpoints
 62
     0
100
AcDbPoint
 10
2725.285152995054
 20
3142.351300457686
 30
0.0
  0
POINT
  5
31C35
330
2FDA3
100
AcDbEntity
  8
Defpoints
 62
     0
100
AcDbPoint
 10
2573.285152995033
 20
3201.711545485633
 30
0.0
  0
POINT
  5
31C36
330
2FDA3
100
AcDbEntity
  8
Defpoints
 62
     0
100
AcDbPoint
 10
2573.285152995033
 20
2895.170304859794
 30
0.0
  0
ENDBLK
  5
2FDA5
330
2FDA3
100
AcDbEntity
  8
0
100
AcDbBlockEnd
  0
BLOCK
  5
2FDB0
330
2FDAF
100
AcDbEntity
  8
0
100
AcDbBlockBegin
  2
*D22
 70
     1
 10
0.0
 20
0.0
 30
0.0
  3
*D22
  1

  0
LINE
  5
31C37
330
2FDAF
100
AcDbEntity
  8
DIM
 62
     0
370
    -2
100
AcDbLine
 10
2725.285152995054
 20
3108.351300457687
 30
0.0
 11
2725.285152995054
 21
2861.170304859794
 31
0.0
  0
LINE
  5
31C38
330
2FDAF
100
AcDbEntity
  8
DIM
 62
     0
370
    -2
100
AcDbLine
 10
2862.785180516633
 20
3163.711539988879
 30
0.0
 11
2862.785180516633
 21
2861.170304859794
 31
0.0
  0
LINE
  5
31C39
330
2FDAF
100
AcDbEntity
  8
DIM
 62
     0
370
    -2
100
AcDbLine
 10
2776.285152995054
 20
2895.170304859794
 30
0.0
 11
2811.785180516633
 21
2895.170304859794
 31
0.0
  0
INSERT
  5
31C3A
330
2FDAF
100
AcDbEntity
  8
DIM
 62
     0
370
    -2
100
AcDbBlockReference
  2
_Open30
 10
2725.285152995054
 20
2895.170304859794
 30
0.0
 41
51.0
 42
51.0
 43
51.0
 50
180.0
  0
INSERT
  5
31C3B
330
2FDAF
100
AcDbEntity
  8
DIM
 62
     0
370
    -2
100
AcDbBlockReference
  2
_Open30
 10
2862.785180516633
 20
2895.170304859794
 30
0.0
 41
51.0
 42
51.0
 43
51.0
  0
MTEXT
  5
31C3C
330
2FDAF
100
AcDbEntity
  8
DIM
 62
     0
100
AcDbMText
 10
2794.035166755844
 20
2933.420304859795
 30
0.0
 40
42.5
 41
0.0
 46
0.0
 71
     5
 72
     1
  1
\A1;138
 73
     1
 44
1.0
  0
POINT
  5
31C3D
330
2FDAF
100
AcDbEntity
  8
Defpoints
 62
     0
100
AcDbPoint
 10
2725.285152995054
 20
3142.351300457686
 30
0.0
  0
POINT
  5
31C3E
330
2FDAF
100
AcDbEntity
  8
Defpoints
 62
     0
100
AcDbPoint
 10
2862.785180516633
 20
3197.711539988879
 30
0.0
  0
POINT
  5
31C3F
330
2FDAF
100
AcDbEntity
  8
Defpoints
 62
     0
100
AcDbPoint
 10
2862.785180516633
 20
2895.170304859794
 30
0.0
  0
ENDBLK
  5
2FDB1
330
2FDAF
100
AcDbEntity
  8
0
100
AcDbBlockEnd
  0
BLOCK
  5
2FDBC
330
2FDBB
100
AcDbEntity
  8
0
100
AcDbBlockBegin
  2
*D23
 70
     1
 10
0.0
 20
0.0
 30
0.0
  3
*D23
  1

  0
LINE
  5
31C40
330
2FDBB
100
AcDbEntity
  8
DIM
 62
     0
370
    -2
100
AcDbLine
 10
2862.785180516633
 20
3163.711539988879
 30
0.0
 11
2862.785180516633
 21
2861.170304859794
 31
0.0
  0
LINE
  5
31C41
330
2FDBB
100
AcDbEntity
  8
DIM
 62
     0
370
    -2
100
AcDbLine
 10
3050.28515299424
 20
3179.911545485633
 30
0.0
 11
3050.28515299424
 21
2861.170304859794
 31
0.0
  0
LINE
  5
31C42
330
2FDBB
100
AcDbEntity
  8
DIM
 62
     0
370
    -2
100
AcDbLine
 10
2913.785180516633
 20
2895.170304859794
 30
0.0
 11
2999.28515299424
 21
2895.170304859794
 31
0.0
  0
INSERT
  5
31C43
330
2FDBB
100
AcDbEntity
  8
DIM
 62
     0
370
    -2
100
AcDbBlockReference
  2
_Open30
 10
2862.785180516633
 20
2895.170304859794
 30
0.0
 41
51.0
 42
51.0
 43
51.0
 50
180.0
  0
INSERT
  5
31C44
330
2FDBB
100
AcDbEntity
  8
DIM
 62
     0
370
    -2
100
AcDbBlockReference
  2
_Open30
 10
3050.28515299424
 20
2895.170304859794
 30
0.0
 41
51.0
 42
51.0
 43
51.0
  0
MTEXT
  5
31C45
330
2FDBB
100
AcDbEntity
  8
DIM
 62
     0
100
AcDbMText
 10
2956.535166755437
 20
2933.420304859795
 30
0.0
 40
42.5
 41
0.0
 46
0.0
 71
     5
 72
     1
  1
\A1;（187）
 73
     1
 44
1.0
  0
POINT
  5
31C46
330
2FDBB
100
AcDbEntity
  8
Defpoints
 62
     0
100
AcDbPoint
 10
2862.785180516633
 20
3197.711539988879
 30
0.0
  0
POINT
  5
31C47
330
2FDBB
100
AcDbEntity
  8
Defpoints
 62
     0
100
AcDbPoint
 10
3050.28515299424
 20
3213.911545485633
 30
0.0
  0
POINT
  5
31C48
330
2FDBB
100
AcDbEntity
  8
Defpoints
 62
     0
100
AcDbPoint
 10
3050.28515299424
 20
2895.170304859794
 30
0.0
  0
ENDBLK
  5
2FDBD
330
2FDBB
100
AcDbEntity
  8
0
100
AcDbBlockEnd
  0
BLOCK
  5
2FDD5
330
2FDD4
100
AcDbEntity
  8
0
100
AcDbBlockBegin
  2
*D24
 70
     1
 10
0.0
 20
0.0
 30
0.0
  3
*D24
  1

  0
LINE
  5
31F09
330
2FDD4
100
AcDbEntity
  8
DIM
 62
     0
370
    -2
100
AcDbLine
 10
2933.285180516632
 20
3234.211539988879
 30
0.0
 11
3341.030422309753
 21
3234.211539988878
 31
0.0
  0
LINE
  5
31F0A
330
2FDD4
100
AcDbEntity
  8
DIM
 62
     0
370
    -2
100
AcDbLine
 10
3056.685152994241
 20
3916.311545485631
 30
0.0
 11
3341.030422309753
 21
3916.311545485631
 31
0.0
  0
LINE
  5
31F0B
330
2FDD4
100
AcDbEntity
  8
DIM
 62
     0
370
    -2
100
AcDbLine
 10
3307.030422309753
 20
3285.211539988878
 30
0.0
 11
3307.030422309753
 21
3865.311545485631
 31
0.0
  0
INSERT
  5
31F0C
330
2FDD4
100
AcDbEntity
  8
DIM
 62
     0
370
    -2
100
AcDbBlockReference
  2
_Open30
 10
3307.030422309753
 20
3234.211539988878
 30
0.0
 41
51.0
 42
51.0
 43
51.0
 50
270.0
  0
INSERT
  5
31F0D
330
2FDD4
100
AcDbEntity
  8
DIM
 62
     0
370
    -2
100
AcDbBlockReference
  2
_Open30
 10
3307.030422309753
 20
3916.311545485631
 30
0.0
 41
51.0
 42
51.0
 43
51.0
 50
90.0
  0
MTEXT
  5
31F0E
330
2FDD4
100
AcDbEntity
  8
DIM
 62
     0
100
AcDbMText
 10
3268.780422309752
 20
3575.261542737255
 30
0.0
 40
42.5
 41
0.0
 46
0.0
 71
     5
 72
     1
  1
\A1;682
 11
0.0000000000000001
 21
1.0
 31
0.0
 73
     1
 44
1.0
  0
POINT
  5
31F0F
330
2FDD4
100
AcDbEntity
  8
Defpoints
 62
     0
100
AcDbPoint
 10
2899.285180516633
 20
3234.211539988879
 30
0.0
  0
POINT
  5
31F10
330
2FDD4
100
AcDbEntity
  8
Defpoints
 62
     0
100
AcDbPoint
 10
3022.685152994241
 20
3916.311545485631
 30
0.0
  0
POINT
  5
31F11
330
2FDD4
100
AcDbEntity
  8
Defpoints
 62
     0
100
AcDbPoint
 10
3307.030422309753
 20
3916.311545485631
 30
0.0
  0
ENDBLK
  5
2FDD6
330
2FDD4
100
AcDbEntity
  8
0
100
AcDbBlockEnd
  0
BLOCK
  5
2FDE1
330
2FDE0
100
AcDbEntity
  8
0
100
AcDbBlockBegin
  2
*D25
 70
     1
 10
0.0
 20
0.0
 30
0.0
  3
*D25
  1

  0
LINE
  5
31C5B
330
2FDE0
100
AcDbEntity
  8
DIM
 62
     0
370
    -2
100
AcDbLine
 10
2829.885152982058
 20
3243.641545485644
 30
0.0
 11
3197.245903334006
 21
3243.641545485643
 31
0.0
  0
LINE
  5
31C5C
330
2FDE0
100
AcDbEntity
  8
DIM
 62
     0
370
    -2
100
AcDbLine
 10
3056.685152994241
 20
3916.311545485633
 30
0.0
 11
3197.245903334007
 21
3916.311545485632
 31
0.0
  0
LINE
  5
31C5D
330
2FDE0
100
AcDbEntity
  8
DIM
 62
     0
370
    -2
100
AcDbLine
 10
3163.245903334006
 20
3294.641545485645
 30
0.0
 11
3163.245903334007
 21
3865.311545485633
 31
0.0
  0
INSERT
  5
31C5E
330
2FDE0
100
AcDbEntity
  8
DIM
 62
     0
370
    -2
100
AcDbBlockReference
  2
_Open30
 10
3163.245903334006
 20
3243.641545485643
 30
0.0
 41
51.0
 42
51.0
 43
51.0
 50
270.0
  0
INSERT
  5
31C5F
330
2FDE0
100
AcDbEntity
  8
DIM
 62
     0
370
    -2
100
AcDbBlockReference
  2
_Open30
 10
3163.245903334007
 20
3916.311545485632
 30
0.0
 41
51.0
 42
51.0
 43
51.0
 50
90.0
  0
MTEXT
  5
31C60
330
2FDE0
100
AcDbEntity
  8
DIM
 62
     0
100
AcDbMText
 10
3124.995903334006
 20
3579.976545485639
 30
0.0
 40
42.5
 41
0.0
 46
0.0
 71
     5
 72
     1
  1
\A1;673
 11
0.0000000000000001
 21
1.0
 31
0.0
 73
     1
 44
1.0
  0
POINT
  5
31C61
330
2FDE0
100
AcDbEntity
  8
Defpoints
 62
     0
100
AcDbPoint
 10
2795.885152982058
 20
3243.641545485644
 30
0.0
  0
POINT
  5
31C62
330
2FDE0
100
AcDbEntity
  8
Defpoints
 62
     0
100
AcDbPoint
 10
3022.685152994241
 20
3916.311545485633
 30
0.0
  0
POINT
  5
31C63
330
2FDE0
100
AcDbEntity
  8
Defpoints
 62
     0
100
AcDbPoint
 10
3163.245903334007
 20
3916.311545485632
 30
0.0
  0
ENDBLK
  5
2FDE2
330
2FDE0
100
AcDbEntity
  8
0
100
AcDbBlockEnd
  0
BLOCK
  5
2FDED
330
2FDEC
100
AcDbEntity
  8
0
100
AcDbBlockBegin
  2
*D26
 70
     1
 10
0.0
 20
0.0
 30
0.0
  3
*D26
  1

  0
LINE
  5
31EF6
330
2FDEC
100
AcDbEntity
  8
DIM
 62
     0
370
    -2
100
AcDbLine
 10
3070.743409224992
 20
3419.711545485625
 30
0.0
 11
3452.943127763864
 21
3419.711545485624
 31
0.0
  0
LINE
  5
31EF7
330
2FDEC
100
AcDbEntity
  8
DIM
 62
     0
370
    -2
100
AcDbLine
 10
3056.68515299424
 20
3186.311545485632
 30
0.0
 11
3452.943127763864
 21
3186.311545485632
 31
0.0
  0
LINE
  5
31EF8
330
2FDEC
100
AcDbEntity
  8
DIM
 62
     0
370
    -2
100
AcDbLine
 10
3418.943127763864
 20
3368.711545485624
 30
0.0
 11
3418.943127763864
 21
3237.311545485632
 31
0.0
  0
LINE
  5
31EF9
330
2FDEC
100
AcDbEntity
  8
DIM
 62
     0
370
    -2
100
AcDbLine
 10
3418.943127763864
 20
3186.311545485632
 30
0.0
 11
3418.943127763864
 21
2965.635355009441
 31
0.0
  0
INSERT
  5
31EFA
330
2FDEC
100
AcDbEntity
  8
DIM
 62
     0
370
    -2
100
AcDbBlockReference
  2
_Open30
 10
3418.943127763864
 20
3419.711545485624
 30
0.0
 41
51.0
 42
51.0
 43
51.0
 50
90.0
  0
INSERT
  5
31EFB
330
2FDEC
100
AcDbEntity
  8
DIM
 62
     0
370
    -2
100
AcDbBlockReference
  2
_Open30
 10
3418.943127763864
 20
3186.311545485632
 30
0.0
 41
51.0
 42
51.0
 43
51.0
 50
270.0
  0
MTEXT
  5
31EFC
330
2FDEC
100
AcDbEntity
  8
DIM
 62
     0
100
AcDbMText
 10
3380.693127763863
 20
3050.473450247537
 30
0.0
 40
42.5
 41
0.0
 46
0.0
 71
     5
 72
     1
  1
\A1;（233）
 11
0.0000000000000001
 21
1.0
 31
0.0
 73
     1
 44
1.0
  0
POINT
  5
31EFD
330
2FDEC
100
AcDbEntity
  8
Defpoints
 62
     0
100
AcDbPoint
 10
3036.743409224992
 20
3419.711545485625
 30
0.0
  0
POINT
  5
31EFE
330
2FDEC
100
AcDbEntity
  8
Defpoints
 62
     0
100
AcDbPoint
 10
3022.68515299424
 20
3186.311545485632
 30
0.0
  0
POINT
  5
31EFF
330
2FDEC
100
AcDbEntity
  8
Defpoints
 62
     0
100
AcDbPoint
 10
3418.943127763864
 20
3186.311545485632
 30
0.0
  0
ENDBLK
  5
2FDEE
330
2FDEC
100
AcDbEntity
  8
0
100
AcDbBlockEnd
  0
BLOCK
  5
2FDFA
330
2FDF9
100
AcDbEntity
  8
0
100
AcDbBlockBegin
  2
*D27
 70
     1
 10
0.0
 20
0.0
 30
0.0
  3
*D27
  1

  0
LINE
  5
31C6D
330
2FDF9
100
AcDbEntity
  8
DIM
 62
     0
370
    -2
100
AcDbLine
 10
2725.285152995054
 20
3108.351300457687
 30
0.0
 11
2725.285152995054
 21
2995.747079026305
 31
0.0
  0
LINE
  5
31C6E
330
2FDF9
100
AcDbEntity
  8
DIM
 62
     0
370
    -2
100
AcDbLine
 10
2775.285152995051
 20
3191.577590861102
 30
0.0
 11
2775.285152995051
 21
2995.747079026305
 31
0.0
  0
LINE
  5
31C6F
330
2FDF9
100
AcDbEntity
  8
DIM
 62
     0
370
    -2
100
AcDbLine
 10
2674.285152995054
 20
3029.747079026305
 30
0.0
 11
2623.285152995054
 21
3029.747079026305
 31
0.0
  0
LINE
  5
31C70
330
2FDF9
100
AcDbEntity
  8
DIM
 62
     0
370
    -2
100
AcDbLine
 10
2826.28515299505
 20
3029.747079026305
 30
0.0
 11
2974.039438709336
 21
3029.747079026305
 31
0.0
  0
LINE
  5
31C71
330
2FDF9
100
AcDbEntity
  8
DIM
 62
     0
370
    -2
100
AcDbLine
 10
2725.285152995054
 20
3029.747079026305
 30
0.0
 11
2775.285152995051
 21
3029.747079026305
 31
0.0
  0
INSERT
  5
31C72
330
2FDF9
100
AcDbEntity
  8
DIM
 62
     0
370
    -2
100
AcDbBlockReference
  2
_Open30
 10
2725.285152995054
 20
3029.747079026305
 30
0.0
 41
51.0
 42
51.0
 43
51.0
  0
INSERT
  5
31C73
330
2FDF9
100
AcDbEntity
  8
DIM
 62
     0
370
    -2
100
AcDbBlockReference
  2
_Open30
 10
2775.285152995051
 20
3029.747079026305
 30
0.0
 41
51.0
 42
51.0
 43
51.0
 50
180.0
  0
MTEXT
  5
31C74
330
2FDF9
100
AcDbEntity
  8
DIM
 62
     0
100
AcDbMText
 10
2929.515629185527
 20
3067.997079026305
 30
0.0
 40
42.5
 41
0.0
 46
0.0
 71
     5
 72
     1
  1
\A1;50
 73
     1
 44
1.0
  0
POINT
  5
31C75
330
2FDF9
100
AcDbEntity
  8
Defpoints
 62
     0
100
AcDbPoint
 10
2725.285152995054
 20
3142.351300457686
 30
0.0
  0
POINT
  5
31C76
330
2FDF9
100
AcDbEntity
  8
Defpoints
 62
     0
100
AcDbPoint
 10
2775.285152995051
 20
3225.577590861103
 30
0.0
  0
POINT
  5
31C77
330
2FDF9
100
AcDbEntity
  8
Defpoints
 62
     0
100
AcDbPoint
 10
2775.285152995051
 20
3029.747079026305
 30
0.0
  0
ENDBLK
  5
2FDFB
330
2FDF9
100
AcDbEntity
  8
0
100
AcDbBlockEnd
  0
BLOCK
  5
2FE22
330
2FE21
100
AcDbEntity
  8
0
100
AcDbBlockBegin
  2
*D28
 70
     1
 10
0.0
 20
0.0
 30
0.0
  3
*D28
  1

  0
LINE
  5
31C83
330
2FE21
100
AcDbEntity
  8
DIM
 62
     0
370
    -2
100
AcDbLine
 10
2718.285152995054
 20
3936.211545485631
 30
0.0
 11
2718.285152995054
 21
4004.211545485629
 31
0.0
  0
LINE
  5
31C84
330
2FE21
100
AcDbEntity
  8
DIM
 62
     0
370
    -2
100
AcDbLine
 10
2732.285152995054
 20
3936.211545485631
 30
0.0
 11
2732.285152995054
 21
4004.211545485629
 31
0.0
  0
LINE
  5
31C85
330
2FE21
100
AcDbEntity
  8
DIM
 62
     0
370
    -2
100
AcDbLine
 10
2667.285152995054
 20
3970.211545485631
 30
0.0
 11
2616.285152995054
 21
3970.211545485631
 31
0.0
  0
LINE
  5
31C86
330
2FE21
100
AcDbEntity
  8
DIM
 62
     0
370
    -2
100
AcDbLine
 10
2783.285152995054
 20
3970.211545485631
 30
0.0
 11
2918.47562918553
 21
3970.211545485631
 31
0.0
  0
LINE
  5
31C87
330
2FE21
100
AcDbEntity
  8
DIM
 62
     0
370
    -2
100
AcDbLine
 10
2718.285152995054
 20
3970.211545485631
 30
0.0
 11
2732.285152995054
 21
3970.211545485631
 31
0.0
  0
INSERT
  5
31C88
330
2FE21
100
AcDbEntity
  8
DIM
 62
     0
370
    -2
100
AcDbBlockReference
  2
_Open30
 10
2718.285152995054
 20
3970.211545485631
 30
0.0
 41
51.0
 42
51.0
 43
51.0
  0
INSERT
  5
31C89
330
2FE21
100
AcDbEntity
  8
DIM
 62
     0
370
    -2
100
AcDbBlockReference
  2
_Open30
 10
2732.285152995054
 20
3970.211545485631
 30
0.0
 41
51.0
 42
51.0
 43
51.0
 50
180.0
  0
MTEXT
  5
31C8A
330
2FE21
100
AcDbEntity
  8
DIM
 62
     0
100
AcDbMText
 10
2876.380391090292
 20
4008.461545485631
 30
0.0
 40
42.5
 41
0.0
 46
0.0
 71
     5
 72
     1
  1
\A1;14
 73
     1
 44
1.0
  0
POINT
  5
31C8B
330
2FE21
100
AcDbEntity
  8
Defpoints
 62
     0
100
AcDbPoint
 10
2718.285152995054
 20
3902.211545485632
 30
0.0
  0
POINT
  5
31C8C
330
2FE21
100
AcDbEntity
  8
Defpoints
 62
     0
100
AcDbPoint
 10
2732.285152995054
 20
3902.211545485632
 30
0.0
  0
POINT
  5
31C8D
330
2FE21
100
AcDbEntity
  8
Defpoints
 62
     0
100
AcDbPoint
 10
2732.285152995054
 20
3970.211545485631
 30
0.0
  0
ENDBLK
  5
2FE23
330
2FE21
100
AcDbEntity
  8
0
100
AcDbBlockEnd
  0
BLOCK
  5
31DF2
330
31DF1
100
AcDbEntity
  8
0
100
AcDbBlockBegin
  2
*D29
 70
     1
 10
0.0
 20
0.0
 30
0.0
  3
*D29
  1

  0
LINE
  5
31E18
330
31DF1
100
AcDbEntity
  8
DIM
 62
     0
370
    -2
100
AcDbLine
 10
1396.862637859797
 20
567.9247180267777
 30
0.0
 11
2025.31136078918
 21
567.9247180267776
 31
0.0
  0
LINE
  5
31E19
330
31DF1
100
AcDbEntity
  8
DIM
 62
     0
370
    -2
100
AcDbLine
 10
1348.003746535527
 20
2414.424718026778
 30
0.0
 11
2025.311360789181
 21
2414.424718026778
 31
0.0
  0
LINE
  5
31E1A
330
31DF1
100
AcDbEntity
  8
DIM
 62
     0
370
    -2
100
AcDbLine
 10
1991.31136078918
 20
618.9247180267776
 30
0.0
 11
1991.31136078918
 21
2363.424718026778
 31
0.0
  0
INSERT
  5
31E1B
330
31DF1
100
AcDbEntity
  8
DIM
 62
     0
370
    -2
100
AcDbBlockReference
  2
_Open30
 10
1991.31136078918
 20
567.9247180267776
 30
0.0
 41
51.0
 42
51.0
 43
51.0
 50
270.0
  0
INSERT
  5
31E1C
330
31DF1
100
AcDbEntity
  8
DIM
 62
     0
370
    -2
100
AcDbBlockReference
  2
_Open30
 10
1991.31136078918
 20
2414.424718026778
 30
0.0
 41
51.0
 42
51.0
 43
51.0
 50
90.0
  0
MTEXT
  5
31E1D
330
31DF1
100
AcDbEntity
  8
DIM
 62
     0
100
AcDbMText
 10
1953.06136078918
 20
1491.174718026778
 30
0.0
 40
42.5
 41
0.0
 46
0.0
 71
     5
 72
     1
  1
\A1;1847
 11
0.0000000000000001
 21
1.0
 31
0.0
 73
     1
 44
1.0
  0
POINT
  5
31E1E
330
31DF1
100
AcDbEntity
  8
Defpoints
 62
     0
100
AcDbPoint
 10
1362.862637859796
 20
567.9247180267777
 30
0.0
  0
POINT
  5
31E1F
330
31DF1
100
AcDbEntity
  8
Defpoints
 62
     0
100
AcDbPoint
 10
1314.003746535526
 20
2414.424718026778
 30
0.0
  0
POINT
  5
31E20
330
31DF1
100
AcDbEntity
  8
Defpoints
 62
     0
100
AcDbPoint
 10
1991.31136078918
 20
2414.424718026778
 30
0.0
  0
ENDBLK
  5
31DF3
330
31DF1
100
AcDbEntity
  8
0
100
AcDbBlockEnd
  0
BLOCK
  5
31E97
330
31E96
100
AcDbEntity
  8
0
100
AcDbBlockBegin
  2
*D30
 70
     1
 10
0.0
 20
0.0
 30
0.0
  3
*D30
  1

  0
LINE
  5
31F76
330
31E96
100
AcDbEntity
  8
DIM
 62
     0
370
    -2
100
AcDbLine
 10
3090.685152994241
 20
3916.311545485632
 30
0.0
 11
3452.943127763863
 21
3916.311545485632
 31
0.0
  0
LINE
  5
31F77
330
31E96
100
AcDbEntity
  8
DIM
 62
     0
370
    -2
100
AcDbLine
 10
2759.285152995054
 20
3887.211545485631
 30
0.0
 11
3452.943127763863
 21
3887.211545485631
 31
0.0
  0
LINE
  5
31F78
330
31E96
100
AcDbEntity
  8
DIM
 62
     0
370
    -2
100
AcDbLine
 10
3418.943127763863
 20
3836.21154548563
 30
0.0
 11
3418.943127763863
 21
3785.211545485632
 31
0.0
  0
LINE
  5
31F79
330
31E96
100
AcDbEntity
  8
DIM
 62
     0
370
    -2
100
AcDbLine
 10
3418.943127763863
 20
3967.311545485633
 30
0.0
 11
3418.943127763863
 21
4113.220116914202
 31
0.0
  0
LINE
  5
31F7A
330
31E96
100
AcDbEntity
  8
DIM
 62
     0
370
    -2
100
AcDbLine
 10
3418.943127763863
 20
3887.211545485631
 30
0.0
 11
3418.943127763863
 21
3916.311545485632
 31
0.0
  0
INSERT
  5
31F7B
330
31E96
100
AcDbEntity
  8
DIM
 62
     0
370
    -2
100
AcDbBlockReference
  2
_Open30
 10
3418.943127763863
 20
3887.211545485631
 30
0.0
 41
51.0
 42
51.0
 43
51.0
 50
90.0
  0
INSERT
  5
31F7C
330
31E96
100
AcDbEntity
  8
DIM
 62
     0
370
    -2
100
AcDbBlockReference
  2
_Open30
 10
3418.943127763863
 20
3916.311545485632
 30
0.0
 41
51.0
 42
51.0
 43
51.0
 50
270.0
  0
MTEXT
  5
31F7D
330
31E96
100
AcDbEntity
  8
DIM
 62
     0
100
AcDbMText
 10
3380.693127763863
 20
4069.505831199919
 30
0.0
 40
42.5
 41
0.0
 46
0.0
 71
     5
 72
     1
  1
\A1;29
 11
0.0000000000000001
 21
1.0
 31
0.0
 73
     1
 44
1.0
  0
POINT
  5
31F7E
330
31E96
100
AcDbEntity
  8
Defpoints
 62
     0
100
AcDbPoint
 10
3056.685152994241
 20
3916.311545485633
 30
0.0
  0
POINT
  5
31F7F
330
31E96
100
AcDbEntity
  8
Defpoints
 62
     0
100
AcDbPoint
 10
2725.285152995054
 20
3887.211545485631
 30
0.0
  0
POINT
  5
31F80
330
31E96
100
AcDbEntity
  8
Defpoints
 62
     0
100
AcDbPoint
 10
3418.943127763863
 20
3887.211545485631
 30
0.0
  0
ENDBLK
  5
31E98
330
31E96
100
AcDbEntity
  8
0
100
AcDbBlockEnd
  0
BLOCK
  5
31EC5
330
31EC4
100
AcDbEntity
  8
0
100
AcDbBlockBegin
  2
*D31
 70
     1
 10
0.0
 20
0.0
 30
0.0
  3
*D31
  1

  0
LINE
  5
31F6D
330
31EC4
100
AcDbEntity
  8
DIM
 62
     0
370
    -2
100
AcDbLine
 10
2834.285152995054
 20
3887.211545485631
 30
0.0
 11
3452.943127763863
 21
3887.211545485631
 31
0.0
  0
LINE
  5
31F6E
330
31EC4
100
AcDbEntity
  8
DIM
 62
     0
370
    -2
100
AcDbLine
 10
3104.743409224992
 20
3419.711545485624
 30
0.0
 11
3452.943127763862
 21
3419.711545485624
 31
0.0
  0
LINE
  5
31F6F
330
31EC4
100
AcDbEntity
  8
DIM
 62
     0
370
    -2
100
AcDbLine
 10
3418.943127763863
 20
3836.21154548563
 30
0.0
 11
3418.943127763863
 21
3470.711545485624
 31
0.0
  0
INSERT
  5
31F70
330
31EC4
100
AcDbEntity
  8
DIM
 62
     0
370
    -2
100
AcDbBlockReference
  2
_Open30
 10
3418.943127763863
 20
3887.211545485631
 30
0.0
 41
51.0
 42
51.0
 43
51.0
 50
90.0
  0
INSERT
  5
31F71
330
31EC4
100
AcDbEntity
  8
DIM
 62
     0
370
    -2
100
AcDbBlockReference
  2
_Open30
 10
3418.943127763863
 20
3419.711545485624
 30
0.0
 41
51.0
 42
51.0
 43
51.0
 50
270.0
  0
MTEXT
  5
31F72
330
31EC4
100
AcDbEntity
  8
DIM
 62
     0
100
AcDbMText
 10
3380.693127763862
 20
3653.461545485628
 30
0.0
 40
42.5
 41
0.0
 46
0.0
 71
     5
 72
     1
  1
\A1;468
 11
0.0000000000000001
 21
1.0
 31
0.0
 73
     1
 44
1.0
  0
POINT
  5
31F73
330
31EC4
100
AcDbEntity
  8
Defpoints
 62
     0
100
AcDbPoint
 10
2800.285152995054
 20
3887.211545485631
 30
0.0
  0
POINT
  5
31F74
330
31EC4
100
AcDbEntity
  8
Defpoints
 62
     0
100
AcDbPoint
 10
3070.743409224991
 20
3419.711545485625
 30
0.0
  0
POINT
  5
31F75
330
31EC4
100
AcDbEntity
  8
Defpoints
 62
     0
100
AcDbPoint
 10
3418.943127763863
 20
3419.711545485624
 30
0.0
  0
ENDBLK
  5
31EC6
330
31EC4
100
AcDbEntity
  8
0
100
AcDbBlockEnd
  0
ENDSEC
  0
SECTION
  2
ENTITIES
  0
INSERT
  5
15497
330
17
100
AcDbEntity
  8
0
100
AcDbBlockReference
 66
     1
  2
dimstat2
 10
7723.001826654316
 20
1309.141213428434
 30
0.0
  0
ATTRIB
  5
15498
330
15497
100
AcDbEntity
  8
0
100
AcDbText
 10
7723.001826654316
 20
1309.141213428434
 30
0.0
 40
1.0
  1
(1.28 1.92 0 0 0 0 0 3.2 12 0 )
 41
0.7
100
AcDbAttribute
  2
DIMSIZ
 70
     1
280
     0
  0
SEQEND
  5
15499
330
15497
100
AcDbEntity
  8
0
  0
INSERT
  5
1549A
330
17
100
AcDbEntity
  8
0
100
AcDbBlockReference
 66
     1
  2
dimstat
 10
7723.001826654316
 20
1309.141213428434
 30
0.0
  0
ATTRIB
  5
1549B
330
1549A
100
AcDbEntity
  8
0
100
AcDbText
 10
7723.001826654316
 20
1310.141213428434
 30
0.0
 40
1.0
  1
1
 41
0.7
 51
15.0
100
AcDbAttribute
  2
DIMEXT
 70
     1
280
     0
  0
ATTRIB
  5
1549C
330
1549A
100
AcDbEntity
  8
0
100
AcDbText
 10
7723.001826654316
 20
1309.141213428434
 30
0.0
 40
1.0
  1
10 
 41
0.7
 51
15.0
100
AcDbAttribute
  2
DIMBAL
 70
     1
280
     0
  0
ATTRIB
  5
1549D
330
1549A
100
AcDbEntity
  8
0
100
AcDbText
 10
7723.965683778215
 20
1308.229563439422
 30
0.0
 40
1.0
  1
4 
 41
0.7
 51
15.0
 72
     1
 11
7724.509017111548
 21
1308.229563439422
 31
0.0
100
AcDbAttribute
  2
SYMSCL
 70
     1
280
     0
  0
SEQEND
  5
1549E
330
1549A
100
AcDbEntity
  8
0
  0
TEXT
  5
25323
330
17
100
AcDbEntity
  8
DIM
370
    18
100
AcDbText
 10
320.7617246227628
 20
4643.727644049812
 30
0.0
 40
96.0
  1
給湯専用角形３７０Ｌ外形図』
 41
0.8
100
AcDbText
  0
TEXT
  5
2CE38
330
17
100
AcDbEntity
  8
DIMTEXT
100
AcDbText
 10
1960.692529127662
 20
4552.474364363178
 30
0.0
 40
48.0
  1
質量
 41
0.8
 72
     1
 11
2001.652529127662
 21
4576.474364363178
 31
0.0
100
AcDbText
 73
     2
  0
TEXT
  5
2CE39
330
17
100
AcDbEntity
  8
DIMTEXT
100
AcDbText
 10
1930.86762489137
 20
4482.849699231283
 30
0.0
 40
48.0
  1
（kg）
 41
0.8
 72
     1
 11
1994.501910605656
 21
4506.849699231283
 31
0.0
100
AcDbText
 73
     2
  0
LINE
  5
2CE3A
330
17
100
AcDbEntity
  8
WAKU
100
AcDbLine
 10
3453.949206858791
 20
4775.18410964842
 30
0.0
 11
1903.949206858793
 21
4775.18410964842
 31
0.0
  0
LINE
  5
2CE3B
330
17
100
AcDbEntity
  8
WAKU
100
AcDbLine
 10
1903.949206858794
 20
4455.184109648418
 30
0.0
 11
3453.949206858796
 21
4455.184109648418
 31
0.0
  0
LINE
  5
2CE3C
330
17
100
AcDbEntity
  8
WAKU
100
AcDbLine
 10
1903.949206858793
 20
4855.525416488761
 30
0.0
 11
1903.949206858794
 21
4455.184109648418
 31
0.0
  0
LINE
  5
2CE3D
330
17
100
AcDbEntity
  8
WAKU
100
AcDbLine
 10
1903.949206858794
 20
4615.184109648415
 30
0.0
 11
3453.949206858796
 21
4615.184109648416
 31
0.0
  0
LINE
  5
2CE3E
330
17
100
AcDbEntity
  8
WAKU
100
AcDbLine
 10
2103.949206858793
 20
4535.184109648418
 30
0.0
 11
3453.949206858796
 21
4535.184109648418
 31
0.0
  0
LINE
  5
2CE3F
330
17
100
AcDbEntity
  8
WAKU
100
AcDbLine
 10
1903.949206858793
 20
4695.18410964842
 30
0.0
 11
3453.949206858794
 21
4695.18410964842
 31
0.0
  0
LINE
  5
2CE41
330
17
100
AcDbEntity
  8
WAKU
100
AcDbLine
 10
2353.949206858792
 20
4855.525416488761
 30
0.0
 11
2353.949206858792
 21
4455.184109648418
 31
0.0
  0
LINE
  5
2CE42
330
17
100
AcDbEntity
  8
WAKU
100
AcDbLine
 10
2103.949206858792
 20
4615.184109648415
 30
0.0
 11
2103.949206858792
 21
4455.184109648418
 31
0.0
  0
TEXT
  5
2CE43
330
17
100
AcDbEntity
  8
DIMTEXT
100
AcDbText
 10
2061.229206858795
 20
4631.184109648417
 30
0.0
 40
48.0
  1
圧　力
 41
0.8
 72
     1
 11
2123.949206858795
 21
4655.184109648417
 31
0.0
100
AcDbText
 73
     2
  0
TEXT
  5
2CE44
330
17
100
AcDbEntity
  8
DIMTEXT
100
AcDbText
 10
2164.949206858795
 20
4551.184109648416
 30
0.0
 40
48.0
  1
本　体
 41
0.8
 72
     1
 11
2228.949206858795
 21
4575.184109648416
 31
0.0
100
AcDbText
 73
     2
  0
TEXT
  5
2CE45
330
17
100
AcDbEntity
  8
DIMTEXT
100
AcDbText
 10
2164.949206858795
 20
4471.184109648418
 30
0.0
 40
48.0
  1
満水時
 41
0.8
 72
     1
 11
2228.949206858795
 21
4495.184109648418
 31
0.0
100
AcDbText
 73
     2
  0
TEXT
  5
2CE46
330
17
100
AcDbEntity
  8
DIMTEXT
100
AcDbText
 10
2059.949206858795
 20
4795.838068960804
 30
0.0
 40
48.0
  1
品　番
 41
0.8
 72
     1
 11
2123.949206858795
 21
4819.838068960804
 31
0.0
100
AcDbText
 73
     2
  0
LINE
  5
2CE47
330
17
100
AcDbEntity
  8
WAKU
100
AcDbLine
 10
2353.949206858796
 20
4465.184109648416
 30
0.0
 11
2353.949206858796
 21
4455.184109648418
 31
0.0
  0
LINE
  5
2CE48
330
17
100
AcDbEntity
  8
WAKU
100
AcDbLine
 10
2903.949206858795
 20
4855.525416488761
 30
0.0
 11
2903.949206858794
 21
4455.184109648418
 31
0.0
  0
TEXT
  5
2CE49
330
17
100
AcDbEntity
  8
DIMTEXT
100
AcDbText
 10
2495.829206858796
 20
4631.184109648421
 30
0.0
 40
48.0
  1
標準圧タイプ
 41
0.8
 72
     1
 11
2628.949206858796
 21
4655.18410964842
 31
0.0
100
AcDbText
 73
     2
  0
TEXT
  5
2CE4A
330
17
100
AcDbEntity
  8
DIMTEXT
100
AcDbText
 10
2579.577778287367
 20
4471.184109648422
 30
0.0
 40
48.0
  1
437
 41
0.8
 72
     1
 11
2628.949206858796
 21
4495.184109648422
 31
0.0
100
AcDbText
 73
     2
  0
TEXT
  5
2CE4B
330
17
100
AcDbEntity
  8
DIMTEXT
100
AcDbText
 10
2597.863492573082
 20
4551.184109648422
 30
0.0
 40
48.0
  1
67
 41
0.8
 72
     1
 11
2628.949206858796
 21
4575.184109648422
 31
0.0
100
AcDbText
 73
     2
  0
TEXT
  5
2CE4D
330
17
100
AcDbEntity
  8
DIMTEXT
100
AcDbText
 10
3068.869206858796
 20
4631.184109648421
 30
0.0
 40
48.0
  1
高圧タイプ
 41
0.8
 72
     1
 11
3178.949206858796
 21
4655.18410964842
 31
0.0
100
AcDbText
 73
     2
  0
TEXT
  5
2CE4E
330
17
100
AcDbEntity
  8
DIMTEXT
100
AcDbText
 10
3129.577778287368
 20
4471.184109648422
 30
0.0
 40
48.0
  1
443
 41
0.8
 72
     1
 11
3178.949206858796
 21
4495.184109648422
 31
0.0
100
AcDbText
 73
     2
  0
TEXT
  5
2CE4F
330
17
100
AcDbEntity
  8
DIMTEXT
100
AcDbText
 10
3147.863492573082
 20
4551.184109648422
 30
0.0
 40
48.0
  1
73
 41
0.8
 72
     1
 11
3178.949206858796
 21
4575.184109648422
 31
0.0
100
AcDbText
 73
     2
  0
LINE
  5
2CE50
330
17
100
AcDbEntity
  8
WAKU
100
AcDbLine
 10
3453.949206858792
 20
4855.525416488761
 30
0.0
 11
3453.949206858796
 21
4455.184109648418
 31
0.0
  0
TEXT
  5
2CE52
330
17
100
AcDbEntity
  8
DIMTEXT
100
AcDbText
 10
2416.834921144508
 20
4791.18410964842
 30
0.0
 40
48.0
  1
YS37NNC1-J19
 41
0.8
 72
     1
 11
2628.949206858794
 21
4815.18410964842
 31
0.0
100
AcDbText
 73
     2
  0
TEXT
  5
2CE53
330
17
100
AcDbEntity
  8
DIMTEXT
100
AcDbText
 10
2965.006349715939
 20
4792.068370633442
 30
0.0
 40
48.0
  1
YU37NNC2-J21
 41
0.8
 72
     1
 11
3178.949206858796
 21
4816.068370633442
 31
0.0
100
AcDbText
 73
     2
  0
TEXT
  5
2CF7E
330
17
100
AcDbEntity
  8
DIMTEXT
100
AcDbText
 10
2034.349206858793
 20
4715.301187685931
 30
0.0
 40
48.0
  1
ヒータ数
 41
0.8
 72
     1
 11
2123.949206858793
 21
4739.301187685931
 31
0.0
100
AcDbText
 73
     2
  0
TEXT
  5
2CF7F
330
17
100
AcDbEntity
  8
DIMTEXT
100
AcDbText
 10
2624.377778287368
 20
4711.18410964842
 30
0.0
 40
48.0
  1
1
 41
0.8
 72
     1
 11
2628.949206858796
 21
4735.18410964842
 31
0.0
100
AcDbText
 73
     2
  0
TEXT
  5
2CF80
330
17
100
AcDbEntity
  8
DIMTEXT
100
AcDbText
 10
3166.149206858796
 20
4711.18410964842
 30
0.0
 40
48.0
  1
2
 41
0.8
 72
     1
 11
3178.949206858796
 21
4735.18410964842
 31
0.0
100
AcDbText
 73
     2
  0
LEADER
  5
2F6BD
330
17
100
AcDbEntity
  8
DIM
100
AcDbLeader
  3
STANDARD
 73
     0
 75
     1
 40
42.5
 41
276.5333333333334
 76
     3
 10
981.0037465355282
 20
3873.645265256856
 30
0.0
 10
500.9980409599086
 20
4175.693954950096
 30
0.0
 10
466.9980409599086
 20
4175.693954950096
 30
0.0
340
2F6BE
1001
ACAD
1000
DSTYLE
1002
{
1070
    41
1040
2.0
1070
   147
1040
1.0
1070
    77
1070
     1
1070
    43
1040
10.0
1070
    73
1070
     0
1070
    74
1070
     0
1070
   172
1070
     1
1070
   179
1070
     1
1070
   271
1070
     1
1070
   272
1070
     1
1070
   341
1005
4A
1070
   342
1005
0
1002
}
  0
MTEXT
  5
2F6BE
102
{ACAD_REACTORS
330
2F6BD
102
}
330
17
100
AcDbEntity
  8
DIM
100
AcDbMText
 10
449.9980409599086
 20
4192.693954950097
 30
0.0
 40
42.5
 41
539.5
 46
0.0
 71
     9
 72
     1
  1
上部振止め金具
 73
     1
 44
1.0
  0
DIMENSION
  5
2F6BF
330
17
100
AcDbEntity
  8
DIM
100
AcDbDimension
  2
*D6
 10
1448.133332575967
 20
3912.311545485632
 30
0.0
 11
1448.133332575966
 21
4268.865069295157
 31
0.0
 70
   160
  1
最大<>mm
 71
     5
 42
90.00000000000046
 73
     0
 74
     0
 75
     0
  3
STANDARD
100
AcDbAlignedDimension
 13
1101.003746535529
 23
4002.311545485633
 33
0.0
 14
1338.403746535526
 24
3912.311545485632
 34
0.0
 50
90.0
100
AcDbRotatedDimension
1001
ACAD
1000
DSTYLE
1002
{
1070
    41
1040
3.0
1070
    42
1040
2.0
1070
    43
1040
10.0
1070
    44
1040
2.0
1070
    45
1040
1.0
1070
    73
1070
     0
1070
    74
1070
     0
1070
    77
1070
     1
1070
    78
1070
     8
1070
    79
1070
     2
1070
   140
1040
2.5
1070
   147
1040
0.9999999999999996
1070
   172
1070
     1
1070
   179
1070
     8
1070
   271
1070
     8
1070
   272
1070
     8
1070
   341
1005
4A
1070
   342
1005
4A
1002
}
  0
DIMENSION
  5
2F6C0
330
17
100
AcDbEntity
  8
DIM
100
AcDbDimension
  2
*D7
 10
1362.003746535527
 20
4070.211545485631
 30
0.0
 11
1041.003746535527
 21
4108.461545485631
 31
0.0
 70
    32
  1
（650）
 71
     5
 42
641.9999999999993
 73
     0
 74
     0
 75
     0
  3
STANDARD
100
AcDbAlignedDimension
 13
720.0037465355274
 23
3888.711545485632
 33
0.0
 14
1362.003746535527
 24
3888.711545485632
 34
0.0
100
AcDbRotatedDimension
1001
ACAD
1000
DSTYLE
1002
{
1070
    41
1040
3.0
1070
    42
1040
2.0
1070
    43
1040
10.0
1070
    44
1040
2.0
1070
    45
1040
1.0
1070
    73
1070
     0
1070
    74
1070
     0
1070
    77
1070
     1
1070
    78
1070
     8
1070
    79
1070
     2
1070
   140
1040
2.5
1070
   147
1040
0.9999999999999996
1070
   172
1070
     1
1070
   179
1070
     8
1070
   271
1070
     8
1070
   272
1070
     8
1070
   341
1005
4A
1070
   342
1005
4A
1002
}
  0
LINE
  5
2F6C1
330
17
100
AcDbEntity
  8
0
100
AcDbLine
 10
1101.003746535528
 20
3912.311545485632
 30
0.0
 11
1338.403746535526
 21
3912.311545485632
 31
0.0
  0
LINE
  5
2F6C2
330
17
100
AcDbEntity
  8
0
100
AcDbLine
 10
720.0037465355283
 20
3888.711545485632
 30
0.0
 11
720.0037465355283
 21
3213.911545485633
 31
0.0
  0
LINE
  5
2F6D3
330
17
100
AcDbEntity
  8
0
100
AcDbLine
 10
743.6037465355268
 20
3912.311545485632
 30
0.0
 11
981.0037465355282
 21
3912.311545485632
 31
0.0
  0
ARC
  5
2F6D4
330
17
100
AcDbEntity
  8
0
100
AcDbCircle
 10
743.6037465355268
 20
3888.711545485632
 30
0.0
 40
23.6
100
AcDbArc
 50
90.0
 51
180.0
  0
LINE
  5
2F6D9
330
17
100
AcDbEntity
  8
HID
100
AcDbLine
 10
1101.003746535529
 20
4002.311545485633
 30
0.0
 11
981.0037465355271
 21
4002.311545485633
 31
0.0
  0
ARC
  5
2F6DA
330
17
100
AcDbEntity
  8
0
100
AcDbCircle
 10
1041.003746535528
 20
3871.911545485633
 30
0.0
 40
3.0
100
AcDbArc
 50
0.0
 51
180.0
  0
ARC
  5
2F6DB
330
17
100
AcDbEntity
  8
0
100
AcDbCircle
 10
1041.003746535528
 20
3781.911545485633
 30
0.0
 40
3.0
100
AcDbArc
 50
180.0
 51
0.0
  0
LINE
  5
2F6DC
330
17
100
AcDbEntity
  8
0
100
AcDbLine
 10
1101.003746535528
 20
3768.911545485633
 30
0.0
 11
981.0037465355282
 21
3768.911545485633
 31
0.0
  0
LINE
  5
2F6DD
330
17
100
AcDbEntity
  8
0
100
AcDbLine
 10
981.0037465355282
 20
3913.911545485633
 30
0.0
 11
1101.003746535528
 21
3913.911545485633
 31
0.0
  0
LINE
  5
2F6DE
330
17
100
AcDbEntity
  8
HID
100
AcDbLine
 10
981.0037465355271
 20
3913.911545485633
 30
0.0
 11
981.0037465355271
 21
4002.311545485633
 31
0.0
  0
LINE
  5
2F6DF
330
17
100
AcDbEntity
  8
0
100
AcDbLine
 10
981.0037465355282
 20
3913.911545485633
 30
0.0
 11
981.0037465355282
 21
3768.911545485633
 31
0.0
  0
LINE
  5
2F6E0
330
17
100
AcDbEntity
  8
0
100
AcDbLine
 10
993.0037465355283
 20
3891.911545485633
 30
0.0
 11
993.0037465355283
 21
3801.911545485633
 31
0.0
  0
LINE
  5
2F6E1
330
17
100
AcDbEntity
  8
0
100
AcDbLine
 10
999.0037465355284
 20
3891.911545485633
 30
0.0
 11
999.0037465355284
 21
3801.911545485633
 31
0.0
  0
LINE
  5
2F6E2
330
17
100
AcDbEntity
  8
0
100
AcDbLine
 10
1038.003746535528
 20
3871.911545485633
 30
0.0
 11
1038.003746535528
 21
3781.911545485633
 31
0.0
  0
ARC
  5
2F6E3
330
17
100
AcDbEntity
  8
0
100
AcDbCircle
 10
996.0037465355284
 20
3801.911545485633
 30
0.0
 40
3.0
100
AcDbArc
 50
180.0
 51
0.0
  0
ARC
  5
2F6E4
330
17
100
AcDbEntity
  8
0
100
AcDbCircle
 10
996.0037465355284
 20
3891.911545485633
 30
0.0
 40
3.0
100
AcDbArc
 50
0.0
 51
180.0
  0
LINE
  5
2F6E5
330
17
100
AcDbEntity
  8
HID
100
AcDbLine
 10
1101.003746535529
 20
4002.311545485633
 30
0.0
 11
1101.003746535529
 21
3913.911545485633
 31
0.0
  0
LINE
  5
2F6E6
330
17
100
AcDbEntity
  8
0
100
AcDbLine
 10
1101.003746535528
 20
3913.911545485633
 30
0.0
 11
1101.003746535528
 21
3768.911545485633
 31
0.0
  0
LINE
  5
2F6E7
330
17
100
AcDbEntity
  8
0
100
AcDbLine
 10
1083.003746535528
 20
3891.911545485633
 30
0.0
 11
1083.003746535528
 21
3801.911545485633
 31
0.0
  0
LINE
  5
2F6E8
330
17
100
AcDbEntity
  8
0
100
AcDbLine
 10
1089.003746535528
 20
3891.911545485633
 30
0.0
 11
1089.003746535528
 21
3801.911545485633
 31
0.0
  0
LINE
  5
2F6E9
330
17
100
AcDbEntity
  8
0
100
AcDbLine
 10
1044.003746535528
 20
3871.911545485633
 30
0.0
 11
1044.003746535528
 21
3781.911545485633
 31
0.0
  0
ARC
  5
2F6EA
330
17
100
AcDbEntity
  8
0
100
AcDbCircle
 10
1086.003746535528
 20
3801.911545485633
 30
0.0
 40
3.0
100
AcDbArc
 50
180.0
 51
0.0
  0
ARC
  5
2F6EB
330
17
100
AcDbEntity
  8
0
100
AcDbCircle
 10
1086.003746535528
 20
3891.911545485633
 30
0.0
 40
3.0
100
AcDbArc
 50
0.0
 51
180.0
  0
DIMENSION
  5
2F6EC
330
17
100
AcDbEntity
  8
DIM
100
AcDbDimension
  2
*D8
 10
1448.133332575963
 20
3190.311545485633
 30
0.0
 11
1409.883332575962
 21
3551.311545485633
 31
0.0
 70
    32
  1
（730）
 71
     5
 42
722.0
 73
     0
 74
     0
 75
     0
  3
STANDARD
100
AcDbAlignedDimension
 13
1338.403746535526
 23
3912.311545485632
 33
0.0
 14
1338.403746535526
 24
3190.311545485633
 34
0.0
 50
90.0
100
AcDbRotatedDimension
1001
ACAD
1000
DSTYLE
1002
{
1070
    41
1040
3.0
1070
    42
1040
2.0
1070
    43
1040
10.0
1070
    44
1040
2.0
1070
    45
1040
1.0
1070
    73
1070
     0
1070
    74
1070
     0
1070
    77
1070
     1
1070
    78
1070
     8
1070
    79
1070
     2
1070
   140
1040
2.5
1070
   147
1040
0.9999999999999996
1070
   172
1070
     1
1070
   179
1070
     8
1070
   271
1070
     8
1070
   272
1070
     8
1070
   341
1005
4A
1070
   342
1005
4A
1002
}
  0
LINE
  5
2F6ED
330
17
100
AcDbEntity
  8
0
100
AcDbLine
 10
1362.003746535527
 20
3888.711545485632
 30
0.0
 11
1362.003746535527
 21
3213.911545485633
 31
0.0
  0
ARC
  5
2F6F2
330
17
100
AcDbEntity
  8
0
100
AcDbCircle
 10
1338.403746535526
 20
3888.711545485632
 30
0.0
 40
23.6
100
AcDbArc
 50
0.0
 51
90.0
  0
DIMENSION
  5
2F6F4
330
17
100
AcDbEntity
  8
DIM
100
AcDbDimension
  2
*D9
 10
1481.31136078918
 20
567.9247180267783
 30
0.0
 11
1481.31136078918
 21
406.3853972366086
 31
0.0
 70
   160
 71
     5
 42
119.9999999999989
 73
     0
 74
     0
 75
     0
  3
STANDARD
100
AcDbAlignedDimension
 13
1344.371024900012
 23
687.9247180267775
 33
0.0
 14
1778.264657223027
 24
567.9247180267783
 34
0.0
 50
90.0
100
AcDbRotatedDimension
1001
ACAD
1000
DSTYLE
1002
{
1070
    41
1040
3.0
1070
    42
1040
2.0
1070
    43
1040
10.0
1070
    44
1040
2.0
1070
    45
1040
1.0
1070
    73
1070
     0
1070
    74
1070
     0
1070
    77
1070
     1
1070
    78
1070
     8
1070
    79
1070
     2
1070
   140
1040
2.5
1070
   147
1040
0.9999999999999996
1070
   172
1070
     1
1070
   179
1070
     8
1070
   271
1070
     8
1070
   272
1070
     8
1070
   341
1005
4A
1070
   342
1005
4A
1002
}
  0
DIMENSION
  5
2F6F5
330
17
100
AcDbEntity
  8
DIM
100
AcDbDimension
  2
*D10
 10
1787.31136078918
 20
567.9247180267783
 30
0.0
 11
1749.06136078918
 21
992.5747180267761
 31
0.0
 70
    32
 71
     5
 42
849.2999999999948
 73
     0
 74
     0
 75
     0
  3
STANDARD
100
AcDbAlignedDimension
 13
934.0123343903409
 23
1417.224718026774
 33
0.0
 14
1684.406373714782
 24
567.9247180267783
 34
0.0
 50
90.0
100
AcDbRotatedDimension
1001
ACAD
1000
DSTYLE
1002
{
1070
     3
1000
（<>）
1070
    41
1040
3.0
1070
    42
1040
2.0
1070
    43
1040
10.0
1070
    44
1040
2.0
1070
    45
1040
5.0
1070
    73
1070
     0
1070
    74
1070
     0
1070
    77
1070
     1
1070
    78
1070
     8
1070
    79
1070
     2
1070
   140
1040
2.5
1070
   147
1040
0.9999999999999996
1070
   172
1070
     1
1070
   179
1070
     8
1070
   271
1070
     8
1070
   272
1070
     8
1070
   341
1005
4A
1070
   342
1005
4A
1002
}
  0
LINE
  5
2F6F6
330
17
100
AcDbEntity
  8
0
100
AcDbLine
 10
666.6183953881958
 20
567.924718026778
 30
0.0
 11
2267.921910402948
 21
567.9247180267789
 31
0.0
  0
LEADER
  5
2F6F7
330
17
100
AcDbEntity
  8
DIM
100
AcDbLeader
  3
STANDARD
 73
     0
 75
     1
 40
42.5
 41
235.7333333333333
 76
     3
 10
840.503746535502
 20
2304.500492353999
 30
0.0
 10
460.1980409599085
 20
2518.998418175976
 30
0.0
 10
426.1980409599084
 20
2518.998418175976
 30
0.0
340
2F6F8
1001
ACAD
1000
DSTYLE
1002
{
1070
    41
1040
2.0
1070
   147
1040
1.0
1070
    77
1070
     1
1070
    43
1040
10.0
1070
    73
1070
     0
1070
    74
1070
     0
1070
   172
1070
     1
1070
   179
1070
     1
1070
   271
1070
     1
1070
   272
1070
     1
1070
   341
1005
4A
1070
   342
1005
0
1002
}
  0
MTEXT
  5
2F6F8
102
{ACAD_REACTORS
330
2F6F7
102
}
330
17
100
AcDbEntity
  8
DIM
100
AcDbMText
 10
409.1980409599084
 20
2535.998418175976
 30
0.0
 40
42.5
 41
539.5
 46
0.0
 71
     9
 72
     1
  1
逃し弁点検窓
 73
     1
 44
1.0
  0
LINE
  5
2F6F9
330
17
100
AcDbEntity
  8
0
100
AcDbLine
 10
1229.242957333603
 20
2341.422718026779
 30
0.0
 11
1229.242957333603
 21
2321.028718026779
 31
0.0
  0
LINE
  5
2F6FA
330
17
100
AcDbEntity
  8
0
100
AcDbLine
 10
1238.142157333602
 20
2341.422718026779
 30
0.0
 11
1238.142157333602
 21
2323.253518026779
 31
0.0
  0
LINE
  5
2F6FB
330
17
100
AcDbEntity
  8
0
100
AcDbLine
 10
1233.321757333602
 20
2341.422718026779
 30
0.0
 11
1233.321757333602
 21
2324.365918026779
 31
0.0
  0
LINE
  5
2F6FC
330
17
100
AcDbEntity
  8
0
100
AcDbLine
 10
1242.220957333602
 20
2341.422718026779
 30
0.0
 11
1242.220957333602
 21
2311.01711802678
 31
0.0
  0
LINE
  5
2F6FD
330
17
100
AcDbEntity
  8
0
100
AcDbLine
 10
1292.649757333599
 20
2321.028718026779
 30
0.0
 11
1292.649757333599
 21
2341.422718026779
 31
0.0
  0
LINE
  5
2F6FE
330
17
100
AcDbEntity
  8
0
100
AcDbLine
 10
1288.5709573336
 20
2309.90471802678
 30
0.0
 11
1288.5709573336
 21
2341.422718026779
 31
0.0
  0
LINE
  5
2F6FF
330
17
100
AcDbEntity
  8
0
100
AcDbLine
 10
995.5037465355021
 20
2355.924718026787
 30
0.0
 11
995.5037465355037
 21
2259.924718026787
 31
0.0
  0
LINE
  5
2F700
330
17
100
AcDbEntity
  8
0
100
AcDbLine
 10
987.003746535502
 20
2355.084718026787
 30
0.0
 11
987.003746535502
 21
2260.764718026787
 31
0.0
  0
LINE
  5
2F701
330
17
100
AcDbEntity
  8
0
100
AcDbLine
 10
849.0037465355021
 20
2355.084718026787
 30
0.0
 11
849.0037465355021
 21
2260.764718026787
 31
0.0
  0
LINE
  5
2F702
330
17
100
AcDbEntity
  8
0
100
AcDbLine
 10
840.503746535502
 20
2355.924718026787
 30
0.0
 11
840.503746535502
 21
2259.924718026787
 31
0.0
  0
LINE
  5
2F703
330
17
100
AcDbEntity
  8
0
100
AcDbLine
 10
1360.603746535504
 20
2379.424718026851
 30
0.0
 11
1360.603746535502
 21
686.9247180267771
 31
0.0
  0
LINE
  5
2F704
330
17
100
AcDbEntity
  8
0
100
AcDbLine
 10
721.4037465354997
 20
2379.424718026778
 30
0.0
 11
721.4037465354997
 21
686.9247180267789
 31
0.0
  0
LEADER
  5
2F705
330
17
100
AcDbEntity
  8
DIM
100
AcDbLeader
  3
STANDARD
 73
     0
 75
     1
 40
42.5
 41
355.8666666666666
 76
     3
 10
948.8613587551203
 20
595.5092086195486
 30
0.0
 10
572.8837552456227
 20
273.7201775308981
 30
0.0
 10
538.8837552456227
 20
273.7201775308981
 30
0.0
340
2F706
1001
ACAD
1000
DSTYLE
1002
{
1070
    41
1040
2.0
1070
   147
1040
1.0
1070
    77
1070
     1
1070
    43
1040
10.0
1070
    73
1070
     0
1070
    74
1070
     0
1070
   172
1070
     1
1070
   179
1070
     1
1070
   271
1070
     1
1070
   272
1070
     1
1070
   341
1005
4A
1070
   342
1005
4A
1002
}
  0
MTEXT
  5
2F706
102
{ACAD_REACTORS
330
2F705
102
}
330
17
100
AcDbEntity
  8
DIM
100
AcDbMText
 10
521.8837552456228
 20
290.7201775308981
 30
0.0
 40
42.5
 41
539.5
 46
0.0
 71
     9
 72
     1
  1
排水パンゴムホース
 73
     1
 44
1.0
  0
LEADER
  5
2F707
330
17
100
AcDbEntity
  8
DIM
100
AcDbLeader
  3
STANDARD
 73
     0
 75
     1
 40
42.5
 41
31.73333333333334
 76
     3
 10
729.9235119064982
 20
630.1747180267783
 30
0.0
 10
254.5412883709588
 20
415.1714362934963
 30
0.0
 10
220.5412883709588
 20
415.1714362934963
 30
0.0
340
2F708
1001
ACAD
1000
DSTYLE
1002
{
1070
    41
1040
2.0
1070
   147
1040
1.0
1070
    77
1070
     1
1070
    43
1040
10.0
1070
    73
1070
     0
1070
    74
1070
     0
1070
   172
1070
     1
1070
   179
1070
     1
1070
   271
1070
     1
1070
   272
1070
     1
1070
   341
1005
4A
1070
   342
1005
4A
1002
}
  0
MTEXT
  5
2F708
102
{ACAD_REACTORS
330
2F707
102
}
330
17
100
AcDbEntity
  8
DIM
100
AcDbMText
 10
203.5412883709589
 20
432.1714362934963
 30
0.0
 40
42.5
 41
539.5
 46
0.0
 71
     9
 72
     1
  1
脚
 73
     1
 44
1.0
  0
LEADER
  5
2F709
330
17
100
AcDbEntity
  8
DIM
100
AcDbLeader
  3
STANDARD
 73
     0
 75
     1
 40
113.3333333333333
 41
364.9333333333333
 76
     3
 10
1077.463874171636
 20
781.0738730410156
 30
0.0
 10
590.7964949269809
 20
1398.241646926252
 30
0.0
 10
556.7964949269809
 20
1398.241646926252
 30
0.0
340
2F70A
213
-53.06399062146488
223
0.0
233
0.0
1001
ACAD
1000
DSTYLE
1002
{
1070
    41
1040
2.0
1070
   147
1040
1.0
1070
    77
1070
     1
1070
    43
1040
10.0
1070
    73
1070
     0
1070
    74
1070
     0
1070
   172
1070
     1
1070
   179
1070
     1
1070
   271
1070
     1
1070
   272
1070
     1
1070
   341
1005
4A
1070
   342
1005
0
1002
}
  0
MTEXT
  5
2F70A
102
{ACAD_XDICTIONARY
360
31FC6
102
}
102
{ACAD_REACTORS
330
2F709
102
}
330
17
100
AcDbEntity
  8
DIM
100
AcDbMText
 10
592.8604855484458
 20
1415.241646926252
 30
0.0
 40
42.5
 41
417.1291112552039
 46
0.0
 71
     9
 72
     1
  1
排水栓　Rc3／4\P（膨張水・排水兼用）
 73
     1
 44
1.0
  0
LEADER
  5
2F70B
330
17
100
AcDbEntity
  8
DIM
100
AcDbLeader
  3
STANDARD
 73
     0
 75
     1
 40
42.5
 41
376.2666666666668
 76
     3
 10
924.6652110258311
 20
1427.718313026772
 30
0.0
 10
604.156597414675
 20
1760.140177452534
 30
0.0
 10
570.156597414675
 20
1760.140177452534
 30
0.0
340
2F70C
1001
ACAD
1000
DSTYLE
1002
{
1070
    41
1040
2.0
1070
   147
1040
1.0
1070
    77
1070
     1
1070
    43
1040
10.0
1070
    73
1070
     0
1070
    74
1070
     0
1070
   172
1070
     1
1070
   179
1070
     1
1070
   271
1070
     1
1070
   272
1070
     1
1070
   341
1005
4A
1070
   342
1005
0
1002
}
  0
MTEXT
  5
2F70C
102
{ACAD_REACTORS
330
2F70B
102
}
330
17
100
AcDbEntity
  8
DIM
100
AcDbMText
 10
553.156597414675
 20
1777.140177452534
 30
0.0
 40
42.5
 41
539.5
 46
0.0
 71
     9
 72
     1
  1
給水配管口　R3／4
 73
     1
 44
1.0
  0
LEADER
  5
2F70D
330
17
100
AcDbEntity
  8
DIM
100
AcDbLeader
  3
STANDARD
 73
     0
 75
     1
 40
42.50000000000002
 41
235.7333333333334
 76
     3
 10
857.7579325344249
 20
1850.922536585522
 30
0.0
 10
460.1980409599085
 20
2056.317990153057
 30
0.0
 10
426.1980409599084
 20
2056.317990153057
 30
0.0
340
2F70E
1001
ACAD
1000
DSTYLE
1002
{
1070
    41
1040
2.0
1070
   147
1040
1.0
1070
    77
1070
     1
1070
    43
1040
10.0
1070
    73
1070
     0
1070
    74
1070
     0
1070
   172
1070
     1
1070
   179
1070
     1
1070
   271
1070
     1
1070
   272
1070
     1
1070
   341
1005
5132
1070
   342
1005
0
1002
}
  0
MTEXT
  5
2F70E
102
{ACAD_REACTORS
330
2F70D
102
}
330
17
100
AcDbEntity
  8
DIM
100
AcDbMText
 10
409.1980409599084
 20
2073.317990153057
 30
0.0
 40
42.5
 41
539.5
 46
0.0
 71
     9
 72
     1
  1
漏電しゃ断器
 73
     1
 44
1.0
  0
LEADER
  5
2F70F
330
17
100
AcDbEntity
  8
DIM
100
AcDbLeader
  3
STANDARD
 73
     0
 75
     1
 40
42.5
 41
192.6666666666668
 76
     3
 10
879.003746535502
 20
1910.924718026787
 30
0.0
 10
414.492257430788
 20
2208.508575404819
 30
0.0
 10
380.492257430788
 20
2208.508575404819
 30
0.0
340
2F710
1001
ACAD
1000
DSTYLE
1002
{
1070
    41
1040
2.0
1070
   147
1040
1.0
1070
    77
1070
     1
1070
    43
1040
10.0
1070
    73
1070
     0
1070
    74
1070
     0
1070
   172
1070
     1
1070
   179
1070
     1
1070
   271
1070
     1
1070
   272
1070
     1
1070
   341
1005
4A
1070
   342
1005
0
1002
}
  0
MTEXT
  5
2F710
102
{ACAD_REACTORS
330
2F70F
102
}
330
17
100
AcDbEntity
  8
DIM
100
AcDbMText
 10
363.4922574307879
 20
2225.508575404819
 30
0.0
 40
42.5
 41
539.5
 46
0.0
 71
     9
 72
     1
  1
操作カバー
 73
     1
 44
1.0
  0
MTEXT
  5
2F711
330
17
100
AcDbEntity
  8
DIM
100
AcDbMText
 10
518.7120316227934
 20
210.3945324611291
 30
0.0
 40
42.5
 41
539.5
 46
0.0
 71
     9
 72
     1
  1
（%%c16×0.8m）
 73
     1
 44
1.0
  0
LINE
  5
2F712
330
17
100
AcDbEntity
  8
0
100
AcDbLine
 10
1075.003746535444
 20
745.1363250075046
 30
0.0
 11
1056.628746535444
 21
758.3329715611998
 31
0.0
  0
LINE
  5
2F713
330
17
100
AcDbEntity
  8
0
100
AcDbLine
 10
1107.003746535444
 20
745.1363250075046
 30
0.0
 11
1125.378746535444
 21
758.3329715611998
 31
0.0
  0
CIRCLE
  5
2F714
330
17
100
AcDbEntity
  8
0
100
AcDbCircle
 10
1091.003746535444
 20
764.424718026706
 30
0.0
 40
17.0
  0
ARC
  5
2F715
330
17
100
AcDbEntity
  8
0
100
AcDbCircle
 10
1091.003746535444
 20
764.424718026706
 30
0.0
 40
25.0
100
AcDbArc
 50
157.3316500000241
 51
202.6683499999758
  0
ARC
  5
2F716
330
17
100
AcDbEntity
  8
0
100
AcDbCircle
 10
1091.003746535444
 20
764.424718026706
 30
0.0
 40
25.0
100
AcDbArc
 50
337.3316500000242
 51
22.66834999997583
  0
LINE
  5
2F717
330
17
100
AcDbEntity
  8
0
100
AcDbLine
 10
1360.003746535504
 20
818.9247180267878
 30
0.0
 11
1360.003746535504
 21
687.5247180267782
 31
0.0
  0
LINE
  5
2F718
330
17
100
AcDbEntity
  8
0
100
AcDbLine
 10
722.0037465355002
 20
818.924718026775
 30
0.0
 11
722.0037465355002
 21
687.5247180267791
 31
0.0
  0
LINE
  5
2F719
330
17
100
AcDbEntity
  8
0
100
AcDbLine
 10
1111.003746535504
 20
687.924718026778
 30
0.0
 11
1360.003746535504
 21
687.9247180267789
 31
0.0
  0
LINE
  5
2F71A
330
17
100
AcDbEntity
  8
0
100
AcDbLine
 10
1356.003746535502
 20
687.924718026778
 30
0.0
 11
726.0037465355002
 21
687.924718026778
 31
0.0
  0
LINE
  5
2F71B
330
17
100
AcDbEntity
  8
0
100
AcDbLine
 10
999.0037465354999
 20
588.4247180267789
 30
0.0
 11
1402.920375259297
 21
588.4247180267789
 31
0.0
  0
LINE
  5
2F71C
330
17
100
AcDbEntity
  8
0
100
AcDbLine
 10
999.0037465354999
 20
572.424718026778
 30
0.0
 11
1402.920375259297
 21
572.424718026778
 31
0.0
  0
LINE
  5
2F71D
330
17
100
AcDbEntity
  8
0
100
AcDbLine
 10
722.003746535502
 20
687.9247180267789
 30
0.0
 11
1071.003746535504
 21
687.924718026778
 31
0.0
  0
LINE
  5
2F71E
330
17
100
AcDbEntity
  8
0
100
AcDbLine
 10
719.1448552106907
 20
567.924718026778
 30
0.0
 11
838.9172685702128
 21
567.924718026778
 31
0.0
  0
LINE
  5
2F71F
330
17
100
AcDbEntity
  8
0
100
AcDbLine
 10
778.2021686023057
 20
687.9247180267789
 30
0.0
 11
756.6448552106907
 21
572.424718026778
 31
0.0
  0
LINE
  5
2F720
330
17
100
AcDbEntity
  8
0
100
AcDbLine
 10
775.9521686023057
 20
687.9247180267789
 30
0.0
 11
754.3948552106907
 21
572.424718026778
 31
0.0
  0
LINE
  5
2F721
330
17
100
AcDbEntity
  8
0
100
AcDbLine
 10
740.7021686023057
 20
687.9247180267789
 30
0.0
 11
719.1448552106907
 21
572.424718026778
 31
0.0
  0
LINE
  5
2F722
330
17
100
AcDbEntity
  8
0
100
AcDbLine
 10
742.9521686023057
 20
687.9247180267789
 30
0.0
 11
721.3948552106907
 21
572.424718026778
 31
0.0
  0
LINE
  5
2F723
330
17
100
AcDbEntity
  8
0
100
AcDbLine
 10
721.3948552106907
 20
572.424718026778
 30
0.0
 11
754.3948552106907
 21
572.424718026778
 31
0.0
  0
LINE
  5
2F724
330
17
100
AcDbEntity
  8
0
100
AcDbLine
 10
719.1448552106907
 20
572.424718026778
 30
0.0
 11
719.1448552106907
 21
567.924718026778
 31
0.0
  0
LINE
  5
2F725
330
17
100
AcDbEntity
  8
0
100
AcDbLine
 10
756.6448552106907
 20
572.424718026778
 30
0.0
 11
756.6448552106907
 21
567.924718026778
 31
0.0
  0
LINE
  5
2F726
330
17
100
AcDbEntity
  8
0
100
AcDbLine
 10
722.0037465355002
 20
687.9247180267789
 30
0.0
 11
750.4037465354997
 21
687.9247180267789
 31
0.0
  0
LINE
  5
2F727
330
17
100
AcDbEntity
  8
0
100
AcDbLine
 10
722.0037465355002
 20
687.5247180267791
 30
0.0
 11
727.4037465354997
 21
687.5247180267791
 31
0.0
  0
LINE
  5
2F728
330
17
100
AcDbEntity
  8
0
100
AcDbLine
 10
721.4037465354997
 20
686.9247180267789
 30
0.0
 11
727.4037465354997
 21
686.9247180267789
 31
0.0
  0
LINE
  5
2F729
330
17
100
AcDbEntity
  8
0
100
AcDbLine
 10
727.4037465354997
 20
687.5247180267791
 30
0.0
 11
727.4037465354997
 21
686.9247180267789
 31
0.0
  0
LINE
  5
2F72A
330
17
100
AcDbEntity
  8
0
100
AcDbLine
 10
838.9172685702108
 20
687.9247180267789
 30
0.0
 11
838.9172685702108
 21
567.924718026778
 31
0.0
  0
LINE
  5
2F72B
330
17
100
AcDbEntity
  8
0
100
AcDbLine
 10
1011.503746535504
 20
567.924718026778
 30
0.0
 11
1070.503746535504
 21
567.924718026778
 31
0.0
  0
ARC
  5
2F72C
330
17
100
AcDbEntity
  8
0
100
AcDbCircle
 10
999.0037465354999
 20
638.4247180267789
 30
0.0
 40
66.0
100
AcDbArc
 50
180.0
 51
270.0
  0
ARC
  5
2F72D
330
17
100
AcDbEntity
  8
0
100
AcDbCircle
 10
999.0037465354999
 20
638.4247180267789
 30
0.0
 40
50.0
100
AcDbArc
 50
180.0
 51
270.0
  0
LINE
  5
2F72E
330
17
100
AcDbEntity
  8
0
100
AcDbLine
 10
933.0037465355005
 20
672.924718026778
 30
0.0
 11
933.0037465355005
 21
638.4247180267789
 31
0.0
  0
LINE
  5
2F72F
330
17
100
AcDbEntity
  8
0
100
AcDbLine
 10
949.0037465354999
 20
672.924718026778
 30
0.0
 11
949.0037465354999
 21
638.4247180267789
 31
0.0
  0
LINE
  5
2F730
330
17
100
AcDbEntity
  8
0
100
AcDbLine
 10
960.0037465355002
 20
679.924718026778
 30
0.0
 11
922.0037465355002
 21
679.924718026778
 31
0.0
  0
LINE
  5
2F731
330
17
100
AcDbEntity
  8
0
100
AcDbLine
 10
960.0037465355002
 20
682.9247180267778
 30
0.0
 11
922.0037465355002
 21
682.9247180267778
 31
0.0
  0
LINE
  5
2F732
330
17
100
AcDbEntity
  8
0
100
AcDbLine
 10
961.0037465354963
 20
682.9247180267778
 30
0.0
 11
921.0037465355039
 21
682.9247180267778
 31
0.0
  0
LINE
  5
2F733
330
17
100
AcDbEntity
  8
0
100
AcDbLine
 10
933.0037465355005
 20
672.924718026778
 30
0.0
 11
949.0037465354999
 21
672.924718026778
 31
0.0
  0
ARC
  5
2F734
330
17
100
AcDbEntity
  8
0
100
AcDbCircle
 10
933.3124035844106
 20
673.924718026778
 30
0.0
 40
1.0
100
AcDbArc
 50
270.0
 51
0.0
  0
LINE
  5
2F735
330
17
100
AcDbEntity
  8
0
100
AcDbLine
 10
924.3124035844106
 20
673.924718026778
 30
0.0
 11
924.3124035844106
 21
679.924718026778
 31
0.0
  0
LINE
  5
2F736
330
17
100
AcDbEntity
  8
0
100
AcDbLine
 10
933.3124035844106
 20
672.924718026778
 30
0.0
 11
925.3124035844106
 21
672.924718026778
 31
0.0
  0
ARC
  5
2F737
330
17
100
AcDbEntity
  8
0
100
AcDbCircle
 10
925.3124035844106
 20
673.924718026778
 30
0.0
 40
1.0
100
AcDbArc
 50
180.0
 51
270.0
  0
LINE
  5
2F738
330
17
100
AcDbEntity
  8
0
100
AcDbLine
 10
922.0037465355002
 20
682.9247180267778
 30
0.0
 11
922.0037465355002
 21
679.924718026778
 31
0.0
  0
ARC
  5
2F739
330
17
100
AcDbEntity
  8
0
100
AcDbCircle
 10
921.0037465355039
 20
686.9247180267779
 30
0.0
 40
4.0
100
AcDbArc
 50
196.6015495990502
 51
270.0
  0
ARC
  5
2F73A
330
17
100
AcDbEntity
  8
0
100
AcDbCircle
 10
914.2955426030042
 20
684.924718026778
 30
0.0
 40
3.0
100
AcDbArc
 50
16.60154959905026
 51
90.0
  0
LINE
  5
2F73B
330
17
100
AcDbEntity
  8
0
100
AcDbLine
 10
934.3124035844104
 20
673.924718026778
 30
0.0
 11
934.3124035844104
 21
679.924718026778
 31
0.0
  0
LINE
  5
2F73C
330
17
100
AcDbEntity
  8
0
100
AcDbLine
 10
934.2537465355002
 20
673.5872666251921
 30
0.0
 11
934.2537465355002
 21
672.924718026778
 31
0.0
  0
LINE
  5
2F73D
330
17
100
AcDbEntity
  8
0
100
AcDbLine
 10
948.6950894865898
 20
672.924718026778
 30
0.0
 11
956.6950894865899
 21
672.924718026778
 31
0.0
  0
LINE
  5
2F73E
330
17
100
AcDbEntity
  8
0
100
AcDbLine
 10
947.6950894865899
 20
679.924718026778
 30
0.0
 11
947.6950894865899
 21
673.924718026778
 31
0.0
  0
ARC
  5
2F73F
330
17
100
AcDbEntity
  8
0
100
AcDbCircle
 10
948.6950894865898
 20
673.924718026778
 30
0.0
 40
1.0
100
AcDbArc
 50
180.0
 51
270.0
  0
LINE
  5
2F740
330
17
100
AcDbEntity
  8
0
100
AcDbLine
 10
947.7537465355002
 20
673.5872666251903
 30
0.0
 11
947.7537465355002
 21
672.924718026778
 31
0.0
  0
LINE
  5
2F741
330
17
100
AcDbEntity
  8
0
100
AcDbLine
 10
960.0037465355002
 20
682.9247180267778
 30
0.0
 11
960.0037465355002
 21
679.924718026778
 31
0.0
  0
LINE
  5
2F742
330
17
100
AcDbEntity
  8
0
100
AcDbLine
 10
957.6950894865898
 20
679.924718026778
 30
0.0
 11
957.6950894865898
 21
673.924718026778
 31
0.0
  0
ARC
  5
2F743
330
17
100
AcDbEntity
  8
0
100
AcDbCircle
 10
956.6950894865899
 20
673.924718026778
 30
0.0
 40
1.0
100
AcDbArc
 50
270.0
 51
0.0
  0
ARC
  5
2F744
330
17
100
AcDbEntity
  8
0
100
AcDbCircle
 10
961.0037465354963
 20
686.9247180267779
 30
0.0
 40
4.0
100
AcDbArc
 50
270.0
 51
343.3984504009497
  0
ARC
  5
2F745
330
17
100
AcDbEntity
  8
0
100
AcDbCircle
 10
967.7119504679962
 20
684.924718026778
 30
0.0
 40
3.0
100
AcDbArc
 50
90.0
 51
163.3984504009497
  0
LINE
  5
2F746
330
17
100
AcDbEntity
  8
0
100
AcDbLine
 10
1003.503746535504
 20
684.9247180267789
 30
0.0
 11
1003.503746535504
 21
588.4247180267789
 31
0.0
  0
LINE
  5
2F747
330
17
100
AcDbEntity
  8
0
100
AcDbLine
 10
1008.003746535504
 20
684.9247180267789
 30
0.0
 11
1008.003746535504
 21
588.4247180267789
 31
0.0
  0
ARC
  5
2F748
330
17
100
AcDbEntity
  8
0
100
AcDbCircle
 10
1011.503746535504
 20
575.9247180267789
 30
0.0
 40
8.0
100
AcDbArc
 50
205.9444797723737
 51
270.0
  0
ARC
  5
2F749
330
17
100
AcDbEntity
  8
0
100
AcDbCircle
 10
1011.503746535504
 20
684.9247180267789
 30
0.0
 40
8.0
100
AcDbArc
 50
157.9756871629806
 51
180.0
  0
ARC
  5
2F74A
330
17
100
AcDbEntity
  8
0
100
AcDbCircle
 10
1011.503746535504
 20
684.9247180267789
 30
0.0
 40
3.5
100
AcDbArc
 50
121.00271913393
 51
180.0
  0
ARC
  5
2F74B
330
17
100
AcDbEntity
  8
0
100
AcDbCircle
 10
1123.707436535443
 20
731.7210380267065
 30
0.0
 40
25.0
100
AcDbArc
 50
112.6683500000215
 51
157.3316500000241
  0
LINE
  5
2F74C
330
17
100
AcDbEntity
  8
0
100
AcDbLine
 10
1078.503746535504
 20
687.924718026778
 30
0.0
 11
1078.503746535504
 21
588.4247180267789
 31
0.0
  0
LINE
  5
2F74D
330
17
100
AcDbEntity
  8
0
100
AcDbLine
 10
1074.003746535504
 20
687.924718026778
 30
0.0
 11
1074.003746535504
 21
588.4247180267789
 31
0.0
  0
ARC
  5
2F74E
330
17
100
AcDbEntity
  8
0
100
AcDbCircle
 10
1070.503746535504
 20
575.9247180267789
 30
0.0
 40
7.999999999999886
100
AcDbArc
 50
270.0
 51
334.0555202276263
  0
ARC
  5
2F74F
330
17
100
AcDbEntity
  8
0
100
AcDbCircle
 10
1058.300056535443
 20
731.7210380267065
 30
0.0
 40
25.0
100
AcDbArc
 50
22.66834999997583
 51
67.33164999997775
  0
LINE
  5
2F750
330
17
100
AcDbEntity
  8
0
100
AcDbLine
 10
1107.003746535444
 20
741.424718026706
 30
0.0
 11
1104.423746535444
 21
741.424718026706
 31
0.0
  0
LINE
  5
2F751
330
17
100
AcDbEntity
  8
0
100
AcDbLine
 10
1107.003746535444
 20
741.424718026706
 30
0.0
 11
1104.423746535444
 21
741.424718026706
 31
0.0
  0
LINE
  5
2F752
330
17
100
AcDbEntity
  8
0
100
AcDbLine
 10
1104.423746535444
 20
734.4247180267061
 30
0.0
 11
1107.003746535444
 21
734.4247180267061
 31
0.0
  0
LINE
  5
2F753
330
17
100
AcDbEntity
  8
0
100
AcDbLine
 10
1107.003746535444
 20
733.4247180267062
 30
0.0
 11
1106.003746535444
 21
732.424718026706
 31
0.0
  0
LINE
  5
2F754
330
17
100
AcDbEntity
  8
0
100
AcDbLine
 10
1091.003746535444
 20
732.424718026706
 30
0.0
 11
1106.003746535444
 21
732.424718026706
 31
0.0
  0
LINE
  5
2F755
330
17
100
AcDbEntity
  8
0
100
AcDbLine
 10
1104.423746535444
 20
734.4247180267061
 30
0.0
 11
1104.423746535444
 21
741.424718026706
 31
0.0
  0
LINE
  5
2F756
330
17
100
AcDbEntity
  8
0
100
AcDbLine
 10
1107.003746535444
 20
733.4247180267062
 30
0.0
 11
1107.003746535444
 21
750.321758026706
 31
0.0
  0
LINE
  5
2F757
330
17
100
AcDbEntity
  8
0
100
AcDbLine
 10
1075.003746535444
 20
741.424718026706
 30
0.0
 11
1077.583746535444
 21
741.424718026706
 31
0.0
  0
LINE
  5
2F758
330
17
100
AcDbEntity
  8
0
100
AcDbLine
 10
1075.003746535444
 20
741.424718026706
 30
0.0
 11
1077.583746535444
 21
741.424718026706
 31
0.0
  0
LINE
  5
2F759
330
17
100
AcDbEntity
  8
0
100
AcDbLine
 10
1077.583746535444
 20
734.4247180267061
 30
0.0
 11
1075.003746535444
 21
734.4247180267061
 31
0.0
  0
LINE
  5
2F75A
330
17
100
AcDbEntity
  8
0
100
AcDbLine
 10
1075.003746535444
 20
733.4247180267062
 30
0.0
 11
1076.003746535444
 21
732.424718026706
 31
0.0
  0
LINE
  5
2F75B
330
17
100
AcDbEntity
  8
0
100
AcDbLine
 10
1075.003746535444
 20
733.4247180267062
 30
0.0
 11
1075.003746535444
 21
750.321758026706
 31
0.0
  0
LINE
  5
2F75C
330
17
100
AcDbEntity
  8
0
100
AcDbLine
 10
1077.583746535444
 20
734.4247180267061
 30
0.0
 11
1077.583746535444
 21
741.424718026706
 31
0.0
  0
LINE
  5
2F75D
330
17
100
AcDbEntity
  8
0
100
AcDbLine
 10
1091.003746535444
 20
732.424718026706
 30
0.0
 11
1076.003746535444
 21
732.424718026706
 31
0.0
  0
ARC
  5
2F75E
330
17
100
AcDbEntity
  8
0
100
AcDbCircle
 10
1091.003746535444
 20
764.424718026706
 30
0.0
 40
25.0
100
AcDbArc
 50
247.3316499999785
 51
292.6683500000223
  0
LINE
  5
2F75F
330
17
100
AcDbEntity
  8
0
100
AcDbLine
 10
1362.862637859797
 20
567.924718026778
 30
0.0
 11
1243.090224500276
 21
567.924718026778
 31
0.0
  0
LINE
  5
2F760
330
17
100
AcDbEntity
  8
0
100
AcDbLine
 10
1303.805324468181
 20
687.9247180267789
 30
0.0
 11
1322.376343363988
 21
588.4247180267789
 31
0.0
  0
LINE
  5
2F761
330
17
100
AcDbEntity
  8
0
100
AcDbLine
 10
1306.055324468181
 20
687.9247180267789
 30
0.0
 11
1324.626343363988
 21
588.4247180267789
 31
0.0
  0
LINE
  5
2F762
330
17
100
AcDbEntity
  8
0
100
AcDbLine
 10
1243.090224500277
 20
687.9247180267789
 30
0.0
 11
1243.090224500277
 21
588.4247180267789
 31
0.0
  0
LINE
  5
2F763
330
17
100
AcDbEntity
  8
0
100
AcDbLine
 10
1243.090224500277
 20
572.424718026778
 30
0.0
 11
1243.090224500277
 21
567.924718026778
 31
0.0
  0
LINE
  5
2F764
330
17
100
AcDbEntity
  8
0
100
AcDbLine
 10
1341.305324468181
 20
687.9247180267789
 30
0.0
 11
1359.876343363989
 21
588.4247180267789
 31
0.0
  0
LINE
  5
2F765
330
17
100
AcDbEntity
  8
0
100
AcDbLine
 10
1339.055324468181
 20
687.9247180267789
 30
0.0
 11
1357.626343363989
 21
588.4247180267789
 31
0.0
  0
LINE
  5
2F766
330
17
100
AcDbEntity
  8
0
100
AcDbLine
 10
1325.362637859798
 20
572.424718026778
 30
0.0
 11
1325.362637859798
 21
567.924718026778
 31
0.0
  0
LINE
  5
2F767
330
17
100
AcDbEntity
  8
0
100
AcDbLine
 10
1362.862637859798
 20
572.424718026778
 30
0.0
 11
1362.862637859797
 21
567.924718026778
 31
0.0
  0
LINE
  5
2F768
330
17
100
AcDbEntity
  8
0
100
AcDbLine
 10
1360.003746535504
 20
687.924718026778
 30
0.0
 11
1331.603746535501
 21
687.924718026778
 31
0.0
  0
LINE
  5
2F769
330
17
100
AcDbEntity
  8
0
100
AcDbLine
 10
1360.603746535502
 20
686.9247180267779
 30
0.0
 11
1354.603746535502
 21
686.9247180267779
 31
0.0
  0
LINE
  5
2F76A
330
17
100
AcDbEntity
  8
0
100
AcDbLine
 10
1360.003746535504
 20
687.5247180267782
 30
0.0
 11
1354.603746535502
 21
687.5247180267782
 31
0.0
  0
LINE
  5
2F76B
330
17
100
AcDbEntity
  8
0
100
AcDbLine
 10
1354.603746535502
 20
687.5247180267782
 30
0.0
 11
1354.603746535502
 21
686.9247180267779
 31
0.0
  0
LINE
  5
2F76C
330
17
100
AcDbEntity
  8
0
100
AcDbLine
 10
1402.920375259297
 20
588.4247180267789
 30
0.0
 11
1402.920375259297
 21
572.424718026778
 31
0.0
  0
LINE
  5
2F76D
330
17
100
AcDbEntity
  8
0
100
AcDbLine
 10
746.503746535502
 20
814.9247180267876
 30
0.0
 11
1335.503746535499
 21
814.9247180267876
 31
0.0
  0
ARC
  5
2F76E
330
17
100
AcDbEntity
  8
0
100
AcDbCircle
 10
771.5021573336001
 20
1454.531999115721
 30
0.0
 40
90.8333333333333
100
AcDbArc
 50
56.60151153200196
 51
123.398488467998
  0
ARC
  5
2F76F
330
17
100
AcDbEntity
  8
0
100
AcDbCircle
 10
871.5021573336001
 20
1606.198665782388
 30
0.0
 40
90.83333333333326
100
AcDbArc
 50
236.601511532002
 51
303.3984884679981
  0
ARC
  5
2F770
330
17
100
AcDbEntity
  8
0
100
AcDbCircle
 10
871.5021573336001
 20
1429.482761034367
 30
0.0
 40
90.83333333333326
100
AcDbArc
 50
236.601511532002
 51
303.3984884679981
  0
LINE
  5
2F771
330
17
100
AcDbEntity
  8
0
100
AcDbLine
 10
722.0037465355057
 20
817.9247180267722
 30
0.0
 11
746.5037465355075
 21
817.9247180267722
 31
0.0
  0
LINE
  5
2F772
330
17
100
AcDbEntity
  8
0
100
AcDbLine
 10
721.4037465354997
 20
818.924718026775
 30
0.0
 11
746.503746535502
 21
818.924718026775
 31
0.0
  0
ARC
  5
2F773
330
17
100
AcDbEntity
  8
0
100
AcDbCircle
 10
739.0037465353738
 20
815.9247180267026
 30
0.0
 40
1.0
100
AcDbArc
 50
180.0
 51
270.0
1001
GENIUS_GENODEF_13
1002
{
1000
HIER
1070
     0
1002
}
1002
{
1000
MANEDIT
1070
     0
1002
}
1002
{
1000
NOSEL
1070
     0
1002
}
1002
{
1000
BEHIND
1070
     0
1002
}
1002
{
1000
OTHER
1070
     0
1002
}
1002
{
1000
REACTOR
1002
}
1001
GENIUS_GENOBJ-N-FIL_13
1002
{
1000
OWNER
1000
GEN
1002
}
  0
LINE
  5
2F774
330
17
100
AcDbEntity
  8
0
100
AcDbLine
 10
738.0037465353738
 20
817.9247180267024
 30
0.0
 11
738.0037465353738
 21
815.9247180267026
 31
0.0
  0
LINE
  5
2F775
330
17
100
AcDbEntity
  8
0
100
AcDbLine
 10
746.503746535502
 20
814.9247180267026
 30
0.0
 11
739.0037465353738
 21
814.9247180267026
 31
0.0
  0
LINE
  5
2F776
330
17
100
AcDbEntity
  8
0
100
AcDbLine
 10
746.503746535502
 20
817.9247180267024
 30
0.0
 11
738.0037465353738
 21
817.9247180267024
 31
0.0
  0
LINE
  5
2F777
330
17
100
AcDbEntity
  8
0
100
AcDbLine
 10
746.503746535502
 20
814.9247180267876
 30
0.0
 11
746.503746535502
 21
818.9247180267878
 31
0.0
  0
CIRCLE
  5
2F778
330
17
100
AcDbEntity
  8
0
100
AcDbCircle
 10
841.0037465355021
 20
830.9247180267878
 30
0.0
 40
6.0
  0
CIRCLE
  5
2F779
330
17
100
AcDbEntity
  8
0
100
AcDbCircle
 10
841.0037465355021
 20
830.9247180267878
 30
0.0
 40
10.4
  0
CIRCLE
  5
2F77A
330
17
100
AcDbEntity
  8
0
100
AcDbCircle
 10
841.0037465355037
 20
830.924718026775
 30
0.0
 40
1.6
  0
CIRCLE
  5
2F77B
330
17
100
AcDbEntity
  8
0
100
AcDbCircle
 10
841.0037465355021
 20
830.9247180267878
 30
0.0
 40
3.0
  0
ARC
  5
2F77C
330
17
100
AcDbEntity
  8
0
100
AcDbCircle
 10
771.5021573336001
 20
1277.8160943677
 30
0.0
 40
90.8333333333333
100
AcDbArc
 50
56.60151153200196
 51
123.398488467998
  0
LINE
  5
2F77D
330
17
100
AcDbEntity
  8
0
100
AcDbLine
 10
746.4037465354962
 20
1542.165736936174
 30
0.0
 11
746.4037465354962
 21
1365.141316637351
 31
0.0
  0
LINE
  5
2F77E
330
17
100
AcDbEntity
  8
0
100
AcDbLine
 10
735.4037465354962
 20
1538.235325323083
 30
0.0
 11
735.4037465354962
 21
1361.21090502426
 31
0.0
  0
LINE
  5
2F77F
330
17
100
AcDbEntity
  8
0
100
AcDbLine
 10
755.4037465354962
 20
1544.253569890267
 30
0.0
 11
755.4037465354962
 21
1367.229149591444
 31
0.0
  0
LINE
  5
2F780
330
17
100
AcDbEntity
  8
0
100
AcDbLine
 10
852.5037465357657
 20
1340.637477285292
 30
0.0
 11
852.5037465357648
 21
1517.374373882023
 31
0.0
  0
LINE
  5
2F781
330
17
100
AcDbEntity
  8
0
100
AcDbLine
 10
868.5037465357622
 20
1338.69573308188
 30
0.0
 11
868.5037465357613
 21
1515.720153380703
 31
0.0
  0
LINE
  5
2F782
330
17
100
AcDbEntity
  8
0
100
AcDbLine
 10
1105.587079868778
 20
784.730539578391
 30
0.0
 11
1125.378746535444
 21
770.5164644922115
 31
0.0
  0
ARC
  5
2F783
330
17
100
AcDbEntity
  8
0
100
AcDbCircle
 10
1123.707436535443
 20
797.1284080267064
 30
0.0
 40
25.0
100
AcDbArc
 50
202.6683499999758
 51
247.3316499999785
  0
LINE
  5
2F784
330
17
100
AcDbEntity
  8
0
100
AcDbLine
 10
1076.42041320211
 20
784.730539578391
 30
0.0
 11
1056.628746535444
 21
770.5164644922115
 31
0.0
  0
ARC
  5
2F785
330
17
100
AcDbEntity
  8
0
100
AcDbCircle
 10
1058.300056535443
 20
797.1284080267064
 30
0.0
 40
25.0
100
AcDbArc
 50
292.6683500000223
 51
337.3316500000242
  0
CIRCLE
  5
2F786
330
17
100
AcDbEntity
  8
0
100
AcDbCircle
 10
1061.003746535444
 20
764.4247180267057
 30
0.0
 40
2.5
  0
ARC
  5
2F787
330
17
100
AcDbEntity
  8
0
100
AcDbCircle
 10
1061.003746535444
 20
764.4247180267057
 30
0.0
 40
7.5
100
AcDbArc
 50
125.6853347126346
 51
234.3146652873653
  0
ARC
  5
2F788
330
17
100
AcDbEntity
  8
0
100
AcDbCircle
 10
1091.003746535444
 20
764.4247180267057
 30
0.0
 40
25.0
100
AcDbArc
 50
112.6683608344159
 51
125.6853347126346
  0
ARC
  5
2F789
330
17
100
AcDbEntity
  8
0
100
AcDbCircle
 10
1091.003746535444
 20
764.4247180267057
 30
0.0
 40
25.0
100
AcDbArc
 50
54.31466528736526
 51
67.33163916564246
  0
LINE
  5
2F78A
330
17
100
AcDbEntity
  8
0
100
AcDbLine
 10
1101.878256535443
 20
771.548278026706
 30
0.0
 11
1101.041756535443
 21
771.0003180267062
 31
0.0
  0
LINE
  5
2F78B
330
17
100
AcDbEntity
  8
0
100
AcDbLine
 10
1100.663006535443
 20
767.0129080267066
 30
0.0
 11
1101.878256535443
 21
771.548278026706
 31
0.0
  0
TEXT
  5
2F78C
330
17
100
AcDbEntity
  8
0
100
AcDbText
 10
1101.003746535444
 20
766.9247180267062
 30
0.0
 40
5.0
  1
閉
 50
270.0
 41
1.153846153846179
 72
     5
 11
1101.003746535444
 21
761.924718026706
 31
0.0
100
AcDbText
  0
LINE
  5
2F78D
330
17
100
AcDbEntity
  8
0
100
AcDbLine
 10
1093.591936535443
 20
774.0839780267065
 30
0.0
 11
1094.109576535443
 21
776.0158280267063
 31
0.0
  0
ARC
  5
2F78E
330
17
100
AcDbEntity
  8
0
100
AcDbCircle
 10
1091.003746535444
 20
764.424718026706
 30
0.0
 40
10.0
100
AcDbArc
 50
14.99999999999445
 51
75.00000000000555
  0
ARC
  5
2F78F
330
17
100
AcDbEntity
  8
0
100
AcDbCircle
 10
1091.003746535444
 20
764.424718026706
 30
0.0
 40
12.0
100
AcDbArc
 50
33.22759000000465
 51
75.00000000000555
  0
TEXT
  5
2F790
330
17
100
AcDbEntity
  8
0
100
AcDbText
 10
1081.003746535444
 20
761.924718026706
 30
0.0
 40
5.0
  1
開
 50
90.0
 41
1.15384615384618
 72
     5
 11
1081.003746535444
 21
766.9247180267062
 31
0.0
100
AcDbText
  0
LINE
  5
2F791
330
17
100
AcDbEntity
  8
0
100
AcDbLine
 10
1087.897916535443
 20
776.0158280267063
 30
0.0
 11
1088.415556535443
 21
774.0839780267065
 31
0.0
  0
LINE
  5
2F792
330
17
100
AcDbEntity
  8
0
100
AcDbLine
 10
1080.129236535443
 20
771.548278026706
 30
0.0
 11
1080.965736535444
 21
771.0003180267062
 31
0.0
  0
LINE
  5
2F793
330
17
100
AcDbEntity
  8
0
100
AcDbLine
 10
1081.344486535443
 20
767.0129080267066
 30
0.0
 11
1080.129236535443
 21
771.548278026706
 31
0.0
  0
ARC
  5
2F794
330
17
100
AcDbEntity
  8
0
100
AcDbCircle
 10
1091.003746535444
 20
764.424718026706
 30
0.0
 40
10.0
100
AcDbArc
 50
104.9999999999944
 51
165.0000000000055
  0
ARC
  5
2F795
330
17
100
AcDbEntity
  8
0
100
AcDbCircle
 10
1091.003746535444
 20
764.424718026706
 30
0.0
 40
12.0
100
AcDbArc
 50
104.9999999999944
 51
146.7724099999953
  0
ARC
  5
2F796
330
17
100
AcDbEntity
  8
0
100
AcDbCircle
 10
1091.003746535444
 20
764.424718026706
 30
0.0
 40
25.0
100
AcDbArc
 50
67.33164999997775
 51
112.6683500000215
  0
LINE
  5
2F797
330
17
100
AcDbEntity
  8
0
100
AcDbLine
 10
1083.0021573336
 20
788.1101565914309
 30
0.0
 11
1083.0021573336
 21
814.9247180267876
 31
0.0
  0
LINE
  5
2F798
330
17
100
AcDbEntity
  8
0
100
AcDbLine
 10
1099.0021573336
 20
788.1101565914309
 30
0.0
 11
1099.0021573336
 21
814.9247180267876
 31
0.0
  0
ARC
  5
2F799
330
17
100
AcDbEntity
  8
0
100
AcDbCircle
 10
1121.003746535444
 20
764.4247180267057
 30
0.0
 40
7.5
100
AcDbArc
 50
305.6853347126347
 51
54.31466528736526
  0
CIRCLE
  5
2F79A
330
17
100
AcDbEntity
  8
0
100
AcDbCircle
 10
1121.003746535444
 20
764.4247180267057
 30
0.0
 40
2.5
  0
ARC
  5
2F79B
330
17
100
AcDbEntity
  8
0
100
AcDbCircle
 10
1071.5021573336
 20
1429.482761034367
 30
0.0
 40
90.83333333333326
100
AcDbArc
 50
236.601511532002
 51
250.3800348467458
  0
ARC
  5
2F79C
330
17
100
AcDbEntity
  8
0
100
AcDbCircle
 10
971.5021573336001
 20
1277.8160943677
 30
0.0
 40
90.83333333333326
100
AcDbArc
 50
56.60151153200196
 51
123.398488467998
  0
LINE
  5
2F79D
330
17
100
AcDbEntity
  8
0
100
AcDbLine
 10
1041.0021573336
 20
1343.923165170171
 30
0.0
 11
1041.0021573336
 21
1520.639069918192
 31
0.0
  0
LINE
  5
2F79E
330
17
100
AcDbEntity
  8
0
100
AcDbLine
 10
852.5037465355021
 20
2247.924718026788
 30
0.0
 11
983.503746535502
 21
2247.924718026788
 31
0.0
  0
LINE
  5
2F79F
330
17
100
AcDbEntity
  8
0
100
AcDbLine
 10
984.164500140609
 20
2257.924718026788
 30
0.0
 11
851.842992930393
 21
2257.924718026788
 31
0.0
  0
LINE
  5
2F7A0
330
17
100
AcDbEntity
  8
0
100
AcDbLine
 10
945.164500140609
 20
1900.924718026787
 30
0.0
 11
812.8429929303932
 21
1900.924718026787
 31
0.0
  0
LINE
  5
2F7A1
330
17
100
AcDbEntity
  8
0
100
AcDbLine
 10
813.503746535502
 20
1910.924718026787
 30
0.0
 11
944.5037465355021
 21
1910.924718026787
 31
0.0
  0
LINE
  5
2F7A2
330
17
100
AcDbEntity
  8
0
100
AcDbLine
 10
945.164500140609
 20
1800.924718026788
 30
0.0
 11
812.8429929303932
 21
1800.924718026788
 31
0.0
  0
LINE
  5
2F7A3
330
17
100
AcDbEntity
  8
0
100
AcDbLine
 10
813.503746535502
 20
1790.924718026788
 30
0.0
 11
944.5037465355021
 21
1790.924718026788
 31
0.0
  0
LINE
  5
2F7A4
330
17
100
AcDbEntity
  8
0
100
AcDbLine
 10
831.0037465355019
 20
1805.924718026788
 30
0.0
 11
927.003746535502
 21
1805.924718026788
 31
0.0
  0
LINE
  5
2F7A5
330
17
100
AcDbEntity
  8
0
100
AcDbLine
 10
831.0037465355019
 20
1894.924718026788
 30
0.0
 11
927.003746535502
 21
1894.924718026788
 31
0.0
  0
CIRCLE
  5
2F7A6
330
17
100
AcDbEntity
  8
0
100
AcDbCircle
 10
763.003746535502
 20
1561.924718026788
 30
0.0
 40
6.0
  0
CIRCLE
  5
2F7A7
330
17
100
AcDbEntity
  8
0
100
AcDbCircle
 10
763.003746535502
 20
1561.924718026788
 30
0.0
 40
10.4
  0
CIRCLE
  5
2F7A8
330
17
100
AcDbEntity
  8
0
100
AcDbCircle
 10
763.003746535502
 20
1561.924718026788
 30
0.0
 40
3.0
  0
ARC
  5
2F7A9
330
17
100
AcDbEntity
  8
0
100
AcDbCircle
 10
831.0037465355019
 20
1811.924718026788
 30
0.0
 40
6.0
100
AcDbArc
 50
180.0
 51
270.0
  0
ARC
  5
2F7AA
330
17
100
AcDbEntity
  8
0
100
AcDbCircle
 10
831.0037465355019
 20
1888.924718026788
 30
0.0
 40
6.0
100
AcDbArc
 50
90.0
 51
180.0
  0
LINE
  5
2F7AB
330
17
100
AcDbEntity
  8
0
100
AcDbLine
 10
825.0037465355021
 20
1888.924718026788
 30
0.0
 11
825.0037465355021
 21
1811.924718026788
 31
0.0
  0
LINE
  5
2F7AC
330
17
100
AcDbEntity
  8
0
100
AcDbLine
 10
801.5037465355019
 20
1898.924718026787
 30
0.0
 11
801.5037465355019
 21
1802.924718026788
 31
0.0
  0
LINE
  5
2F7AD
330
17
100
AcDbEntity
  8
0
100
AcDbLine
 10
810.003746535502
 20
1898.084718026788
 30
0.0
 11
810.003746535502
 21
1803.764718026788
 31
0.0
  0
ARC
  5
2F7AE
330
17
100
AcDbEntity
  8
0
100
AcDbCircle
 10
813.503746535502
 20
1802.924718026788
 30
0.0
 40
12.0
100
AcDbArc
 50
180.0
 51
270.0
  0
ARC
  5
2F7AF
330
17
100
AcDbEntity
  8
0
100
AcDbCircle
 10
812.8429929303932
 20
1803.764718026788
 30
0.0
 40
2.839246394892143
100
AcDbArc
 50
180.0
 51
270.0
  0
ARC
  5
2F7B0
330
17
100
AcDbEntity
  8
0
100
AcDbCircle
 10
813.503746535502
 20
1898.924718026787
 30
0.0
 40
12.0
100
AcDbArc
 50
90.0
 51
180.0
  0
ARC
  5
2F7B1
330
17
100
AcDbEntity
  8
0
100
AcDbCircle
 10
812.8429929303932
 20
1898.084718026788
 30
0.0
 40
2.839246394892143
100
AcDbArc
 50
90.0
 51
180.0
  0
LINE
  5
2F7B2
330
17
100
AcDbEntity
  8
0
100
AcDbLine
 10
841.503746535502
 20
1802.924718026788
 30
0.0
 11
841.503746535502
 21
1802.924718026788
 31
0.0
  0
CIRCLE
  5
2F7B3
330
17
100
AcDbEntity
  8
0
100
AcDbCircle
 10
763.003746535502
 20
2172.924718026788
 30
0.0
 40
9.0
  0
CIRCLE
  5
2F7B4
330
17
100
AcDbEntity
  8
0
100
AcDbCircle
 10
763.003746535502
 20
2172.924718026788
 30
0.0
 40
6.0
  0
CIRCLE
  5
2F7B5
330
17
100
AcDbEntity
  8
0
100
AcDbCircle
 10
763.003746535502
 20
2172.924718026788
 30
0.0
 40
3.0
  0
ARC
  5
2F7B6
330
17
100
AcDbEntity
  8
0
100
AcDbCircle
 10
851.842992930393
 20
2260.764718026787
 30
0.0
 40
2.839246394892143
100
AcDbArc
 50
180.0
 51
270.0
  0
ARC
  5
2F7B7
330
17
100
AcDbEntity
  8
0
100
AcDbCircle
 10
852.5037465355021
 20
2259.924718026787
 30
0.0
 40
12.0
100
AcDbArc
 50
180.0
 51
270.0
  0
LINE
  5
2F7B8
330
17
100
AcDbEntity
  8
0
100
AcDbLine
 10
933.0037465355021
 20
1888.924718026788
 30
0.0
 11
933.0037465355021
 21
1811.924718026788
 31
0.0
  0
LINE
  5
2F7B9
330
17
100
AcDbEntity
  8
0
100
AcDbLine
 10
948.0037465355021
 20
1898.084718026788
 30
0.0
 11
948.0037465355021
 21
1803.764718026788
 31
0.0
  0
LINE
  5
2F7BA
330
17
100
AcDbEntity
  8
0
100
AcDbLine
 10
956.503746535502
 20
1898.924718026787
 30
0.0
 11
956.503746535502
 21
1802.924718026788
 31
0.0
  0
ARC
  5
2F7BB
330
17
100
AcDbEntity
  8
0
100
AcDbCircle
 10
927.003746535502
 20
1811.924718026788
 30
0.0
 40
6.0
100
AcDbArc
 50
270.0
 51
0.0
  0
ARC
  5
2F7BC
330
17
100
AcDbEntity
  8
0
100
AcDbCircle
 10
944.5037465355021
 20
1802.924718026788
 30
0.0
 40
12.0
100
AcDbArc
 50
270.0
 51
0.0
  0
ARC
  5
2F7BD
330
17
100
AcDbEntity
  8
0
100
AcDbCircle
 10
945.164500140609
 20
1803.764718026788
 30
0.0
 40
2.839246394892143
100
AcDbArc
 50
270.0
 51
0.0
  0
ARC
  5
2F7BE
330
17
100
AcDbEntity
  8
0
100
AcDbCircle
 10
927.003746535502
 20
1888.924718026788
 30
0.0
 40
6.0
100
AcDbArc
 50
0.0
 51
90.0
  0
ARC
  5
2F7BF
330
17
100
AcDbEntity
  8
0
100
AcDbCircle
 10
944.5037465355021
 20
1898.924718026787
 30
0.0
 40
12.0
100
AcDbArc
 50
0.0
 51
90.0
  0
ARC
  5
2F7C0
330
17
100
AcDbEntity
  8
0
100
AcDbCircle
 10
945.164500140609
 20
1898.084718026788
 30
0.0
 40
2.839246394892143
100
AcDbArc
 50
0.0
 51
90.0
  0
CIRCLE
  5
2F7C1
330
17
100
AcDbEntity
  8
0
100
AcDbCircle
 10
941.253746535502
 20
1850.924718026788
 30
0.0
 40
6.0
  0
ARC
  5
2F7C2
330
17
100
AcDbEntity
  8
0
100
AcDbCircle
 10
984.164500140609
 20
2260.764718026787
 30
0.0
 40
2.839246394892143
100
AcDbArc
 50
270.0
 51
0.0
  0
CIRCLE
  5
2F7C3
330
17
100
AcDbEntity
  8
0
100
AcDbCircle
 10
980.2537465355021
 20
2307.968671520958
 30
0.0
 40
6.0
  0
ARC
  5
2F7C4
330
17
100
AcDbEntity
  8
0
100
AcDbCircle
 10
983.503746535502
 20
2259.924718026787
 30
0.0
 40
12.0
100
AcDbArc
 50
270.0
 51
0.0
  0
LEADER
  5
2F7C5
330
17
100
AcDbEntity
  8
DIM
100
AcDbLeader
  3
STANDARD
 73
     0
 74
     0
 75
     1
 40
42.5
 41
154.1333333333333
 76
     3
 10
1281.334900420284
 20
995.9247180267759
 30
0.0
 10
1389.231412948608
 20
1190.85781919555
 30
0.0
 10
1423.231412948608
 20
1190.85781919555
 30
0.0
340
2F7C6
1001
ACAD
1000
DSTYLE
1002
{
1070
    41
1040
2.0
1070
   147
1040
1.0
1070
    77
1070
     1
1070
    43
1040
10.0
1070
    73
1070
     0
1070
    74
1070
     0
1070
   172
1070
     1
1070
   179
1070
     1
1070
   271
1070
     1
1070
   272
1070
     1
1070
   341
1005
4A
1070
   342
1005
0
1002
}
  0
MTEXT
  5
2F7C6
102
{ACAD_REACTORS
330
2F7C5
102
}
330
17
100
AcDbEntity
  8
DIM
100
AcDbMText
 10
1440.231412948608
 20
1229.10781919555
 30
0.0
 40
42.5
 41
539.5
 46
0.0
 71
     4
 72
     1
  1
型式銘板
 73
     1
 44
1.0
  0
LINE
  5
2F7C7
330
17
100
AcDbEntity
  8
0
100
AcDbLine
 10
1316.948009056719
 20
995.9247180267739
 30
0.0
 11
1316.948009056719
 21
865.924718026774
 31
0.0
  0
LINE
  5
2F7C8
330
17
100
AcDbEntity
  8
0
100
AcDbLine
 10
1231.948009056719
 20
995.9247180267759
 30
0.0
 11
1231.948009056719
 21
865.924718026774
 31
0.0
  0
CIRCLE
  5
2F7C9
330
17
100
AcDbEntity
  8
0
100
AcDbCircle
 10
1241.003746535501
 20
830.9247180267878
 30
0.0
 40
10.4
  0
LINE
  5
2F7CA
330
17
100
AcDbEntity
  8
0
100
AcDbLine
 10
1231.948009056719
 20
865.924718026774
 30
0.0
 11
1316.948009056719
 21
865.924718026774
 31
0.0
  0
CIRCLE
  5
2F7CB
330
17
100
AcDbEntity
  8
0
100
AcDbCircle
 10
1241.003746535501
 20
830.9247180267878
 30
0.0
 40
6.0
  0
CIRCLE
  5
2F7CC
330
17
100
AcDbEntity
  8
0
100
AcDbCircle
 10
1241.003746535503
 20
830.924718026775
 30
0.0
 40
1.6
  0
CIRCLE
  5
2F7CD
330
17
100
AcDbEntity
  8
0
100
AcDbCircle
 10
1241.003746535501
 20
830.9247180267878
 30
0.0
 40
3.0
  0
LINE
  5
2F7CE
330
17
100
AcDbEntity
  8
0
100
AcDbLine
 10
1231.948009056719
 20
995.9247180267759
 30
0.0
 11
1316.948009056719
 21
995.9247180267759
 31
0.0
  0
LINE
  5
2F7CF
330
17
100
AcDbEntity
  8
0
100
AcDbLine
 10
1360.003746535504
 20
817.9247180267722
 30
0.0
 11
1335.503746535501
 21
817.9247180267722
 31
0.0
  0
LINE
  5
2F7D0
330
17
100
AcDbEntity
  8
0
100
AcDbLine
 10
1335.503746535501
 20
818.9247180267878
 30
0.0
 11
1360.503746535502
 21
818.9247180267878
 31
0.0
  0
LINE
  5
2F7D1
330
17
100
AcDbEntity
  8
0
100
AcDbLine
 10
1335.503746535499
 20
814.9247180267876
 30
0.0
 11
1335.503746535501
 21
818.9247180267878
 31
0.0
  0
CIRCLE
  5
2F7D2
330
17
100
AcDbEntity
  8
0
100
AcDbCircle
 10
1319.003746535501
 20
1561.924718026788
 30
0.0
 40
6.0
  0
CIRCLE
  5
2F7D3
330
17
100
AcDbEntity
  8
0
100
AcDbCircle
 10
1319.003746535501
 20
1561.924718026788
 30
0.0
 40
10.4
  0
CIRCLE
  5
2F7D4
330
17
100
AcDbEntity
  8
0
100
AcDbCircle
 10
1319.003746535499
 20
1561.924718026788
 30
0.0
 40
3.0
  0
CIRCLE
  5
2F7D5
330
17
100
AcDbEntity
  8
0
100
AcDbCircle
 10
1319.003746535501
 20
2172.924718026788
 30
0.0
 40
6.0
  0
CIRCLE
  5
2F7D6
330
17
100
AcDbEntity
  8
0
100
AcDbCircle
 10
1319.003746535501
 20
2172.924718026788
 30
0.0
 40
10.4
  0
CIRCLE
  5
2F7D7
330
17
100
AcDbEntity
  8
0
100
AcDbCircle
 10
1319.003746535501
 20
2172.924718026788
 30
0.0
 40
3.0
  0
LINE
  5
2F7D8
330
17
100
AcDbEntity
  8
0
100
AcDbLine
 10
1245.9289573336
 20
2309.90471802678
 30
0.0
 11
1255.198957333601
 21
2309.90471802678
 31
0.0
  0
LINE
  5
2F7D9
330
17
100
AcDbEntity
  8
0
100
AcDbLine
 10
1244.074957333601
 20
2328.444718026779
 30
0.0
 11
1248.1537573336
 21
2328.444718026779
 31
0.0
  0
LINE
  5
2F7DA
330
17
100
AcDbEntity
  8
0
100
AcDbLine
 10
1231.096957333602
 20
2319.17471802678
 30
0.0
 11
1238.142157333602
 21
2319.17471802678
 31
0.0
  0
ARC
  5
2F7DB
330
17
100
AcDbEntity
  8
0
100
AcDbCircle
 10
1231.096957333602
 20
2321.028718026779
 30
0.0
 40
1.853999999999998
100
AcDbArc
 50
180.0
 51
270.0
  0
LINE
  5
2F7DC
330
17
100
AcDbEntity
  8
0
100
AcDbLine
 10
1244.074957333601
 20
2328.444718026779
 30
0.0
 11
1244.074957333601
 21
2311.75871802678
 31
0.0
  0
ARC
  5
2F7DD
330
17
100
AcDbEntity
  8
0
100
AcDbCircle
 10
1234.4341573336
 20
2324.365918026779
 30
0.0
 40
1.112399999999998
100
AcDbArc
 50
180.0
 51
270.0
  0
LINE
  5
2F7DE
330
17
100
AcDbEntity
  8
0
100
AcDbLine
 10
1234.4341573336
 20
2323.253518026779
 30
0.0
 11
1238.142157333602
 21
2323.253518026779
 31
0.0
  0
ARC
  5
2F7DF
330
17
100
AcDbEntity
  8
0
100
AcDbCircle
 10
1245.9289573336
 20
2311.75871802678
 30
0.0
 40
1.853999999999998
100
AcDbArc
 50
180.0
 51
270.0
  0
LINE
  5
2F7E0
330
17
100
AcDbEntity
  8
0
100
AcDbLine
 10
1242.220957333602
 20
2311.01711802678
 30
0.0
 11
1242.220957333602
 21
2310.955759141378
 31
0.0
  0
LINE
  5
2F7E1
330
17
100
AcDbEntity
  8
0
100
AcDbLine
 10
1242.220957333602
 20
2311.01711802678
 30
0.0
 11
1242.220957333602
 21
2310.955759141378
 31
0.0
  0
LINE
  5
2F7E2
330
17
100
AcDbEntity
  8
0
100
AcDbLine
 10
1239.051630935015
 20
2301.792229883124
 30
0.0
 11
1238.142157333602
 21
2300.634718026779
 31
0.0
  0
ARC
  5
2F7E3
330
17
100
AcDbEntity
  8
0
100
AcDbCircle
 10
1227.388957333599
 20
2310.955759141378
 30
0.0
 40
14.832
100
AcDbArc
 50
321.842773412575
 51
0.0
  0
LINE
  5
2F7E4
330
17
100
AcDbEntity
  8
0
100
AcDbLine
 10
1238.142157333602
 20
2319.17471802678
 30
0.0
 11
1238.142157333602
 21
2300.634718026779
 31
0.0
  0
ARC
  5
2F7E5
330
17
100
AcDbEntity
  8
0
100
AcDbCircle
 10
1281.5257573336
 20
2323.253518026779
 30
0.0
 40
1.112399999999998
100
AcDbArc
 50
0.0
 51
90.0
  0
ARC
  5
2F7E6
330
17
100
AcDbEntity
  8
0
100
AcDbCircle
 10
1281.5257573336
 20
2315.095918026779
 30
0.0
 40
1.112399999999998
100
AcDbArc
 50
270.0
 51
0.0
  0
LINE
  5
2F7E7
330
17
100
AcDbEntity
  8
0
100
AcDbLine
 10
1284.862957333601
 20
2309.90471802678
 30
0.0
 11
1275.592957333601
 21
2309.90471802678
 31
0.0
  0
LINE
  5
2F7E8
330
17
100
AcDbEntity
  8
0
100
AcDbLine
 10
1284.862957333601
 20
2328.444718026779
 30
0.0
 11
1275.592957333601
 21
2328.444718026779
 31
0.0
  0
ARC
  5
2F7E9
330
17
100
AcDbEntity
  8
0
100
AcDbCircle
 10
1270.030957333599
 20
2326.590718026779
 30
0.0
 40
1.853999999999998
100
AcDbArc
 50
0.0
 51
90.0
  0
LINE
  5
2F7EA
330
17
100
AcDbEntity
  8
0
100
AcDbLine
 10
1264.0981573336
 20
2324.365918026779
 30
0.0
 11
1266.693757333601
 21
2324.365918026779
 31
0.0
  0
ARC
  5
2F7EB
330
17
100
AcDbEntity
  8
0
100
AcDbCircle
 10
1264.0981573336
 20
2323.253518026779
 30
0.0
 40
1.112399999999998
100
AcDbArc
 50
90.0
 51
180.0
  0
ARC
  5
2F7EC
330
17
100
AcDbEntity
  8
0
100
AcDbCircle
 10
1266.693757333601
 20
2323.253518026779
 30
0.0
 40
1.112399999999998
100
AcDbArc
 50
0.0
 51
90.0
  0
LINE
  5
2F7ED
330
17
100
AcDbEntity
  8
0
100
AcDbLine
 10
1267.806157333599
 20
2309.90471802678
 30
0.0
 11
1271.884957333602
 21
2309.90471802678
 31
0.0
  0
LINE
  5
2F7EE
330
17
100
AcDbEntity
  8
0
100
AcDbLine
 10
1262.985757333602
 20
2309.90471802678
 30
0.0
 11
1262.985757333602
 21
2323.253518026779
 31
0.0
  0
LINE
  5
2F7EF
330
17
100
AcDbEntity
  8
0
100
AcDbLine
 10
1271.884957333602
 20
2309.90471802678
 30
0.0
 11
1271.884957333602
 21
2326.590718026779
 31
0.0
  0
LINE
  5
2F7F0
330
17
100
AcDbEntity
  8
0
100
AcDbLine
 10
1267.806157333599
 20
2309.90471802678
 30
0.0
 11
1267.806157333599
 21
2323.253518026779
 31
0.0
  0
LINE
  5
2F7F1
330
17
100
AcDbEntity
  8
0
100
AcDbLine
 10
1260.760957333602
 20
2328.444718026779
 30
0.0
 11
1270.030957333599
 21
2328.444718026779
 31
0.0
  0
LINE
  5
2F7F2
330
17
100
AcDbEntity
  8
0
100
AcDbLine
 10
1252.974157333601
 20
2328.444718026779
 30
0.0
 11
1252.974157333601
 21
2315.095918026779
 31
0.0
  0
LINE
  5
2F7F3
330
17
100
AcDbEntity
  8
0
100
AcDbLine
 10
1248.1537573336
 20
2328.444718026779
 30
0.0
 11
1248.1537573336
 21
2315.095918026779
 31
0.0
  0
LINE
  5
2F7F4
330
17
100
AcDbEntity
  8
0
100
AcDbLine
 10
1257.0529573336
 20
2328.444718026779
 30
0.0
 11
1257.0529573336
 21
2311.75871802678
 31
0.0
  0
ARC
  5
2F7F5
330
17
100
AcDbEntity
  8
0
100
AcDbCircle
 10
1251.861757333603
 20
2315.095918026779
 30
0.0
 40
1.112399999999998
100
AcDbArc
 50
270.0
 51
0.0
  0
ARC
  5
2F7F6
330
17
100
AcDbEntity
  8
0
100
AcDbCircle
 10
1255.198957333601
 20
2311.75871802678
 30
0.0
 40
1.853999999999998
100
AcDbArc
 50
270.0
 51
0.0
  0
ARC
  5
2F7F7
330
17
100
AcDbEntity
  8
0
100
AcDbCircle
 10
1249.266157333602
 20
2315.095918026779
 30
0.0
 40
1.112399999999998
100
AcDbArc
 50
180.0
 51
270.0
  0
LINE
  5
2F7F8
330
17
100
AcDbEntity
  8
0
100
AcDbLine
 10
1249.266157333602
 20
2313.983518026779
 30
0.0
 11
1251.861757333603
 21
2313.983518026779
 31
0.0
  0
LINE
  5
2F7F9
330
17
100
AcDbEntity
  8
0
100
AcDbLine
 10
1258.9069573336
 20
2309.90471802678
 30
0.0
 11
1258.9069573336
 21
2326.590718026779
 31
0.0
  0
LINE
  5
2F7FA
330
17
100
AcDbEntity
  8
0
100
AcDbLine
 10
1252.974157333601
 20
2328.444718026779
 30
0.0
 11
1257.0529573336
 21
2328.444718026779
 31
0.0
  0
ARC
  5
2F7FB
330
17
100
AcDbEntity
  8
0
100
AcDbCircle
 10
1260.760957333602
 20
2326.590718026779
 30
0.0
 40
1.853999999999998
100
AcDbArc
 50
90.0
 51
180.0
  0
LINE
  5
2F7FC
330
17
100
AcDbEntity
  8
0
100
AcDbLine
 10
1258.9069573336
 20
2309.90471802678
 30
0.0
 11
1262.985757333602
 21
2309.90471802678
 31
0.0
  0
ARC
  5
2F7FD
330
17
100
AcDbEntity
  8
0
100
AcDbCircle
 10
1275.592957333601
 20
2326.590718026779
 30
0.0
 40
1.853999999999998
100
AcDbArc
 50
90.0
 51
180.0
  0
ARC
  5
2F7FE
330
17
100
AcDbEntity
  8
0
100
AcDbCircle
 10
1275.592957333601
 20
2311.75871802678
 30
0.0
 40
1.853999999999998
100
AcDbArc
 50
180.0
 51
270.0
  0
LINE
  5
2F7FF
330
17
100
AcDbEntity
  8
0
100
AcDbLine
 10
1273.738957333601
 20
2311.75871802678
 30
0.0
 11
1273.738957333601
 21
2326.590718026779
 31
0.0
  0
ARC
  5
2F800
330
17
100
AcDbEntity
  8
0
100
AcDbCircle
 10
1278.930157333599
 20
2323.253518026779
 30
0.0
 40
1.112399999999998
100
AcDbArc
 50
90.0
 51
180.0
  0
LINE
  5
2F801
330
17
100
AcDbEntity
  8
0
100
AcDbLine
 10
1281.5257573336
 20
2324.365918026779
 30
0.0
 11
1278.930157333599
 21
2324.365918026779
 31
0.0
  0
ARC
  5
2F802
330
17
100
AcDbEntity
  8
0
100
AcDbCircle
 10
1278.930157333599
 20
2315.095918026779
 30
0.0
 40
1.112399999999998
100
AcDbArc
 50
180.0
 51
270.0
  0
LINE
  5
2F803
330
17
100
AcDbEntity
  8
0
100
AcDbLine
 10
1281.5257573336
 20
2313.983518026779
 30
0.0
 11
1278.930157333603
 21
2313.983518026779
 31
0.0
  0
LINE
  5
2F804
330
17
100
AcDbEntity
  8
0
100
AcDbLine
 10
1282.638157333601
 20
2315.095918026779
 30
0.0
 11
1282.638157333601
 21
2323.253518026779
 31
0.0
  0
LINE
  5
2F805
330
17
100
AcDbEntity
  8
0
100
AcDbLine
 10
1277.817757333601
 20
2315.095918026779
 30
0.0
 11
1277.817757333601
 21
2323.253518026779
 31
0.0
  0
LINE
  5
2F806
330
17
100
AcDbEntity
  8
0
100
AcDbLine
 10
1314.897757333603
 20
2309.90471802678
 30
0.0
 11
1305.627757333602
 21
2309.90471802678
 31
0.0
  0
LINE
  5
2F807
330
17
100
AcDbEntity
  8
0
100
AcDbLine
 10
1314.897757333603
 20
2328.444718026779
 30
0.0
 11
1303.773757333599
 21
2328.444718026779
 31
0.0
  0
LINE
  5
2F808
330
17
100
AcDbEntity
  8
0
100
AcDbLine
 10
1302.2905573336
 20
2328.444718026779
 30
0.0
 11
1297.8409573336
 21
2321.028718026779
 31
0.0
  0
LINE
  5
2F809
330
17
100
AcDbEntity
  8
0
100
AcDbLine
 10
1303.773757333599
 20
2328.444718026779
 30
0.0
 11
1303.773757333599
 21
2324.365918026779
 31
0.0
  0
LINE
  5
2F80A
330
17
100
AcDbEntity
  8
0
100
AcDbLine
 10
1305.627757333602
 20
2321.028718026779
 30
0.0
 11
1312.672957333603
 21
2321.028718026779
 31
0.0
  0
LINE
  5
2F80B
330
17
100
AcDbEntity
  8
0
100
AcDbLine
 10
1312.672957333603
 20
2324.365918026779
 30
0.0
 11
1303.773757333599
 21
2324.365918026779
 31
0.0
  0
LINE
  5
2F80C
330
17
100
AcDbEntity
  8
0
100
AcDbLine
 10
1297.8409573336
 20
2321.028718026779
 30
0.0
 11
1300.0657573336
 21
2321.028718026779
 31
0.0
  0
ARC
  5
2F80D
330
17
100
AcDbEntity
  8
0
100
AcDbCircle
 10
1300.0657573336
 20
2319.17471802678
 30
0.0
 40
1.853999999999998
100
AcDbArc
 50
0.0
 51
90.0
  0
ARC
  5
2F80E
330
17
100
AcDbEntity
  8
0
100
AcDbCircle
 10
1305.627757333602
 20
2319.17471802678
 30
0.0
 40
1.853999999999998
100
AcDbArc
 50
90.0
 51
180.0
  0
LINE
  5
2F80F
330
17
100
AcDbEntity
  8
0
100
AcDbLine
 10
1312.672957333603
 20
2324.365918026779
 30
0.0
 11
1312.672957333603
 21
2321.028718026779
 31
0.0
  0
LINE
  5
2F810
330
17
100
AcDbEntity
  8
0
100
AcDbLine
 10
1308.9649573336
 20
2316.94991802678
 30
0.0
 11
1312.672957333603
 21
2316.94991802678
 31
0.0
  0
LINE
  5
2F811
330
17
100
AcDbEntity
  8
0
100
AcDbLine
 10
1301.9197573336
 20
2309.90471802678
 30
0.0
 11
1297.8409573336
 21
2309.90471802678
 31
0.0
  0
LINE
  5
2F812
330
17
100
AcDbEntity
  8
0
100
AcDbLine
 10
1297.8409573336
 20
2315.83751802678
 30
0.0
 11
1297.8409573336
 21
2309.90471802678
 31
0.0
  0
ARC
  5
2F813
330
17
100
AcDbEntity
  8
0
100
AcDbCircle
 10
1305.627757333602
 20
2311.75871802678
 30
0.0
 40
1.853999999999998
100
AcDbArc
 50
180.0
 51
270.0
  0
LINE
  5
2F814
330
17
100
AcDbEntity
  8
0
100
AcDbLine
 10
1307.852557333602
 20
2315.83751802678
 30
0.0
 11
1307.852557333602
 21
2315.095918026779
 31
0.0
  0
ARC
  5
2F815
330
17
100
AcDbEntity
  8
0
100
AcDbCircle
 10
1308.9649573336
 20
2315.095918026779
 30
0.0
 40
1.112399999999998
100
AcDbArc
 50
180.0
 51
270.0
  0
LINE
  5
2F816
330
17
100
AcDbEntity
  8
0
100
AcDbLine
 10
1312.672957333603
 20
2313.983518026779
 30
0.0
 11
1308.9649573336
 21
2313.983518026779
 31
0.0
  0
LINE
  5
2F817
330
17
100
AcDbEntity
  8
0
100
AcDbLine
 10
1301.9197573336
 20
2319.17471802678
 30
0.0
 11
1301.9197573336
 21
2309.90471802678
 31
0.0
  0
LINE
  5
2F818
330
17
100
AcDbEntity
  8
0
100
AcDbLine
 10
1303.773757333599
 20
2319.17471802678
 30
0.0
 11
1303.773757333599
 21
2311.75871802678
 31
0.0
  0
LINE
  5
2F819
330
17
100
AcDbEntity
  8
0
100
AcDbLine
 10
1312.672957333603
 20
2316.94991802678
 30
0.0
 11
1312.672957333603
 21
2313.983518026779
 31
0.0
  0
ARC
  5
2F81A
330
17
100
AcDbEntity
  8
0
100
AcDbCircle
 10
1308.9649573336
 20
2315.83751802678
 30
0.0
 40
1.112399999999998
100
AcDbArc
 50
90.0
 51
180.0
  0
ARC
  5
2F81B
330
17
100
AcDbEntity
  8
0
100
AcDbCircle
 10
1314.897757333603
 20
2326.590718026779
 30
0.0
 40
1.853999999999998
100
AcDbArc
 50
0.0
 51
90.0
  0
ARC
  5
2F81C
330
17
100
AcDbEntity
  8
0
100
AcDbCircle
 10
1314.897757333603
 20
2311.75871802678
 30
0.0
 40
1.853999999999998
100
AcDbArc
 50
270.0
 51
0.0
  0
LINE
  5
2F81D
330
17
100
AcDbEntity
  8
0
100
AcDbLine
 10
1316.751757333602
 20
2326.590718026779
 30
0.0
 11
1316.751757333602
 21
2311.75871802678
 31
0.0
  0
LINE
  5
2F81E
330
17
100
AcDbEntity
  8
0
100
AcDbLine
 10
1297.099357333599
 20
2328.444718026779
 30
0.0
 11
1292.649757333599
 21
2321.028718026779
 31
0.0
  0
ARC
  5
2F81F
330
17
100
AcDbEntity
  8
0
100
AcDbCircle
 10
1284.862957333601
 20
2326.590718026779
 30
0.0
 40
1.853999999999998
100
AcDbArc
 50
0.0
 51
90.0
  0
LINE
  5
2F820
330
17
100
AcDbEntity
  8
0
100
AcDbLine
 10
1292.649757333599
 20
2316.949918026778
 30
0.0
 11
1296.728557333602
 21
2316.94991802678
 31
0.0
  0
LINE
  5
2F821
330
17
100
AcDbEntity
  8
0
100
AcDbLine
 10
1292.649757333599
 20
2309.90471802678
 30
0.0
 11
1288.5709573336
 21
2309.90471802678
 31
0.0
  0
ARC
  5
2F822
330
17
100
AcDbEntity
  8
0
100
AcDbCircle
 10
1284.862957333601
 20
2311.75871802678
 30
0.0
 40
1.853999999999998
100
AcDbArc
 50
270.0
 51
0.0
  0
LINE
  5
2F823
330
17
100
AcDbEntity
  8
0
100
AcDbLine
 10
1286.716957333601
 20
2311.75871802678
 30
0.0
 11
1286.716957333601
 21
2326.590718026779
 31
0.0
  0
LINE
  5
2F824
330
17
100
AcDbEntity
  8
0
100
AcDbLine
 10
1292.649757333599
 20
2309.90471802678
 30
0.0
 11
1292.649757333599
 21
2316.949918026778
 31
0.0
  0
ARC
  5
2F825
330
17
100
AcDbEntity
  8
0
100
AcDbCircle
 10
1296.728557333602
 20
2315.83751802678
 30
0.0
 40
1.112399999999998
100
AcDbArc
 50
0.0
 51
90.0
  0
LINE
  5
2F826
330
17
100
AcDbEntity
  8
0
100
AcDbLine
 10
1302.2905573336
 20
2328.444718026779
 30
0.0
 11
1297.099357333599
 21
2328.444718026779
 31
0.0
  0
LINE
  5
2F827
330
17
100
AcDbEntity
  8
0
100
AcDbLine
 10
723.6037465355279
 20
2404.424718026778
 30
0.0
 11
1358.403746535527
 21
2404.424718026778
 31
0.0
  0
LINE
  5
2F828
330
17
100
AcDbEntity
  8
0
100
AcDbLine
 10
720.0037465355275
 20
2379.424718026778
 30
0.0
 11
1362.003746535527
 21
2379.424718026851
 31
0.0
  0
LINE
  5
2F829
330
17
100
AcDbEntity
  8
0
100
AcDbLine
 10
768.0037465355293
 20
2414.424718026778
 30
0.0
 11
1314.003746535526
 21
2414.424718026778
 31
0.0
  0
LINE
  5
2F82A
330
17
100
AcDbEntity
  8
0
100
AcDbLine
 10
852.5037465355021
 20
2367.924718026787
 30
0.0
 11
983.503746535502
 21
2367.924718026787
 31
0.0
  0
LINE
  5
2F82B
330
17
100
AcDbEntity
  8
0
100
AcDbLine
 10
984.164500140609
 20
2357.924718026787
 30
0.0
 11
851.842992930393
 21
2357.924718026787
 31
0.0
  0
LINE
  5
2F82C
330
17
100
AcDbEntity
  8
0
100
AcDbLine
 10
744.3783316377142
 20
2404.758162983872
 30
0.0
 11
762.3542444129074
 21
2414.024584078267
 31
0.0
  0
ARC
  5
2F82D
330
17
100
AcDbEntity
  8
0
100
AcDbCircle
 10
723.6037465355279
 20
2400.824718026778
 30
0.0
 40
3.6
100
AcDbArc
 50
90.0
 51
180.0
  0
LINE
  5
2F82E
330
17
100
AcDbEntity
  8
0
100
AcDbLine
 10
720.0037465355275
 20
2398.924718026778
 30
0.0
 11
720.0037465355275
 21
2387.103274163692
 31
0.0
  0
LINE
  5
2F82F
330
17
100
AcDbEntity
  8
0
100
AcDbLine
 10
720.0037465355275
 20
2400.824718026778
 30
0.0
 11
720.0037465355275
 21
2379.424718026778
 31
0.0
  0
ARC
  5
2F830
330
17
100
AcDbEntity
  8
0
100
AcDbCircle
 10
743.0037465355293
 20
2407.424718026778
 30
0.0
 40
3.0
100
AcDbArc
 50
270.0
 51
297.2706975450843
  0
ARC
  5
2F831
330
17
100
AcDbEntity
  8
0
100
AcDbCircle
 10
764.0037465355293
 20
2410.824718026778
 30
0.0
 40
3.6
100
AcDbArc
 50
90.0
 51
117.2706975450843
  0
LINE
  5
2F832
330
17
100
AcDbEntity
  8
0
100
AcDbLine
 10
764.0037465355293
 20
2414.424718026778
 30
0.0
 11
768.0037465355293
 21
2414.424718026778
 31
0.0
  0
ARC
  5
2F833
330
17
100
AcDbEntity
  8
0
100
AcDbCircle
 10
851.842992930393
 20
2355.084718026787
 30
0.0
 40
2.839246394892143
100
AcDbArc
 50
90.0
 51
180.0
  0
ARC
  5
2F834
330
17
100
AcDbEntity
  8
0
100
AcDbCircle
 10
852.5037465355021
 20
2355.924718026787
 30
0.0
 40
12.0
100
AcDbArc
 50
90.0
 51
180.0
  0
ARC
  5
2F835
330
17
100
AcDbEntity
  8
0
100
AcDbCircle
 10
984.164500140609
 20
2355.084718026787
 30
0.0
 40
2.839246394892143
100
AcDbArc
 50
0.0
 51
90.0
  0
ARC
  5
2F836
330
17
100
AcDbEntity
  8
0
100
AcDbCircle
 10
983.503746535502
 20
2355.924718026787
 30
0.0
 40
12.0
100
AcDbArc
 50
0.0
 51
90.0
  0
LINE
  5
2F837
330
17
100
AcDbEntity
  8
0
100
AcDbLine
 10
1318.003746535526
 20
2414.424718026778
 30
0.0
 11
1314.003746535526
 21
2414.424718026778
 31
0.0
  0
LINE
  5
2F838
330
17
100
AcDbEntity
  8
0
100
AcDbLine
 10
1229.242957333603
 20
2341.422718026779
 30
0.0
 11
1233.321757333602
 21
2341.422718026779
 31
0.0
  0
LINE
  5
2F839
330
17
100
AcDbEntity
  8
0
100
AcDbLine
 10
1238.142157333602
 20
2341.422718026779
 30
0.0
 11
1242.220957333602
 21
2341.422718026779
 31
0.0
  0
LINE
  5
2F83A
330
17
100
AcDbEntity
  8
0
100
AcDbLine
 10
1288.5709573336
 20
2341.422718026779
 30
0.0
 11
1292.649757333599
 21
2341.422718026779
 31
0.0
  0
ARC
  5
2F83B
330
17
100
AcDbEntity
  8
0
100
AcDbCircle
 10
1339.003746535527
 20
2407.424718026778
 30
0.0
 40
3.0
100
AcDbArc
 50
242.7293024549157
 51
270.0
  0
ARC
  5
2F83C
330
17
100
AcDbEntity
  8
0
100
AcDbCircle
 10
1318.003746535526
 20
2410.824718026778
 30
0.0
 40
3.6
100
AcDbArc
 50
62.72930245491563
 51
90.0
  0
LINE
  5
2F83D
330
17
100
AcDbEntity
  8
0
100
AcDbLine
 10
1337.629161433342
 20
2404.758162983872
 30
0.0
 11
1319.653248658148
 21
2414.024584078267
 31
0.0
  0
ARC
  5
2F83E
330
17
100
AcDbEntity
  8
0
100
AcDbCircle
 10
1358.403746535527
 20
2400.824718026778
 30
0.0
 40
3.6
100
AcDbArc
 50
0.0
 51
90.0
  0
LINE
  5
2F83F
330
17
100
AcDbEntity
  8
0
100
AcDbLine
 10
1362.003746535527
 20
2400.824718026778
 30
0.0
 11
1362.003746535527
 21
2379.424718026851
 31
0.0
  0
TEXT
  5
2F840
330
17
100
AcDbEntity
  8
DIM
100
AcDbText
 10
2183.419888800754
 20
580.771326743801
 30
0.0
 40
51.2
  1
GL
 41
0.8
100
AcDbText
  0
HATCH
  5
2F842
330
17
100
AcDbEntity
  8
0
100
AcDbHatch
 10
0.0
 20
0.0
 30
0.0
210
0.0
220
0.0
230
1.0
  2
SOLID
 70
     1
 71
     0
 91
        8
 92
        7
 72
     1
 73
     1
 93
       14
 10
1242.220957333602
 20
2341.422718026779
 42
0.0
 10
1238.142157333602
 20
2341.422718026779
 42
0.0
 10
1238.142157333602
 20
2323.253518026779
 42
0.0
 10
1234.4341573336
 20
2323.253518026779
 42
-0.4142135623726161
 10
1233.321757333602
 20
2324.365918026779
 42
0.0
 10
1233.321757333602
 20
2341.422718026779
 42
0.0
 10
1229.242957333603
 20
2341.422718026779
 42
0.0
 10
1229.242957333603
 20
2321.028718026779
 42
0.4142135623730232
 10
1231.096957333603
 20
2319.17471802678
 42
0.0
 10
1238.142157333602
 20
2319.17471802678
 42
0.0
 10
1238.142157333602
 20
2300.634718026779
 42
0.0
 10
1239.051630935023
 20
2301.792229883135
 42
0.168047931855629
 10
1242.220957333602
 20
2310.955759141378
 42
0.0
 10
1242.220957333602
 20
2311.01711802678
 42
0.0
 97
        0
 92
        7
 72
     1
 73
     1
 93
       12
 10
1248.1537573336
 20
2328.444718026779
 42
0.0
 10
1244.074957333601
 20
2328.444718026779
 42
0.0
 10
1244.074957333601
 20
2311.75871802678
 42
0.4142135623730232
 10
1245.928957333601
 20
2309.90471802678
 42
0.0
 10
1255.198957333601
 20
2309.90471802678
 42
0.4142135623729873
 10
1257.0529573336
 20
2311.75871802678
 42
0.0
 10
1257.0529573336
 20
2328.444718026779
 42
0.0
 10
1252.974157333601
 20
2328.444718026779
 42
0.0
 10
1252.974157333601
 20
2315.095918026779
 42
-0.4142135623730951
 10
1251.861757333601
 20
2313.983518026779
 42
0.0
 10
1249.266157333602
 20
2313.983518026779
 42
-0.414213562373574
 10
1248.1537573336
 20
2315.095918026779
 42
0.0
 97
        0
 92
        7
 72
     1
 73
     1
 93
       12
 10
1271.884957333602
 20
2326.590718026779
 42
0.4142135623730232
 10
1270.030957333603
 20
2328.444718026779
 42
0.0
 10
1260.760957333602
 20
2328.444718026779
 42
0.4142135623735621
 10
1258.9069573336
 20
2326.590718026779
 42
0.0
 10
1258.9069573336
 20
2309.90471802678
 42
0.0
 10
1262.985757333602
 20
2309.90471802678
 42
0.0
 10
1262.985757333602
 20
2323.253518026779
 42
-0.4142135623730951
 10
1264.098157333602
 20
2324.365918026779
 42
0.0
 10
1266.693757333601
 20
2324.365918026779
 42
-0.4142135623726161
 10
1267.806157333599
 20
2323.253518026779
 42
0.0
 10
1267.806157333599
 20
2309.90471802678
 42
0.0
 10
1271.884957333602
 20
2309.90471802678
 42
0.0
 97
        0
 92
        7
 72
     1
 73
     1
 93
        8
 10
1286.716957333601
 20
2326.590718026779
 42
0.4142135623730232
 10
1284.862957333601
 20
2328.444718026779
 42
0.0
 10
1275.592957333601
 20
2328.444718026779
 42
0.4142135623729873
 10
1273.738957333601
 20
2326.590718026779
 42
0.0
 10
1273.738957333601
 20
2311.75871802678
 42
0.4142135623730232
 10
1275.592957333602
 20
2309.90471802678
 42
0.0
 10
1284.862957333601
 20
2309.90471802678
 42
0.4142135623729873
 10
1286.716957333601
 20
2311.75871802678
 42
0.0
 97
        0
 92
       22
 72
     1
 73
     1
 93
        8
 10
1278.930157333599
 20
2324.365918026779
 42
0.0
 10
1281.5257573336
 20
2324.365918026779
 42
-0.414213562373574
 10
1282.638157333601
 20
2323.253518026779
 42
0.0
 10
1282.638157333601
 20
2315.095918026779
 42
-0.4142135623730951
 10
1281.525757333601
 20
2313.983518026779
 42
0.0
 10
1278.930157333599
 20
2313.983518026779
 42
-0.4142135623726161
 10
1277.817757333601
 20
2315.095918026779
 42
0.0
 10
1277.817757333601
 20
2323.253518026779
 42
-0.4142135623726161
 97
        0
 92
        7
 72
     1
 73
     1
 93
       15
 10
1292.649757333599
 20
2341.422718026779
 42
0.0
 10
1288.5709573336
 20
2341.422718026779
 42
0.0
 10
1288.5709573336
 20
2309.90471802678
 42
0.0
 10
1292.649757333599
 20
2309.90471802678
 42
0.0
 10
1292.649757333599
 20
2316.949918026778
 42
0.0
 10
1296.728557333602
 20
2316.94991802678
 42
-0.414213562372736
 10
1297.8409573336
 20
2315.83751802678
 42
0.0
 10
1297.840957333602
 20
2309.90471802678
 42
0.0
 10
1301.919757333601
 20
2309.90471802678
 42
0.0
 10
1301.9197573336
 20
2319.17471802678
 42
0.4142135623730232
 10
1300.0657573336
 20
2321.028718026779
 42
0.0
 10
1297.8409573336
 20
2321.028718026779
 42
0.0
 10
1302.2905573336
 20
2328.444718026779
 42
0.0
 10
1297.099357333599
 20
2328.444718026779
 42
0.0
 10
1292.649757333599
 20
2321.028718026779
 42
0.0
 97
        0
 92
        7
 72
     1
 73
     1
 93
       12
 10
1316.751757333602
 20
2326.590718026779
 42
0.4142135623730232
 10
1314.897757333603
 20
2328.444718026779
 42
0.0
 10
1303.773757333599
 20
2328.444718026779
 42
0.0
 10
1303.773757333599
 20
2324.365918026779
 42
0.0
 10
1312.672957333603
 20
2324.365918026779
 42
0.0
 10
1312.672957333603
 20
2321.028718026779
 42
0.0
 10
1305.627757333602
 20
2321.028718026779
 42
0.4142135623735621
 10
1303.773757333599
 20
2319.17471802678
 42
0.0
 10
1303.773757333599
 20
2311.75871802678
 42
0.4142135623730232
 10
1305.627757333599
 20
2309.90471802678
 42
0.0
 10
1314.897757333603
 20
2309.90471802678
 42
0.4142135623729873
 10
1316.751757333602
 20
2311.75871802678
 42
0.0
 97
        0
 92
       22
 72
     1
 73
     1
 93
        6
 10
1312.672957333603
 20
2316.94991802678
 42
0.0
 10
1312.672957333603
 20
2313.983518026779
 42
0.0
 10
1308.9649573336
 20
2313.983518026779
 42
-0.4142135623726161
 10
1307.852557333602
 20
2315.095918026779
 42
0.0
 10
1307.852557333602
 20
2315.83751802678
 42
-0.4142135623730951
 10
1308.964957333602
 20
2316.94991802678
 42
0.0
 97
        0
 75
     0
 76
     1
 47
0.1735308709791136
 98
        8
 10
1239.796720875702
 20
2326.040195384369
 10
1246.565573523156
 20
2325.172554193417
 10
1260.971101262908
 20
2325.519622047207
 10
1275.376629002659
 20
2326.387263238159
 10
1275.376629002659
 20
2326.387263238159
 10
1290.99710816519
 20
2328.816709771162
 10
1310.088779653701
 20
2325.693155974101
 10
1310.088779653701
 20
2325.693155974101
450
        0
451
        0
460
0.0
461
0.0
452
        0
462
0.0
453
        0
470

  0
LEADER
  5
2F843
330
17
100
AcDbEntity
  8
DIM
100
AcDbLeader
  3
STANDARD
 73
     0
 75
     1
 40
42.50000000000002
 41
376.2666666666668
 76
     3
 10
1165.650136940089
 20
2055.912684525797
 30
0.0
 10
604.156597414675
 20
2321.261635241455
 30
0.0
 10
570.156597414675
 20
2321.261635241455
 30
0.0
340
2F844
1001
ACAD
1000
DSTYLE
1002
{
1070
    41
1040
2.0
1070
   147
1040
1.0
1070
    77
1070
     1
1070
    43
1040
10.0
1070
    73
1070
     0
1070
    74
1070
     0
1070
   172
1070
     1
1070
   179
1070
     1
1070
   271
1070
     1
1070
   272
1070
     1
1070
   341
1005
4A
1070
   342
1005
0
1002
}
  0
MTEXT
  5
2F844
102
{ACAD_REACTORS
330
2F843
102
}
330
17
100
AcDbEntity
  8
DIM
100
AcDbMText
 10
553.156597414675
 20
2338.261635241456
 30
0.0
 40
42.5
 41
539.5
 46
0.0
 71
     9
 72
     1
  1
給湯配管口　R3／4
 73
     1
 44
1.0
  0
LINE
  5
2F845
330
17
100
AcDbEntity
  8
0
100
AcDbLine
 10
962.2206432572488
 20
1480.997604493133
 30
0.0
 11
947.4479002408147
 21
1471.577812426161
 31
0.0
  0
LINE
  5
2F846
330
17
100
AcDbEntity
  8
0
100
AcDbLine
 10
962.2206432572488
 20
1488.451831560423
 30
0.0
 11
947.4479002408147
 21
1497.871623627395
 31
0.0
  0
LINE
  5
2F847
330
17
100
AcDbEntity
  8
0
100
AcDbLine
 10
952.9891088468716
 20
1469.224718026778
 30
0.0
 11
970.5340927355695
 21
1469.224718026778
 31
0.0
  0
LINE
  5
2F848
330
17
100
AcDbEntity
  8
0
100
AcDbLine
 10
952.4094696454371
 20
1443.587625304124
 30
0.0
 11
966.026169058124
 21
1452.0915682007
 31
0.0
  0
LINE
  5
2F849
330
17
100
AcDbEntity
  8
0
100
AcDbLine
 10
952.4094696454371
 20
1467.861810749433
 30
0.0
 11
966.026169058124
 21
1459.357867852856
 31
0.0
  0
LINE
  5
2F84A
330
17
100
AcDbEntity
  8
0
100
AcDbLine
 10
987.6693560258194
 20
1504.54023842479
 30
0.0
 11
957.4802451582758
 21
1504.540238424791
 31
0.0
  0
ARC
  5
2F84B
330
17
100
AcDbEntity
  8
0
100
AcDbCircle
 10
971.5021573335874
 20
1454.531999115726
 30
0.0
 40
90.83333333333326
100
AcDbArc
 50
56.60151153200196
 51
123.398488467998
  0
ELLIPSE
  5
2F84C
330
17
100
AcDbEntity
  8
0
100
AcDbEllipse
 10
947.9193560258202
 20
1484.724718026778
 30
0.0
 11
0.0
 21
-8.800000000000409
 31
0.0
210
0.0
220
0.0
230
1.0
 40
0.7272727272726521
 41
0.0
 42
6.283185307179586
  0
ELLIPSE
  5
2F84D
330
17
100
AcDbEntity
  8
0
100
AcDbEllipse
 10
944.3193560258199
 20
1484.724718026778
 30
0.0
 11
0.0
 21
-8.800000000000409
 31
0.0
210
0.0
220
0.0
230
1.0
 40
0.7272727272726521
 41
3.141592653589793
 42
6.283185307179586
  0
LINE
  5
2F84E
330
17
100
AcDbEntity
  8
0
100
AcDbLine
 10
926.4180687943911
 20
1480.997604493133
 30
0.0
 11
941.1908118108252
 21
1471.577812426161
 31
0.0
  0
LINE
  5
2F84F
330
17
100
AcDbEntity
  8
0
100
AcDbLine
 10
923.2680687943895
 20
1480.997604493133
 30
0.0
 11
926.0615390895155
 21
1479.216357144819
 31
0.0
  0
SPLINE
  5
2F850
330
17
100
AcDbEntity
  8
0
100
AcDbSpline
210
0.0
220
0.0
230
1.0
 70
     8
 71
     3
 72
    18
 73
    14
 74
     0
 42
0.0000000001
 43
0.0000000001
 40
0.6632107530124897
 40
0.6632107530124897
 40
0.6632107530124897
 40
0.6632107530124897
 40
0.8823300790087184
 40
0.8823300790087184
 40
1.217886221126945
 40
1.217886221126945
 40
1.553442363245171
 40
1.553442363245171
 40
1.888998505363399
 40
1.888998505363399
 40
2.224554647481626
 40
2.224554647481626
 40
2.47838629607988
 40
2.47838629607988
 40
2.47838629607988
 40
2.47838629607988
 10
896.8584668933647
 20
1497.488751848599
 30
0.0
 10
896.0627835798671
 20
1496.770599869238
 30
0.0
 10
895.3315289862315
 20
1495.949012922402
 30
0.0
 10
893.6937107722364
 20
1493.650421662735
 30
0.0
 10
892.9013674724778
 20
1492.057780866678
 30
0.0
 10
891.8135029282005
 20
1488.647363366917
 30
0.0
 10
891.5183989047248
 20
1486.830559861688
 30
0.0
 10
891.463598545812
 20
1483.184609142485
 30
0.0
 10
891.7039212181055
 20
1481.356487737026
 30
0.0
 10
892.6892532423401
 20
1477.902388373987
 30
0.0
 10
893.4338911497356
 20
1476.277395972838
 30
0.0
 10
895.1017283872801
 20
1473.763724239993
 30
0.0
 10
895.9367857005211
 20
1472.792509706944
 30
0.0
 10
896.8584668933647
 20
1471.960494865187
 30
0.0
  0
ELLIPSE
  5
2F851
330
17
100
AcDbEntity
  8
0
100
AcDbEllipse
 10
933.6693560258202
 20
1484.724718026778
 30
0.0
 11
0.0
 21
-31.0
 31
0.0
210
0.0
220
0.0
230
1.0
 40
0.8101527970886836
 41
3.693647737311383
 42
5.121950921263657
  0
ELLIPSE
  5
2F852
330
17
100
AcDbEntity
  8
0
100
AcDbEllipse
 10
930.6693560258205
 20
1484.724718026778
 30
0.0
 11
0.0
 21
-31.0
 31
0.0
210
0.0
220
0.0
230
1.0
 40
0.8101527970886836
 41
3.644396961410063
 42
5.131397777794829
  0
LINE
  5
2F853
330
17
100
AcDbEntity
  8
0
100
AcDbLine
 10
896.8584668933647
 20
1504.724718026778
 30
0.0
 11
896.8584668933647
 21
1464.724718026778
 31
0.0
  0
LINE
  5
2F854
330
17
100
AcDbEntity
  8
0
100
AcDbLine
 10
896.3584668933648
 20
1504.724718026778
 30
0.0
 11
896.3584668933648
 21
1464.724718026778
 31
0.0
  0
ELLIPSE
  5
2F855
330
17
100
AcDbEntity
  8
0
100
AcDbEllipse
 10
904.3727070260851
 20
1484.724718026779
 30
0.0
 11
-0.0000000000009747
 21
20.13425223725221
 31
0.0
210
0.0
220
0.0
230
1.0
 40
0.3111235549702221
 41
0.3455858681091553
 42
2.796006785480506
  0
ELLIPSE
  5
2F856
330
17
100
AcDbEntity
  8
0
100
AcDbEllipse
 10
947.9193560258202
 20
1467.183952291749
 30
0.0
 11
-5.0
 21
0.0
 31
0.0
210
0.0
220
0.0
230
1.0
 40
0.3081531470059417
 41
3.597134616666659
 42
5.827643344102718
  0
LINE
  5
2F857
330
17
100
AcDbEntity
  8
0
100
AcDbLine
 10
947.1693560258202
 20
1468.724718026779
 30
0.0
 11
947.9193560258202
 21
1468.724718026779
 31
0.0
  0
ELLIPSE
  5
2F858
330
17
100
AcDbEntity
  8
0
100
AcDbEllipse
 10
947.1693560258202
 20
1467.183952291749
 30
0.0
 11
-5.0
 21
0.0
 31
0.0
210
0.0
220
0.0
230
1.0
 40
0.3081531470059417
 41
4.712388980384688
 42
5.827643344102718
  0
LINE
  5
2F859
330
17
100
AcDbEntity
  8
0
100
AcDbLine
 10
928.1780478179191
 20
1469.224718026778
 30
0.0
 11
917.0546193160712
 21
1469.224718026778
 31
0.0
  0
LINE
  5
2F85A
330
17
100
AcDbEntity
  8
0
100
AcDbLine
 10
947.9193560258202
 20
1475.924718026778
 30
0.0
 11
944.3193560258199
 21
1475.924718026778
 31
0.0
  0
ELLIPSE
  5
2F85B
330
17
100
AcDbEntity
  8
0
100
AcDbEllipse
 10
944.3193560258199
 20
1474.09851316412
 30
0.0
 11
-4.706945021173851
 21
0.0
 31
0.0
210
0.0
220
0.0
230
-1.0
 40
0.7167696079230881
 41
3.985342887398486
 42
5.439435073370891
  0
LINE
  5
2F85C
330
17
100
AcDbEntity
  8
0
100
AcDbLine
 10
926.0615390895155
 20
1477.756662703801
 30
0.0
 11
926.0615390895155
 21
1471.316312440412
 31
0.0
  0
LINE
  5
2F85D
330
17
100
AcDbEntity
  8
0
100
AcDbLine
 10
952.9891088468698
 20
1475.111146270167
 30
0.0
 11
952.9891088468707
 21
1469.224718026778
 31
0.0
  0
ELLIPSE
  5
2F85E
330
17
100
AcDbEntity
  8
0
100
AcDbEllipse
 10
933.6693560258202
 20
1484.724718026778
 30
0.0
 11
0.0
 21
-31.0
 31
0.0
210
0.0
220
0.0
230
1.0
 40
0.8101527970886836
 41
7.330382858376178
 42
7.65107792606039
  0
LINE
  5
2F85F
330
17
100
AcDbEntity
  8
0
100
AcDbLine
 10
957.4802451582758
 20
1474.866131073615
 30
0.0
 11
957.4802451582767
 21
1469.224718026778
 31
0.0
  0
LINE
  5
2F860
330
17
100
AcDbEntity
  8
0
100
AcDbLine
 10
915.5514492671184
 20
1469.224718026778
 30
0.0
 11
905.554619316072
 21
1469.224718026778
 31
0.0
  0
ELLIPSE
  5
2F861
330
17
100
AcDbEntity
  8
0
100
AcDbEllipse
 10
951.5193560258207
 20
1455.724718026778
 30
0.0
 11
0.0
 21
-2.015999999999507
 31
0.0
210
0.0
220
0.0
230
1.0
 40
0.8591521862943896
 41
0.0
 42
6.283185307179586
  0
LINE
  5
2F862
330
17
100
AcDbEntity
  8
0
100
AcDbLine
 10
951.5193560258207
 20
1453.708718026778
 30
0.0
 11
947.9193560258202
 21
1453.708718026778
 31
0.0
  0
LINE
  5
2F863
330
17
100
AcDbEntity
  8
0
100
AcDbLine
 10
951.5193560258207
 20
1457.740718026778
 30
0.0
 11
947.9193560258202
 21
1457.740718026778
 31
0.0
  0
ELLIPSE
  5
2F864
330
17
100
AcDbEntity
  8
0
100
AcDbEllipse
 10
947.9193560258202
 20
1455.724718026778
 30
0.0
 11
0.0
 21
-2.015999999999507
 31
0.0
210
0.0
220
0.0
230
1.0
 40
0.8591521862943896
 41
3.141592653589793
 42
6.283185307179586
  0
LINE
  5
2F865
330
17
100
AcDbEntity
  8
0
100
AcDbLine
 10
943.4292424062036
 20
1443.587625304124
 30
0.0
 11
929.8125429935165
 21
1452.0915682007
 31
0.0
  0
ELLIPSE
  5
2F866
330
17
100
AcDbEntity
  8
0
100
AcDbEllipse
 10
930.4337844406703
 20
1455.724718026778
 30
0.0
 11
0.0
 21
3.822219999999106
 31
0.0
210
0.0
220
0.0
230
1.0
 40
0.5232561181722843
 41
0.3158459890366398
 42
2.825746664553153
  0
ELLIPSE
  5
2F867
330
17
100
AcDbEntity
  8
0
100
AcDbEllipse
 10
929.6837844406704
 20
1455.724718026778
 30
0.0
 11
0.0
 21
3.822219999999106
 31
0.0
210
0.0
220
0.0
230
1.0
 40
0.5232561181722843
 41
0.3158459890366398
 42
2.825746664553153
  0
LINE
  5
2F868
330
17
100
AcDbEntity
  8
0
100
AcDbLine
 10
942.6792424062035
 20
1443.587625304124
 30
0.0
 11
929.0625429935165
 21
1452.0915682007
 31
0.0
  0
LINE
  5
2F869
330
17
100
AcDbEntity
  8
0
100
AcDbLine
 10
947.1693560258202
 20
1442.724718026778
 30
0.0
 11
947.9193560258202
 21
1442.724718026778
 31
0.0
  0
ELLIPSE
  5
2F86A
330
17
100
AcDbEntity
  8
0
100
AcDbEllipse
 10
947.9193560258202
 20
1444.265483761807
 30
0.0
 11
-5.0
 21
0.0
 31
0.0
210
0.0
220
0.0
230
-1.0
 40
0.3081531470059417
 41
3.597134616666659
 42
5.827643344102718
  0
ELLIPSE
  5
2F86B
330
17
100
AcDbEntity
  8
0
100
AcDbEllipse
 10
947.1693560258202
 20
1444.265483761807
 30
0.0
 11
-5.0
 21
0.0
 31
0.0
210
0.0
220
0.0
230
-1.0
 40
0.3081531470059417
 41
4.712388980384688
 42
5.827643344102718
  0
LINE
  5
2F86C
330
17
100
AcDbEntity
  8
0
100
AcDbLine
 10
925.0077360258202
 20
1417.909408026777
 30
0.0
 11
924.32266602582
 21
1437.527218026778
 31
0.0
  0
LINE
  5
2F86D
330
17
100
AcDbEntity
  8
0
100
AcDbLine
 10
926.1936460258208
 20
1417.224718026778
 30
0.0
 11
925.5999960258201
 21
1434.224718026778
 31
0.0
  0
LINE
  5
2F86E
330
17
100
AcDbEntity
  8
0
100
AcDbLine
 10
925.6000060258203
 20
1434.224718026778
 30
0.0
 11
924.3226760258206
 21
1437.527218026778
 31
0.0
  0
LINE
  5
2F86F
330
17
100
AcDbEntity
  8
0
100
AcDbLine
 10
924.9193560258204
 20
1439.933218026778
 30
0.0
 11
924.9193560258204
 21
1438.724718026778
 31
0.0
  0
ARC
  5
2F870
330
17
100
AcDbEntity
  8
0
100
AcDbCircle
 10
923.4193560258203
 20
1438.724718026779
 30
0.0
 40
1.5
100
AcDbArc
 50
307.0287199999605
 51
0.0
  0
ARC
  5
2F871
330
17
100
AcDbEntity
  8
0
100
AcDbCircle
 10
923.4193560258203
 20
1438.724718026779
 30
0.0
 40
1.5
100
AcDbArc
 50
307.0287199999605
 51
0.0
  0
LINE
  5
2F872
330
17
100
AcDbEntity
  8
0
100
AcDbLine
 10
926.1936460258208
 20
1417.224718026778
 30
0.0
 11
925.0077360258202
 21
1417.909408026777
 31
0.0
  0
LINE
  5
2F873
330
17
100
AcDbEntity
  8
0
100
AcDbLine
 10
924.32266602582
 20
1437.527218026778
 30
0.0
 11
951.51603602582
 21
1437.527218026778
 31
0.0
  0
LINE
  5
2F874
330
17
100
AcDbEntity
  8
0
100
AcDbLine
 10
924.4379960258203
 20
1434.224718026778
 30
0.0
 11
951.4007200197568
 21
1434.224718026778
 31
0.0
  0
LINE
  5
2F875
330
17
100
AcDbEntity
  8
0
100
AcDbLine
 10
926.1936560258204
 20
1417.224718026778
 30
0.0
 11
949.6450660258201
 21
1417.224718026778
 31
0.0
  0
LINE
  5
2F876
330
17
100
AcDbEntity
  8
0
100
AcDbLine
 10
950.83097602582
 20
1417.909408026777
 30
0.0
 11
951.5160460258206
 21
1437.527218026778
 31
0.0
  0
LINE
  5
2F877
330
17
100
AcDbEntity
  8
0
100
AcDbLine
 10
949.6450660258201
 20
1417.224718026778
 30
0.0
 11
950.2387260258203
 21
1434.224718026778
 31
0.0
  0
LINE
  5
2F878
330
17
100
AcDbEntity
  8
0
100
AcDbLine
 10
950.2387060258199
 20
1434.224718026778
 30
0.0
 11
951.51603602582
 21
1437.527218026778
 31
0.0
  0
LINE
  5
2F879
330
17
100
AcDbEntity
  8
0
100
AcDbLine
 10
950.9193560258204
 20
1439.933218026778
 30
0.0
 11
950.9193560258204
 21
1438.724718026778
 31
0.0
  0
ARC
  5
2F87A
330
17
100
AcDbEntity
  8
0
100
AcDbCircle
 10
952.4193560258202
 20
1438.724718026779
 30
0.0
 40
1.5
100
AcDbArc
 50
180.0
 51
232.9712800000395
  0
ARC
  5
2F87B
330
17
100
AcDbEntity
  8
0
100
AcDbCircle
 10
952.4193560258202
 20
1438.724718026779
 30
0.0
 40
1.5
100
AcDbArc
 50
180.0
 51
232.9712800000395
  0
LINE
  5
2F87C
330
17
100
AcDbEntity
  8
0
100
AcDbLine
 10
949.6450660258201
 20
1417.224718026778
 30
0.0
 11
950.83097602582
 21
1417.909408026777
 31
0.0
  0
LINE
  5
2F87D
330
17
100
AcDbEntity
  8
0
100
AcDbLine
 10
927.4256592900732
 20
1462.224722289342
 30
0.0
 11
917.0546193160712
 21
1462.224722289342
 31
0.0
  0
ELLIPSE
  5
2F87E
330
17
100
AcDbEntity
  8
0
100
AcDbEllipse
 10
925.7204187329946
 20
1458.780695186202
 30
0.0
 11
-0.8679725078059576
 21
17.95922830681291
 31
0.0
210
0.0
220
0.0
230
-1.0
 40
0.7190469609725391
 41
3.270638671782761
 42
4.599233869711473
  0
LINE
  5
2F87F
330
17
100
AcDbEntity
  8
0
100
AcDbLine
 10
924.9193560258204
 20
1438.724718026778
 30
0.0
 11
924.9193560258204
 21
1443.033232198175
 31
0.0
  0
LINE
  5
2F880
330
17
100
AcDbEntity
  8
0
100
AcDbLine
 10
950.9193560258204
 20
1438.724718026778
 30
0.0
 11
950.9193560258204
 21
1443.032871173783
 31
0.0
  0
ELLIPSE
  5
2F881
330
17
100
AcDbEntity
  8
0
100
AcDbEllipse
 10
909.8488479501313
 20
1464.724718026778
 30
0.0
 11
0.0
 21
-15.0
 31
0.0
210
0.0
220
0.0
230
-1.0
 40
0.8660254037844424
 41
0.0
 42
1.570796326794895
  0
ELLIPSE
  5
2F882
330
17
100
AcDbEntity
  8
0
100
AcDbEllipse
 10
909.3488479501315
 20
1464.724718026778
 30
0.0
 11
0.0
 21
-15.0
 31
0.0
210
0.0
220
0.0
230
-1.0
 40
0.8660254037844424
 41
0.0
 42
1.570796326794895
  0
LINE
  5
2F883
330
17
100
AcDbEntity
  8
0
100
AcDbLine
 10
909.3488479501315
 20
1449.724718026778
 30
0.0
 11
909.8488479501313
 21
1449.724718026778
 31
0.0
  0
ARC
  5
2F884
330
17
100
AcDbEntity
  8
0
100
AcDbCircle
 10
900.737446949372
 20
1464.473175252248
 30
0.0
 40
2.0
100
AcDbArc
 50
306.6950794066205
 51
40.83193513725047
  0
ELLIPSE
  5
2F885
330
17
100
AcDbEntity
  8
0
100
AcDbEllipse
 10
902.9671465295079
 20
1458.738548026786
 30
0.0
 11
0.0
 21
-4.499999999999545
 31
0.0
210
0.0
220
0.0
230
-1.0
 40
0.5797065858110911
 41
0.0
 42
2.733788927252467
  0
LINE
  5
2F886
330
17
100
AcDbEntity
  8
0
100
AcDbLine
 10
915.5514492671176
 20
1462.224722289342
 30
0.0
 11
905.554619316072
 21
1462.224722289342
 31
0.0
  0
LINE
  5
2F887
330
17
100
AcDbEntity
  8
0
100
AcDbLine
 10
902.9671465295079
 20
1454.238548026786
 30
0.0
 11
913.3104779170128
 21
1454.238548026783
 31
0.0
  0
LINE
  5
2F888
330
17
100
AcDbEntity
  8
0
100
AcDbLine
 10
914.7583857054172
 20
1449.724718026778
 30
0.0
 11
909.8488479501313
 21
1449.724718026778
 31
0.0
  0
LINE
  5
2F889
330
17
100
AcDbEntity
  8
0
100
AcDbLine
 10
943.4292424062036
 20
1467.861810749433
 30
0.0
 11
929.8125429935165
 21
1459.357867852856
 31
0.0
  0
LINE
  5
2F88A
330
17
100
AcDbEntity
  8
0
100
AcDbLine
 10
942.6792424062035
 20
1467.861810749433
 30
0.0
 11
929.0625429935165
 21
1459.357867852856
 31
0.0
  0
LINE
  5
2F88B
330
17
100
AcDbEntity
  8
0
100
AcDbLine
 10
917.0546193160712
 20
1469.224718026778
 30
0.0
 11
917.0546193160712
 21
1462.224722289342
 31
0.0
  0
LINE
  5
2F88C
330
17
100
AcDbEntity
  8
0
100
AcDbLine
 10
920.3046193160702
 20
1469.224718026778
 30
0.0
 11
920.3046193160712
 21
1462.224722289342
 31
0.0
  0
LINE
  5
2F88D
330
17
100
AcDbEntity
  8
0
100
AcDbLine
 10
908.554619316072
 20
1469.224718026778
 30
0.0
 11
908.554619316072
 21
1462.224722289342
 31
0.0
  0
LINE
  5
2F88E
330
17
100
AcDbEntity
  8
0
100
AcDbLine
 10
905.554619316072
 20
1469.224718026778
 30
0.0
 11
905.554619316072
 21
1462.224722289342
 31
0.0
  0
LINE
  5
2F88F
330
17
100
AcDbEntity
  8
0
100
AcDbLine
 10
922.9193560258202
 20
1531.280978662913
 30
0.0
 11
922.9193560258202
 21
1529.724718026778
 31
0.0
  0
LINE
  5
2F890
330
17
100
AcDbEntity
  8
0
100
AcDbLine
 10
924.4433019219572
 20
1532.224718026778
 30
0.0
 11
952.9193560258205
 21
1532.224718026778
 31
0.0
  0
LINE
  5
2F891
330
17
100
AcDbEntity
  8
0
100
AcDbLine
 10
923.6275441073296
 20
1531.724718026778
 30
0.0
 11
952.9193560258205
 21
1531.724718026778
 31
0.0
  0
LINE
  5
2F892
330
17
100
AcDbEntity
  8
0
100
AcDbLine
 10
924.4433019219572
 20
1532.224718026778
 30
0.0
 11
952.4193560258202
 21
1532.224718026778
 31
0.0
  0
LINE
  5
2F893
330
17
100
AcDbEntity
  8
0
100
AcDbLine
 10
952.9193560258205
 20
1529.724718026778
 30
0.0
 11
922.9193560258202
 21
1529.724718026778
 31
0.0
  0
LINE
  5
2F894
330
17
100
AcDbEntity
  8
0
100
AcDbLine
 10
952.4193560258202
 20
1532.224718026778
 30
0.0
 11
937.9193560258205
 21
1532.224718026778
 31
0.0
  0
LINE
  5
2F895
330
17
100
AcDbEntity
  8
0
100
AcDbLine
 10
952.4193560258202
 20
1529.224718026778
 30
0.0
 11
923.4193560258203
 21
1529.224718026778
 31
0.0
  0
LINE
  5
2F896
330
17
100
AcDbEntity
  8
0
100
AcDbLine
 10
950.4193560258205
 20
1529.224718026778
 30
0.0
 11
950.4193560258205
 21
1522.224718026778
 31
0.0
  0
LINE
  5
2F897
330
17
100
AcDbEntity
  8
0
100
AcDbLine
 10
952.9193560258205
 20
1531.724718026778
 30
0.0
 11
952.9193560258205
 21
1529.724718026778
 31
0.0
  0
LINE
  5
2F898
330
17
100
AcDbEntity
  8
0
100
AcDbLine
 10
952.4193560258202
 20
1532.224718026778
 30
0.0
 11
952.9193560258205
 21
1531.724718026778
 31
0.0
  0
LINE
  5
2F899
330
17
100
AcDbEntity
  8
0
100
AcDbLine
 10
952.9193560258205
 20
1529.724718026778
 30
0.0
 11
952.4193560258202
 21
1529.224718026778
 31
0.0
  0
LINE
  5
2F89A
330
17
100
AcDbEntity
  8
0
100
AcDbLine
 10
922.9193560258202
 20
1529.724718026778
 30
0.0
 11
923.4193560258203
 21
1529.224718026778
 31
0.0
  0
LINE
  5
2F89B
330
17
100
AcDbEntity
  8
0
100
AcDbLine
 10
925.4193560258205
 20
1529.224718026778
 30
0.0
 11
925.4193560258205
 21
1522.224718026778
 31
0.0
  0
LINE
  5
2F89C
330
17
100
AcDbEntity
  8
0
100
AcDbLine
 10
947.9193560258202
 20
1493.524718026778
 30
0.0
 11
944.3193560258199
 21
1493.524718026778
 31
0.0
  0
LINE
  5
2F89D
330
17
100
AcDbEntity
  8
0
100
AcDbLine
 10
926.4180687943911
 20
1488.451831560423
 30
0.0
 11
941.1908118108252
 21
1497.871623627395
 31
0.0
  0
ELLIPSE
  5
2F89E
330
17
100
AcDbEntity
  8
0
100
AcDbEllipse
 10
927.242410722118
 20
1484.724718026778
 30
0.0
 11
0.0
 21
3.966658014797872
 31
0.0
210
0.0
220
0.0
230
1.0
 40
0.6072180340382412
 41
0.3493058667721709
 42
2.792286786817621
  0
ELLIPSE
  5
2F89F
330
17
100
AcDbEntity
  8
0
100
AcDbEllipse
 10
924.0924107221166
 20
1484.724718026778
 30
0.0
 11
0.0
 21
3.966658014797872
 31
0.0
210
0.0
220
0.0
230
1.0
 40
0.6072180340382412
 41
0.3493058667721709
 42
2.792286786817621
  0
LINE
  5
2F8A0
330
17
100
AcDbEntity
  8
0
100
AcDbLine
 10
923.2680687943895
 20
1488.451831560423
 30
0.0
 11
926.0615390895155
 21
1490.233078908737
 31
0.0
  0
ELLIPSE
  5
2F8A1
330
17
100
AcDbEntity
  8
0
100
AcDbEllipse
 10
937.9193560258194
 20
1490.233078908737
 30
0.0
 11
0.0
 21
-15.72196648595286
 31
0.0
210
0.0
220
0.0
230
1.0
 40
0.7542197057154546
 41
-2.945090338853026
 42
-1.720057908898253
  0
ELLIPSE
  5
2F8A2
330
17
100
AcDbEntity
  8
0
100
AcDbEllipse
 10
942.1539355819387
 20
1490.233078908737
 30
0.0
 11
0.0
 21
-15.72196648595286
 31
0.0
210
0.0
220
0.0
230
-1.0
 40
0.7542197057154546
 41
-2.945090338853026
 42
-1.80581093177489
  0
LINE
  5
2F8A3
330
17
100
AcDbEntity
  8
0
100
AcDbLine
 10
957.4802451582758
 20
1504.724718026778
 30
0.0
 11
957.4802451582758
 21
1494.583304979941
 31
0.0
  0
ELLIPSE
  5
2F8A4
330
17
100
AcDbEntity
  8
0
100
AcDbEllipse
 10
944.4898641015091
 20
1504.724718026778
 30
0.0
 11
0.0
 21
15.0
 31
0.0
210
0.0
220
0.0
230
-1.0
 40
0.8660254037844424
 41
0.9272952180016256
 42
1.570796326794895
  0
LINE
  5
2F8A5
330
17
100
AcDbEntity
  8
0
100
AcDbLine
 10
953.9193560258205
 20
1521.224718026778
 30
0.0
 11
937.9193560258205
 21
1521.224718026778
 31
0.0
  0
LINE
  5
2F8A6
330
17
100
AcDbEntity
  8
0
100
AcDbLine
 10
952.9193560258205
 20
1522.224718026778
 30
0.0
 11
937.9193560258205
 21
1522.224718026778
 31
0.0
  0
LINE
  5
2F8A7
330
17
100
AcDbEntity
  8
0
100
AcDbLine
 10
952.4193560258202
 20
1512.224718026778
 30
0.0
 11
937.9193560258205
 21
1512.224718026778
 31
0.0
  0
LINE
  5
2F8A8
330
17
100
AcDbEntity
  8
0
100
AcDbLine
 10
921.9193560258204
 20
1520.724718026778
 30
0.0
 11
921.9193560258204
 21
1521.224718026778
 31
0.0
  0
LINE
  5
2F8A9
330
17
100
AcDbEntity
  8
0
100
AcDbLine
 10
922.9193560258202
 20
1522.224718026778
 30
0.0
 11
921.9193560258204
 21
1521.224718026778
 31
0.0
  0
ARC
  5
2F8AA
330
17
100
AcDbEntity
  8
0
100
AcDbCircle
 10
923.4193560258203
 20
1513.724718026778
 30
0.0
 40
1.5
100
AcDbArc
 50
180.0
 51
270.0
  0
LINE
  5
2F8AB
330
17
100
AcDbEntity
  8
0
100
AcDbLine
 10
921.9193560258204
 20
1521.224718026778
 30
0.0
 11
937.9193560258205
 21
1521.224718026778
 31
0.0
  0
LINE
  5
2F8AC
330
17
100
AcDbEntity
  8
0
100
AcDbLine
 10
922.9193560258202
 20
1522.224718026778
 30
0.0
 11
937.9193560258205
 21
1522.224718026778
 31
0.0
  0
LINE
  5
2F8AD
330
17
100
AcDbEntity
  8
0
100
AcDbLine
 10
923.4193560258203
 20
1512.224718026778
 30
0.0
 11
937.9193560258205
 21
1512.224718026778
 31
0.0
  0
LINE
  5
2F8AE
330
17
100
AcDbEntity
  8
0
100
AcDbLine
 10
952.9193560258205
 20
1522.224718026778
 30
0.0
 11
953.9193560258205
 21
1521.224718026778
 31
0.0
  0
ARC
  5
2F8AF
330
17
100
AcDbEntity
  8
0
100
AcDbCircle
 10
952.4193560258202
 20
1513.724718026778
 30
0.0
 40
1.5
100
AcDbArc
 50
270.0
 51
0.0
  0
LINE
  5
2F8B0
330
17
100
AcDbEntity
  8
0
100
AcDbLine
 10
953.9193560258205
 20
1513.724718026778
 30
0.0
 11
953.9193560258205
 21
1521.224718026778
 31
0.0
  0
LINE
  5
2F8B1
330
17
100
AcDbEntity
  8
0
100
AcDbLine
 10
926.4193560258204
 20
1502.849018026777
 30
0.0
 11
926.4193560258204
 21
1510.724718026778
 31
0.0
  0
ARC
  5
2F8B2
330
17
100
AcDbEntity
  8
0
100
AcDbCircle
 10
924.9193560258204
 20
1510.724718026778
 30
0.0
 40
1.5
100
AcDbArc
 50
0.0
 51
90.0
  0
LINE
  5
2F8B3
330
17
100
AcDbEntity
  8
0
100
AcDbLine
 10
949.4193560258205
 20
1502.849018026777
 30
0.0
 11
949.4193560258205
 21
1510.724718026778
 31
0.0
  0
ARC
  5
2F8B4
330
17
100
AcDbEntity
  8
0
100
AcDbCircle
 10
950.9193560258204
 20
1510.724718026778
 30
0.0
 40
1.5
100
AcDbArc
 50
90.0
 51
180.0
  0
LINE
  5
2F8B5
330
17
100
AcDbEntity
  8
0
100
AcDbLine
 10
919.8129495652695
 20
1520.724718026778
 30
0.0
 11
919.8129495652695
 21
1513.724718026778
 31
0.0
  0
LINE
  5
2F8B6
330
17
100
AcDbEntity
  8
0
100
AcDbLine
 10
928.3129495652678
 20
1520.724718026778
 30
0.0
 11
928.3129495652687
 21
1513.724718026778
 31
0.0
  0
LINE
  5
2F8B7
330
17
100
AcDbEntity
  8
0
100
AcDbLine
 10
929.9904226026786
 20
1520.724718026778
 30
0.0
 11
919.8129495652695
 21
1520.724718026778
 31
0.0
  0
LINE
  5
2F8B8
330
17
100
AcDbEntity
  8
0
100
AcDbLine
 10
929.9904226026795
 20
1513.724718026778
 30
0.0
 11
919.8129495652695
 21
1513.724718026778
 31
0.0
  0
LINE
  5
2F8B9
330
17
100
AcDbEntity
  8
0
100
AcDbLine
 10
956.0257624863719
 20
1520.724718026778
 30
0.0
 11
956.0257624863719
 21
1513.724718026778
 31
0.0
  0
LINE
  5
2F8BA
330
17
100
AcDbEntity
  8
0
100
AcDbLine
 10
956.0257624863719
 20
1520.724718026778
 30
0.0
 11
953.9193560258205
 21
1520.724718026778
 31
0.0
  0
LINE
  5
2F8BB
330
17
100
AcDbEntity
  8
0
100
AcDbLine
 10
956.0257624863728
 20
1513.724718026778
 30
0.0
 11
953.9193560258205
 21
1513.724718026778
 31
0.0
  0
ELLIPSE
  5
2F8BC
330
17
100
AcDbEntity
  8
0
100
AcDbEllipse
 10
944.3193560258199
 20
1495.350922889436
 30
0.0
 11
-4.706945021173851
 21
0.0
 31
0.0
210
0.0
220
0.0
230
1.0
 40
0.7167696079230881
 41
3.985342887398486
 42
5.439435073370891
  0
ELLIPSE
  5
2F8BD
330
17
100
AcDbEntity
  8
0
100
AcDbEllipse
 10
933.6693560258202
 20
1484.724718026778
 30
0.0
 11
0.0
 21
-31.0
 31
0.0
210
0.0
220
0.0
230
1.0
 40
0.8101527970886836
 41
8.056885341888573
 42
8.746925324490071
  0
ELLIPSE
  5
2F8BE
330
17
100
AcDbEntity
  8
0
100
AcDbEllipse
 10
909.8488479501313
 20
1504.724718026778
 30
0.0
 11
0.0
 21
15.0
 31
0.0
210
0.0
220
0.0
230
1.0
 40
0.8660254037844424
 41
0.0
 42
1.570796326794895
  0
ELLIPSE
  5
2F8BF
330
17
100
AcDbEntity
  8
0
100
AcDbEllipse
 10
909.3488479501315
 20
1504.724718026778
 30
0.0
 11
0.0
 21
15.0
 31
0.0
210
0.0
220
0.0
230
1.0
 40
0.8660254037844424
 41
0.0
 42
1.570796326794895
  0
LINE
  5
2F8C0
330
17
100
AcDbEntity
  8
0
100
AcDbLine
 10
909.3488479501315
 20
1519.724718026778
 30
0.0
 11
909.8488479501313
 21
1519.724718026778
 31
0.0
  0
ARC
  5
2F8C1
330
17
100
AcDbEntity
  8
0
100
AcDbCircle
 10
900.737446949372
 20
1504.976260801308
 30
0.0
 40
2.0
100
AcDbArc
 50
319.1680648627496
 51
53.30492059337952
  0
ELLIPSE
  5
2F8C2
330
17
100
AcDbEntity
  8
0
100
AcDbEllipse
 10
902.9671465295079
 20
1510.710888026771
 30
0.0
 11
0.0
 21
4.499999999999545
 31
0.0
210
0.0
220
0.0
230
1.0
 40
0.5797065858110911
 41
0.0
 42
2.733788927252467
  0
LINE
  5
2F8C3
330
17
100
AcDbEntity
  8
0
100
AcDbLine
 10
919.8129495652695
 20
1519.724718026778
 30
0.0
 11
909.8488479501313
 21
1519.724718026778
 31
0.0
  0
LINE
  5
2F8C4
330
17
100
AcDbEntity
  8
0
100
AcDbLine
 10
902.9671465295079
 20
1515.21088802677
 30
0.0
 11
919.8129495652695
 21
1515.210888026775
 31
0.0
  0
LINE
  5
2F8C5
330
17
100
AcDbEntity
  8
0
100
AcDbLine
 10
952.9193560258205
 20
1534.224718026778
 30
0.0
 11
927.9158636507276
 21
1534.224718026778
 31
0.0
  0
LINE
  5
2F8C6
330
17
100
AcDbEntity
  8
0
100
AcDbLine
 10
950.4193560258205
 20
1539.224718026778
 30
0.0
 11
938.6717170700471
 21
1539.224718026779
 31
0.0
  0
LINE
  5
2F8C7
330
17
100
AcDbEntity
  8
0
100
AcDbLine
 10
945.9193560258205
 20
1539.224718026778
 30
0.0
 11
945.9193560258205
 21
1541.688265222597
 31
0.0
  0
LINE
  5
2F8C8
330
17
100
AcDbEntity
  8
0
100
AcDbLine
 10
952.9193560258205
 20
1534.224718026778
 30
0.0
 11
952.9193560258205
 21
1532.224718026778
 31
0.0
  0
LINE
  5
2F8C9
330
17
100
AcDbEntity
  8
0
100
AcDbLine
 10
950.4193560258205
 20
1539.224718026778
 30
0.0
 11
950.4193560258205
 21
1534.224718026778
 31
0.0
  0
LINE
  5
2F8CA
330
17
100
AcDbEntity
  8
0
100
AcDbLine
 10
989.6693560258194
 20
1543.530017835928
 30
0.0
 11
989.6693560258194
 21
1454.54023842479
 31
0.0
  0
LINE
  5
2F8CB
330
17
100
AcDbEntity
  8
0
100
AcDbLine
 10
1019.669356025819
 20
1531.542488106431
 30
0.0
 11
1019.669356025819
 21
1454.54023842479
 31
0.0
  0
ELLIPSE
  5
2F8CC
330
17
100
AcDbEntity
  8
0
100
AcDbEllipse
 10
965.40492761097
 20
1455.724718026778
 30
0.0
 11
0.0
 21
3.822219999999106
 31
0.0
210
0.0
220
0.0
230
-1.0
 40
0.5232561181722843
 41
0.3158459890366398
 42
2.825746664553153
  0
LINE
  5
2F8CD
330
17
100
AcDbEntity
  8
0
100
AcDbLine
 10
961.4356990142491
 20
1462.224722289342
 30
0.0
 11
970.5340927355704
 21
1462.224722289342
 31
0.0
  0
LINE
  5
2F8CE
330
17
100
AcDbEntity
  8
0
100
AcDbLine
 10
970.5340927355695
 20
1469.224718026778
 30
0.0
 11
970.5340927355695
 21
1462.224722289342
 31
0.0
  0
LINE
  5
2F8CF
330
17
100
AcDbEntity
  8
0
100
AcDbLine
 10
1019.669356025819
 20
1454.54023842479
 30
0.0
 11
967.3064704235406
 21
1454.54023842479
 31
0.0
  0
ELLIPSE
  5
2F8D0
330
17
100
AcDbEntity
  8
0
100
AcDbEllipse
 10
961.3963013295219
 20
1484.724718026778
 30
0.0
 11
0.0
 21
3.966658014797872
 31
0.0
210
0.0
220
0.0
230
-1.0
 40
0.6072180340382412
 41
0.3493058667721709
 42
2.792286786817621
  0
LINE
  5
2F8D1
330
17
100
AcDbEntity
  8
0
100
AcDbLine
 10
987.6693560258194
 20
1543.91497361809
 30
0.0
 11
987.6693560258194
 21
1504.54023842479
 31
0.0
  0
ARC
  5
2F8D2
330
17
100
AcDbEntity
  8
0
100
AcDbCircle
 10
1071.502157333587
 20
1606.198665782392
 30
0.0
 40
90.83333333333326
100
AcDbArc
 50
236.601511532002
 51
250.3800348467458
  0
DIMENSION
  5
2F8D3
330
17
100
AcDbEntity
  8
DIM
100
AcDbDimension
  2
*D11
 10
1599.762879573534
 20
567.9247180267777
 30
0.0
 11
1599.762879573534
 21
417.2017989388717
 31
0.0
 70
   160
  1
165
 71
     5
 42
164.4999999999281
 73
     0
 74
     0
 75
     0
  3
STANDARD
100
AcDbAlignedDimension
 13
1106.003746535444
 23
732.424718026706
 33
0.0
 14
1362.862637859797
 24
567.924718026778
 34
0.0
 50
90.0
100
AcDbRotatedDimension
1001
ACAD
1000
DSTYLE
1002
{
1070
    41
1040
3.0
1070
    42
1040
2.0
1070
    43
1040
10.0
1070
    44
1040
2.0
1070
    45
1040
1.0
1070
    73
1070
     0
1070
    74
1070
     0
1070
    77
1070
     1
1070
    78
1070
     8
1070
    79
1070
     2
1070
   140
1040
2.5
1070
   147
1040
0.9999999999999996
1070
   172
1070
     1
1070
   179
1070
     8
1070
   271
1070
     8
1070
   272
1070
     8
1070
   341
1005
4A
1070
   342
1005
4A
1002
}
  0
DIMENSION
  5
2F8D4
330
17
100
AcDbEntity
  8
DIM
100
AcDbDimension
  2
*D12
 10
1711.561227977229
 20
817.9247180267722
 30
0.0
 11
1711.561227977228
 21
428.8767770474958
 31
0.0
 70
   160
 71
     5
 42
249.9999999999943
 73
     0
 74
     0
 75
     0
  3
STANDARD
100
AcDbAlignedDimension
 13
1362.862637859797
 23
567.924718026778
 33
0.0
 14
1360.003746535504
 24
817.9247180267722
 34
0.0
 50
90.0
100
AcDbRotatedDimension
1001
ACAD
1000
DSTYLE
1002
{
1070
    41
1040
3.0
1070
    42
1040
2.0
1070
    43
1040
10.0
1070
    44
1040
2.0
1070
    45
1040
1.0
1070
    73
1070
     0
1070
    74
1070
     0
1070
    77
1070
     1
1070
    78
1070
     8
1070
    79
1070
     2
1070
   140
1040
2.5
1070
   147
1040
0.9999999999999996
1070
   172
1070
     1
1070
   179
1070
     8
1070
   271
1070
     8
1070
   272
1070
     8
1070
   341
1005
4A
1070
   342
1005
4A
1002
}
  0
LINE
  5
2F8D5
330
17
100
AcDbEntity
  8
0
100
AcDbLine
 10
1166.017027344647
 20
2048.911999293032
 30
0.0
 11
1165.283246535531
 21
2062.913369758561
 31
0.0
  0
LINE
  5
2F8D6
330
17
100
AcDbEntity
  8
0
100
AcDbLine
 10
1167.179027358595
 20
2048.911999293032
 30
0.0
 11
1166.445246535531
 21
2062.913369758561
 31
0.0
  0
LINE
  5
2F8D7
330
17
100
AcDbEntity
  8
0
100
AcDbLine
 10
1167.069363306303
 20
2047.913369758561
 30
0.0
 11
1189.938129764761
 21
2047.913369758561
 31
0.0
  0
LINE
  5
2F8D8
330
17
100
AcDbEntity
  8
0
100
AcDbLine
 10
1166.017027344647
 20
2048.911999293032
 30
0.0
 11
1178.503746535532
 21
2048.911999293032
 31
0.0
  0
LINE
  5
2F8D9
330
17
100
AcDbEntity
  8
0
100
AcDbLine
 10
1167.069363306303
 20
2047.913369758561
 30
0.0
 11
1166.017027344647
 21
2048.911999293032
 31
0.0
  0
LINE
  5
2F8DA
330
17
100
AcDbEntity
  8
0
100
AcDbLine
 10
1165.677777171505
 20
2087.913369758561
 30
0.0
 11
1171.32952867974
 21
2087.913369758561
 31
0.0
  0
LINE
  5
2F8DB
330
17
100
AcDbEntity
  8
0
100
AcDbLine
 10
1185.677777171505
 20
2087.913369758561
 30
0.0
 11
1191.32952867974
 21
2087.913369758561
 31
0.0
  0
LINE
  5
2F8DC
330
17
100
AcDbEntity
  8
0
100
AcDbLine
 10
1165.283246535531
 20
2062.913369758561
 30
0.0
 11
1178.503746535532
 21
2062.913369758561
 31
0.0
  0
LINE
  5
2F8DD
330
17
100
AcDbEntity
  8
0
100
AcDbLine
 10
1178.503746535532
 20
2072.913369758561
 30
0.0
 11
1165.513365535532
 21
2072.913369758561
 31
0.0
  0
ARC
  5
2F8DE
330
17
100
AcDbEntity
  8
0
100
AcDbCircle
 10
1178.503746535532
 20
2094.573623758561
 30
0.0
 40
28.660254
100
AcDbArc
 50
252.4120460000478
 51
270.0
  0
ARC
  5
2F8DF
330
17
100
AcDbEntity
  8
0
100
AcDbCircle
 10
1178.503746535532
 20
2044.25311575856
 30
0.0
 40
28.660254
100
AcDbArc
 50
90.0
 51
107.5879539999522
  0
LINE
  5
2F8E0
330
17
100
AcDbEntity
  8
0
100
AcDbLine
 10
1165.283246535531
 20
2065.913369758561
 30
0.0
 11
1178.503746535532
 21
2065.913369758561
 31
0.0
  0
LINE
  5
2F8E1
330
17
100
AcDbEntity
  8
0
100
AcDbLine
 10
1169.843492535532
 20
2067.25311575856
 30
0.0
 11
1169.843492535532
 21
2071.573623758561
 31
0.0
  0
LINE
  5
2F8E2
330
17
100
AcDbEntity
  8
0
100
AcDbLine
 10
1161.183238535531
 20
2067.25311575856
 30
0.0
 11
1161.183238535531
 21
2071.573623758561
 31
0.0
  0
LINE
  5
2F8E3
330
17
100
AcDbEntity
  8
0
100
AcDbLine
 10
1165.283246535531
 20
2064.926012758561
 30
0.0
 11
1166.445246535531
 21
2062.913369758561
 31
0.0
  0
ARC
  5
2F8E4
330
17
100
AcDbEntity
  8
0
100
AcDbCircle
 10
1165.513365535532
 20
2073.58083825856
 30
0.0
 40
7.667467999999998
100
AcDbArc
 50
235.6157530000556
 51
304.3842469999443
  0
LINE
  5
2F8E5
330
17
100
AcDbEntity
  8
0
100
AcDbLine
 10
1165.283246535531
 20
2062.913369758561
 30
0.0
 11
1165.283246535531
 21
2065.913369758561
 31
0.0
  0
ARC
  5
2F8E6
330
17
100
AcDbEntity
  8
0
100
AcDbCircle
 10
1165.513365535532
 20
2065.245901758561
 30
0.0
 40
7.667467999999998
100
AcDbArc
 50
55.61575300005564
 51
124.3842469999443
  0
LINE
  5
2F8E7
330
17
100
AcDbEntity
  8
0
100
AcDbLine
 10
1165.503652925622
 20
2097.913369758561
 30
0.0
 11
1171.503652925622
 21
2097.913369758561
 31
0.0
  0
LINE
  5
2F8E8
330
17
100
AcDbEntity
  8
0
100
AcDbLine
 10
1185.503652925622
 20
2097.913369758561
 30
0.0
 11
1191.503652925622
 21
2097.913369758561
 31
0.0
  0
CIRCLE
  5
2F8E9
330
17
100
AcDbEntity
  8
HID
100
AcDbCircle
 10
1168.503746535532
 20
2092.913369758561
 30
0.0
 40
2.000000000000453
  0
CIRCLE
  5
2F8EA
330
17
100
AcDbEntity
  8
0
100
AcDbCircle
 10
1168.503746535532
 20
2092.913369758561
 30
0.0
 40
1.500000000000454
  0
CIRCLE
  5
2F8EB
330
17
100
AcDbEntity
  8
HID
100
AcDbCircle
 10
1188.503746535532
 20
2092.91336975856
 30
0.0
 40
2.000000000000453
  0
CIRCLE
  5
2F8EC
330
17
100
AcDbEntity
  8
0
100
AcDbCircle
 10
1188.503746535532
 20
2092.91336975856
 30
0.0
 40
1.500000000000454
  0
LINE
  5
2F8ED
330
17
100
AcDbEntity
  8
0
100
AcDbLine
 10
1170.56374653553
 20
2081.920557041193
 30
0.0
 11
1170.56374653553
 21
2072.913369758562
 31
0.0
  0
LINE
  5
2F8EE
330
17
100
AcDbEntity
  8
0
100
AcDbLine
 10
1186.44374653553
 20
2081.920557041193
 30
0.0
 11
1186.443746535531
 21
2066.913369758561
 31
0.0
  0
ARC
  5
2F8EF
330
17
100
AcDbEntity
  8
0
100
AcDbCircle
 10
1188.503652925622
 20
2098.920557041193
 30
0.0
 40
3.0
100
AcDbArc
 50
0.0
 51
180.0
  0
ARC
  5
2F8F0
330
17
100
AcDbEntity
  8
0
100
AcDbCircle
 10
1188.503652925622
 20
2088.920557041193
 30
0.0
 40
3.0
100
AcDbArc
 50
180.0
 51
0.0
  0
LINE
  5
2F8F1
330
17
100
AcDbEntity
  8
0
100
AcDbLine
 10
1166.003746535497
 20
2081.920557041193
 30
0.0
 11
1191.003746535498
 21
2081.920557041193
 31
0.0
  0
LINE
  5
2F8F2
330
17
100
AcDbEntity
  8
0
100
AcDbLine
 10
1161.003746535498
 20
2086.920557041192
 30
0.0
 11
1161.003746535498
 21
2116.805951134722
 31
0.0
  0
LINE
  5
2F8F3
330
17
100
AcDbEntity
  8
0
100
AcDbLine
 10
1171.503652925622
 20
2098.920557041193
 30
0.0
 11
1171.503652925622
 21
2088.920557041193
 31
0.0
  0
LINE
  5
2F8F4
330
17
100
AcDbEntity
  8
0
100
AcDbLine
 10
1165.503652925622
 20
2098.920557041193
 30
0.0
 11
1165.503652925622
 21
2088.920557041193
 31
0.0
  0
ARC
  5
2F8F5
330
17
100
AcDbEntity
  8
0
100
AcDbCircle
 10
1166.003746535498
 20
2086.920557041192
 30
0.0
 40
5.0
100
AcDbArc
 50
180.0
 51
270.0
  0
ARC
  5
2F8F6
330
17
100
AcDbEntity
  8
0
100
AcDbCircle
 10
1168.503652925622
 20
2088.920557041193
 30
0.0
 40
3.0
100
AcDbArc
 50
180.0
 51
0.0
  0
ARC
  5
2F8F7
330
17
100
AcDbEntity
  8
0
100
AcDbCircle
 10
1168.503652925622
 20
2098.920557041193
 30
0.0
 40
3.0
100
AcDbArc
 50
0.0
 51
180.0
  0
LINE
  5
2F8F8
330
17
100
AcDbEntity
  8
0
100
AcDbLine
 10
1185.503652925622
 20
2098.920557041193
 30
0.0
 11
1185.503652925622
 21
2088.920557041193
 31
0.0
  0
LINE
  5
2F8F9
330
17
100
AcDbEntity
  8
0
100
AcDbLine
 10
1196.003746535498
 20
2086.920557041193
 30
0.0
 11
1196.003746535499
 21
2130.362687353944
 31
0.0
  0
LINE
  5
2F8FA
330
17
100
AcDbEntity
  8
0
100
AcDbLine
 10
1191.503652925622
 20
2098.920557041193
 30
0.0
 11
1191.503652925622
 21
2088.920557041193
 31
0.0
  0
ARC
  5
2F8FB
330
17
100
AcDbEntity
  8
0
100
AcDbCircle
 10
1191.003746535498
 20
2086.920557041193
 30
0.0
 40
5.0
100
AcDbArc
 50
270.0
 51
0.0
  0
ARC
  5
2F8FC
330
17
100
AcDbEntity
  8
0
100
AcDbCircle
 10
1310.603746535512
 20
2080.738577044587
 30
0.0
 40
90.8333333333333
100
AcDbArc
 50
236.601511532002
 51
303.3984884679981
  0
ARC
  5
2F8FD
330
17
100
AcDbEntity
  8
0
100
AcDbCircle
 10
1310.603746535512
 20
2192.377056535024
 30
0.0
 40
90.8333333333333
100
AcDbArc
 50
236.601511532002
 51
303.3984884679981
  0
LINE
  5
2F8FE
330
17
100
AcDbEntity
  8
0
100
AcDbLine
 10
1060.603746535488
 20
2116.543723201707
 30
0.0
 11
1060.603746535506
 21
2004.905243711263
 31
0.0
  0
ARC
  5
2F8FF
330
17
100
AcDbEntity
  8
0
100
AcDbCircle
 10
1110.603746535513
 20
2080.738577044587
 30
0.0
 40
90.83333333333326
100
AcDbArc
 50
236.601511532002
 51
303.3984884679981
  0
ARC
  5
2F900
330
17
100
AcDbEntity
  8
0
100
AcDbCircle
 10
1210.603746535512
 20
1929.071910377921
 30
0.0
 40
90.83333333333326
100
AcDbArc
 50
56.60151153200196
 51
123.398488467998
  0
ARC
  5
2F901
330
17
100
AcDbEntity
  8
0
100
AcDbCircle
 10
1110.603746535513
 20
2192.377056535024
 30
0.0
 40
90.83333333333326
100
AcDbArc
 50
236.601511532002
 51
303.3984884679981
  0
ARC
  5
2F902
330
17
100
AcDbEntity
  8
0
100
AcDbCircle
 10
1210.603746535512
 20
2040.710389868358
 30
0.0
 40
90.83333333333326
100
AcDbArc
 50
56.60151153200196
 51
123.398488467998
  0
LINE
  5
2F903
330
17
100
AcDbEntity
  8
0
100
AcDbLine
 10
1335.603746535512
 20
2105.05183426537
 30
0.0
 11
1335.603746535512
 21
1993.413354774933
 31
0.0
  0
LINE
  5
2F904
330
17
100
AcDbEntity
  8
0
100
AcDbLine
 10
1346.603746535512
 20
2108.982245878458
 30
0.0
 11
1346.603746535512
 21
1997.343766388021
 31
0.0
  0
LINE
  5
2F905
330
17
100
AcDbEntity
  8
0
100
AcDbLine
 10
1190.990465726417
 20
2048.911999293032
 30
0.0
 11
1191.724246535533
 21
2062.913369758561
 31
0.0
  0
LINE
  5
2F906
330
17
100
AcDbEntity
  8
0
100
AcDbLine
 10
1189.828465712469
 20
2048.911999293032
 30
0.0
 11
1190.562246535533
 21
2062.913369758561
 31
0.0
  0
LINE
  5
2F907
330
17
100
AcDbEntity
  8
0
100
AcDbLine
 10
1190.990465726417
 20
2048.911999293032
 30
0.0
 11
1178.503746535532
 21
2048.911999293032
 31
0.0
  0
LINE
  5
2F908
330
17
100
AcDbEntity
  8
0
100
AcDbLine
 10
1189.938129764761
 20
2047.913369758561
 30
0.0
 11
1190.990465726417
 21
2048.911999293032
 31
0.0
  0
LINE
  5
2F909
330
17
100
AcDbEntity
  8
0
100
AcDbLine
 10
1191.724246535533
 20
2062.913369758561
 30
0.0
 11
1178.503746535532
 21
2062.913369758561
 31
0.0
  0
LINE
  5
2F90A
330
17
100
AcDbEntity
  8
0
100
AcDbLine
 10
1178.503746535532
 20
2072.913369758561
 30
0.0
 11
1191.494127535532
 21
2072.913369758561
 31
0.0
  0
ARC
  5
2F90B
330
17
100
AcDbEntity
  8
0
100
AcDbCircle
 10
1178.503746535532
 20
2094.573623758561
 30
0.0
 40
28.660254
100
AcDbArc
 50
270.0
 51
287.587953999953
  0
ARC
  5
2F90C
330
17
100
AcDbEntity
  8
0
100
AcDbCircle
 10
1178.503746535532
 20
2044.25311575856
 30
0.0
 40
28.660254
100
AcDbArc
 50
72.41204600004781
 51
90.0
  0
LINE
  5
2F90D
330
17
100
AcDbEntity
  8
0
100
AcDbLine
 10
1191.724246535533
 20
2065.913369758561
 30
0.0
 11
1178.503746535532
 21
2065.913369758561
 31
0.0
  0
LINE
  5
2F90E
330
17
100
AcDbEntity
  8
0
100
AcDbLine
 10
1187.164000535532
 20
2067.25311575856
 30
0.0
 11
1187.164000535532
 21
2071.573623758561
 31
0.0
  0
LINE
  5
2F90F
330
17
100
AcDbEntity
  8
0
100
AcDbLine
 10
1195.824254535533
 20
2067.25311575856
 30
0.0
 11
1195.824254535533
 21
2071.573623758561
 31
0.0
  0
LINE
  5
2F910
330
17
100
AcDbEntity
  8
0
100
AcDbLine
 10
1191.724246535533
 20
2064.926012758561
 30
0.0
 11
1190.562246535533
 21
2062.913369758561
 31
0.0
  0
ARC
  5
2F911
330
17
100
AcDbEntity
  8
0
100
AcDbCircle
 10
1191.494127535532
 20
2073.58083825856
 30
0.0
 40
7.667467999999997
100
AcDbArc
 50
235.6157530000556
 51
304.3842469999443
  0
LINE
  5
2F912
330
17
100
AcDbEntity
  8
0
100
AcDbLine
 10
1191.724246535533
 20
2062.913369758561
 30
0.0
 11
1191.724246535533
 21
2065.913369758561
 31
0.0
  0
ARC
  5
2F913
330
17
100
AcDbEntity
  8
0
100
AcDbCircle
 10
1191.494127535532
 20
2065.245901758561
 30
0.0
 40
7.667467999999997
100
AcDbArc
 50
55.61575300005564
 51
124.3842469999443
  0
DIMENSION
  5
2F914
330
17
100
AcDbEntity
  8
DIM
100
AcDbDimension
  2
*D13
 10
1889.31136078918
 20
567.924718026778
 30
0.0
 11
1851.06136078918
 21
1307.91904389267
 31
0.0
 70
    32
  1
（<>）
 71
     5
 42
1479.988651731782
 73
     0
 74
     0
 75
     0
  3
STANDARD
100
AcDbAlignedDimension
 13
1189.938129764761
 23
2047.913369758561
 33
0.0
 14
1362.862637859797
 24
567.9247180267782
 34
0.0
 50
90.0
100
AcDbRotatedDimension
1001
ACAD
1000
DSTYLE
1002
{
1070
    41
1040
3.0
1070
    42
1040
2.0
1070
    43
1040
10.0
1070
    44
1040
2.0
1070
    45
1040
1.0
1070
    73
1070
     0
1070
    74
1070
     0
1070
    77
1070
     1
1070
    78
1070
     8
1070
    79
1070
     2
1070
   140
1040
2.5
1070
   147
1040
0.9999999999999996
1070
   172
1070
     1
1070
   179
1070
     8
1070
   271
1070
     8
1070
   272
1070
     8
1070
   341
1005
4A
1070
   342
1005
4A
1002
}
  0
LWPOLYLINE
  5
2F915
330
17
100
AcDbEntity
  8
0
100
AcDbPolyline
 90
        4
 70
     1
 43
0.0
 10
843.0037465359003
 20
1885.922536584647
 10
875.0037465351001
 20
1885.922536584647
 10
875.0037465351001
 20
1815.922536586396
 10
843.0037465359003
 20
1815.922536586396
  0
LINE
  5
2F916
330
17
100
AcDbEntity
  8
0
100
AcDbLine
 10
799.0037465355283
 20
3222.311545485633
 30
0.0
 11
1283.003746535527
 21
3222.311545485633
 31
0.0
  0
LINE
  5
2F917
330
17
100
AcDbEntity
  8
0
100
AcDbLine
 10
743.6037465355268
 20
3190.311545485633
 30
0.0
 11
1338.403746535526
 21
3190.311545485633
 31
0.0
  0
LINE
  5
2F918
330
17
100
AcDbEntity
  8
0
100
AcDbLine
 10
1293.012455387946
 20
3475.944420960785
 30
0.0
 11
1064.003746535528
 21
3475.944420960785
 31
0.0
  0
LINE
  5
2F919
330
17
100
AcDbEntity
  8
0
100
AcDbLine
 10
1293.012455387946
 20
3477.944420960785
 30
0.0
 11
1064.003746535528
 21
3477.944420960785
 31
0.0
  0
LINE
  5
2F91A
330
17
100
AcDbEntity
  8
0
100
AcDbLine
 10
800.1392342938318
 20
3255.944420960785
 30
0.0
 11
1283.003746535527
 21
3255.944420960785
 31
0.0
  0
LINE
  5
2F91B
330
17
100
AcDbEntity
  8
0
100
AcDbLine
 10
799.0037465355283
 20
3243.311545485632
 30
0.0
 11
1283.003746535527
 21
3243.311545485632
 31
0.0
  0
LINE
  5
2F91C
330
17
100
AcDbEntity
  8
0
100
AcDbLine
 10
799.0037465355283
 20
3247.311545485632
 30
0.0
 11
1283.003746535527
 21
3247.311545485632
 31
0.0
  0
LINE
  5
2F91D
330
17
100
AcDbEntity
  8
0
100
AcDbLine
 10
789.0037465355283
 20
3473.311545485633
 30
0.0
 11
777.8196729859311
 21
3278.311545485641
 31
0.0
  0
LINE
  5
2F91E
330
17
100
AcDbEntity
  8
0
100
AcDbLine
 10
768.0037465355319
 20
3278.311545485633
 30
0.0
 11
768.0037465355319
 21
3467.311545485633
 31
0.0
  0
LINE
  5
2F91F
330
17
100
AcDbEntity
  8
0
100
AcDbLine
 10
1039.003746535528
 20
3345.311545485633
 30
0.0
 11
1039.003746535528
 21
3695.311545485633
 31
0.0
  0
LINE
  5
2F920
330
17
100
AcDbEntity
  8
0
100
AcDbLine
 10
1043.003746535528
 20
3345.311545485633
 30
0.0
 11
1043.003746535528
 21
3695.311545485633
 31
0.0
  0
LINE
  5
2F921
330
17
100
AcDbEntity
  8
0
100
AcDbLine
 10
1025.375704967476
 20
3344.777707805295
 30
0.0
 11
1018.003746535528
 21
3473.311545485633
 31
0.0
  0
LINE
  5
2F922
330
17
100
AcDbEntity
  8
0
100
AcDbLine
 10
1056.631788103582
 20
3344.777707805295
 30
0.0
 11
1064.003746535528
 21
3473.311545485633
 31
0.0
  0
LINE
  5
2F923
330
17
100
AcDbEntity
  8
0
100
AcDbLine
 10
764.003746535532
 20
3278.311545485633
 30
0.0
 11
764.003746535532
 21
3467.311545485633
 31
0.0
  0
LINE
  5
2F924
330
17
100
AcDbEntity
  8
0
100
AcDbLine
 10
743.0037465355319
 20
3278.311545485633
 30
0.0
 11
743.0037465355319
 21
3477.311545485633
 31
0.0
  0
ARC
  5
2F927
330
17
100
AcDbEntity
  8
0
100
AcDbCircle
 10
799.0037465355319
 20
3278.311545485633
 30
0.0
 40
35.0
100
AcDbArc
 50
180.0
 51
270.0
  0
ARC
  5
2F928
330
17
100
AcDbEntity
  8
0
100
AcDbCircle
 10
799.0037465355319
 20
3278.311545485633
 30
0.0
 40
56.0
100
AcDbArc
 50
180.0
 51
270.0
  0
ARC
  5
2F929
330
17
100
AcDbEntity
  8
0
100
AcDbCircle
 10
743.6037465355268
 20
3213.911545485633
 30
0.0
 40
23.6
100
AcDbArc
 50
180.0
 51
270.0
  0
ELLIPSE
  5
2F92A
330
17
100
AcDbEntity
  8
0
100
AcDbEllipse
 10
799.0037465355319
 20
3278.311545485633
 30
0.0
 11
0.0
 21
-22.3671245248471
 31
0.0
210
0.0
220
0.0
230
-1.0
 40
0.9471075965115272
 41
0.0
 42
1.691763084935387
  0
ARC
  5
2F92B
330
17
100
AcDbEntity
  8
0
100
AcDbCircle
 10
799.0037465355319
 20
3278.311545485633
 30
0.0
 40
31.0
100
AcDbArc
 50
180.0
 51
270.0
  0
ARC
  5
2F930
330
17
100
AcDbEntity
  8
0
100
AcDbCircle
 10
1034.238544679301
 20
3559.467763994597
 30
0.0
 40
255.8356956936135
100
AcDbArc
 50
269.7946098882149
 51
273.5285175739347
  0
LINE
  5
2F931
330
17
100
AcDbEntity
  8
0
100
AcDbLine
 10
1035.853946139371
 20
3300.050431976419
 30
0.0
 11
1041.348645283709
 21
3300.001196840042
 31
0.0
  0
ARC
  5
2F932
330
17
100
AcDbEntity
  8
0
100
AcDbCircle
 10
1055.153560756527
 20
3287.795927168982
 30
0.0
 40
17.60285096126781
100
AcDbArc
 50
139.7143125587178
 51
170.7635016627942
  0
ARC
  5
2F933
330
17
100
AcDbEntity
  8
0
100
AcDbCircle
 10
1050.990838796771
 20
3287.871307415375
 30
0.0
 40
13.49060708771084
100
AcDbArc
 50
169.1030116609502
 51
231.85511328163
  0
ELLIPSE
  5
2F934
330
17
100
AcDbEntity
  8
0
100
AcDbEllipse
 10
1041.003746535528
 20
3345.311545485633
 30
0.0
 11
-15.64334299999996
 21
0.0
 31
0.0
210
0.0
220
0.0
230
1.0
 40
0.7717375499597516
 41
0.0442335360008527
 42
3.097359117588939
  0
ARC
  5
2F935
330
17
100
AcDbEntity
  8
0
100
AcDbCircle
 10
969.6301115428736
 20
3290.073539766501
 30
0.0
 40
14.83237895574246
100
AcDbArc
 50
256.5720137259186
 51
297.1411212152142
  0
ARC
  5
2F936
330
17
100
AcDbEntity
  8
0
100
AcDbCircle
 10
969.4446856033565
 20
3289.172987200313
 30
0.0
 40
11.1134528274799
100
AcDbArc
 50
256.4402732669435
 51
303.3161870488866
  0
ARC
  5
2F937
330
17
100
AcDbEntity
  8
0
100
AcDbCircle
 10
976.8119493706119
 20
3276.955271353476
 30
0.0
 40
14.07593637463589
100
AcDbArc
 50
115.0243549754696
 51
146.2752900288663
  0
ARC
  5
2F938
330
17
100
AcDbEntity
  8
0
100
AcDbCircle
 10
973.908738232288
 20
3282.599762904372
 30
0.0
 40
10.83636683022981
100
AcDbArc
 50
106.8136262035831
 51
135.1560002023244
  0
ARC
  5
2F939
330
17
100
AcDbEntity
  8
0
100
AcDbCircle
 10
958.4162191688603
 20
3257.837808526645
 30
0.0
 40
45.33070528610178
100
AcDbArc
 50
67.74938045210936
 51
80.06541686362309
  0
ARC
  5
2F93A
330
17
100
AcDbEntity
  8
0
100
AcDbCircle
 10
969.6301115428736
 20
3290.073539766501
 30
0.0
 40
14.83237895574246
100
AcDbArc
 50
256.5720137260255
 51
297.1411212152142
  0
ARC
  5
2F93B
330
17
100
AcDbEntity
  8
0
100
AcDbCircle
 10
969.4446856033565
 20
3289.172987200313
 30
0.0
 40
11.1134528274799
100
AcDbArc
 50
256.4402732669435
 51
303.316187048758
  0
ARC
  5
2F93C
330
17
100
AcDbEntity
  8
0
100
AcDbCircle
 10
958.4282066713724
 20
3250.004218841348
 30
0.0
 40
56.05458199643472
100
AcDbArc
 50
71.01301092166483
 51
81.49725951500116
  0
ARC
  5
2F942
330
17
100
AcDbEntity
  8
0
100
AcDbCircle
 10
863.1810618860994
 20
3305.504205512238
 30
0.0
 40
83.92919236650326
100
AcDbArc
 50
343.3818211169915
 51
355.2689035730788
  0
ARC
  5
2F943
330
17
100
AcDbEntity
  8
0
100
AcDbCircle
 10
942.6003116624171
 20
3280.138563073826
 30
0.0
 40
3.157413733141899
100
AcDbArc
 50
223.4705628227011
 51
341.4086820971156
  0
ARC
  5
2F944
330
17
100
AcDbEntity
  8
0
100
AcDbCircle
 10
942.6003116624151
 20
3280.138563073826
 30
0.0
 40
3.157413733141899
100
AcDbArc
 50
223.4705628227011
 51
341.4086820971156
  0
ARC
  5
2F945
330
17
100
AcDbEntity
  8
0
100
AcDbCircle
 10
942.0924029202572
 20
3297.630518248511
 30
0.0
 40
1.436915767056349
100
AcDbArc
 50
323.5575518284288
 51
143.5575518284287
  0
ARC
  5
2F946
330
17
100
AcDbEntity
  8
0
100
AcDbCircle
 10
942.3589884481598
 20
3281.872883575594
 30
0.0
 40
1.300000000000139
100
AcDbArc
 50
218.0974153561193
 51
343.3818211169915
  0
ARC
  5
2F947
330
17
100
AcDbEntity
  8
0
100
AcDbCircle
 10
948.6514217153846
 20
3285.874946387952
 30
0.0
 40
11.49540068442298
100
AcDbArc
 50
186.7452391817463
 51
223.4705628227011
  0
ARC
  5
2F948
330
17
100
AcDbEntity
  8
0
100
AcDbCircle
 10
910.2083856502224
 20
3282.150110971621
 30
0.0
 40
30.00000000000061
100
AcDbArc
 50
3.897601544291081
 51
5.744712693414023
  0
ARC
  5
2F949
330
17
100
AcDbEntity
  8
0
100
AcDbCircle
 10
956.7201647700761
 20
3286.829265228818
 30
0.0
 40
19.62038308025999
100
AcDbArc
 50
143.5575518284287
 51
186.7452391817463
  0
ARC
  5
2F94A
330
17
100
AcDbEntity
  8
0
100
AcDbCircle
 10
945.8059734521459
 20
3284.575413975139
 30
0.0
 40
5.68011143444639
100
AcDbArc
 50
183.8976015442911
 51
218.0974153561193
  0
ARC
  5
2F94B
330
17
100
AcDbEntity
  8
0
100
AcDbCircle
 10
956.720164770078
 20
3286.829265228818
 30
0.0
 40
16.74655154615057
100
AcDbArc
 50
143.5575518284287
 51
185.744712693414
  0
ARC
  5
2F94C
330
17
100
AcDbEntity
  8
0
100
AcDbCircle
 10
936.9486701159742
 20
3289.665696118488
 30
0.0
 40
19.27322399996572
100
AcDbArc
 50
341.634435721204
 51
4.802742798761268
  0
ARC
  5
2F94D
330
17
100
AcDbEntity
  8
0
100
AcDbCircle
 10
947.9194456880115
 20
3286.023526629526
 30
0.0
 40
7.713668851175999
100
AcDbArc
 50
279.474820179799
 51
341.634435721204
  0
ARC
  5
2F94E
330
17
100
AcDbEntity
  8
0
100
AcDbCircle
 10
944.7426888518432
 20
3290.320553896694
 30
0.0
 40
11.45174288928129
100
AcDbArc
 50
4.802742798761268
 51
34.84846876783473
  0
ARC
  5
2F94F
330
17
100
AcDbEntity
  8
0
100
AcDbCircle
 10
948.4655229907687
 20
3285.609994373885
 30
0.0
 40
9.920981632020447
100
AcDbArc
 50
276.329086258467
 51
335.9475507616594
  0
ARC
  5
2F950
330
17
100
AcDbEntity
  8
0
100
AcDbCircle
 10
955.3887133787553
 20
3297.733097747201
 30
0.0
 40
1.520675719533908
100
AcDbArc
 50
33.16591440254746
 51
214.8484687678347
  0
ARC
  5
2F951
330
17
100
AcDbEntity
  8
0
100
AcDbCircle
 10
868.8198059825493
 20
3304.956000861305
 30
0.0
 40
80.99999999999099
100
AcDbArc
 50
341.4086820971156
 51
354.9472316209033
  0
ARC
  5
2F952
330
17
100
AcDbEntity
  8
0
100
AcDbCircle
 10
946.2986431413932
 20
3300.847256917829
 30
0.0
 40
1.416206957708759
100
AcDbArc
 50
105.4393598824408
 51
262.9598451041983
  0
ARC
  5
2F953
330
17
100
AcDbEntity
  8
0
100
AcDbCircle
 10
949.4108097388172
 20
3277.087363149962
 30
0.0
 40
1.346087462628309
100
AcDbArc
 50
99.47482017979901
 51
276.329086258467
  0
ARC
  5
2F954
330
17
100
AcDbEntity
  8
0
100
AcDbCircle
 10
949.1525100188839
 20
3293.700307681171
 30
0.0
 40
9.104592965425348
100
AcDbArc
 50
74.57621941298706
 51
110.7850750102107
  0
ARC
  5
2F955
330
17
100
AcDbEntity
  8
0
100
AcDbCircle
 10
951.1466292235994
 20
3300.928192957752
 30
0.0
 40
1.60667078829576
100
AcDbArc
 50
269.9345920120815
 51
74.57621941298706
  0
ARC
  5
2F956
330
17
100
AcDbEntity
  8
0
100
AcDbCircle
 10
951.1429180033204
 20
3297.677257202711
 30
0.0
 40
1.644267085081509
100
AcDbArc
 50
89.93459201208148
 51
174.9472316209033
  0
ARC
  5
2F957
330
17
100
AcDbEntity
  8
0
100
AcDbCircle
 10
946.0270139026279
 20
3298.647759057851
 30
0.0
 40
0.7999999999997101
100
AcDbArc
 50
355.2689035730788
 51
82.95984510419826
  0
ARC
  5
2F958
330
17
100
AcDbEntity
  8
0
100
AcDbCircle
 10
949.4108097388156
 20
3277.087363149962
 30
0.0
 40
1.346087462628309
100
AcDbArc
 50
99.47482017979901
 51
276.329086258467
  0
LINE
  5
2F959
330
17
100
AcDbEntity
  8
0
100
AcDbLine
 10
956.6616556859855
 20
3298.565006712439
 30
0.0
 11
957.5061987745478
 21
3297.272732349942
 31
0.0
  0
ARC
  5
2F95A
330
17
100
AcDbEntity
  8
0
100
AcDbCircle
 10
956.2137776149985
 20
3296.42809332476
 30
0.0
 40
1.54394544426795
100
AcDbArc
 50
23.25879879875536
 51
33.16591440254746
  0
ARC
  5
2F95B
330
17
100
AcDbEntity
  8
0
100
AcDbCircle
 10
966.5107997582101
 20
3277.00835071377
 30
0.0
 40
1.399982632140609
100
AcDbArc
 50
76.44027326694351
 51
256.5720137259186
  0
ARC
  5
2F95C
330
17
100
AcDbEntity
  8
0
100
AcDbCircle
 10
965.2752821866354
 20
3298.983173134524
 30
0.0
 40
1.40785896848522
100
AcDbArc
 50
345.3682181242646
 51
165.3682181241501
  0
ARC
  5
2F95D
330
17
100
AcDbEntity
  8
0
100
AcDbCircle
 10
1006.486125974508
 20
3288.224138236359
 30
0.0
 40
41.18428206302799
100
AcDbArc
 50
165.3682181242645
 51
176.6607264305827
  0
ARC
  5
2F95E
330
17
100
AcDbEntity
  8
0
100
AcDbCircle
 10
1006.486125974513
 20
3288.224138236359
 30
0.0
 40
44.00000000000969
100
AcDbArc
 50
165.3682181242645
 51
183.6133228217067
  0
ARC
  5
2F95F
330
17
100
AcDbEntity
  8
0
100
AcDbCircle
 10
939.9192167695922
 20
3289.42443309179
 30
0.0
 40
19.27989678059442
100
AcDbArc
 50
335.9475507616594
 51
23.25879879875536
  0
ARC
  5
2F960
330
17
100
AcDbEntity
  8
0
100
AcDbCircle
 10
963.9542149487182
 20
3285.538328092538
 30
0.0
 40
1.383371418728339
100
AcDbArc
 50
183.6133228217067
 51
326.2752900288663
  0
ARC
  5
2F961
330
17
100
AcDbEntity
  8
0
100
AcDbCircle
 10
965.870920751405
 20
3290.593929718571
 30
0.0
 40
0.5000000000003802
100
AcDbArc
 50
176.6607264305827
 51
315.1560002023244
  0
ARC
  5
2F962
330
17
100
AcDbEntity
  8
0
100
AcDbCircle
 10
966.5107997582101
 20
3277.00835071377
 30
0.0
 40
1.399982632140609
100
AcDbArc
 50
76.44027326694351
 51
256.5720137260255
  0
ARC
  5
2F963
330
17
100
AcDbEntity
  8
0
100
AcDbCircle
 10
966.4950016636696
 20
3303.962749682721
 30
0.0
 40
1.496390750689569
100
AcDbArc
 50
81.49725951500116
 51
260.0654168637301
  0
ARC
  5
2F969
330
17
100
AcDbEntity
  8
0
100
AcDbCircle
 10
1003.638051066276
 20
3278.406461699577
 30
0.0
 40
1.508759478175899
100
AcDbArc
 50
227.5053252625602
 51
36.95255904900207
  0
ARC
  5
2F96A
330
17
100
AcDbEntity
  8
0
100
AcDbCircle
 10
1004.007205326419
 20
3293.635700613428
 30
0.0
 40
1.59838475520062
100
AcDbArc
 50
225.7123204150314
 51
42.2946212448628
  0
ARC
  5
2F96B
330
17
100
AcDbEntity
  8
0
100
AcDbCircle
 10
986.3964816902365
 20
3265.436375903175
 30
0.0
 40
23.08408891052884
100
AcDbArc
 50
36.95255904900207
 51
50.41935307805722
  0
ARC
  5
2F96C
330
17
100
AcDbEntity
  8
0
100
AcDbCircle
 10
995.7428238567128
 20
3286.117110164802
 30
0.0
 40
12.77108377607171
100
AcDbArc
 50
42.2946212448628
 51
54.43602554543222
  0
ARC
  5
2F96D
330
17
100
AcDbEntity
  8
0
100
AcDbCircle
 10
1003.638051066274
 20
3278.406461699577
 30
0.0
 40
1.508759478175899
100
AcDbArc
 50
227.5053252625602
 51
36.95255904900207
  0
ARC
  5
2F96E
330
17
100
AcDbEntity
  8
0
100
AcDbCircle
 10
1085.918342963597
 20
3301.780422359094
 30
0.0
 40
86.92591254146107
100
AcDbArc
 50
185.5155054881012
 51
192.1343375077356
  0
ARC
  5
2F96F
330
17
100
AcDbEntity
  8
0
100
AcDbCircle
 10
992.5850192959345
 20
3281.520731095072
 30
0.0
 40
7.999999999980129
100
AcDbArc
 50
306.8045183714019
 51
340.511393545236
  0
ARC
  5
2F970
330
17
100
AcDbEntity
  8
0
100
AcDbCircle
 10
970.7710918545192
 20
3259.562734898842
 30
0.0
 40
46.00000000000163
100
AcDbArc
 50
45.71232041503139
 51
48.56121676227498
  0
ARC
  5
2F971
330
17
100
AcDbEntity
  8
0
100
AcDbCircle
 10
1014.757047344051
 20
3290.542981303628
 30
0.0
 40
17.96862540487014
100
AcDbArc
 50
219.9458009431925
 51
227.5053252625602
  0
ARC
  5
2F972
330
17
100
AcDbEntity
  8
0
100
AcDbCircle
 10
1043.460131590238
 20
3295.184062136421
 30
0.0
 40
46.75738212627013
100
AcDbArc
 50
182.3798083519408
 51
190.5097119724572
  0
ARC
  5
2F973
330
17
100
AcDbEntity
  8
0
100
AcDbCircle
 10
1002.255791948121
 20
3295.226423101518
 30
0.0
 40
1.572943951138179
100
AcDbArc
 50
54.43602554543222
 51
228.561216762275
  0
ARC
  5
2F974
330
17
100
AcDbEntity
  8
0
100
AcDbCircle
 10
998.0714816327427
 20
3293.297737375266
 30
0.0
 40
1.32955182317279
100
AcDbArc
 50
5.515505488101228
 51
182.3798083519408
  0
ARC
  5
2F975
330
17
100
AcDbEntity
  8
0
100
AcDbCircle
 10
1000.863283350945
 20
3301.607769092752
 30
0.0
 40
1.698497634432039
100
AcDbArc
 50
276.0399308943379
 51
96.6294293644152
  0
ARC
  5
2F976
330
17
100
AcDbEntity
  8
0
100
AcDbCircle
 10
1001.423406884359
 20
3283.613305483006
 30
0.0
 40
0.49999999999931
100
AcDbArc
 50
192.1343375077356
 51
230.4193530780572
  0
ARC
  5
2F977
330
17
100
AcDbEntity
  8
0
100
AcDbCircle
 10
1000.59803603431
 20
3278.684966162972
 30
0.0
 40
0.49999999999974
100
AcDbArc
 50
39.94580094319255
 51
160.511393545122
  0
ARC
  5
2F978
330
17
100
AcDbEntity
  8
0
100
AcDbCircle
 10
996.0597224035566
 20
3276.876763145825
 30
0.0
 40
2.199999999999878
100
AcDbArc
 50
290.5691554438921
 51
306.8045183714019
  0
ARC
  5
2F979
330
17
100
AcDbEntity
  8
0
100
AcDbCircle
 10
996.9955391438301
 20
3286.564212125084
 30
0.0
 40
0.50000000000019
100
AcDbArc
 50
244.3869931393928
 51
10.50971197245727
  0
ARC
  5
2F97A
330
17
100
AcDbEntity
  8
0
100
AcDbCircle
 10
992.5850192959329
 20
3281.520731095072
 30
0.0
 40
7.999999999980129
100
AcDbArc
 50
306.8045183714019
 51
340.511393545236
  0
ARC
  5
2F97B
330
17
100
AcDbEntity
  8
0
100
AcDbCircle
 10
1014.757047344051
 20
3290.542981303628
 30
0.0
 40
17.96862540487014
100
AcDbArc
 50
219.9458009431925
 51
227.5053252625602
  0
ARC
  5
2F97C
330
17
100
AcDbEntity
  8
0
100
AcDbCircle
 10
1000.59803603431
 20
3278.684966162972
 30
0.0
 40
0.49999999999974
100
AcDbArc
 50
39.94580094319255
 51
160.511393545122
  0
ARC
  5
2F97D
330
17
100
AcDbEntity
  8
0
100
AcDbCircle
 10
996.0597224035566
 20
3276.876763145825
 30
0.0
 40
2.199999999999878
100
AcDbArc
 50
290.5691554438921
 51
306.8045183714019
  0
ARC
  5
2F97E
330
17
100
AcDbEntity
  8
0
100
AcDbCircle
 10
985.6124176490203
 20
3281.09153426065
 30
0.0
 40
1.48156975236383
100
AcDbArc
 50
160.2811069395486
 51
341.2328116893771
  0
ARC
  5
2F97F
330
17
100
AcDbEntity
  8
0
100
AcDbCircle
 10
876.3238488137787
 20
3320.263169466565
 30
0.0
 40
114.614977495006
100
AcDbArc
 50
340.2811069395487
 51
349.093501332935
  0
ARC
  5
2F980
330
17
100
AcDbEntity
  8
0
100
AcDbCircle
 10
986.0596105313064
 20
3301.004441535339
 30
0.0
 40
1.63657827691559
100
AcDbArc
 50
88.51590272984662
 51
265.3401060224037
  0
ARC
  5
2F981
330
17
100
AcDbEntity
  8
0
100
AcDbCircle
 10
973.2038541763552
 20
3285.169684569515
 30
0.0
 40
5.01182944459679
100
AcDbArc
 50
15.84511254355867
 51
43.19946961497697
  0
ARC
  5
2F982
330
17
100
AcDbEntity
  8
0
100
AcDbCircle
 10
973.1338160134775
 20
3285.164224789601
 30
0.0
 40
8.15738022964307
100
AcDbArc
 50
91.57397095084798
 51
106.8136262035831
  0
ARC
  5
2F983
330
17
100
AcDbEntity
  8
0
100
AcDbCircle
 10
972.2532308280293
 20
3284.899876677593
 30
0.0
 40
6.00000000111757
100
AcDbArc
 50
303.316922785307
 51
15.84511254355867
  0
ARC
  5
2F984
330
17
100
AcDbEntity
  8
0
100
AcDbCircle
 10
973.0920994181952
 20
3284.923670310616
 30
0.0
 40
5.282037034284348
100
AcDbArc
 50
91.16927715008364
 51
115.0243549754696
  0
ARC
  5
2F985
330
17
100
AcDbEntity
  8
0
100
AcDbCircle
 10
976.2249401974159
 20
3301.366777938476
 30
0.0
 40
1.700366599718029
100
AcDbArc
 50
247.7493804521094
 51
74.97453310918331
  0
ARC
  5
2F986
330
17
100
AcDbEntity
  8
0
100
AcDbCircle
 10
972.9525313569912
 20
3291.761698995534
 30
0.0
 40
1.557415834144979
100
AcDbArc
 50
271.1692771500836
 51
91.57397095084798
  0
ARC
  5
2F987
330
17
100
AcDbEntity
  8
0
100
AcDbCircle
 10
977.9838414307844
 20
3289.658308111262
 30
0.0
 40
1.545305559012188
100
AcDbArc
 50
42.81850524865314
 51
223.199469614977
  0
ARC
  5
2F988
330
17
100
AcDbEntity
  8
0
100
AcDbCircle
 10
972.2650933363887
 20
3284.933434026889
 30
0.0
 40
9.05623698496702
100
AcDbArc
 50
297.1411212152142
 51
14.87791842074043
  0
ARC
  5
2F989
330
17
100
AcDbEntity
  8
0
100
AcDbCircle
 10
973.1338160134775
 20
3285.164224789601
 30
0.0
 40
8.15738022964574
100
AcDbArc
 50
14.87791842074043
 51
42.81850524865314
  0
LINE
  5
2F98A
330
17
100
AcDbEntity
  8
0
100
AcDbLine
 10
985.926653504238
 20
3299.373272970961
 30
0.0
 11
988.4182174084646
 21
3299.170184867934
 31
0.0
  0
ARC
  5
2F98B
330
17
100
AcDbEntity
  8
0
100
AcDbCircle
 10
860.7793108230609
 20
3323.508432503672
 30
0.0
 40
133.3242707879771
100
AcDbArc
 50
341.2328116893771
 51
349.3649013598477
  0
ARC
  5
2F98C
330
17
100
AcDbEntity
  8
0
100
AcDbCircle
 10
994.0650695377092
 20
3279.300623439836
 30
0.0
 40
4.517008828766729
100
AcDbArc
 50
196.2492694422308
 51
225.0949546243131
  0
ARC
  5
2F98D
330
17
100
AcDbEntity
  8
0
100
AcDbCircle
 10
993.8786017940522
 20
3282.647127520695
 30
0.0
 40
3.957955426828589
100
AcDbArc
 50
105.7360571231457
 51
152.3308486542973
  0
ARC
  5
2F98E
330
17
100
AcDbEntity
  8
0
100
AcDbCircle
 10
998.0474123761172
 20
3280.461315433819
 30
0.0
 40
8.66505178746803
100
AcDbArc
 50
152.3308486542973
 51
196.2492694422308
  0
ARC
  5
2F98F
330
17
100
AcDbEntity
  8
0
100
AcDbCircle
 10
988.7708303116172
 20
3405.651698183427
 30
0.0
 40
103.0457938621791
100
AcDbArc
 50
268.5159027297424
 51
270.2072470594103
  0
ARC
  5
2F990
330
17
100
AcDbEntity
  8
0
100
AcDbCircle
 10
993.0529443263706
 20
3303.195349730102
 30
0.0
 40
0.49999999999974
100
AcDbArc
 50
171.2693707931437
 51
272.3932568136527
  0
ARC
  5
2F991
330
17
100
AcDbEntity
  8
0
100
AcDbCircle
 10
989.1417523598205
 20
3303.106575161126
 30
0.0
 40
0.5000000000000701
100
AcDbArc
 50
270.2072470594103
 51
351.3530908298923
  0
ARC
  5
2F992
330
17
100
AcDbEntity
  8
0
100
AcDbCircle
 10
988.3775969783467
 20
3298.671837618862
 30
0.0
 40
0.4999999999999301
100
AcDbArc
 50
349.093501332935
 51
85.34010602250827
  0
ARC
  5
2F993
330
17
100
AcDbEntity
  8
0
100
AcDbCircle
 10
992.3048123292948
 20
3298.810701728
 30
0.0
 40
0.5
100
AcDbArc
 50
91.90987726159264
 51
169.3649013598476
  0
ARC
  5
2F994
330
17
100
AcDbEntity
  8
0
100
AcDbCircle
 10
994.0650695377092
 20
3279.300623439836
 30
0.0
 40
4.517008828766729
100
AcDbArc
 50
196.2492694422308
 51
225.0949546243131
  0
ARC
  5
2F995
330
17
100
AcDbEntity
  8
0
100
AcDbCircle
 10
991.312233954931
 20
3304.622740083358
 30
0.0
 40
1.432218716802859
100
AcDbArc
 50
351.7674893860332
 51
172.2543065993025
  0
ARC
  5
2F996
330
17
100
AcDbEntity
  8
0
100
AcDbCircle
 10
860.7793108230609
 20
3323.508432503672
 30
0.0
 40
133.3242707879764
100
AcDbArc
 50
351.2693707931437
 51
351.7674893860332
  0
ARC
  5
2F997
330
17
100
AcDbEntity
  8
0
100
AcDbCircle
 10
876.3238488137787
 20
3320.263169466565
 30
0.0
 40
114.6149774950051
100
AcDbArc
 50
351.3530908298923
 51
352.2543065993025
  0
ARC
  5
2F998
330
17
100
AcDbEntity
  8
0
100
AcDbCircle
 10
994.8533493408296
 20
3280.091520368893
 30
0.0
 40
5.633656937873628
100
AcDbArc
 50
225.0949546243131
 51
290.5691554438921
  0
ARC
  5
2F999
330
17
100
AcDbEntity
  8
0
100
AcDbCircle
 10
994.3372858603591
 20
3281.01924025575
 30
0.0
 40
5.649229508709489
100
AcDbArc
 50
64.38699313939278
 51
105.7360571231457
  0
ARC
  5
2F99A
330
17
100
AcDbEntity
  8
0
100
AcDbCircle
 10
988.7708303116172
 20
3405.651698183427
 30
0.0
 40
103.0457938621788
100
AcDbArc
 50
272.3932568136527
 51
276.6294293644143
  0
ARC
  5
2F99B
330
17
100
AcDbEntity
  8
0
100
AcDbCircle
 10
988.2301809445865
 20
3421.003217302157
 30
0.0
 40
121.7604330241878
100
AcDbArc
 50
271.9098772614884
 51
276.0399308943379
  0
ARC
  5
2F99C
330
17
100
AcDbEntity
  8
0
100
AcDbCircle
 10
994.8533493408296
 20
3280.091520368893
 30
0.0
 40
5.633656937873628
100
AcDbArc
 50
225.0949546243131
 51
290.5691554438921
  0
ARC
  5
2F99D
330
17
100
AcDbEntity
  8
0
100
AcDbCircle
 10
1026.702789685477
 20
3279.561045882103
 30
0.0
 40
1.44224150061386
100
AcDbArc
 50
177.6421261176972
 51
355.6185784361422
  0
ARC
  5
2F99E
330
17
100
AcDbEntity
  8
0
100
AcDbCircle
 10
981.9000369319919
 20
3282.99381666586
 30
0.0
 40
46.37631064107124
100
AcDbArc
 50
355.6185784361422
 51
25.22058032542882
  0
ARC
  5
2F99F
330
17
100
AcDbEntity
  8
0
100
AcDbCircle
 10
1026.702789685477
 20
3279.561045882103
 30
0.0
 40
1.44224150061386
100
AcDbArc
 50
177.6421261176972
 51
355.6185784361422
  0
ARC
  5
2F9A0
330
17
100
AcDbEntity
  8
0
100
AcDbCircle
 10
1015.815570714093
 20
3286.120478356358
 30
0.0
 40
1.270127722315129
100
AcDbArc
 50
350.4940833534081
 51
166.7769809815983
  0
ARC
  5
2F9A1
330
17
100
AcDbEntity
  8
0
100
AcDbCircle
 10
1037.458163017423
 20
3287.977524619852
 30
0.0
 40
26.15556005639287
100
AcDbArc
 50
183.5167016871965
 51
194.8030098755126
  0
ARC
  5
2F9A2
330
17
100
AcDbEntity
  8
0
100
AcDbCircle
 10
1154.395727368207
 20
3292.915705492209
 30
0.0
 40
145.989524726829
100
AcDbArc
 50
181.9490721119744
 51
183.3182230897275
  0
ARC
  5
2F9A3
330
17
100
AcDbEntity
  8
0
100
AcDbCircle
 10
1012.458594900848
 20
3277.573810172482
 30
0.0
 40
1.839299936698199
100
AcDbArc
 50
208.1469757339125
 51
333.6487643014415
  0
ARC
  5
2F9A4
330
17
100
AcDbEntity
  8
0
100
AcDbCircle
 10
984.679016160376
 20
3291.334256045753
 30
0.0
 40
32.84018485357495
100
AcDbArc
 50
333.6487643014415
 51
350.4940833534081
  0
ARC
  5
2F9A5
330
17
100
AcDbEntity
  8
0
100
AcDbCircle
 10
955.3547261537362
 20
3300.327070737953
 30
0.0
 40
60.83736773561575
100
AcDbArc
 50
341.7410274264995
 51
346.7769809815984
  0
ARC
  5
2F9A6
330
17
100
AcDbEntity
  8
0
100
AcDbCircle
 10
1027.36881590155
 20
3285.55084351715
 30
0.0
 40
18.74928962539017
100
AcDbArc
 50
183.3182230897275
 51
208.1469757339125
  0
ARC
  5
2F9A7
330
17
100
AcDbEntity
  8
0
100
AcDbCircle
 10
1101.340679599215
 20
3291.903438428251
 30
0.0
 40
90.15859689101082
100
AcDbArc
 50
173.1870495287457
 51
183.5167016871965
  0
ARC
  5
2F9A8
330
17
100
AcDbEntity
  8
0
100
AcDbCircle
 10
1113.93974131734
 20
3291.538953752715
 30
0.0
 40
105.5101194359899
100
AcDbArc
 50
173.8104036719992
 51
181.9490721119744
  0
ARC
  5
2F9A9
330
17
100
AcDbEntity
  8
0
100
AcDbCircle
 10
1012.654111816862
 20
3281.422617614643
 30
0.0
 40
0.50000000000333
100
AcDbArc
 50
194.8030098755126
 51
341.7410274264995
  0
ARC
  5
2F9AA
330
17
100
AcDbEntity
  8
0
100
AcDbCircle
 10
1012.458594900848
 20
3277.573810172482
 30
0.0
 40
1.839299936698199
100
AcDbArc
 50
208.1469757339125
 51
333.6487643014415
  0
ARC
  5
2F9AB
330
17
100
AcDbEntity
  8
0
100
AcDbCircle
 10
974.1043767055591
 20
3281.726833379524
 30
0.0
 40
51.20074173067726
100
AcDbArc
 50
357.6421261176972
 51
22.850453441801
  0
ARC
  5
2F9AC
330
17
100
AcDbEntity
  8
0
100
AcDbCircle
 10
1010.432562235203
 20
3302.764415670194
 30
0.0
 40
1.39601320219498
100
AcDbArc
 50
353.1870495287457
 51
173.8104036719992
  0
ARC
  5
2F9AD
330
17
100
AcDbEntity
  8
0
100
AcDbCircle
 10
1022.583070840968
 20
3302.155651206478
 30
0.0
 40
1.406485747032869
100
AcDbArc
 50
25.22058032542882
 51
202.8504534417975
  0
ARC
  5
2F9AE
330
17
100
AcDbEntity
  8
0
100
AcDbCircle
 10
1036.334392360589
 20
3353.668795505664
 30
0.0
 40
53.62051600018374
100
AcDbArc
 50
266.7721264100586
 51
269.4866161096133
  0
ARC
  5
2F9AF
330
17
100
AcDbEntity
  8
0
100
AcDbCircle
 10
1030.869704999973
 20
3291.744930209901
 30
0.0
 40
7.00000000000061
100
AcDbArc
 50
349.1030116609502
 51
350.7635016627942
  0
ARC
  5
2F9B0
330
17
100
AcDbEntity
  8
0
100
AcDbCircle
 10
1033.315169861874
 20
3301.883536168935
 30
0.0
 40
1.750187160234349
100
AcDbArc
 50
89.79460988831913
 51
270.000000000938
  0
LINE
  5
2F9B1
330
17
100
AcDbEntity
  8
0
100
AcDbLine
 10
1105.000543304369
 20
3296.270819970203
 30
0.0
 11
1113.044856529806
 21
3296.058929255169
 31
0.0
  0
ARC
  5
2F9B2
330
17
100
AcDbEntity
  8
0
100
AcDbCircle
 10
1111.10702429669
 20
3283.641285099677
 30
0.0
 40
5.617305160256669
100
AcDbArc
 50
211.4261509153756
 51
264.0839395123948
  0
ARC
  5
2F9B3
330
17
100
AcDbEntity
  8
0
100
AcDbCircle
 10
1110.65808582443
 20
3282.967013979367
 30
0.0
 40
7.898530250434009
100
AcDbArc
 50
208.2192809474531
 51
260.175739894415
  0
ARC
  5
2F9B4
330
17
100
AcDbEntity
  8
0
100
AcDbCircle
 10
1107.224335318054
 20
3341.59052134173
 30
0.0
 40
42.28415870897504
100
AcDbArc
 50
267.1449662842808
 51
275.7431237728477
  0
ARC
  5
2F9B5
330
17
100
AcDbEntity
  8
0
100
AcDbCircle
 10
1110.65808582443
 20
3282.967013979367
 30
0.0
 40
7.898530250434009
100
AcDbArc
 50
208.2192809474531
 51
260.175739894415
  0
ARC
  5
2F9B6
330
17
100
AcDbEntity
  8
0
100
AcDbCircle
 10
1054.247819482112
 20
3288.04757527857
 30
0.0
 40
13.94061844876689
100
AcDbArc
 50
142.6707381437199
 51
190.20737460717
  0
ARC
  5
2F9B7
330
17
100
AcDbEntity
  8
0
100
AcDbCircle
 10
1048.250056400765
 20
3277.152666233468
 30
0.0
 40
1.72245720366535
100
AcDbArc
 50
263.3791684782479
 51
88.25999634384823
  0
ARC
  5
2F9B8
330
17
100
AcDbEntity
  8
0
100
AcDbCircle
 10
1048.549855953227
 20
3287.021592669551
 30
0.0
 40
8.151021857595308
100
AcDbArc
 50
190.20737460717
 51
268.2599963438482
  0
ARC
  5
2F9B9
330
17
100
AcDbEntity
  8
0
100
AcDbCircle
 10
1083.30515050731
 20
3303.476431565823
 30
0.0
 40
33.17104344998111
100
AcDbArc
 50
191.0048735541363
 51
197.3582324805438
  0
ARC
  5
2F9BA
330
17
100
AcDbEntity
  8
0
100
AcDbCircle
 10
1083.30515050731
 20
3303.476431565823
 30
0.0
 40
30.49489490310125
100
AcDbArc
 50
191.0048735541363
 51
197.3582324805438
  0
ARC
  5
2F9BB
330
17
100
AcDbEntity
  8
0
100
AcDbCircle
 10
1052.057559400005
 20
3297.399756768919
 30
0.0
 40
1.338074273472009
100
AcDbArc
 50
11.00487355413635
 51
191.0048735541363
  0
ARC
  5
2F9BC
330
17
100
AcDbEntity
  8
0
100
AcDbCircle
 10
1052.921916187073
 20
3293.979221510448
 30
0.0
 40
1.33807427344576
100
AcDbArc
 50
197.3582324805438
 51
17.35823248054379
  0
ARC
  5
2F9BD
330
17
100
AcDbEntity
  8
0
100
AcDbCircle
 10
1048.750624507296
 20
3292.922263586232
 30
0.0
 40
1.33807427344576
100
AcDbArc
 50
197.3582324805438
 51
17.35823248054379
  0
ARC
  5
2F9BE
330
17
100
AcDbEntity
  8
0
100
AcDbCircle
 10
1047.886267720224
 20
3296.3427988447
 30
0.0
 40
1.338074273472918
100
AcDbArc
 50
11.00487355413635
 51
191.004873553997
  0
ARC
  5
2F9BF
330
17
100
AcDbEntity
  8
0
100
AcDbCircle
 10
1079.133858827531
 20
3302.419473641605
 30
0.0
 40
30.49489490310125
100
AcDbArc
 50
191.0048735541363
 51
197.3582324805438
  0
ARC
  5
2F9C0
330
17
100
AcDbEntity
  8
0
100
AcDbCircle
 10
1060.573883241255
 20
3290.364953862976
 30
0.0
 40
4.795535120086979
100
AcDbArc
 50
125.3279955183843
 51
232.0818430853718
  0
ARC
  5
2F9C1
330
17
100
AcDbEntity
  8
0
100
AcDbCircle
 10
1060.346896458993
 20
3290.413561694921
 30
0.0
 40
1.686705324051148
100
AcDbArc
 50
124.4835142518089
 51
234.6308474605986
  0
ARC
  5
2F9C2
330
17
100
AcDbEntity
  8
0
100
AcDbCircle
 10
1079.133858827531
 20
3302.419473641605
 30
0.0
 40
33.17104344998199
100
AcDbArc
 50
191.0048735541363
 51
197.3582324805438
  0
ARC
  5
2F9C3
330
17
100
AcDbEntity
  8
0
100
AcDbCircle
 10
1049.626323344307
 20
3289.009635111193
 30
0.0
 40
13.65903215910447
100
AcDbArc
 50
239.3269963706473
 51
263.3791684782479
  0
ARC
  5
2F9C4
330
17
100
AcDbEntity
  8
0
100
AcDbCircle
 10
1051.315934073534
 20
3290.28344067792
 30
0.0
 40
10.25347237991509
100
AcDbArc
 50
95.79689503911231
 51
142.6707381437199
  0
ARC
  5
2F9C5
330
17
100
AcDbEntity
  8
0
100
AcDbCircle
 10
1041.344165224052
 20
3299.501216911381
 30
0.0
 40
0.49999999999944
100
AcDbArc
 50
319.7143125585724
 51
89.48661610971752
  0
ARC
  5
2F9C6
330
17
100
AcDbEntity
  8
0
100
AcDbCircle
 10
1048.250056400765
 20
3277.152666233468
 30
0.0
 40
1.72245720366535
100
AcDbArc
 50
263.3791684782479
 51
88.25999634384823
  0
ARC
  5
2F9C7
330
17
100
AcDbEntity
  8
0
100
AcDbCircle
 10
1049.626323344307
 20
3289.009635111193
 30
0.0
 40
13.65903215910447
100
AcDbArc
 50
239.3269963706473
 51
263.3791684782479
  0
ARC
  5
2F9C8
330
17
100
AcDbEntity
  8
0
100
AcDbCircle
 10
1050.096214102862
 20
3302.297835931406
 30
0.0
 40
1.82267808758924
100
AcDbArc
 50
275.7968950391115
 51
93.52851757393466
  0
ARC
  5
2F9C9
330
17
100
AcDbEntity
  8
0
100
AcDbCircle
 10
1041.003746535528
 20
3345.311545485633
 30
0.0
 40
2.0
100
AcDbArc
 50
180.0
 51
0.0
  0
ARC
  5
2F9CA
330
17
100
AcDbEntity
  8
0
100
AcDbCircle
 10
988.151868473423
 20
3197.395575290948
 30
0.0
 40
113.0528996387356
100
AcDbArc
 50
43.76298582398525
 51
52.0818430853718
  0
ARC
  5
2F9CB
330
17
100
AcDbEntity
  8
0
100
AcDbCircle
 10
1005.970344929198
 20
3213.811011600434
 30
0.0
 40
92.2534886147152
100
AcDbArc
 50
44.05995006623592
 51
54.63084746059902
  0
ARC
  5
2F9CC
330
17
100
AcDbEntity
  8
0
100
AcDbCircle
 10
1014.575794309571
 20
3357.051996542538
 30
0.0
 40
79.15681507747992
100
AcDbArc
 50
304.4835142518089
 51
316.3727757342633
  0
ARC
  5
2F9CD
330
17
100
AcDbEntity
  8
0
100
AcDbCircle
 10
1022.028500092235
 20
3344.748187345096
 30
0.0
 40
61.86241748930285
100
AcDbArc
 50
305.3279955183843
 51
319.7643575690573
  0
ARC
  5
2F9CE
330
17
100
AcDbEntity
  8
0
100
AcDbCircle
 10
1071.035250157814
 20
3276.775159935723
 30
0.0
 40
1.71109043575421
100
AcDbArc
 50
223.7629858239853
 51
44.05995006623592
  0
ARC
  5
2F9CF
330
17
100
AcDbEntity
  8
0
100
AcDbCircle
 10
1071.035250157812
 20
3276.775159935723
 30
0.0
 40
1.71109043575421
100
AcDbArc
 50
223.7629858239853
 51
44.05995006623592
  0
ARC
  5
2F9D0
330
17
100
AcDbEntity
  8
0
100
AcDbCircle
 10
1070.598278896677
 20
3303.651723535381
 30
0.0
 40
1.761027488290249
100
AcDbArc
 50
316.3727757342633
 51
139.7643575690573
  0
ARC
  5
2F9D1
330
17
100
AcDbEntity
  8
0
100
AcDbCircle
 10
1100.507694019417
 20
3304.912080510127
 30
0.0
 40
1.253147030119198
100
AcDbArc
 50
29.32774896570521
 51
203.9208815054447
  0
ARC
  5
2F9D2
330
17
100
AcDbEntity
  8
0
100
AcDbCircle
 10
902.8542438854504
 20
3320.127098954099
 30
0.0
 40
182.9581315231924
100
AcDbArc
 50
346.0899791517439
 51
353.0469408782257
  0
LINE
  5
2F9D3
330
17
100
AcDbEntity
  8
0
100
AcDbLine
 10
1079.720147570629
 20
3298.246359152716
 30
0.0
 11
1081.297639560541
 21
3298.116445832198
 31
0.0
  0
ARC
  5
2F9D4
330
17
100
AcDbEntity
  8
0
100
AcDbCircle
 10
1079.597608573867
 20
3373.837548684969
 30
0.0
 40
72.32330795966797
100
AcDbArc
 50
270.1990104752669
 51
271.7528596815847
  0
ARC
  5
2F9D5
330
17
100
AcDbEntity
  8
0
100
AcDbCircle
 10
1081.79456870109
 20
3302.047849337021
 30
0.0
 40
0.4999999999999301
100
AcDbArc
 50
271.7528596815847
 51
353.7539942938937
  0
ARC
  5
2F9D6
330
17
100
AcDbEntity
  8
0
100
AcDbCircle
 10
1081.256601318143
 20
3297.618132815451
 30
0.0
 40
0.4999999999997202
100
AcDbArc
 50
352.3972409332311
 51
85.29206783029755
  0
ARC
  5
2F9D7
330
17
100
AcDbEntity
  8
0
100
AcDbCircle
 10
1079.119118724811
 20
3276.473234853149
 30
0.0
 40
1.368027296448359
100
AcDbArc
 50
165.9888479223285
 51
346.0899791517439
  0
ARC
  5
2F9D8
330
17
100
AcDbEntity
  8
0
100
AcDbCircle
 10
894.4671198077934
 20
3322.550325806922
 30
0.0
 40
188.9460788933249
100
AcDbArc
 50
345.9888479223285
 51
352.3972409332311
  0
ARC
  5
2F9D9
330
17
100
AcDbEntity
  8
0
100
AcDbCircle
 10
1079.854500647061
 20
3299.877761545093
 30
0.0
 40
1.63692532358557
100
AcDbArc
 50
90.19901047526699
 51
265.2920678302976
  0
ARC
  5
2F9DA
330
17
100
AcDbEntity
  8
0
100
AcDbCircle
 10
1079.119118724811
 20
3276.473234853149
 30
0.0
 40
1.368027296448359
100
AcDbArc
 50
165.9888479223285
 51
346.0899791517439
  0
ARC
  5
2F9DB
330
17
100
AcDbEntity
  8
0
100
AcDbCircle
 10
1097.61911600483
 20
3300.833937309113
 30
0.0
 40
1.33460802839509
100
AcDbArc
 50
202.9645193137197
 51
24.74294691821329
  0
ARC
  5
2F9DC
330
17
100
AcDbEntity
  8
0
100
AcDbCircle
 10
1103.732154517532
 20
3284.530391889734
 30
0.0
 40
1.454979849537179
100
AcDbArc
 50
1.213266395066942
 51
182.0804958872085
  0
ARC
  5
2F9DD
330
17
100
AcDbEntity
  8
0
100
AcDbCircle
 10
1112.879162260343
 20
3284.724113246735
 30
0.0
 40
7.694079042567659
100
AcDbArc
 50
181.2132663950669
 51
211.4261509153756
  0
ARC
  5
2F9DE
330
17
100
AcDbEntity
  8
0
100
AcDbCircle
 10
1086.468649823695
 20
3284.635033815645
 30
0.0
 40
1.273045927318559
100
AcDbArc
 50
344.1576826940418
 51
160.4759530822841
  0
ARC
  5
2F9DF
330
17
100
AcDbEntity
  8
0
100
AcDbCircle
 10
1090.353096141281
 20
3281.731181600473
 30
0.0
 40
3.00485059496365
100
AcDbArc
 50
180.686030076942
 51
265.7386583237002
  0
ARC
  5
2F9E0
330
17
100
AcDbEntity
  8
0
100
AcDbCircle
 10
1096.444746097484
 20
3281.804123357164
 30
0.0
 40
9.09693723987316
100
AcDbArc
 50
164.1576826940418
 51
180.686030076942
  0
ARC
  5
2F9E1
330
17
100
AcDbEntity
  8
0
100
AcDbCircle
 10
1114.285859636316
 20
3284.91378130574
 30
0.0
 40
12.01564645637775
100
AcDbArc
 50
182.0804958872085
 51
208.2192809474531
  0
ARC
  5
2F9E2
330
17
100
AcDbEntity
  8
0
100
AcDbCircle
 10
1097.04431164534
 20
3277.469247774625
 30
0.0
 40
1.64581203649205
100
AcDbArc
 50
281.5324765795706
 51
100.3764716169492
  0
ARC
  5
2F9E3
330
17
100
AcDbEntity
  8
0
100
AcDbCircle
 10
1092.062679173446
 20
3304.674945421352
 30
0.0
 40
26.01221838030931
100
AcDbArc
 50
265.7386583237002
 51
280.3764716169492
  0
ARC
  5
2F9E4
330
17
100
AcDbEntity
  8
0
100
AcDbCircle
 10
1091.314386467503
 20
3282.92099080719
 30
0.0
 40
7.519613561215808
100
AcDbArc
 50
215.0629126740722
 51
252.53268270398
  0
ARC
  5
2F9E5
330
17
100
AcDbEntity
  8
0
100
AcDbCircle
 10
1095.563946664313
 20
3281.409923679601
 30
0.0
 40
10.92321483806658
100
AcDbArc
 50
160.4759530822841
 51
190.7200801305077
  0
ARC
  5
2F9E6
330
17
100
AcDbEntity
  8
0
100
AcDbCircle
 10
1092.873244061898
 20
3297.911383364093
 30
0.0
 40
22.50914619581421
100
AcDbArc
 50
260.9793597840597
 51
281.5324765795706
  0
ARC
  5
2F9E7
330
17
100
AcDbEntity
  8
0
100
AcDbCircle
 10
1087.335855183451
 20
3292.688866110155
 30
0.0
 40
1.449209799190408
100
AcDbArc
 50
116.874578646805
 51
288.430375798857
  0
ARC
  5
2F9E8
330
17
100
AcDbEntity
  8
0
100
AcDbCircle
 10
1096.033704121966
 20
3294.153330678497
 30
0.0
 40
1.709074605568948
100
AcDbArc
 50
267.3645295616608
 51
85.49075348144748
  0
ARC
  5
2F9E9
330
17
100
AcDbEntity
  8
0
100
AcDbCircle
 10
1094.918874498834
 20
3269.93375437858
 30
0.0
 40
22.53614597986052
100
AcDbArc
 50
87.36452956166081
 51
108.4303757988576
  0
ARC
  5
2F9EA
330
17
100
AcDbEntity
  8
0
100
AcDbCircle
 10
1094.762474696539
 20
3278.034087883576
 30
0.0
 40
17.87836687624638
100
AcDbArc
 50
85.49075348144748
 51
116.874578646805
  0
ARC
  5
2F9EB
330
17
100
AcDbEntity
  8
0
100
AcDbCircle
 10
954.3597591862408
 20
3240.128619093021
 30
0.0
 40
154.2558125500993
100
AcDbArc
 50
22.96451931371969
 51
23.92088150544473
  0
ARC
  5
2F9EC
330
17
100
AcDbEntity
  8
0
100
AcDbCircle
 10
1092.66504432449
 20
3300.97697834083
 30
0.0
 40
1.69980051294277
100
AcDbArc
 50
278.9121697735342
 51
100.1678142298997
  0
ARC
  5
2F9ED
330
17
100
AcDbEntity
  8
0
100
AcDbCircle
 10
1079.347608438838
 20
3385.902326143254
 30
0.0
 40
87.66298331774233
100
AcDbArc
 50
273.6519351875344
 51
278.9121697735342
  0
ARC
  5
2F9EE
330
17
100
AcDbEntity
  8
0
100
AcDbCircle
 10
1079.597608573867
 20
3373.837548684969
 30
0.0
 40
72.32330795967055
100
AcDbArc
 50
274.7160175428009
 51
280.1678142298998
  0
ARC
  5
2F9EF
330
17
100
AcDbEntity
  8
0
100
AcDbCircle
 10
1105.041231505559
 20
3297.815524913467
 30
0.0
 40
1.545240722805949
100
AcDbArc
 50
87.14496628428081
 51
268.4911530962519
  0
ARC
  5
2F9F0
330
17
100
AcDbEntity
  8
0
100
AcDbCircle
 10
1084.963162442856
 20
3297.91836635107
 30
0.0
 40
0.4999999999999
100
AcDbArc
 50
93.65193518743
 51
173.0469408782256
  0
ARC
  5
2F9F1
330
17
100
AcDbEntity
  8
0
100
AcDbCircle
 10
1085.5027144075
 20
3302.257402754948
 30
0.0
 40
0.5000000000003802
100
AcDbArc
 50
173.9364444301345
 51
274.7160175429062
  0
ARC
  5
2F9F2
330
17
100
AcDbEntity
  8
0
100
AcDbCircle
 10
1089.65760970855
 20
3277.655895875838
 30
0.0
 40
2.000000000000258
100
AcDbArc
 50
252.53268270398
 51
260.9793597840597
  0
ARC
  5
2F9F3
330
17
100
AcDbEntity
  8
0
100
AcDbCircle
 10
1086.796462746029
 20
3279.750107789465
 30
0.0
 40
2.00000000000071
100
AcDbArc
 50
190.7200801305077
 51
215.0629126740722
  0
ARC
  5
2F9F4
330
17
100
AcDbEntity
  8
0
100
AcDbCircle
 10
1097.04431164534
 20
3277.469247774625
 30
0.0
 40
1.64581203649205
100
AcDbArc
 50
281.5324765795706
 51
100.3764716169492
  0
ARC
  5
2F9F5
330
17
100
AcDbEntity
  8
0
100
AcDbCircle
 10
1092.062679173446
 20
3304.674945421352
 30
0.0
 40
26.01221838030931
100
AcDbArc
 50
265.7386583237002
 51
280.3764716169492
  0
ARC
  5
2F9F6
330
17
100
AcDbEntity
  8
0
100
AcDbCircle
 10
1091.314386467503
 20
3282.92099080719
 30
0.0
 40
7.519613561215808
100
AcDbArc
 50
215.0629126740722
 51
252.5326827040915
  0
ARC
  5
2F9F7
330
17
100
AcDbEntity
  8
0
100
AcDbCircle
 10
1092.873244061898
 20
3297.911383364093
 30
0.0
 40
22.50914619581421
100
AcDbArc
 50
260.9793597840597
 51
281.5324765795706
  0
ARC
  5
2F9F8
330
17
100
AcDbEntity
  8
0
100
AcDbCircle
 10
1089.65760970855
 20
3277.655895875838
 30
0.0
 40
2.000000000000258
100
AcDbArc
 50
252.5326827040915
 51
260.9793597840597
  0
ARC
  5
2F9F9
330
17
100
AcDbEntity
  8
0
100
AcDbCircle
 10
1086.796462746029
 20
3279.750107789465
 30
0.0
 40
2.00000000000071
100
AcDbArc
 50
190.7200801305077
 51
215.0629126740722
  0
ARC
  5
2F9FA
330
17
100
AcDbEntity
  8
0
100
AcDbCircle
 10
1083.898533936799
 20
3304.61863762193
 30
0.0
 40
1.332154491595169
100
AcDbArc
 50
354.5924613118788
 51
174.5924613118787
  0
ARC
  5
2F9FB
330
17
100
AcDbEntity
  8
0
100
AcDbCircle
 10
894.4671198077934
 20
3322.550325806922
 30
0.0
 40
188.9460788933247
100
AcDbArc
 50
353.7539942938937
 51
354.5924613118788
  0
ARC
  5
2F9FC
330
17
100
AcDbEntity
  8
0
100
AcDbCircle
 10
958.3559836526539
 20
3241.857122344896
 30
0.0
 40
154.2558125500983
100
AcDbArc
 50
22.96451931371969
 51
23.92088150544473
  0
ARC
  5
2F9FD
330
17
100
AcDbEntity
  8
0
100
AcDbCircle
 10
1072.176838171786
 20
3288.995498897666
 30
0.0
 40
33.74891542054643
100
AcDbArc
 50
24.74294691821329
 51
29.32774896570521
  0
ARC
  5
2F9FE
330
17
100
AcDbEntity
  8
0
100
AcDbCircle
 10
1101.615340471242
 20
3302.562440560989
 30
0.0
 40
1.334608028395299
100
AcDbArc
 50
202.9645193137197
 51
24.74294691821329
  0
ARC
  5
2F9FF
330
17
100
AcDbEntity
  8
0
100
AcDbCircle
 10
1096.511469553004
 20
3303.183577258249
 30
0.0
 40
1.253147030119138
100
AcDbArc
 50
29.32774896570521
 51
203.9208815054447
  0
ARC
  5
2FA00
330
17
100
AcDbEntity
  8
0
100
AcDbCircle
 10
1068.180613705373
 20
3287.26699564579
 30
0.0
 40
33.74891542054637
100
AcDbArc
 50
24.74294691821329
 51
29.32774896570521
  0
ARC
  5
2FA01
330
17
100
AcDbEntity
  8
0
100
AcDbCircle
 10
894.467119813734
 20
3322.550325806329
 30
0.0
 40
191.610387870524
100
AcDbArc
 50
353.9364444301345
 51
354.5924613118788
  0
ARC
  5
2FA02
330
17
100
AcDbEntity
  8
0
100
AcDbCircle
 10
1143.334153493651
 20
3279.561045882103
 30
0.0
 40
1.44224150061386
100
AcDbArc
 50
177.6421261176972
 51
355.6185784361422
  0
ARC
  5
2FA03
330
17
100
AcDbEntity
  8
0
100
AcDbCircle
 10
1143.334153493651
 20
3279.561045882103
 30
0.0
 40
1.44224150061386
100
AcDbArc
 50
177.6421261176972
 51
355.6185784361422
  0
ARC
  5
2FA04
330
17
100
AcDbEntity
  8
0
100
AcDbCircle
 10
1098.531400740166
 20
3282.99381666586
 30
0.0
 40
46.37631064107124
100
AcDbArc
 50
355.6185784361422
 51
25.22058032542882
  0
ARC
  5
2FA05
330
17
100
AcDbEntity
  8
0
100
AcDbCircle
 10
1090.735740513733
 20
3281.726833379524
 30
0.0
 40
51.20074173067726
100
AcDbArc
 50
357.6421261176972
 51
22.850453441801
  0
ARC
  5
2FA06
330
17
100
AcDbEntity
  8
0
100
AcDbCircle
 10
1139.214434649142
 20
3302.155651206478
 30
0.0
 40
1.406485747032869
100
AcDbArc
 50
25.22058032542882
 51
202.8504534417975
  0
ARC
  5
2FA07
330
17
100
AcDbEntity
  8
0
100
AcDbCircle
 10
1112.064238807555
 20
3304.619114649675
 30
0.0
 40
1.47100853643563
100
AcDbArc
 50
18.81271537439067
 51
195.4537605652692
  0
ARC
  5
2FA08
330
17
100
AcDbEntity
  8
0
100
AcDbCircle
 10
1230.571105125514
 20
3291.538953752715
 30
0.0
 40
105.5101194359899
100
AcDbArc
 50
173.8104036719992
 51
181.9490721119744
  0
ARC
  5
2FA09
330
17
100
AcDbEntity
  8
0
100
AcDbCircle
 10
1217.972043407389
 20
3291.903438428251
 30
0.0
 40
90.15859689101082
100
AcDbArc
 50
173.1870495287457
 51
183.5167016871965
  0
ARC
  5
2FA0A
330
17
100
AcDbEntity
  8
0
100
AcDbCircle
 10
1144.000179709724
 20
3285.55084351715
 30
0.0
 40
18.74928962539017
100
AcDbArc
 50
183.3182230897275
 51
208.1469757339125
  0
ARC
  5
2FA0B
330
17
100
AcDbEntity
  8
0
100
AcDbCircle
 10
1071.98608996191
 20
3300.327070737953
 30
0.0
 40
60.83736773561575
100
AcDbArc
 50
341.7410274264995
 51
346.7769809815984
  0
ARC
  5
2FA0C
330
17
100
AcDbEntity
  8
0
100
AcDbCircle
 10
1129.089958709024
 20
3277.573810172482
 30
0.0
 40
1.839299936698199
100
AcDbArc
 50
208.1469757339125
 51
333.6487643014415
  0
ARC
  5
2FA0D
330
17
100
AcDbEntity
  8
0
100
AcDbCircle
 10
1271.027091176381
 20
3292.915705492209
 30
0.0
 40
145.989524726829
100
AcDbArc
 50
181.9490721119744
 51
183.3182230897275
  0
ARC
  5
2FA0E
330
17
100
AcDbEntity
  8
0
100
AcDbCircle
 10
1154.089526825597
 20
3287.977524619852
 30
0.0
 40
26.15556005639377
100
AcDbArc
 50
183.5167016871965
 51
194.8030098755126
  0
ARC
  5
2FA0F
330
17
100
AcDbEntity
  8
0
100
AcDbCircle
 10
1119.371878053077
 20
3277.428117098538
 30
0.0
 40
1.648283815342769
100
AcDbArc
 50
287.0752941841805
 51
108.7496141533335
  0
ARC
  5
2FA10
330
17
100
AcDbEntity
  8
0
100
AcDbCircle
 10
1113.186144094763
 20
3297.566052794311
 30
0.0
 40
22.71483926918481
100
AcDbArc
 50
260.175739894415
 51
287.0752941841805
  0
ARC
  5
2FA11
330
17
100
AcDbEntity
  8
0
100
AcDbCircle
 10
1112.546718923907
 20
3297.53483238562
 30
0.0
 40
19.58524619682166
100
AcDbArc
 50
264.0839395123948
 51
288.7496141532263
  0
ARC
  5
2FA12
330
17
100
AcDbEntity
  8
0
100
AcDbCircle
 10
1119.788005225945
 20
3286.350199636232
 30
0.0
 40
1.614980525366418
100
AcDbArc
 50
209.5562664017474
 51
27.8520067892369
  0
ARC
  5
2FA13
330
17
100
AcDbEntity
  8
0
100
AcDbCircle
 10
1120.321240754061
 20
3299.931113589066
 30
0.0
 40
1.68306688108219
100
AcDbArc
 50
284.8595525712466
 51
109.355668450795
  0
ARC
  5
2FA14
330
17
100
AcDbEntity
  8
0
100
AcDbCircle
 10
1231.12201174858
 20
3345.179172827637
 30
0.0
 40
124.3060625738285
100
AcDbArc
 50
202.9339896370993
 51
207.8520067892369
  0
ARC
  5
2FA15
330
17
100
AcDbEntity
  8
0
100
AcDbCircle
 10
1189.998583102344
 20
3326.164503690501
 30
0.0
 40
82.32869716054286
100
AcDbArc
 50
201.6849312997222
 51
209.5562664017474
  0
ARC
  5
2FA16
330
17
100
AcDbEntity
  8
0
100
AcDbCircle
 10
1103.826765837309
 20
3362.098489244338
 30
0.0
 40
66.00141806208696
100
AcDbArc
 50
281.5151732500204
 51
284.8595525712466
  0
ARC
  5
2FA17
330
17
100
AcDbEntity
  8
0
100
AcDbCircle
 10
1105.749129033201
 20
3341.413284290311
 30
0.0
 40
42.28415870897529
100
AcDbArc
 50
283.559618459642
 51
289.355668450795
  0
ARC
  5
2FA18
330
17
100
AcDbEntity
  8
0
100
AcDbCircle
 10
1129.285475625036
 20
3281.422617614643
 30
0.0
 40
0.50000000000333
100
AcDbArc
 50
194.8030098755126
 51
341.7410274264995
  0
ARC
  5
2FA19
330
17
100
AcDbEntity
  8
0
100
AcDbCircle
 10
1115.54571859931
 20
3300.793796948765
 30
0.0
 40
0.5000000000006402
100
AcDbArc
 50
201.0085518099629
 51
283.559618459642
  0
ARC
  5
2FA1A
330
17
100
AcDbEntity
  8
0
100
AcDbCircle
 10
1117.102273295103
 20
3296.935620169946
 30
0.0
 40
0.49999999999996
100
AcDbArc
 50
101.5151732499148
 51
202.9339896370993
  0
ARC
  5
2FA1B
330
17
100
AcDbEntity
  8
0
100
AcDbCircle
 10
1111.405619752016
 20
3300.016096757629
 30
0.0
 40
0.5000000000001102
100
AcDbArc
 50
275.7431237728477
 51
18.40263060386193
  0
ARC
  5
2FA1C
330
17
100
AcDbEntity
  8
0
100
AcDbCircle
 10
1113.031690878464
 20
3295.5591026196
 30
0.0
 40
0.5000000000000902
100
AcDbArc
 50
21.68493129972224
 51
88.49115309625187
  0
ARC
  5
2FA1D
330
17
100
AcDbEntity
  8
0
100
AcDbCircle
 10
1129.089958709024
 20
3277.573810172482
 30
0.0
 40
1.839299936698199
100
AcDbArc
 50
208.1469757339125
 51
333.6487643014415
  0
ARC
  5
2FA1E
330
17
100
AcDbEntity
  8
0
100
AcDbCircle
 10
1119.371878053077
 20
3277.428117098538
 30
0.0
 40
1.648283815342769
100
AcDbArc
 50
287.0752941841805
 51
108.7496141532269
  0
ARC
  5
2FA1F
330
17
100
AcDbEntity
  8
0
100
AcDbCircle
 10
1113.186144094763
 20
3297.566052794311
 30
0.0
 40
22.71483926918481
100
AcDbArc
 50
260.175739894415
 51
287.0752941841805
  0
ARC
  5
2FA20
330
17
100
AcDbEntity
  8
0
100
AcDbCircle
 10
1112.546718923907
 20
3297.53483238562
 30
0.0
 40
19.58524619682166
100
AcDbArc
 50
264.0839395123948
 51
288.7496141532263
  0
ARC
  5
2FA21
330
17
100
AcDbEntity
  8
0
100
AcDbCircle
 10
1127.063926043377
 20
3302.764415670194
 30
0.0
 40
1.39601320219498
100
AcDbArc
 50
353.1870495287457
 51
173.8104036719992
  0
ARC
  5
2FA22
330
17
100
AcDbEntity
  8
0
100
AcDbCircle
 10
1231.12201174858
 20
3345.179172827637
 30
0.0
 40
124.3060625738283
100
AcDbArc
 50
198.8127153743907
 51
201.0085518100118
  0
ARC
  5
2FA23
330
17
100
AcDbEntity
  8
0
100
AcDbCircle
 10
1189.998583102344
 20
3326.164503690501
 30
0.0
 40
82.32869716053626
100
AcDbArc
 50
195.4537605652692
 51
198.4026306038619
  0
ARC
  5
2FA24
330
17
100
AcDbEntity
  8
0
100
AcDbCircle
 10
1101.31037996855
 20
3291.334256045753
 30
0.0
 40
32.84018485357495
100
AcDbArc
 50
333.6487643014415
 51
350.4940833534081
  0
ARC
  5
2FA25
330
17
100
AcDbEntity
  8
0
100
AcDbCircle
 10
1132.446934522267
 20
3286.120478356358
 30
0.0
 40
1.270127722315129
100
AcDbArc
 50
350.4940833534081
 51
166.7769809815983
  0
LINE
  5
2FA26
330
17
100
AcDbEntity
  8
0
100
AcDbLine
 10
1018.003746535528
 20
3475.944420960785
 30
0.0
 11
789.0037465355283
 21
3475.944420960785
 31
0.0
  0
LINE
  5
2FA27
330
17
100
AcDbEntity
  8
0
100
AcDbLine
 10
1018.003746535528
 20
3477.944420960785
 30
0.0
 11
789.0037465355283
 21
3477.944420960785
 31
0.0
  0
ARC
  5
2FA28
330
17
100
AcDbEntity
  8
0
100
AcDbCircle
 10
766.0037465355283
 20
3477.311545485633
 30
0.0
 40
23.0
100
AcDbArc
 50
0.0
 51
180.0
  0
LINE
  5
2FA29
330
17
100
AcDbEntity
  8
0
100
AcDbLine
 10
789.0037465355283
 20
3477.311545485633
 30
0.0
 11
789.0037465355283
 21
3473.311545485633
 31
0.0
  0
ARC
  5
2FA2A
330
17
100
AcDbEntity
  8
0
100
AcDbCircle
 10
766.0037465355319
 20
3467.311545485633
 30
0.0
 40
2.0
100
AcDbArc
 50
0.0
 51
180.0
  0
ARC
  5
2FA2B
330
17
100
AcDbEntity
  8
0
100
AcDbCircle
 10
1041.003746535528
 20
3705.311545485633
 30
0.0
 40
23.0
100
AcDbArc
 50
0.0
 51
180.0
  0
LINE
  5
2FA2C
330
17
100
AcDbEntity
  8
0
100
AcDbLine
 10
1018.003746535528
 20
3705.311545485633
 30
0.0
 11
1018.003746535528
 21
3473.311545485633
 31
0.0
  0
LINE
  5
2FA2D
330
17
100
AcDbEntity
  8
0
100
AcDbLine
 10
1064.003746535528
 20
3705.311545485633
 30
0.0
 11
1064.003746535528
 21
3473.311545485633
 31
0.0
  0
ARC
  5
2FA2E
330
17
100
AcDbEntity
  8
0
100
AcDbCircle
 10
1041.003746535528
 20
3695.311545485633
 30
0.0
 40
2.0
100
AcDbArc
 50
0.0
 51
180.0
  0
LINE
  5
2FA2F
330
17
100
AcDbEntity
  8
0
100
AcDbLine
 10
1339.003746535527
 20
3278.311545485633
 30
0.0
 11
1339.003746535527
 21
3477.311545485633
 31
0.0
  0
LINE
  5
2FA30
330
17
100
AcDbEntity
  8
0
100
AcDbLine
 10
1293.00374653553
 20
3473.311545485633
 30
0.0
 11
1304.187820085129
 21
3278.311545485641
 31
0.0
  0
LINE
  5
2FA31
330
17
100
AcDbEntity
  8
0
100
AcDbLine
 10
1318.003746535526
 20
3278.311545485633
 30
0.0
 11
1318.003746535526
 21
3467.311545485633
 31
0.0
  0
LINE
  5
2FA32
330
17
100
AcDbEntity
  8
0
100
AcDbLine
 10
1314.003746535526
 20
3278.311545485633
 30
0.0
 11
1314.003746535526
 21
3467.311545485633
 31
0.0
  0
ARC
  5
2FA33
330
17
100
AcDbEntity
  8
0
100
AcDbCircle
 10
1283.003746535527
 20
3278.311545485633
 30
0.0
 40
31.0
100
AcDbArc
 50
270.0
 51
0.0
  0
ARC
  5
2FA34
330
17
100
AcDbEntity
  8
0
100
AcDbCircle
 10
1283.003746535527
 20
3278.311545485633
 30
0.0
 40
35.0
100
AcDbArc
 50
270.0
 51
0.0
  0
ARC
  5
2FA35
330
17
100
AcDbEntity
  8
0
100
AcDbCircle
 10
1283.003746535527
 20
3278.311545485633
 30
0.0
 40
56.0
100
AcDbArc
 50
270.0
 51
0.0
  0
ELLIPSE
  5
2FA36
330
17
100
AcDbEntity
  8
0
100
AcDbEllipse
 10
1283.003746535527
 20
3278.311545485633
 30
0.0
 11
0.0
 21
-22.3671245248471
 31
0.0
210
0.0
220
0.0
230
1.0
 40
0.9471075965115272
 41
0.0
 42
1.691763084935387
  0
ARC
  5
2FA37
330
17
100
AcDbEntity
  8
0
100
AcDbCircle
 10
1338.403746535526
 20
3213.911545485633
 30
0.0
 40
23.6
100
AcDbArc
 50
270.0
 51
0.0
  0
ARC
  5
2FA38
330
17
100
AcDbEntity
  8
0
100
AcDbCircle
 10
1316.003746535526
 20
3467.311545485633
 30
0.0
 40
2.0
100
AcDbArc
 50
0.0
 51
180.0
  0
ARC
  5
2FA39
330
17
100
AcDbEntity
  8
0
100
AcDbCircle
 10
1316.00374653553
 20
3477.311545485633
 30
0.0
 40
23.0
100
AcDbArc
 50
0.0
 51
178.4232316921732
  0
LINE
  5
2FA3A
330
17
100
AcDbEntity
  8
DIM
100
AcDbLine
 10
1293.012455387946
 20
3477.944420960785
 30
0.0
 11
1293.012455387946
 21
3471.147083848273
 31
0.0
  0
INSERT
  5
2FCDB
330
17
100
AcDbEntity
  8
DIM
100
AcDbBlockReference
 66
     1
  2
SSE_BALOON1
 10
2330.972351798305
 20
3030.461556155139
 30
0.0
 41
42.5
 42
42.5
 43
42.5
1001
SSE_BALOON
1005
2F64D
  0
ATTRIB
  5
2FCDC
330
2FCDB
100
AcDbEntity
  8
DIMTEXT
100
AcDbText
 10
2316.805685131639
 20
3009.211556155139
 30
0.0
 40
42.5
  1
3
 72
     4
 11
2330.972351798305
 21
3030.461556155139
 31
0.0
100
AcDbAttribute
  2
BAL_NUM
 70
     0
280
     0
  0
SEQEND
  5
2FCDD
330
2FCDB
100
AcDbEntity
  8
DIM
  0
INSERT
  5
2FCDE
330
17
100
AcDbEntity
  8
DIM
100
AcDbBlockReference
 66
     1
  2
SSE_BALOON1
 10
2956.264328757739
 20
3583.661742777974
 30
0.0
 41
42.5
 42
42.5
 43
42.5
1001
SSE_BALOON
1005
2F655
  0
ATTRIB
  5
2FCDF
330
2FCDE
100
AcDbEntity
  8
DIMTEXT
100
AcDbText
 10
2941.085757329167
 20
3562.411742777974
 30
0.0
 40
42.5
  1
4
 72
     4
 11
2956.264328757739
 21
3583.661742777974
 31
0.0
100
AcDbAttribute
  2
BAL_NUM
 70
     0
280
     0
  0
SEQEND
  5
2FCE0
330
2FCDE
100
AcDbEntity
  8
DIM
  0
LEADER
  5
2FCE1
330
17
100
AcDbEntity
  8
DIM
100
AcDbLeader
  3
STANDARD
 76
     2
 10
2564.279511479217
 20
3212.542726599036
 30
0.0
 10
2364.476623908674
 20
3056.609476729331
 30
0.0
1001
SSE_BALOON
1005
2F647
1001
ACAD
1000
DSTYLE
1002
{
1070
    41
1040
3.0
1070
    43
1040
10.0
1070
    73
1070
     0
1070
    74
1070
     0
1070
   172
1070
     1
1070
   272
1070
     1
1070
   341
1005
4A
1070
   342
1005
4A
1002
}
  0
LEADER
  5
2FCE2
330
17
100
AcDbEntity
  8
DIM
100
AcDbLeader
  3
STANDARD
 76
     2
 10
2475.579145470835
 20
3254.241850229462
 30
0.0
 10
2243.856060321165
 20
3057.933277138551
 30
0.0
1001
SSE_BALOON
1005
2F64F
1001
ACAD
1000
DSTYLE
1002
{
1070
    41
1040
3.0
1070
    43
1040
10.0
1070
    73
1070
     0
1070
    74
1070
     0
1070
   172
1070
     1
1070
   272
1070
     1
1070
   341
1005
4A
1070
   342
1005
4A
1002
}
  0
INSERT
  5
2FCE3
330
17
100
AcDbEntity
  8
DIM
100
AcDbBlockReference
 66
     1
  2
SSE_BALOON1
 10
2211.428378532152
 20
3030.461556155139
 30
0.0
 41
42.5
 42
42.5
 43
42.5
1001
SSE_BALOON
1005
2F64E
  0
ATTRIB
  5
2FCE4
330
2FCE3
100
AcDbEntity
  8
DIMTEXT
100
AcDbText
 10
2206.368854722628
 20
3009.211556155139
 30
0.0
 40
42.5
  1
1
 72
     4
 11
2211.428378532152
 21
3030.461556155139
 31
0.0
100
AcDbAttribute
  2
BAL_NUM
 70
     0
280
     0
  0
SEQEND
  5
2FCE5
330
2FCE3
100
AcDbEntity
  8
DIM
  0
LEADER
  5
2FCE6
330
17
100
AcDbEntity
  8
DIM
100
AcDbLeader
  3
STANDARD
 76
     2
 10
2576.161821825383
 20
3275.950820451162
 30
0.0
 10
2576.416872523131
 20
3541.161742777974
 30
0.0
1001
SSE_BALOON
1005
2F659
1001
ACAD
1000
DSTYLE
1002
{
1070
    41
1040
3.0
1070
    43
1040
10.0
1070
    73
1070
     0
1070
    74
1070
     0
1070
   172
1070
     1
1070
   272
1070
     1
1070
   341
1005
4A
1070
   342
1005
4A
1002
}
  0
LEADER
  5
2FCE7
330
17
100
AcDbEntity
  8
DIM
100
AcDbLeader
  3
STANDARD
 76
     2
 10
2629.10890097307
 20
3262.860994354485
 30
0.0
 10
2674.97193638573
 20
3541.725116277648
 30
0.0
1001
SSE_BALOON
1005
2F656
1001
ACAD
1000
DSTYLE
1002
{
1070
    41
1040
3.0
1070
    43
1040
10.0
1070
    73
1070
     0
1070
    74
1070
     0
1070
   172
1070
     1
1070
   272
1070
     1
1070
   341
1005
4A
1070
   342
1005
4A
1002
}
  0
LEADER
  5
2FCE8
330
17
100
AcDbEntity
  8
DIM
100
AcDbLeader
  3
STANDARD
 76
     2
 10
2778.687201609879
 20
3256.809159739332
 30
0.0
 10
2852.503016904081
 20
3542.512948235197
 30
0.0
1001
SSE_BALOON
1005
2F65C
1001
ACAD
1000
DSTYLE
1002
{
1070
    41
1040
3.0
1070
    43
1040
10.0
1070
    73
1070
     0
1070
    74
1070
     0
1070
   172
1070
     1
1070
   272
1070
     1
1070
   341
1005
4A
1070
   342
1005
4A
1002
}
  0
LEADER
  5
2FCE9
330
17
100
AcDbEntity
  8
DIM
100
AcDbLeader
  3
STANDARD
 76
     2
 10
2870.408490868397
 20
3262.709524817295
 30
0.0
 10
2945.281593505196
 20
3542.605323957374
 30
0.0
1001
SSE_BALOON
1005
2F64A
1001
ACAD
1000
DSTYLE
1002
{
1070
    41
1040
3.0
1070
    43
1040
10.0
1070
    73
1070
     0
1070
    74
1070
     0
1070
   172
1070
     1
1070
   272
1070
     1
1070
   341
1005
4A
1070
   342
1005
4A
1002
}
  0
INSERT
  5
2FCEA
330
17
100
AcDbEntity
  8
DIM
100
AcDbBlockReference
 66
     1
  2
SSE_BALOON1
 10
2681.868990667966
 20
3583.661742777974
 30
0.0
 41
42.5
 42
42.5
 43
42.5
1001
SSE_BALOON
1005
2F653
  0
ATTRIB
  5
2FCEB
330
2FCEA
100
AcDbEntity
  8
DIMTEXT
100
AcDbText
 10
2667.7023240013
 20
3562.411742777974
 30
0.0
 40
42.5
  1
5
 72
     4
 11
2681.868990667966
 21
3583.661742777974
 31
0.0
100
AcDbAttribute
  2
BAL_NUM
 70
     0
280
     0
  0
SEQEND
  5
2FCEC
330
2FCEA
100
AcDbEntity
  8
DIM
  0
INSERT
  5
2FCED
330
17
100
AcDbEntity
  8
DIM
100
AcDbBlockReference
 66
     1
  2
SSE_BALOON1
 10
2576.416872523131
 20
3583.661742777974
 30
0.0
 41
42.5
 42
42.5
 43
42.5
1001
SSE_BALOON
1005
2F652
  0
ATTRIB
  5
2FCEE
330
2FCED
100
AcDbEntity
  8
DIMTEXT
100
AcDbText
 10
2562.250205856465
 20
3562.411742777974
 30
0.0
 40
42.5
  1
2
 72
     4
 11
2576.416872523131
 21
3583.661742777974
 31
0.0
100
AcDbAttribute
  2
BAL_NUM
 70
     0
280
     0
  0
SEQEND
  5
2FCEF
330
2FCED
100
AcDbEntity
  8
DIM
  0
INSERT
  5
2FCF0
330
17
100
AcDbEntity
  8
DIM
100
AcDbBlockReference
 66
     1
  2
SSE_BALOON1
 10
2863.134418866021
 20
3583.661742777974
 30
0.0
 41
42.5
 42
42.5
 43
42.5
1001
SSE_BALOON
1005
2F654
  0
ATTRIB
  5
2FCF1
330
2FCF0
100
AcDbEntity
  8
DIMTEXT
100
AcDbText
 10
2849.979656961259
 20
3562.411742777974
 30
0.0
 40
42.5
  1
6
 72
     4
 11
2863.134418866021
 21
3583.661742777974
 31
0.0
100
AcDbAttribute
  2
BAL_NUM
 70
     0
280
     0
  0
SEQEND
  5
2FCF2
330
2FCF0
100
AcDbEntity
  8
DIM
  0
DIMENSION
  5
2FCF3
330
17
100
AcDbEntity
  8
DIM
100
AcDbDimension
  2
*D14
 10
2259.218486327572
 20
3916.311545485631
 30
0.0
 11
2220.968486327571
 21
3588.261545485633
 31
0.0
 70
    32
 71
     5
 42
656.0999999999967
 73
     0
 74
     0
 75
     0
  3
STANDARD
100
AcDbAlignedDimension
 13
2550.285152995033
 23
3260.211545485634
 33
0.0
 14
2427.885152994241
 24
3916.311545485631
 34
0.0
 50
90.0
100
AcDbRotatedDimension
1001
ACAD
1000
DSTYLE
1002
{
1070
    41
1040
3.0
1070
    42
1040
2.0
1070
    43
1040
10.0
1070
    44
1040
2.0
1070
    45
1040
1.0
1070
    73
1070
     0
1070
    74
1070
     0
1070
    77
1070
     1
1070
    78
1070
     8
1070
    79
1070
     2
1070
   140
1040
2.5
1070
   147
1040
0.9999999999999996
1070
   172
1070
     1
1070
   179
1070
     8
1070
   271
1070
     8
1070
   272
1070
     8
1070
   341
1005
4A
1070
   342
1005
4A
1002
}
  0
DIMENSION
  5
2FCF4
330
17
100
AcDbEntity
  8
DIM
100
AcDbDimension
  2
*D15
 10
1993.333914696435
 20
3221.211545485634
 30
0.0
 11
1955.083914696434
 21
3568.761545485633
 31
0.0
 70
    32
 71
     5
 42
695.0999999999976
 73
     0
 74
     0
 75
     0
  3
STANDARD
100
AcDbAlignedDimension
 13
2427.885152994241
 23
3916.311545485631
 33
0.0
 14
2553.118486328366
 24
3221.211545485634
 34
0.0
 50
90.0
100
AcDbRotatedDimension
1001
ACAD
1000
DSTYLE
1002
{
1070
    41
1040
3.0
1070
    42
1040
2.0
1070
    43
1040
10.0
1070
    44
1040
2.0
1070
    45
1040
1.0
1070
    73
1070
     0
1070
    74
1070
     0
1070
    77
1070
     1
1070
    78
1070
     8
1070
    79
1070
     2
1070
   140
1040
2.5
1070
   147
1040
0.9999999999999996
1070
   172
1070
     1
1070
   179
1070
     8
1070
   271
1070
     8
1070
   272
1070
     8
1070
   341
1005
4A
1070
   342
1005
4A
1002
}
  0
DIMENSION
  5
2FCF5
330
17
100
AcDbEntity
  8
DIM
100
AcDbDimension
  2
*D16
 10
3006.743409224994
 20
4074.878212152296
 30
0.0
 11
2725.285152995044
 21
4113.128212152296
 31
0.0
 70
    32
 71
     5
 42
562.9165124598994
 73
     0
 74
     0
 75
     0
  3
STANDARD
100
AcDbAlignedDimension
 13
2443.826896765094
 23
3417.711545485598
 33
0.0
 14
3006.743409224994
 24
3419.711545485625
 34
0.0
100
AcDbRotatedDimension
1001
ACAD
1000
DSTYLE
1002
{
1070
    41
1040
3.0
1070
    42
1040
2.0
1070
    43
1040
10.0
1070
    44
1040
2.0
1070
    45
1040
1.0
1070
    73
1070
     0
1070
    74
1070
     0
1070
    77
1070
     1
1070
    78
1070
     8
1070
    79
1070
     2
1070
   140
1040
2.5
1070
   147
1040
0.9999999999999996
1070
   172
1070
     1
1070
   179
1070
     8
1070
   271
1070
     8
1070
   272
1070
     8
1070
   341
1005
4A
1070
   342
1005
4A
1002
}
  0
DIMENSION
  5
2FCF6
330
17
100
AcDbEntity
  8
DIM
100
AcDbDimension
  2
*D17
 10
2400.285152994241
 20
2776.823787472844
 30
0.0
 11
2215.176200613289
 21
2776.823787472844
 31
0.0
 70
   160
  1
（<>）
 71
     5
 42
84.00000000079215
 73
     0
 74
     0
 75
     0
  3
STANDARD
100
AcDbAlignedDimension
 13
2484.285152995033
 23
3243.711545485635
 33
0.0
 14
2400.285152994241
 24
3213.911545485633
 34
0.0
100
AcDbRotatedDimension
1001
ACAD
1000
DSTYLE
1002
{
1070
    41
1040
3.0
1070
    42
1040
2.0
1070
    43
1040
10.0
1070
    44
1040
2.0
1070
    45
1040
1.0
1070
    73
1070
     0
1070
    74
1070
     0
1070
    77
1070
     1
1070
    78
1070
     8
1070
    79
1070
     2
1070
   140
1040
2.5
1070
   147
1040
0.9999999999999996
1070
   172
1070
     1
1070
   179
1070
     8
1070
   271
1070
     8
1070
   272
1070
     8
1070
   341
1005
4A
1070
   342
1005
4A
1002
}
  0
DIMENSION
  5
2FCF7
330
17
100
AcDbEntity
  8
DIM
100
AcDbDimension
  2
*D18
 10
2484.285152995033
 20
2776.823787472844
 30
0.0
 11
2604.785152995044
 21
2815.073787472844
 31
0.0
 70
    32
 71
     5
 42
241.0000000000209
 73
     0
 74
     0
 75
     0
  3
STANDARD
100
AcDbAlignedDimension
 13
2725.285152995054
 23
3142.351300457686
 33
0.0
 14
2484.285152995033
 24
3243.711545485635
 34
0.0
100
AcDbRotatedDimension
1001
ACAD
1000
DSTYLE
1002
{
1070
    41
1040
3.0
1070
    42
1040
2.0
1070
    43
1040
10.0
1070
    44
1040
2.0
1070
    45
1040
1.0
1070
    73
1070
     0
1070
    74
1070
     0
1070
    77
1070
     1
1070
    78
1070
     8
1070
    79
1070
     2
1070
   140
1040
2.5
1070
   147
1040
0.9999999999999996
1070
   172
1070
     1
1070
   179
1070
     8
1070
   271
1070
     8
1070
   272
1070
     8
1070
   341
1005
4A
1070
   342
1005
4A
1002
}
  0
LINE
  5
2FCF8
330
17
100
AcDbEntity
  8
HID
100
AcDbLine
 10
2440.926261670484
 20
3374.735592843682
 30
0.0
 11
2523.198675030002
 21
3422.235592843684
 31
0.0
  0
LINE
  5
2FCF9
330
17
100
AcDbEntity
  8
HID
100
AcDbLine
 10
2490.628166954314
 20
3438.649367659108
 30
0.0
 11
2503.61854801108
 21
3446.149367659108
 31
0.0
  0
LINE
  5
2FCFA
330
17
100
AcDbEntity
  8
CEN
100
AcDbLine
 10
2464.785152995033
 20
3263.211545485634
 30
0.0
 11
2503.481644493052
 21
3263.211545485634
 31
0.0
  0
LINE
  5
2FCFB
330
17
100
AcDbEntity
  8
0
100
AcDbLine
 10
2409.785152995033
 20
3282.711545485635
 30
0.0
 11
3040.785152995032
 21
3282.711545485635
 31
0.0
  0
LINE
  5
2FCFC
330
17
100
AcDbEntity
  8
0
100
AcDbLine
 10
3043.285152995032
 20
3282.711545485635
 30
0.0
 11
2407.285152995033
 21
3282.711545485635
 31
0.0
  0
LINE
  5
2FCFD
330
17
100
AcDbEntity
  8
0
100
AcDbLine
 10
2427.885152994241
 20
3916.311545485631
 30
0.0
 11
3022.685152994241
 21
3916.311545485631
 31
0.0
  0
LINE
  5
2FCFE
330
17
100
AcDbEntity
  8
0
100
AcDbLine
 10
2427.885152994241
 20
3186.311545485632
 30
0.0
 11
3022.685152994241
 21
3186.311545485632
 31
0.0
  0
LINE
  5
2FD01
330
17
100
AcDbEntity
  8
CEN
100
AcDbLine
 10
2583.785152995033
 20
3234.711545485634
 30
0.0
 11
2656.785152995033
 21
3234.711545485634
 31
0.0
  0
DIMENSION
  5
2FD02
330
17
100
AcDbEntity
  8
DIM
100
AcDbDimension
  2
*D19
 10
2135.07877263295
 20
3916.311545485631
 30
0.0
 11
2096.828772632949
 21
3575.511545485634
 31
0.0
 70
    32
 71
     5
 42
681.5999999999976
 73
     0
 74
     0
 75
     0
  3
STANDARD
100
AcDbAlignedDimension
 13
2583.785152995033
 23
3234.711545485634
 33
0.0
 14
2427.885152994241
 24
3916.311545485631
 34
0.0
 50
90.0
100
AcDbRotatedDimension
1001
ACAD
1000
DSTYLE
1002
{
1070
    41
1040
3.0
1070
    42
1040
2.0
1070
    43
1040
10.0
1070
    44
1040
2.0
1070
    45
1040
1.0
1070
    73
1070
     0
1070
    74
1070
     0
1070
    77
1070
     1
1070
    78
1070
     8
1070
    79
1070
     2
1070
   140
1040
2.5
1070
   147
1040
0.9999999999999996
1070
   172
1070
     1
1070
   179
1070
     8
1070
   271
1070
     8
1070
   272
1070
     8
1070
   341
1005
4A
1070
   342
1005
4A
1002
}
  0
DIMENSION
  5
2FD03
330
17
100
AcDbEntity
  8
DIM
100
AcDbDimension
  2
*D20
 10
2363.885152994239
 20
3916.311545485631
 30
0.0
 11
2325.635152994238
 21
3589.761545485633
 31
0.0
 70
    32
 71
     5
 42
653.0999999999967
 73
     0
 74
     0
 75
     0
  3
STANDARD
100
AcDbAlignedDimension
 13
2464.785152995033
 23
3263.211545485634
 33
0.0
 14
2427.885152994241
 24
3916.311545485631
 34
0.0
 50
90.0
100
AcDbRotatedDimension
1001
ACAD
1000
DSTYLE
1002
{
1070
    41
1040
3.0
1070
    42
1040
2.0
1070
    43
1040
10.0
1070
    44
1040
2.0
1070
    45
1040
1.0
1070
    73
1070
     0
1070
    74
1070
     0
1070
    77
1070
     1
1070
    78
1070
     8
1070
    79
1070
     2
1070
   140
1040
2.5
1070
   147
1040
0.9999999999999996
1070
   172
1070
     1
1070
   179
1070
     8
1070
   271
1070
     8
1070
   272
1070
     8
1070
   341
1005
4A
1070
   342
1005
4A
1002
}
  0
LINE
  5
2FD04
330
17
100
AcDbEntity
  8
0
100
AcDbLine
 10
2400.285152994241
 20
3888.711545485633
 30
0.0
 11
2400.285152994241
 21
3213.911545485633
 31
0.0
  0
LINE
  5
2FD06
330
17
100
AcDbEntity
  8
HID
100
AcDbLine
 10
2422.176261670484
 20
3407.211545485597
 30
0.0
 11
2440.926261670484
 21
3374.735592843682
 31
0.0
  0
ARC
  5
2FD07
330
17
100
AcDbEntity
  8
0
100
AcDbCircle
 10
2427.885152994241
 20
3213.911545485633
 30
0.0
 40
27.6
100
AcDbArc
 50
180.0
 51
270.0
  0
CIRCLE
  5
2FD09
330
17
100
AcDbEntity
  8
0
100
AcDbCircle
 10
2484.285152995033
 20
3263.211545485634
 30
0.0
 40
12.5
  0
LINE
  5
2FD0A
330
17
100
AcDbEntity
  8
CEN
100
AcDbLine
 10
2484.285152995033
 20
3282.711545485635
 30
0.0
 11
2484.285152995033
 21
3243.711545485635
 31
0.0
  0
LINE
  5
2FD0B
330
17
100
AcDbEntity
  8
HID
100
AcDbLine
 10
2403.426261670484
 20
3439.687498127514
 30
0.0
 11
2485.698675030001
 21
3487.187498127514
 31
0.0
  0
LINE
  5
2FD0C
330
17
100
AcDbEntity
  8
HID
100
AcDbLine
 10
2422.176261670484
 20
3407.211545485597
 30
0.0
 11
2403.426261670484
 21
3439.687498127514
 31
0.0
  0
ARC
  5
2FD0D
330
17
100
AcDbEntity
  8
HID
100
AcDbCircle
 10
2487.128166954314
 20
3444.711545485598
 30
0.0
 40
6.999999999999825
100
AcDbArc
 50
120.0000000000545
 51
300.0000000000546
  0
CIRCLE
  5
2FD0E
330
17
100
AcDbEntity
  8
HID
100
AcDbCircle
 10
2443.826896765094
 20
3419.711545485598
 30
0.0
 40
8.499999999999719
  0
LINE
  5
2FD0F
330
17
100
AcDbEntity
  8
HID
100
AcDbLine
 10
2496.61854801108
 20
3458.273723312089
 30
0.0
 11
2498.448675030001
 21
3465.103850331012
 31
0.0
  0
LINE
  5
2FD10
330
17
100
AcDbEntity
  8
HID
100
AcDbLine
 10
2483.628166954314
 20
3450.77372331209
 30
0.0
 11
2496.61854801108
 21
3458.273723312089
 31
0.0
  0
LINE
  5
2FD11
330
17
100
AcDbEntity
  8
HID
100
AcDbLine
 10
2498.448675030001
 20
3465.103850331012
 30
0.0
 11
2485.698675030001
 21
3487.187498127514
 31
0.0
  0
ARC
  5
2FD12
330
17
100
AcDbEntity
  8
0
100
AcDbCircle
 10
2427.885152994241
 20
3888.711545485633
 30
0.0
 40
27.6
100
AcDbArc
 50
90.0
 51
180.0
  0
DIMENSION
  5
2FD14
330
17
100
AcDbEntity
  8
DIM
100
AcDbDimension
  2
*D21
 10
2573.285152995033
 20
2895.170304859794
 30
0.0
 11
2649.285152995044
 21
2933.420304859795
 31
0.0
 70
    32
 71
     5
 42
152.0000000000209
 73
     0
 74
     0
 75
     0
  3
STANDARD
100
AcDbAlignedDimension
 13
2725.285152995054
 23
3142.351300457686
 33
0.0
 14
2573.285152995033
 24
3201.711545485633
 34
0.0
100
AcDbRotatedDimension
1001
ACAD
1000
DSTYLE
1002
{
1070
    41
1040
3.0
1070
    42
1040
2.0
1070
    43
1040
10.0
1070
    44
1040
2.0
1070
    45
1040
1.0
1070
    73
1070
     0
1070
    74
1070
     0
1070
    77
1070
     1
1070
    78
1070
     8
1070
    79
1070
     2
1070
   140
1040
2.5
1070
   147
1040
0.9999999999999996
1070
   172
1070
     1
1070
   179
1070
     8
1070
   271
1070
     8
1070
   272
1070
     8
1070
   341
1005
4A
1070
   342
1005
4A
1002
}
  0
DIMENSION
  5
2FD15
330
17
100
AcDbEntity
  8
DIM
100
AcDbDimension
  2
*D22
 10
2862.785180516633
 20
2895.170304859794
 30
0.0
 11
2794.035166755844
 21
2895.170304859794
 31
0.0
 70
   160
 71
     5
 42
137.5000275215789
 73
     0
 74
     0
 75
     0
  3
STANDARD
100
AcDbAlignedDimension
 13
2725.285152995054
 23
3142.351300457686
 33
0.0
 14
2862.785180516633
 24
3197.711539988879
 34
0.0
100
AcDbRotatedDimension
1001
ACAD
1000
DSTYLE
1002
{
1070
    41
1040
3.0
1070
    42
1040
2.0
1070
    43
1040
10.0
1070
    44
1040
2.0
1070
    45
1040
1.0
1070
    73
1070
     0
1070
    74
1070
     0
1070
    77
1070
     1
1070
    78
1070
     8
1070
    79
1070
     2
1070
   140
1040
2.5
1070
   147
1040
0.9999999999999996
1070
   172
1070
     1
1070
   179
1070
     8
1070
   271
1070
     8
1070
   272
1070
     8
1070
   341
1005
4A
1070
   342
1005
4A
1002
}
  0
DIMENSION
  5
2FD16
330
17
100
AcDbEntity
  8
DIM
100
AcDbDimension
  2
*D23
 10
3050.28515299424
 20
2895.170304859794
 30
0.0
 11
2956.535166755437
 21
2933.420304859795
 31
0.0
 70
    32
  1
（<>）
 71
     5
 42
187.4999724776071
 73
     0
 74
     0
 75
     0
  3
STANDARD
100
AcDbAlignedDimension
 13
2862.785180516633
 23
3197.711539988879
 33
0.0
 14
3050.28515299424
 24
3213.911545485633
 34
0.0
100
AcDbRotatedDimension
1001
ACAD
1000
DSTYLE
1002
{
1070
    41
1040
3.0
1070
    42
1040
2.0
1070
    43
1040
10.0
1070
    44
1040
2.0
1070
    45
1040
1.0
1070
    73
1070
     0
1070
    74
1070
     0
1070
    77
1070
     1
1070
    78
1070
     8
1070
    79
1070
     2
1070
   140
1040
2.5
1070
   147
1040
0.9999999999999996
1070
   172
1070
     1
1070
   179
1070
     8
1070
   271
1070
     8
1070
   272
1070
     8
1070
   341
1005
4A
1070
   342
1005
4A
1002
}
  0
DIMENSION
  5
2FD18
330
17
100
AcDbEntity
  8
DIM
100
AcDbDimension
  2
*D24
 10
3307.030422309753
 20
3916.311545485631
 30
0.0
 11
3268.780422309752
 21
3575.261542737255
 31
0.0
 70
    32
 71
     5
 42
682.1000054967526
 73
     0
 74
     0
 75
     0
  3
STANDARD
100
AcDbAlignedDimension
 13
2899.285180516633
 23
3234.211539988879
 33
0.0
 14
3022.685152994241
 24
3916.311545485631
 34
0.0
 50
90.0
100
AcDbRotatedDimension
1001
ACAD
1000
DSTYLE
1002
{
1070
    41
1040
3.0
1070
    42
1040
2.0
1070
    43
1040
10.0
1070
    44
1040
2.0
1070
    45
1040
1.0
1070
    73
1070
     0
1070
    74
1070
     0
1070
    77
1070
     1
1070
    78
1070
     8
1070
    79
1070
     2
1070
   140
1040
2.5
1070
   147
1040
0.9999999999999996
1070
   172
1070
     1
1070
   179
1070
     8
1070
   271
1070
     8
1070
   272
1070
     8
1070
   341
1005
4A
1070
   342
1005
4A
1002
}
  0
DIMENSION
  5
2FD19
330
17
100
AcDbEntity
  8
DIM
100
AcDbDimension
  2
*D25
 10
3163.245903334007
 20
3916.311545485632
 30
0.0
 11
3124.995903334006
 21
3579.976545485639
 31
0.0
 70
    32
 71
     5
 42
672.669999999989
 73
     0
 74
     0
 75
     0
  3
STANDARD
100
AcDbAlignedDimension
 13
2795.885152982059
 23
3243.641545485644
 33
0.0
 14
3022.685152994241
 24
3916.311545485633
 34
0.0
 50
90.0
100
AcDbRotatedDimension
1001
ACAD
1000
DSTYLE
1002
{
1070
    41
1040
3.0
1070
    42
1040
2.0
1070
    43
1040
10.0
1070
    44
1040
2.0
1070
    45
1040
1.0
1070
    73
1070
     0
1070
    74
1070
     0
1070
    77
1070
     1
1070
    78
1070
     8
1070
    79
1070
     2
1070
   140
1040
2.5
1070
   147
1040
0.9999999999999996
1070
   172
1070
     1
1070
   179
1070
     8
1070
   271
1070
     8
1070
   272
1070
     8
1070
   341
1005
4A
1070
   342
1005
4A
1002
}
  0
LINE
  5
2FD1A
330
17
100
AcDbEntity
  8
CEN
100
AcDbLine
 10
2725.285152995054
 20
3142.351300457686
 30
0.0
 11
2725.285152995054
 21
3947.767906551192
 31
0.0
  0
LINE
  5
2FD1B
330
17
100
AcDbEntity
  8
0
100
AcDbLine
 10
3050.28515299424
 20
3888.711545485633
 30
0.0
 11
3050.28515299424
 21
3213.911545485633
 31
0.0
  0
DIMENSION
  5
2FD1D
330
17
100
AcDbEntity
  8
DIM
100
AcDbDimension
  2
*D26
 10
3418.943127763864
 20
3186.311545485632
 30
0.0
 11
3418.943127763863
 21
3050.473450247537
 31
0.0
 70
   160
  1
<>
 71
     5
 42
233.3999999999924
 73
     0
 74
     0
 75
     0
  3
STANDARD
100
AcDbAlignedDimension
 13
3036.743409224992
 23
3419.711545485625
 33
0.0
 14
3022.685152994241
 24
3186.311545485632
 34
0.0
 50
90.0
100
AcDbRotatedDimension
1001
ACAD
1000
DSTYLE
1002
{
1070
     3
1000
（<>）
1070
    41
1040
3.0
1070
    42
1040
2.0
1070
    43
1040
10.0
1070
    44
1040
2.0
1070
    45
1040
1.0
1070
    73
1070
     0
1070
    74
1070
     0
1070
    77
1070
     1
1070
    78
1070
     8
1070
    79
1070
     2
1070
   140
1040
2.5
1070
   147
1040
0.9999999999999996
1070
   172
1070
     1
1070
   179
1070
     8
1070
   271
1070
     8
1070
   272
1070
     8
1070
   341
1005
4A
1070
   342
1005
4A
1002
}
  0
LINE
  5
2FD1E
330
17
100
AcDbEntity
  8
HID
100
AcDbLine
 10
3028.394044319604
 20
3407.211545485624
 30
0.0
 11
3009.644044319604
 21
3374.73559284371
 31
0.0
  0
LINE
  5
2FD1F
330
17
100
AcDbEntity
  8
HID
100
AcDbLine
 10
3009.644044319604
 20
3374.73559284371
 30
0.0
 11
2927.371630960083
 21
3422.235592843712
 31
0.0
  0
CIRCLE
  5
2FD20
330
17
100
AcDbEntity
  8
0
100
AcDbCircle
 10
2620.285152995033
 20
3234.711545485634
 30
0.0
 40
29.5
  0
CIRCLE
  5
2FD21
330
17
100
AcDbEntity
  8
0
100
AcDbCircle
 10
2573.285152995033
 20
3221.211545485634
 30
0.0
 40
12.5
  0
LINE
  5
2FD22
330
17
100
AcDbEntity
  8
CEN
100
AcDbLine
 10
2775.285152995054
 20
3264.241545485644
 30
0.0
 11
2775.285152995053
 21
3223.041545485644
 31
0.0
  0
LINE
  5
2FD23
330
17
100
AcDbEntity
  8
CEN
100
AcDbLine
 10
2620.285152995033
 20
3198.211545485634
 30
0.0
 11
2620.285152995033
 21
3271.211545485634
 31
0.0
  0
LINE
  5
2FD24
330
17
100
AcDbEntity
  8
CEN
100
AcDbLine
 10
2573.285152995033
 20
3283.211545485634
 30
0.0
 11
2573.285152995033
 21
3201.711545485633
 31
0.0
  0
DIMENSION
  5
2FD25
330
17
100
AcDbEntity
  8
DIM
100
AcDbDimension
  2
*D27
 10
2775.285152995051
 20
3029.747079026305
 30
0.0
 11
2929.515629185527
 21
3029.747079026305
 31
0.0
 70
   160
 71
     5
 42
49.99999999999636
 73
     0
 74
     0
 75
     0
  3
STANDARD
100
AcDbAlignedDimension
 13
2725.285152995054
 23
3142.351300457686
 33
0.0
 14
2775.285152995051
 24
3225.577590861103
 34
0.0
100
AcDbRotatedDimension
1001
ACAD
1000
DSTYLE
1002
{
1070
    41
1040
3.0
1070
    42
1040
2.0
1070
    43
1040
10.0
1070
    44
1040
2.0
1070
    45
1040
1.0
1070
    73
1070
     0
1070
    74
1070
     0
1070
    77
1070
     1
1070
    78
1070
     8
1070
    79
1070
     2
1070
   140
1040
2.5
1070
   147
1040
0.9999999999999996
1070
   172
1070
     1
1070
   179
1070
     8
1070
   271
1070
     8
1070
   272
1070
     8
1070
   341
1005
4A
1070
   342
1005
4A
1002
}
  0
LINE
  5
2FD27
330
17
100
AcDbEntity
  8
CEN
100
AcDbLine
 10
2553.785152995033
 20
3221.211545485634
 30
0.0
 11
2592.785152995033
 21
3221.211545485634
 31
0.0
  0
LINE
  5
2FD28
330
17
100
AcDbEntity
  8
CEN
100
AcDbLine
 10
2550.285152995033
 20
3260.211545485634
 30
0.0
 11
2596.285152995033
 21
3260.211545485634
 31
0.0
  0
CIRCLE
  5
2FD29
330
17
100
AcDbEntity
  8
0
100
AcDbCircle
 10
2573.285152995033
 20
3260.211545485634
 30
0.0
 40
16.0
  0
CIRCLE
  5
2FD2A
330
17
100
AcDbEntity
  8
0
100
AcDbCircle
 10
2775.285152982058
 20
3243.641545485644
 30
0.0
 40
13.6
  0
LINE
  5
2FD2B
330
17
100
AcDbEntity
  8
CEN
100
AcDbLine
 10
2754.685152982058
 20
3243.641545485644
 30
0.0
 11
2795.885152982059
 21
3243.641545485644
 31
0.0
  0
ARC
  5
2FD2C
330
17
100
AcDbEntity
  8
0
100
AcDbCircle
 10
3022.685152994241
 20
3213.911545485633
 30
0.0
 40
27.6
100
AcDbArc
 50
270.0
 51
0.0
  0
LINE
  5
2FD2E
330
17
100
AcDbEntity
  8
HID
100
AcDbLine
 10
2523.198675030002
 20
3422.235592843684
 30
0.0
 11
2510.448675030002
 21
3444.319240640186
 31
0.0
  0
LINE
  5
2FD2F
330
17
100
AcDbEntity
  8
HID
100
AcDbLine
 10
2503.61854801108
 20
3446.149367659108
 30
0.0
 11
2510.448675030002
 21
3444.319240640186
 31
0.0
  0
LINE
  5
2FD30
330
17
100
AcDbEntity
  8
HID
100
AcDbLine
 10
3028.394044319604
 20
3407.211545485624
 30
0.0
 11
3047.144044319603
 21
3439.687498127538
 31
0.0
  0
LINE
  5
2FD31
330
17
100
AcDbEntity
  8
HID
100
AcDbLine
 10
3047.144044319603
 20
3439.687498127538
 30
0.0
 11
2964.871630960083
 21
3487.187498127541
 31
0.0
  0
LINE
  5
2FD32
330
17
100
AcDbEntity
  8
HID
100
AcDbLine
 10
2959.942139035772
 20
3438.649367659135
 30
0.0
 11
2946.951757979006
 21
3446.149367659136
 31
0.0
  0
LINE
  5
2FD33
330
17
100
AcDbEntity
  8
HID
100
AcDbLine
 10
2966.942139035772
 20
3450.773723312117
 30
0.0
 11
2953.951757979006
 21
3458.273723312117
 31
0.0
  0
LINE
  5
2FD34
330
17
100
AcDbEntity
  8
HID
100
AcDbLine
 10
2952.121630960083
 20
3465.103850331039
 30
0.0
 11
2964.871630960083
 21
3487.187498127541
 31
0.0
  0
LINE
  5
2FD35
330
17
100
AcDbEntity
  8
HID
100
AcDbLine
 10
2927.371630960083
 20
3422.235592843712
 30
0.0
 11
2940.121630960083
 21
3444.319240640214
 31
0.0
  0
LINE
  5
2FD36
330
17
100
AcDbEntity
  8
HID
100
AcDbLine
 10
2946.951757979006
 20
3446.149367659136
 30
0.0
 11
2940.121630960083
 21
3444.319240640214
 31
0.0
  0
LINE
  5
2FD37
330
17
100
AcDbEntity
  8
HID
100
AcDbLine
 10
2953.951757979006
 20
3458.273723312117
 30
0.0
 11
2952.121630960083
 21
3465.103850331039
 31
0.0
  0
CIRCLE
  5
2FD38
330
17
100
AcDbEntity
  8
HID
100
AcDbCircle
 10
3006.743409224994
 20
3419.711545485625
 30
0.0
 40
8.499999999999696
  0
ARC
  5
2FD39
330
17
100
AcDbEntity
  8
HID
100
AcDbCircle
 10
2963.442139035772
 20
3444.711545485626
 30
0.0
 40
6.999999999999655
100
AcDbArc
 50
239.9999999999455
 51
59.99999999994543
  0
DIMENSION
  5
2FD3B
330
17
100
AcDbEntity
  8
DIM
100
AcDbDimension
  2
*D28
 10
2732.285152995054
 20
3970.211545485631
 30
0.0
 11
2876.380391090292
 21
4008.461545485631
 31
0.0
 70
    32
 71
     5
 42
14.0
 73
     0
 74
     0
 75
     0
  3
STANDARD
100
AcDbAlignedDimension
 13
2718.285152995054
 23
3902.211545485632
 33
0.0
 14
2732.285152995054
 24
3902.211545485632
 34
0.0
100
AcDbRotatedDimension
1001
ACAD
1000
DSTYLE
1002
{
1070
    41
1040
3.0
1070
    42
1040
2.0
1070
    43
1040
10.0
1070
    44
1040
2.0
1070
    45
1040
1.0
1070
    73
1070
     0
1070
    74
1070
     0
1070
    77
1070
     1
1070
    78
1070
     8
1070
    79
1070
     2
1070
   140
1040
2.5
1070
   147
1040
0.9999999999999996
1070
   172
1070
     1
1070
   179
1070
     8
1070
   271
1070
     8
1070
   272
1070
     8
1070
   341
1005
4A
1070
   342
1005
4A
1002
}
  0
LINE
  5
2FD3C
330
17
100
AcDbEntity
  8
HID
100
AcDbLine
 10
2687.785152995054
 20
3812.211545485632
 30
0.0
 11
2687.785152995054
 21
3907.211545485633
 31
0.0
  0
LINE
  5
2FD3D
330
17
100
AcDbEntity
  8
HID
100
AcDbLine
 10
2762.785152995054
 20
3812.211545485633
 30
0.0
 11
2762.785152995054
 21
3907.211545485631
 31
0.0
  0
LINE
  5
2FD3E
330
17
100
AcDbEntity
  8
HID
100
AcDbLine
 10
2725.285152995054
 20
3812.211545485632
 30
0.0
 11
2762.785152995054
 21
3812.211545485633
 31
0.0
  0
CIRCLE
  5
2FD3F
330
17
100
AcDbEntity
  8
HID
100
AcDbCircle
 10
2725.285152995054
 20
3837.211545485631
 30
0.0
 40
8.5
  0
LINE
  5
2FD40
330
17
100
AcDbEntity
  8
HID
100
AcDbLine
 10
2725.285152995054
 20
3812.211545485632
 30
0.0
 11
2687.785152995054
 21
3812.211545485632
 31
0.0
  0
LINE
  5
2FD41
330
17
100
AcDbEntity
  8
HID
100
AcDbLine
 10
2737.285152995054
 20
3907.211545485631
 30
0.0
 11
2762.785152995054
 21
3907.211545485631
 31
0.0
  0
LINE
  5
2FD42
330
17
100
AcDbEntity
  8
HID
100
AcDbLine
 10
2687.785152995054
 20
3907.211545485633
 30
0.0
 11
2713.188151638918
 21
3907.211545485631
 31
0.0
  0
LINE
  5
2FD43
330
17
100
AcDbEntity
  8
HID
100
AcDbLine
 10
2732.285152995054
 20
3887.211545485631
 30
0.0
 11
2732.285152995054
 21
3902.211545485632
 31
0.0
  0
LINE
  5
2FD44
330
17
100
AcDbEntity
  8
HID
100
AcDbLine
 10
2718.285152995054
 20
3887.211545485631
 30
0.0
 11
2718.285152995054
 21
3902.211545485632
 31
0.0
  0
ARC
  5
2FD45
330
17
100
AcDbEntity
  8
HID
100
AcDbCircle
 10
2725.285152995054
 20
3887.211545485631
 30
0.0
 40
7.0
100
AcDbArc
 50
180.0
 51
0.0
  0
LINE
  5
2FD46
330
17
100
AcDbEntity
  8
HID
100
AcDbLine
 10
2732.285152995054
 20
3902.211545485632
 30
0.0
 11
2737.285152995054
 21
3907.211545485631
 31
0.0
  0
LINE
  5
2FD47
330
17
100
AcDbEntity
  8
HID
100
AcDbLine
 10
2718.285152995054
 20
3902.211545485632
 30
0.0
 11
2713.285152995054
 21
3907.211545485631
 31
0.0
  0
ARC
  5
2FD48
330
17
100
AcDbEntity
  8
0
100
AcDbCircle
 10
3022.685152994241
 20
3888.711545485633
 30
0.0
 40
27.6
100
AcDbArc
 50
0.0
 51
90.0
  0
CIRCLE
  5
2FD4A
330
17
100
AcDbEntity
  8
0
100
AcDbCircle
 10
2862.785180516633
 20
3234.211539988879
 30
0.0
 40
29.5
  0
LINE
  5
2FD4B
330
17
100
AcDbEntity
  8
CEN
100
AcDbLine
 10
2899.285180516633
 20
3234.211539988879
 30
0.0
 11
2826.285180516633
 21
3234.211539988879
 31
0.0
  0
LINE
  5
2FD4C
330
17
100
AcDbEntity
  8
CEN
100
AcDbLine
 10
2862.785180516633
 20
3270.711539988879
 30
0.0
 11
2862.785180516633
 21
3197.711539988879
 31
0.0
  0
LEADER
  5
2FD4D
330
17
100
AcDbEntity
  8
DIM
100
AcDbLeader
  3
STANDARD
 73
     0
 75
     1
 40
128.0
 41
498.4685714285715
 76
     3
 10
2443.826896765094
 20
3419.711545485598
 30
0.0
 10
2410.092923107543
 20
4089.186920520198
 30
0.0
 10
2376.092923107543
 20
4089.186920520198
 30
0.0
340
2FD4E
1001
ACAD
1000
DSTYLE
1002
{
1070
    41
1040
2.0
1070
   147
1040
1.0
1070
    77
1070
     1
1070
    43
1040
10.0
1070
    73
1070
     0
1070
    74
1070
     0
1070
   172
1070
     1
1070
   179
1070
     1
1070
   271
1070
     1
1070
   272
1070
     1
1070
   341
1005
5132
1070
   342
1005
0
1002
}
  0
MTEXT
  5
2FD4E
102
{ACAD_REACTORS
330
2FD4D
102
}
330
17
100
AcDbEntity
  8
DIM
100
AcDbMText
 10
2361.092923107543
 20
4104.186920520199
 30
0.0
 40
48.0
 41
497.5944905962585
 46
0.0
 71
     9
 72
     1
  1
\A1;3-M12アンカーボルト\P（穴φ17）
 73
     1
 44
1.0
  0
LINE
  5
302FB
330
17
100
AcDbEntity
  8
DIM
100
AcDbLine
 10
2725.285152995054
 20
3112.351300457687
 30
0.0
 11
2725.285152995054
 21
2999.747079026305
 31
0.0
  0
LINE
  5
302FC
330
17
100
AcDbEntity
  8
DIM
100
AcDbLine
 10
2620.285152995033
 20
3168.211545485634
 30
0.0
 11
2620.285152995033
 21
2999.747079026305
 31
0.0
  0
LINE
  5
302FD
330
17
100
AcDbEntity
  8
DIM
100
AcDbLine
 10
2770.285152995054
 20
3029.747079026305
 30
0.0
 11
2815.285152995054
 21
3029.747079026305
 31
0.0
  0
LINE
  5
302FE
330
17
100
AcDbEntity
  8
DIM
100
AcDbLine
 10
2575.285152995033
 20
3029.747079026305
 30
0.0
 11
2530.285152995033
 21
3029.747079026305
 31
0.0
  0
LINE
  5
302FF
330
17
100
AcDbEntity
  8
DIM
100
AcDbLine
 10
2725.285152995054
 20
3029.747079026305
 30
0.0
 11
2620.285152995033
 21
3029.747079026305
 31
0.0
  0
INSERT
  5
30301
330
17
100
AcDbEntity
  8
DIM
100
AcDbBlockReference
  2
_Open30
 10
2620.285152995033
 20
3029.747079026305
 30
0.0
 41
45.0
 42
45.0
 43
45.0
  0
MTEXT
  5
30302
330
17
100
AcDbEntity
  8
DIM
100
AcDbMText
 10
2672.785152995043
 20
3068.747079026305
 30
0.0
 40
48.0
 41
0.0
 46
0.0
 71
     5
 72
     1
  1
\A1;105
 73
     1
 44
1.0
  0
LINE
  5
305C2
330
17
100
AcDbEntity
  8
DIM
370
    18
100
AcDbLine
 10
2467.997700706426
 20
2576.371281009171
 30
0.0
 11
3287.737875991782
 21
2576.371281009166
 31
0.0
  0
TEXT
  5
305C3
330
17
100
AcDbEntity
  8
DIM
370
    18
100
AcDbText
 10
2479.429980368487
 20
2589.361973768388
 30
0.0
 40
48.0
  1
基礎ボルトおよび配管位置図（上空図）
 41
0.8
 72
     1
 11
2878.789980368487
 21
2589.361973768388
 31
0.0
100
AcDbText
  0
LINE
  5
305C4
330
17
100
AcDbEntity
  8
WAKU
100
AcDbLine
 10
3185.100361400244
 20
2367.044780292034
 30
0.0
 11
3185.100361400244
 21
1807.044780292033
 31
0.0
  0
TEXT
  5
305C5
330
17
100
AcDbEntity
  8
DIMTEXT
100
AcDbText
 10
2392.578058323476
 20
2142.131785067847
 30
0.0
 40
48.0
  1
2
 41
0.8
 72
     1
 11
2405.378058323476
 21
2166.131785067847
 31
0.0
100
AcDbText
 73
     2
  0
LINE
  5
305C7
330
17
100
AcDbEntity
  8
WAKU
100
AcDbLine
 10
2466.674941056935
 20
2367.044780292034
 30
0.0
 11
2466.674941056935
 21
1807.044780292034
 31
0.0
  0
LINE
  5
305C8
330
17
100
AcDbEntity
  8
WAKU
100
AcDbLine
 10
2341.584456814236
 20
2367.044780292034
 30
0.0
 11
2341.584456814236
 21
1807.044780292034
 31
0.0
  0
LINE
  5
305CB
330
17
100
AcDbEntity
  8
WAKU
100
AcDbLine
 10
2341.584456814236
 20
2047.044780292034
 30
0.0
 11
3185.100361400244
 21
2047.044780292034
 31
0.0
  0
LINE
  5
305CC
330
17
100
AcDbEntity
  8
WAKU
100
AcDbLine
 10
2341.584456814236
 20
2127.044780292033
 30
0.0
 11
3185.100361400244
 21
2127.044780292033
 31
0.0
  0
LINE
  5
305CD
330
17
100
AcDbEntity
  8
WAKU
100
AcDbLine
 10
2341.584456814236
 20
1967.044780292033
 30
0.0
 11
3185.100361400244
 21
1967.044780292033
 31
0.0
  0
LINE
  5
305CE
330
17
100
AcDbEntity
  8
WAKU
100
AcDbLine
 10
2341.584456814236
 20
1887.044780292034
 30
0.0
 11
3185.100361400244
 21
1887.044780292033
 31
0.0
  0
TEXT
  5
305D0
330
17
100
AcDbEntity
  8
DIMTEXT
100
AcDbText
 10
2391.663772609191
 20
1982.131785067847
 30
0.0
 40
48.0
  1
4
 41
0.8
 72
     1
 11
2405.378058323476
 21
2006.131785067847
 31
0.0
100
AcDbText
 73
     2
  0
TEXT
  5
305D1
330
17
100
AcDbEntity
  8
DIMTEXT
100
AcDbText
 10
2392.578058323476
 20
1902.131785067847
 30
0.0
 40
48.0
  1
5
 41
0.8
 72
     1
 11
2405.378058323476
 21
1926.131785067847
 31
0.0
100
AcDbText
 73
     2
  0
TEXT
  5
305D2
330
17
100
AcDbEntity
  8
DIMTEXT
100
AcDbText
 10
2392.578058323476
 20
2062.131785067847
 30
0.0
 40
48.0
  1
3
 41
0.8
 72
     1
 11
2405.378058323476
 21
2086.131785067847
 31
0.0
100
AcDbText
 73
     2
  0
LINE
  5
305D3
330
17
100
AcDbEntity
  8
WAKU
100
AcDbLine
 10
3185.100361400244
 20
2367.044780292034
 30
0.0
 11
2341.584456814236
 21
2367.044780292034
 31
0.0
  0
LINE
  5
305D4
330
17
100
AcDbEntity
  8
WAKU
100
AcDbLine
 10
2341.584456814236
 20
2207.044780292032
 30
0.0
 11
3185.100361400244
 21
2207.044780292032
 31
0.0
  0
LINE
  5
305D5
330
17
100
AcDbEntity
  8
WAKU
100
AcDbLine
 10
2341.584456814236
 20
2287.044780292033
 30
0.0
 11
3185.100361400244
 21
2287.044780292033
 31
0.0
  0
TEXT
  5
305D6
330
17
100
AcDbEntity
  8
DIMTEXT
100
AcDbText
 10
2651.289363032426
 20
2303.044780292033
 30
0.0
 40
48.0
  1
名      称
 41
0.8
 72
     1
 11
2761.369363032426
 21
2327.044780292033
 31
0.0
100
AcDbText
 73
     2
  0
TEXT
  5
305D8
330
17
100
AcDbEntity
  8
DIMTEXT
100
AcDbText
 10
2364.418058323476
 20
2303.044780292033
 30
0.0
 40
48.0
  1
番号
 41
0.8
 72
     1
 11
2405.378058323476
 21
2327.044780292033
 31
0.0
100
AcDbText
 73
     2
  0
TEXT
  5
305D9
330
17
100
AcDbEntity
  8
DIMTEXT
100
AcDbText
 10
2400.806629752048
 20
2222.131785067847
 30
0.0
 40
48.0
  1
1
 41
0.8
 72
     1
 11
2405.378058323476
 21
2246.131785067847
 31
0.0
100
AcDbText
 73
     2
  0
LINE
  5
305FD
330
17
100
AcDbEntity
  8
WAKU
100
AcDbLine
 10
2341.584456814236
 20
1807.044780292034
 30
0.0
 11
3185.100361400244
 21
1807.044780292033
 31
0.0
  0
TEXT
  5
305FE
330
17
100
AcDbEntity
  8
DIMTEXT
100
AcDbText
 10
2393.492344037762
 20
1822.131785067848
 30
0.0
 40
48.0
  1
6
 41
0.8
 72
     1
 11
2405.378058323476
 21
1846.131785067848
 31
0.0
100
AcDbText
 73
     2
  0
TEXT
  5
305FF
330
17
100
AcDbEntity
  8
DIMTEXT
100
AcDbText
 10
2491.5740791436
 20
2063.044780292035
 30
0.0
 40
48.0
  1
100V／200V補助電源引込口
 41
0.8
 11
2491.5740791436
 21
2087.044780292035
 31
0.0
100
AcDbText
 73
     2
  0
TEXT
  5
30600
330
17
100
AcDbEntity
  8
DIMTEXT
100
AcDbText
 10
2491.5740791436
 20
1983.044780292035
 30
0.0
 40
48.0
  1
給湯配管口
 41
0.8
 11
2491.5740791436
 21
2007.044780292035
 31
0.0
100
AcDbText
 73
     2
  0
TEXT
  5
30601
330
17
100
AcDbEntity
  8
DIMTEXT
100
AcDbText
 10
2491.5740791436
 20
1903.044780292034
 30
0.0
 40
48.0
  1
給水配管口
 41
0.8
 11
2491.5740791436
 21
1927.044780292034
 31
0.0
100
AcDbText
 73
     2
  0
TEXT
  5
30602
330
17
100
AcDbEntity
  8
DIMTEXT
100
AcDbText
 10
2491.5740791436
 20
1823.044780292034
 30
0.0
 40
48.0
  1
排水栓配管口
 41
0.8
 11
2491.5740791436
 21
1847.044780292034
 31
0.0
100
AcDbText
 73
     2
  0
TEXT
  5
30603
330
17
100
AcDbEntity
  8
DIMTEXT
100
AcDbText
 10
2491.5740791436
 20
2223.044780292034
 30
0.0
 40
48.0
  1
リモコンケーブル引込口
 41
0.8
 11
2491.5740791436
 21
2247.044780292034
 31
0.0
100
AcDbText
 73
     2
  0
TEXT
  5
30604
330
17
100
AcDbEntity
  8
DIMTEXT
100
AcDbText
 10
2491.5740791436
 20
2143.044780292035
 30
0.0
 40
48.0
  1
200V電源引込口
 41
0.8
 11
2491.5740791436
 21
2167.044780292035
 31
0.0
100
AcDbText
 73
     2
  0
LINE
  5
3060B
330
17
100
AcDbEntity
  8
WAKU
100
AcDbLine
 10
3453.949206858791
 20
4855.525416488761
 30
0.0
 11
1903.949206858793
 21
4855.525416488761
 31
0.0
  0
TEXT
  5
31709
330
17
100
AcDbEntity
  8
DIM
100
AcDbText
 10
226.040915959261
 20
4773.442549877524
 30
0.0
 40
96.0
  1
『電気温水器
 41
0.8
100
AcDbText
  0
INSERT
  5
31976
330
17
100
AcDbEntity
  8
Defpoints
100
AcDbBlockReference
  2
waku0
 10
0.0
 20
0.0
 30
0.0
 41
3570.0
 42
5049.0
 43
3570.0
  0
TEXT
  5
31CAC
330
17
100
AcDbEntity
  8
DIM
100
AcDbText
 10
2868.963635574789
 20
155.7417855595699
 30
0.0
 40
66.03660537500275
  1
E34-000386
 41
0.8
100
AcDbText
  0
LWPOLYLINE
  5
31CBD
330
17
100
AcDbEntity
  8
0
100
AcDbPolyline
 90
        4
 70
     1
 43
0.0
 10
107.7098773807502
 20
4915.845978532737
 10
3482.189333586318
 20
4915.845978532737
 10
3482.189333586318
 20
119.1368236109677
 10
107.7098773807502
 20
119.1368236109677
  0
DIMENSION
  5
31DF0
330
17
100
AcDbEntity
  8
DIM
100
AcDbDimension
  2
*D29
 10
1991.31136078918
 20
2414.424718026778
 30
0.0
 11
1953.06136078918
 21
1491.174718026778
 31
0.0
 70
    32
 71
     5
 42
1846.5
 73
     0
 74
     0
 75
     0
  3
STANDARD
100
AcDbAlignedDimension
 13
1362.862637859797
 23
567.924718026778
 33
0.0
 14
1314.003746535526
 24
2414.424718026778
 34
0.0
 50
90.0
100
AcDbRotatedDimension
1001
ACAD
1000
DSTYLE
1002
{
1070
    41
1040
3.0
1070
    42
1040
2.0
1070
    43
1040
10.0
1070
    44
1040
2.0
1070
    45
1040
1.0
1070
    73
1070
     0
1070
    74
1070
     0
1070
    77
1070
     1
1070
    78
1070
     8
1070
    79
1070
     2
1070
   140
1040
2.5
1070
   147
1040
0.9999999999999996
1070
   172
1070
     1
1070
   179
1070
     8
1070
   271
1070
     8
1070
   272
1070
     8
1070
   341
1005
4A
1070
   342
1005
4A
1002
}
  0
DIMENSION
  5
31E95
330
17
100
AcDbEntity
  8
DIM
100
AcDbDimension
  2
*D30
 10
3418.943127763863
 20
3887.211545485631
 30
0.0
 11
3418.943127763863
 21
4069.505831199919
 31
0.0
 70
   160
 71
     5
 42
29.10000000000219
 73
     0
 74
     0
 75
     0
  3
STANDARD
100
AcDbAlignedDimension
 13
3056.685152994241
 23
3916.311545485633
 33
0.0
 14
2725.285152995054
 24
3887.211545485631
 34
0.0
 50
90.0
100
AcDbRotatedDimension
1001
ACAD
1000
DSTYLE
1002
{
1070
    41
1040
3.0
1070
    42
1040
2.0
1070
    43
1040
10.0
1070
    44
1040
2.0
1070
    45
1040
1.0
1070
    73
1070
     0
1070
    74
1070
     0
1070
    77
1070
     1
1070
    78
1070
     8
1070
    79
1070
     2
1070
   140
1040
2.5
1070
   147
1040
0.9999999999999996
1070
   172
1070
     1
1070
   179
1070
     8
1070
   271
1070
     8
1070
   272
1070
     8
1070
   341
1005
4A
1070
   342
1005
4A
1002
}
  0
DIMENSION
  5
31EC3
330
17
100
AcDbEntity
  8
DIM
100
AcDbDimension
  2
*D31
 10
3418.943127763863
 20
3419.711545485624
 30
0.0
 11
3380.693127763862
 21
3653.461545485628
 31
0.0
 70
    32
 71
     5
 42
467.5000000000062
 73
     0
 74
     0
 75
     0
  3
STANDARD
100
AcDbAlignedDimension
 13
2800.285152995054
 23
3887.211545485631
 33
0.0
 14
3070.743409224992
 24
3419.711545485625
 34
0.0
 50
90.0
100
AcDbRotatedDimension
1001
ACAD
1000
DSTYLE
1002
{
1070
    41
1040
3.0
1070
    42
1040
2.0
1070
    43
1040
10.0
1070
    44
1040
2.0
1070
    45
1040
1.0
1070
    73
1070
     0
1070
    74
1070
     0
1070
    77
1070
     1
1070
    78
1070
     8
1070
    79
1070
     2
1070
   140
1040
2.5
1070
   147
1040
0.9999999999999996
1070
   172
1070
     1
1070
   179
1070
     8
1070
   271
1070
     8
1070
   272
1070
     8
1070
   341
1005
4A
1070
   342
1005
4A
1002
}
  0
ENDSEC
  0
SECTION
  2
OBJECTS
  0
DICTIONARY
  5
C
330
0
100
AcDbDictionary
281
     1
  3
ACAD_COLOR
350
2EEE5
  3
ACAD_GROUP
350
D
  3
ACAD_LAYOUT
350
34
  3
ACAD_MATERIAL
350
2EEBB
  3
ACAD_MLEADERSTYLE
350
2EF0A
  3
ACAD_MLINESTYLE
350
1A
  3
ACAD_PLOTSETTINGS
350
35
  3
ACAD_PLOTSTYLENAME
350
32
  3
ACAD_SCALELIST
350
2EEE8
  3
ACAD_TABLESTYLE
350
2EEE6
  3
ACAD_VISUALSTYLE
350
2EED4
  3
AcadDim
350
2C65E
  3
ACDB_RECOMPOSE_DATA
350
2EF1C
  3
AcDbVariableDictionary
350
44
  0
DICTIONARY
  5
2C31C
330
2
100
AcDbDictionary
280
     1
281
     1
  3
ACAD_LAYERSTATES
360
2C31D
  0
DICTIONARY
  5
2EF0E
330
E
100
AcDbDictionary
280
     1
281
     1
  3
ADSK_XREC_LAYER_RECONCILED
360
2EF0F
  0
DICTIONARY
  5
2EF10
330
21
100
AcDbDictionary
280
     1
281
     1
  3
ADSK_XREC_LAYER_RECONCILED
360
2EF11
  0
DICTIONARY
  5
2EF12
330
22
100
AcDbDictionary
280
     1
281
     1
  3
ADSK_XREC_LAYER_RECONCILED
360
2EF13
  0
DICTIONARY
  5
2EF14
330
23
100
AcDbDictionary
280
     1
281
     1
  3
ADSK_XREC_LAYER_RECONCILED
360
2EF15
  0
DICTIONARY
  5
2EF16
330
24
100
AcDbDictionary
280
     1
281
     1
  3
ADSK_XREC_LAYER_RECONCILED
360
2EF17
  0
DICTIONARY
  5
2EF18
330
27
100
AcDbDictionary
280
     1
281
     1
  3
ADSK_XREC_LAYER_RECONCILED
360
2EF19
  0
DICTIONARY
  5
30303
330
17
100
AcDbDictionary
280
     1
281
     1
  3
ACAD_SORTENTS
360
30304
  0
DICTIONARY
  5
31FC6
330
2F70A
100
AcDbDictionary
280
     1
281
     1
  3
ACAD_MTEXT_2008_RT
360
31FC7
  0
DICTIONARY
  5
2EEE5
102
{ACAD_REACTORS
330
C
102
}
330
C
100
AcDbDictionary
281
     1
  0
DICTIONARY
  5
D
102
{ACAD_REACTORS
330
C
102
}
330
C
100
AcDbDictionary
281
     1
  3
*A1
350
3917
  3
*A10
350
14DF3
  3
*A2
350
14E80
  3
*A3
350
14E82
  3
*A4
350
17876
  3
*A5
350
3E2F
  3
*A6
350
14154
  3
*A7
350
14C46
  3
*A8
350
14C48
  3
*A9
350
14DF1
  0
DICTIONARY
  5
34
102
{ACAD_REACTORS
330
C
102
}
330
C
100
AcDbDictionary
281
     1
  3
Model
350
36
  3
ﾚｲｱｳﾄ1
350
37
  0
DICTIONARY
  5
2EEBB
102
{ACAD_REACTORS
330
C
102
}
330
C
100
AcDbDictionary
281
     1
  3
ByBlock
350
2EEC4
  3
ByLayer
350
2EEBC
  3
Global
350
2EECC
  0
DICTIONARY
  5
2EF0A
102
{ACAD_REACTORS
330
C
102
}
330
C
100
AcDbDictionary
281
     1
  3
Standard
350
2EF0B
  0
DICTIONARY
  5
1A
102
{ACAD_REACTORS
330
C
102
}
330
C
100
AcDbDictionary
281
     1
  3
STANDARD
350
1B
  0
DICTIONARY
  5
35
102
{ACAD_REACTORS
330
C
102
}
330
C
100
AcDbDictionary
281
     1
  0
ACDBDICTIONARYWDFLT
  5
32
102
{ACAD_REACTORS
330
C
102
}
330
C
100
AcDbDictionary
281
     1
  3
Normal
350
33
100
AcDbDictionaryWithDefault
340
33
  0
DICTIONARY
  5
2EEE8
102
{ACAD_REACTORS
330
C
102
}
330
C
100
AcDbDictionary
281
     1
  3
A0
350
2EEE9
  3
A1
350
2EEEA
  3
A2
350
2EEEB
  3
A3
350
2EEEC
  3
A4
350
2EEED
  3
A5
350
2EEEE
  3
A6
350
2EEEF
  3
A7
350
2EEF0
  3
A8
350
2EEF1
  3
A9
350
2EEF2
  3
B0
350
2EEF3
  3
B1
350
2EEF4
  3
B2
350
2EEF5
  3
B3
350
2EEF6
  3
B4
350
2EEF7
  3
B5
350
2EEF8
  3
B6
350
2EEF9
  3
B7
350
2EEFA
  3
B8
350
2EEFB
  3
B9
350
2EEFC
  3
C0
350
2EEFD
  3
C1
350
2EEFE
  3
C2
350
2EEFF
  3
C3
350
2EF00
  3
C4
350
2EF01
  3
C5
350
2EF02
  3
C6
350
2EF03
  3
C7
350
2EF04
  3
C8
350
2EF05
  3
C9
350
2EF06
  3
D0
350
2EF07
  3
D1
350
2EF08
  3
D2
350
2EF09
  0
DICTIONARY
  5
2EEE6
102
{ACAD_REACTORS
330
C
102
}
330
C
100
AcDbDictionary
281
     1
  3
Standard
350
2EEE7
  0
DICTIONARY
  5
2EED4
102
{ACAD_REACTORS
330
C
102
}
330
C
100
AcDbDictionary
281
     1
  3
2dWireframe
350
2EEDA
  3
3D Hidden
350
2EEDC
  3
3dWireframe
350
2EEDB
  3
Basic
350
2EED9
  3
Brighten
350
2EEE0
  3
ColorChange
350
2EEE4
  3
Conceptual
350
2EEDD
  3
Dim
350
2EEDF
  3
Facepattern
350
2EEE3
  3
Flat
350
2EED5
  3
FlatWithEdges
350
2EED6
  3
Gouraud
350
2EED7
  3
GouraudWithEdges
350
2EED8
  3
Linepattern
350
2EEE2
  3
Realistic
350
2EEDE
  3
Thicken
350
2EEE1
  0
XRECORD
  5
2C65E
102
{ACAD_REACTORS
330
C
102
}
330
C
100
AcDbXrecord
280
     1
 90
   990106
  3

 60
     0
 61
     0
 62
     4
 63
     4
 64
     1
 65
     0
 66
     0
 67
     2
 68
     1
 69
     0
 70
     0
 71
     0
 72
     0
 40
454.0574729721623
170
     2
340
0
  0
XRECORD
  5
2EF1C
102
{ACAD_REACTORS
330
C
102
}
330
C
100
AcDbXrecord
280
     1
 90
        1
330
2EEE7
330
2F70A
  0
DICTIONARY
  5
44
102
{ACAD_REACTORS
330
C
102
}
330
C
100
AcDbDictionary
281
     1
  3
CANNOSCALE
350
2EF20
  3
CMLEADERSTYLE
350
2EF1E
  3
CTABLESTYLE
350
2EF1D
  3
DIMASSOC
350
45
  3
LIGHTINGUNITS
350
2EF21
  3
MSLTSCALE
350
2EF1F
  3
SORTENTS
350
6F8C
  0
DICTIONARY
  5
2C31D
102
{ACAD_REACTORS
330
2C31C
102
}
330
2C31C
100
AcDbDictionary
281
     1
  0
XRECORD
  5
2EF0F
102
{ACAD_REACTORS
330
2EF0E
102
}
330
2EF0E
100
AcDbXrecord
280
     1
290
     1
  0
XRECORD
  5
2EF11
102
{ACAD_REACTORS
330
2EF10
102
}
330
2EF10
100
AcDbXrecord
280
     1
290
     1
  0
XRECORD
  5
2EF13
102
{ACAD_REACTORS
330
2EF12
102
}
330
2EF12
100
AcDbXrecord
280
     1
290
     1
  0
XRECORD
  5
2EF15
102
{ACAD_REACTORS
330
2EF14
102
}
330
2EF14
100
AcDbXrecord
280
     1
290
     1
  0
XRECORD
  5
2EF17
102
{ACAD_REACTORS
330
2EF16
102
}
330
2EF16
100
AcDbXrecord
280
     1
290
     1
  0
XRECORD
  5
2EF19
102
{ACAD_REACTORS
330
2EF18
102
}
330
2EF18
100
AcDbXrecord
280
     1
290
     1
  0
SORTENTSTABLE
  5
30304
102
{ACAD_REACTORS
330
30303
102
}
330
30303
100
AcDbSortentsTable
330
17
331
2FD1A
  5
2FD1A
331
2F719
  5
2F719
331
2F758
  5
2F758
331
2FD12
  5
2FD12
331
25323
  5
25323
331
2F6DA
  5
2F6DA
331
2F6E2
  5
2F6E2
331
2F721
  5
2F721
331
2FD22
  5
2FD22
331
2FD4E
  5
3004D
331
2CE3B
  5
2CE3B
331
2F760
  5
2F760
331
2F768
  5
2F768
331
2CE43
  5
2CE43
331
2F6FA
  5
2F6FA
331
2F729
  5
2F729
331
15497
  5
15497
331
2F770
  5
2F770
331
2F915
  5
2F915
331
2CE4B
  5
2CE4B
331
2F702
  5
2F702
331
2F731
  5
2F731
331
2F8D5
  5
2F8D5
331
2F901
  5
2F901
331
2F948
  5
2F948
331
2F84C
  5
2F84C
331
2F883
  5
2F883
331
2F797
  5
2F797
331
2F7D6
  5
2F7D6
331
2F80D
  5
2F80D
331
2F8C2
  5
2F8C2
331
2F8CA
  5
2F8CA
331
2F909
  5
2F909
331
2F854
  5
2F854
331
2F88B
  5
2F88B
331
2F950
  5
2F950
331
2F79F
  5
2F79F
331
2F7DE
  5
2F7DE
331
2F815
  5
2F815
331
2F987
  5
2F987
331
2F9C6
  5
2F9C6
331
2F9FD
  5
2F9FD
331
2F8DA
  5
2F8DA
331
2F919
  5
2F919
331
2F81D
  5
2F81D
331
2F85C
  5
2F85C
331
2F7A7
  5
2F7A7
331
2F7E6
  5
2F7E6
331
2F893
  5
2F893
331
2F958
  5
2F958
331
2FA05
  5
2FA05
331
2FCFC
  5
2FCFC
331
2F960
  5
2F960
331
2F98F
  5
2F98F
331
2F9CE
  5
2F9CE
331
2F89B
  5
2F89B
331
2F8E2
  5
2F8E2
331
2F7EE
  5
2F7EE
331
2F825
  5
2F825
331
2F7AF
  5
2F7AF
331
2F864
  5
2F864
331
2F921
  5
2F921
331
2FA0D
  5
2FA0D
331
2FD0C
  5
2FD0C
331
2F997
  5
2F997
331
2F9D6
  5
2F9D6
331
2F9DE
  5
2F9DE
331
2FA15
  5
2FA15
331
2F99F
  5
2F99F
331
2FD2C
  5
2FD34
331
2FCE1
  5
2FCE1
331
2FCE9
  5
2FCE9
331
2FD02
  5
2FD02
331
2F6EA
  5
2F6EA
331
2F739
  5
2F739
331
2F778
  5
2F778
331
2F6C2
  5
2F6C2
331
2CE53
  5
2CE53
331
2F70A
  5
2F70A
331
2F6F5
  5
2F6F5
331
2FCF3
  5
2FCF3
331
2F741
  5
2F741
331
2F780
  5
2F780
331
2F788
  5
2F788
331
2F6BD
  5
2F6BD
331
2F712
  5
2F712
331
2F749
  5
2F749
331
2F6D3
  5
2F6D3
331
2F751
  5
2F751
331
2F929
  5
2F929
331
2F86C
  5
2F86C
331
2F8A3
  5
2F8A3
331
2F7F6
  5
2F7F6
331
2F82D
  5
2F82D
331
2F8EA
  5
2F8EA
331
2F7B7
  5
2F7B7
331
2F931
  5
2F931
331
2F970
  5
2F970
331
2F874
  5
2F874
331
2F8AB
  5
2F8AB
331
2F7BF
  5
2F7BF
331
2F7FE
  5
2F7FE
331
2F835
  5
2F835
331
2F8F2
  5
2F8F2
331
2FD34
  5
2FD3C
331
2F9A7
  5
2F9A7
331
2F9E6
  5
2F9E6
331
2FA1D
  5
2FA1D
331
2F8FA
  5
2F8FA
331
2F939
  5
2F939
331
2F83D
  5
2F83D
331
2F87C
  5
2F87C
331
2F7C7
  5
2F7C7
331
2F806
  5
2F806
331
2F8B3
  5
2F8B3
331
2F978
  5
2F978
331
2FA25
  5
2FA25
331
2FD44
  5
2FD4C
331
2F8BB
  5
2F8BB
331
2F9AF
  5
2F9AF
331
2F845
  5
2F845
331
2F7CF
  5
2F7CF
331
2F9EE
  5
2F9EE
331
2FA2D
  5
2FA2D
331
302FC
  5
2FD28
331
2F9B7
  5
2F9B7
331
2F9F6
  5
2F9F6
331
2FA35
  5
2FA35
331
2F9BF
  5
2F9BF
331
2FD3B
  5
2FD43
331
2FD1B
  5
2FD1B
331
2F759
  5
2F759
331
2F6DB
  5
2F6DB
331
2F71A
  5
2F71A
331
2F722
  5
2F722
331
2F761
  5
2F761
331
2FD23
  5
2FD23
331
2CE3C
  5
2CE3C
331
2F6E3
  5
2F6E3
331
2F72A
  5
2F72A
331
2F769
  5
2F769
331
2CE44
  5
2CE44
331
2F6FB
  5
2F6FB
331
2F916
  5
2F916
331
2F703
  5
2F703
331
2F732
  5
2F732
331
2F771
  5
2F771
331
2F790
  5
2F790
331
2F8D6
  5
2F8D6
331
2F949
  5
2F949
331
2F8C3
  5
2F8C3
331
2F902
  5
2F902
331
2F80E
  5
2F80E
331
2F84D
  5
2F84D
331
2F798
  5
2F798
331
2F7D7
  5
2F7D7
331
2F884
  5
2F884
331
2F951
  5
2F951
331
2F980
  5
2F980
331
2F88C
  5
2F88C
331
2F8CB
  5
2F8CB
331
2F7DF
  5
2F7DF
331
2F816
  5
2F816
331
2F7A0
  5
2F7A0
331
2F855
  5
2F855
331
2F90A
  5
2F90A
331
2F9C7
  5
2F9C7
331
2F9FE
  5
2F9FE
331
2F91A
  5
2F91A
331
2F959
  5
2F959
331
2F988
  5
2F988
331
2F85D
  5
2F85D
331
2F894
  5
2F894
331
2F7A8
  5
2F7A8
331
2F7E7
  5
2F7E7
331
2F81E
  5
2F81E
331
2F8DB
  5
2F8DB
331
2F9CF
  5
2F9CF
331
2FA06
  5
2FA06
331
2F8E3
  5
2F8E3
331
2F922
  5
2F922
331
2F865
  5
2F865
331
2F89C
  5
2F89C
331
2F961
  5
2F961
331
2F990
  5
2F990
331
2F7EF
  5
2F7EF
331
2F826
  5
2F826
331
2FCFD
  5
2FCFD
331
2FD0D
  5
2FD0D
331
2F998
  5
2F998
331
2F9D7
  5
2F9D7
331
2FA0E
  5
2FA0E
331
2FA16
  5
2FA16
331
2F9DF
  5
2F9DF
331
2FCE2
  5
2FCE2
331
2FCEA
  5
2FCEA
331
2FD03
  5
2FD03
331
2F6EB
  5
2F6EB
331
2F779
  5
2F779
331
2F70B
  5
2F70B
331
2F73A
  5
2F73A
331
2F781
  5
2F781
331
2F6F6
  5
2F6F6
331
2FCF4
  5
2FCF4
331
2F742
  5
2F742
331
2F6BE
  5
2F6BE
331
2F74A
  5
2F74A
331
2F789
  5
2F789
331
2F713
  5
2F713
331
2F752
  5
2F752
331
2F6D4
  5
2F6D4
331
2F7B0
  5
2F7B0
331
2F8EB
  5
2F8EB
331
2F92A
  5
2F92A
331
2F82E
  5
2F82E
331
2F86D
  5
2F86D
331
2F7B8
  5
2F7B8
331
2F7F7
  5
2F7F7
331
2F8A4
  5
2F8A4
331
2F969
  5
2F969
331
2F971
  5
2F971
331
2F9A0
  5
2F9A0
331
2F8AC
  5
2F8AC
331
2F8F3
  5
2F8F3
331
2F7FF
  5
2F7FF
331
2F836
  5
2F836
331
2F7C0
  5
2F7C0
331
2F875
  5
2F875
331
2F932
  5
2F932
331
2FA1E
  5
2FA1E
331
2FD35
  5
2FD3D
331
2F93A
  5
2F93A
331
2F979
  5
2F979
331
2F9A8
  5
2F9A8
331
2F87D
  5
2F87D
331
2F8B4
  5
2F8B4
331
2F807
  5
2F807
331
2F83E
  5
2F83E
331
2F8FB
  5
2F8FB
331
2F7C8
  5
2F7C8
331
2F9E7
  5
2F9E7
331
2F9EF
  5
2F9EF
331
2FA26
  5
2FA26
331
2F942
  5
2F942
331
2F8BC
  5
2F8BC
331
2F9B0
  5
2F9B0
331
2F846
  5
2F846
331
2FD45
  5
2FD4D
331
302FD
  5
2FD29
331
2F9B8
  5
2F9B8
331
2F9F7
  5
2F9F7
331
2FA2E
  5
2FA2E
331
2FA36
  5
2FA36
331
2FD3C
  5
2FD44
331
2F71B
  5
2F71B
331
2F75A
  5
2F75A
331
2FD14
  5
2FD14
331
2FD48
  5
30043
331
2F6DC
  5
2F6DC
331
2F6E4
  5
2F6E4
331
2F723
  5
2F723
331
2FD24
  5
2FD24
331
2CE3D
  5
2CE3D
331
2F762
  5
2F762
331
2F76A
  5
2F76A
331
2CE45
  5
2CE45
331
2F6FC
  5
2F6FC
331
2F72B
  5
2F72B
331
2F733
  5
2F733
331
2F772
  5
2F772
331
2CE4D
  5
2CE4D
331
2F704
  5
2F704
331
2F917
  5
2F917
331
2F7D0
  5
2F7D0
331
2F8D7
  5
2F8D7
331
2F791
  5
2F791
331
2F903
  5
2F903
331
2F94A
  5
2F94A
331
2F84E
  5
2F84E
331
2F885
  5
2F885
331
2F799
  5
2F799
331
2F7D8
  5
2F7D8
331
2F80F
  5
2F80F
331
2F8C4
  5
2F8C4
331
2F9C0
  5
2F9C0
331
2F8CC
  5
2F8CC
331
2F90B
  5
2F90B
331
2F817
  5
2F817
331
2F856
  5
2F856
331
2F7A1
  5
2F7A1
331
2F7E0
  5
2F7E0
331
2F88D
  5
2F88D
331
2F952
  5
2F952
331
2F981
  5
2F981
331
2F95A
  5
2F95A
331
2F989
  5
2F989
331
2F9C8
  5
2F9C8
331
2F8DC
  5
2F8DC
331
2F91B
  5
2F91B
331
2F9FF
  5
2F9FF
331
2F81F
  5
2F81F
331
2F85E
  5
2F85E
331
2F7A9
  5
2F7A9
331
2F7E8
  5
2F7E8
331
2F895
  5
2F895
331
2FA07
  5
2FA07
331
2FCFE
  5
2FCFE
331
2F962
  5
2F962
331
2F991
  5
2F991
331
2F9D0
  5
2F9D0
331
2F89D
  5
2F89D
331
2F8E4
  5
2F8E4
331
2F827
  5
2F827
331
2F866
  5
2F866
331
2F923
  5
2F923
331
2F9D8
  5
2F9D8
331
2FA0F
  5
2FA0F
331
2F999
  5
2F999
331
2FD0E
  5
2FD0E
331
2FA17
  5
2FA17
331
2FD2E
  5
2FD36
331
2FCDB
  5
2FCDB
331
2FCE3
  5
2FCE3
331
2FD04
  5
2FD04
331
2F6EC
  5
2F6EC
331
2F73B
  5
2F73B
331
2F77A
  5
2F77A
331
2F70C
  5
2F70C
331
2F6F7
  5
2F6F7
331
2FCF5
  5
2FCF5
331
2F743
  5
2F743
331
2F782
  5
2F782
331
2F78A
  5
2F78A
331
2F6BF
  5
2F6BF
331
2F714
  5
2F714
331
2F74B
  5
2F74B
331
2F753
  5
2F753
331
2F7F0
  5
2F7F0
331
2F7B1
  5
2F7B1
331
2F92B
  5
2F92B
331
2F96A
  5
2F96A
331
2F86E
  5
2F86E
331
2F8A5
  5
2F8A5
331
2F7B9
  5
2F7B9
331
2F7F8
  5
2F7F8
331
2F82F
  5
2F82F
331
2F8EC
  5
2F8EC
331
2F9E0
  5
2F9E0
331
2F8F4
  5
2F8F4
331
2F933
  5
2F933
331
2F876
  5
2F876
331
2F8AD
  5
2F8AD
331
2F972
  5
2F972
331
2F9A1
  5
2F9A1
331
2F7C1
  5
2F7C1
331
2F800
  5
2F800
331
2F837
  5
2F837
331
2FD36
  5
2FD3E
331
2F9A9
  5
2F9A9
331
2F9E8
  5
2F9E8
331
2FA1F
  5
2FA1F
331
2F8FC
  5
2F8FC
331
2F93B
  5
2F93B
331
2F83F
  5
2F83F
331
2F7C9
  5
2F7C9
331
2F87E
  5
2F87E
331
2F8B5
  5
2F8B5
331
2F97A
  5
2F97A
331
2FA27
  5
2FA27
331
2FD46
  5
2FD4E
331
2F9B1
  5
2F9B1
331
2F9F0
  5
2F9F0
331
2F8BD
  5
2F8BD
331
2F847
  5
2F847
331
2F943
  5
2F943
331
2FA2F
  5
2FA2F
331
2F9B9
  5
2F9B9
331
302FE
  5
2FD2A
331
2FA37
  5
2FA37
331
2FD3D
  5
2FD45
331
2FD1D
  5
2FD1D
331
2F75B
  5
2F75B
331
2FD15
  5
2FD15
331
1549A
  5
1549A
331
2F6DD
  5
2F6DD
331
2F71C
  5
2F71C
331
2F724
  5
2F724
331
2F763
  5
2F763
331
2FD25
  5
2FD25
331
2CE3E
  5
2CE3E
331
2F6E5
  5
2F6E5
331
2F910
  5
2F910
331
2F72C
  5
2F72C
331
2F76B
  5
2F76B
331
2CE46
  5
2CE46
331
2F6FD
  5
2F6FD
331
2F8D0
  5
2F8D0
331
2F705
  5
2F705
331
2F734
  5
2F734
331
2CE4E
  5
2CE4E
331
2F773
  5
2F773
331
2F808
  5
2F808
331
2F792
  5
2F792
331
2F7D1
  5
2F7D1
331
2F94B
  5
2F94B
331
2F886
  5
2F886
331
2F8C5
  5
2F8C5
331
2F810
  5
2F810
331
2F84F
  5
2F84F
331
2F904
  5
2F904
331
2F79A
  5
2F79A
331
2F7D9
  5
2F7D9
331
2F9F8
  5
2F9F8
331
2F953
  5
2F953
331
2F982
  5
2F982
331
2F9C1
  5
2F9C1
331
2F88E
  5
2F88E
331
2F8CD
  5
2F8CD
331
2F7E1
  5
2F7E1
331
2F818
  5
2F818
331
2F7A2
  5
2F7A2
331
2F857
  5
2F857
331
2F90C
  5
2F90C
331
2F9C9
  5
2F9C9
331
2FA00
  5
2FA00
331
2F91C
  5
2F91C
331
2F95B
  5
2F95B
331
2F98A
  5
2F98A
331
2F85F
  5
2F85F
331
2F896
  5
2F896
331
2F7AA
  5
2F7AA
331
2F7E9
  5
2F7E9
331
2F820
  5
2F820
331
2F8DD
  5
2F8DD
331
2F9D1
  5
2F9D1
331
2FA08
  5
2FA08
331
2F8E5
  5
2F8E5
331
2F924
  5
2F924
331
2F867
  5
2F867
331
2F89E
  5
2F89E
331
2F963
  5
2F963
331
2F992
  5
2F992
331
2FD0F
  5
2FD0F
331
2F99A
  5
2F99A
331
2F9D9
  5
2F9D9
331
2FA10
  5
2FA10
331
2FD2F
  5
2FD37
331
2F6ED
  5
2F6ED
331
2F77B
  5
2F77B
331
2F70D
  5
2F70D
331
2F73C
  5
2F73C
331
2F744
  5
2F744
331
2CF7E
  5
2CF7E
331
2F783
  5
2F783
331
2FCF6
  5
2FCF6
331
2F74C
  5
2F74C
331
2F78B
  5
2F78B
331
2F715
  5
2F715
331
2F754
  5
2F754
331
2F828
  5
2F828
331
2F7B2
  5
2F7B2
331
2F7F1
  5
2F7F1
331
2F96B
  5
2F96B
331
2F8ED
  5
2F8ED
331
2F830
  5
2F830
331
2F86F
  5
2F86F
331
2F7BA
  5
2F7BA
331
2F7F9
  5
2F7F9
331
2F8A6
  5
2F8A6
331
2FA18
  5
2FA18
331
2F973
  5
2F973
331
2F9A2
  5
2F9A2
331
2F9E1
  5
2F9E1
331
2F8AE
  5
2F8AE
331
2F8F5
  5
2F8F5
331
2F801
  5
2F801
331
2F838
  5
2F838
331
2F7C2
  5
2F7C2
331
2F877
  5
2F877
331
2F934
  5
2F934
331
2F9E9
  5
2F9E9
331
2FA20
  5
2FA20
331
2F93C
  5
2F93C
331
2F97B
  5
2F97B
331
2F9AA
  5
2F9AA
331
2FD37
  5
2FD3F
331
2F87F
  5
2F87F
331
2F8B6
  5
2F8B6
331
2F7CA
  5
2F7CA
331
2F840
  5
2F840
331
2F8FD
  5
2F8FD
331
2F9F1
  5
2F9F1
331
2FA28
  5
2FA28
331
2F944
  5
2F944
331
2F8BE
  5
2F8BE
331
2F9B2
  5
2F9B2
331
2FD47
  5
30040
331
302FF
  5
2FD2B
331
2F9BA
  5
2F9BA
331
2FA30
  5
2FA30
331
2FD3E
  5
2FD46
331
2FD1E
  5
2FD1E
331
2F6DE
  5
2F6DE
331
2F71D
  5
2F71D
331
2FD16
  5
2FD16
331
2FD4A
  5
30047
331
2F75C
  5
2F75C
331
2F6E6
  5
2F6E6
331
2F725
  5
2F725
331
2CE3F
  5
2CE3F
331
2F764
  5
2F764
331
2F76C
  5
2F76C
331
2F911
  5
2F911
331
2CE47
  5
2CE47
331
2F6FE
  5
2F6FE
331
2F72D
  5
2F72D
331
2F735
  5
2F735
331
2F774
  5
2F774
331
2CE4F
  5
2CE4F
331
2F706
  5
2F706
331
2F8D1
  5
2F8D1
331
2F7D2
  5
2F7D2
331
2F809
  5
2F809
331
2F793
  5
2F793
331
2F848
  5
2F848
331
2F905
  5
2F905
331
2F94C
  5
2F94C
331
2F850
  5
2F850
331
2F887
  5
2F887
331
2F79B
  5
2F79B
331
2F7DA
  5
2F7DA
331
2F811
  5
2F811
331
2F8C6
  5
2F8C6
331
2FA38
  5
2FA38
331
2F983
  5
2F983
331
2F9C2
  5
2F9C2
331
2F9F9
  5
2F9F9
331
2F8CE
  5
2F8CE
331
2F90D
  5
2F90D
331
2F819
  5
2F819
331
2F858
  5
2F858
331
2F7A3
  5
2F7A3
331
2F7E2
  5
2F7E2
331
2F88F
  5
2F88F
331
2F954
  5
2F954
331
2FCF8
  5
2FCF8
331
2F95C
  5
2F95C
331
2F98B
  5
2F98B
331
2F9CA
  5
2F9CA
331
2F897
  5
2F897
331
2F8DE
  5
2F8DE
331
2F821
  5
2F821
331
2F860
  5
2F860
331
2F91D
  5
2F91D
331
2F7AB
  5
2F7AB
331
2F7EA
  5
2F7EA
331
2FA01
  5
2FA01
331
2FA09
  5
2FA09
331
2F993
  5
2F993
331
2F89F
  5
2F89F
331
2F8E6
  5
2F8E6
331
2F9D2
  5
2F9D2
331
2F9DA
  5
2F9DA
331
2FA11
  5
2FA11
331
2F99B
  5
2F99B
331
2FD28
  5
2FD30
331
2FCED
  5
2FCED
331
2FD06
  5
2FD06
331
2F73D
  5
2F73D
331
2F77C
  5
2F77C
331
2F70E
  5
2F70E
331
2F745
  5
2F745
331
2FCF7
  5
2FCF7
331
2CF7F
  5
2CF7F
331
2F784
  5
2F784
331
2F78C
  5
2F78C
331
2F716
  5
2F716
331
2F74D
  5
2F74D
331
2F755
  5
2F755
331
2F7F2
  5
2F7F2
331
2F829
  5
2F829
331
2F7B3
  5
2F7B3
331
2F868
  5
2F868
331
2F96C
  5
2F96C
331
2F870
  5
2F870
331
2F8A7
  5
2F8A7
331
2F7BB
  5
2F7BB
331
2F7FA
  5
2F7FA
331
2F831
  5
2F831
331
2F8EE
  5
2F8EE
331
2FD30
  5
2FD38
331
2F9E2
  5
2F9E2
331
2FA19
  5
2FA19
331
2F8F6
  5
2F8F6
331
2F935
  5
2F935
331
2F839
  5
2F839
331
2F878
  5
2F878
331
2F7C3
  5
2F7C3
331
2F802
  5
2F802
331
2F8AF
  5
2F8AF
331
2F974
  5
2F974
331
2F9A3
  5
2F9A3
331
2FD40
  5
2FD48
331
2F97C
  5
2F97C
331
2F9AB
  5
2F9AB
331
2F8FE
  5
2F8FE
331
2F9EA
  5
2F9EA
331
2FA21
  5
2FA21
331
2F7CB
  5
2F7CB
331
2F8B7
  5
2F8B7
331
2FA29
  5
2FA29
331
2F9B3
  5
2F9B3
331
2F9F2
  5
2F9F2
331
2F8BF
  5
2F8BF
331
2F945
  5
2F945
331
2FA31
  5
2FA31
331
2F9BB
  5
2F9BB
331
2FD3F
  5
2FD47
331
2FD1F
  5
2FD1F
331
2F75D
  5
2F75D
331
2FD4B
  5
30048
331
2CE38
  5
2CE38
331
2F6DF
  5
2F6DF
331
2F71E
  5
2F71E
331
30301
  5
2FD2D
331
2F726
  5
2F726
331
2F765
  5
2F765
331
2FD27
  5
2FD2F
331
2F6E7
  5
2F6E7
331
2F912
  5
2F912
331
2F6FF
  5
2F6FF
331
2F72E
  5
2F72E
331
2CE48
  5
2CE48
331
2F76D
  5
2F76D
331
2F8D2
  5
2F8D2
331
2F707
  5
2F707
331
2F736
  5
2F736
331
2F775
  5
2F775
331
2F80A
  5
2F80A
331
2F849
  5
2F849
331
2F794
  5
2F794
331
2F7D3
  5
2F7D3
331
2F880
  5
2F880
331
2F94D
  5
2F94D
331
2F888
  5
2F888
331
2F8C7
  5
2F8C7
331
2F7DB
  5
2F7DB
331
2F812
  5
2F812
331
2F79C
  5
2F79C
331
2F851
  5
2F851
331
2F906
  5
2F906
331
2F9FA
  5
2F9FA
331
2FA39
  5
2FA39
331
2F90E
  5
2F90E
331
2F955
  5
2F955
331
2F984
  5
2F984
331
2F890
  5
2F890
331
2F8CF
  5
2F8CF
331
2F9C3
  5
2F9C3
331
2F7E3
  5
2F7E3
331
2F81A
  5
2F81A
331
2F7A4
  5
2F7A4
331
2F859
  5
2F859
331
2F9CB
  5
2F9CB
331
2FA02
  5
2FA02
331
2F91E
  5
2F91E
331
2F95D
  5
2F95D
331
2F98C
  5
2F98C
331
2FCF9
  5
2FCF9
331
2F861
  5
2F861
331
2F898
  5
2F898
331
2F7AC
  5
2F7AC
331
2F7EB
  5
2F7EB
331
2F822
  5
2F822
331
2F8DF
  5
2F8DF
331
2FD09
  5
2FD09
331
2F994
  5
2F994
331
2F8E7
  5
2F8E7
331
2F9D3
  5
2F9D3
331
2FA0A
  5
2FA0A
331
2FD29
  5
2FD31
331
2F99C
  5
2F99C
331
2F9DB
  5
2F9DB
331
2FA12
  5
2FA12
331
2FCDE
  5
2FCDE
331
2FCE6
  5
2FCE6
331
2FD07
  5
2FD07
331
2CE50
  5
2CE50
331
2F77D
  5
2F77D
331
2F6F2
  5
2F6F2
331
2F70F
  5
2F70F
331
2FCF0
  5
2FCF0
331
2F73E
  5
2F73E
331
2F746
  5
2F746
331
2CF80
  5
2CF80
331
2F785
  5
2F785
331
2F74E
  5
2F74E
331
2F78D
  5
2F78D
331
2F717
  5
2F717
331
2F756
  5
2F756
331
2F82A
  5
2F82A
331
2F869
  5
2F869
331
2F7B4
  5
2F7B4
331
2F7F3
  5
2F7F3
331
2F8A0
  5
2F8A0
331
2F96D
  5
2F96D
331
2F8A8
  5
2F8A8
331
2F8EF
  5
2F8EF
331
2F832
  5
2F832
331
2F871
  5
2F871
331
2F7BC
  5
2F7BC
331
2F7FB
  5
2F7FB
331
2FA1A
  5
2FA1A
331
2FD31
  5
2FD39
331
2F975
  5
2F975
331
2F9A4
  5
2F9A4
331
2F9E3
  5
2F9E3
331
2F8B0
  5
2F8B0
331
2F8F7
  5
2F8F7
331
2F803
  5
2F803
331
2F83A
  5
2F83A
331
2F7C4
  5
2F7C4
331
2F879
  5
2F879
331
2F936
  5
2F936
331
2F9EB
  5
2F9EB
331
2FA22
  5
2FA22
331
2F97D
  5
2F97D
331
2F9AC
  5
2F9AC
331
2FD41
  5
2FD49
331
2F8B8
  5
2F8B8
331
2F7CC
  5
2F7CC
331
2F842
  5
2F842
331
2F8FF
  5
2F8FF
331
2F9F3
  5
2F9F3
331
2FA2A
  5
2FA2A
331
2F946
  5
2F946
331
2F9B4
  5
2F9B4
331
2F9BC
  5
2F9BC
331
2FA32
  5
2FA32
331
2FD38
  5
2FD40
331
2FD18
  5
2FD18
331
2FD10
  5
2FD10
331
2F6E0
  5
2F6E0
331
2F71F
  5
2F71F
331
2FD20
  5
2FD20
331
2FD4C
  5
3004B
331
2CE39
  5
2CE39
331
2F75E
  5
2F75E
331
2F766
  5
2F766
331
2F6F8
  5
2F6F8
331
2F727
  5
2F727
331
30302
  5
2FD2E
331
2CE41
  5
2CE41
331
2F76E
  5
2F76E
331
2F913
  5
2F913
331
2CE49
  5
2CE49
331
2F700
  5
2F700
331
2F72F
  5
2F72F
331
2F737
  5
2F737
331
2F776
  5
2F776
331
2F8D3
  5
2F8D3
331
2F84A
  5
2F84A
331
2F881
  5
2F881
331
2F7D4
  5
2F7D4
331
2F80B
  5
2F80B
331
2F8C0
  5
2F8C0
331
2F795
  5
2F795
331
2F907
  5
2F907
331
2F94E
  5
2F94E
331
2F852
  5
2F852
331
2F889
  5
2F889
331
2F79D
  5
2F79D
331
2F7DC
  5
2F7DC
331
2F813
  5
2F813
331
2F8C8
  5
2F8C8
331
2FA3A
  5
2FA3A
331
2F985
  5
2F985
331
2F9C4
  5
2F9C4
331
2F9FB
  5
2F9FB
331
2F8D8
  5
2F8D8
331
2F90F
  5
2F90F
331
2F81B
  5
2F81B
331
2F85A
  5
2F85A
331
2F7A5
  5
2F7A5
331
2F7E4
  5
2F7E4
331
2F891
  5
2F891
331
2F956
  5
2F956
331
2FA03
  5
2FA03
331
2FCFA
  5
2FCFA
331
2F95E
  5
2F95E
331
2F98D
  5
2F98D
331
2F9CC
  5
2F9CC
331
2F899
  5
2F899
331
2F8E0
  5
2F8E0
331
2F7EC
  5
2F7EC
331
2F823
  5
2F823
331
2F7AD
  5
2F7AD
331
2F862
  5
2F862
331
2F91F
  5
2F91F
331
2FA0B
  5
2FA0B
331
2FD0A
  5
2FD0A
331
2F927
  5
2F927
331
2F995
  5
2F995
331
2F9D4
  5
2F9D4
331
2F9DC
  5
2F9DC
331
2FA13
  5
2FA13
331
2F99D
  5
2F99D
331
2FD2A
  5
2FD32
331
2FCE7
  5
2FCE7
331
2F6E8
  5
2F6E8
331
2F6C0
  5
2F6C0
331
2F708
  5
2F708
331
2F73F
  5
2F73F
331
2F77E
  5
2F77E
331
2F710
  5
2F710
331
2F747
  5
2F747
331
2F786
  5
2F786
331
2F78E
  5
2F78E
331
2F74F
  5
2F74F
331
2F757
  5
2F757
331
2F8A1
  5
2F8A1
331
2F8E8
  5
2F8E8
331
2F7F4
  5
2F7F4
331
2F82B
  5
2F82B
331
2F7B5
  5
2F7B5
331
2F86A
  5
2F86A
331
2F96E
  5
2F96E
331
2F872
  5
2F872
331
2F8A9
  5
2F8A9
331
2F7BD
  5
2F7BD
331
2F7FC
  5
2F7FC
331
2F833
  5
2F833
331
2F8F0
  5
2F8F0
331
2FD32
  5
2FD3A
331
2F9A5
  5
2F9A5
331
2F9E4
  5
2F9E4
331
2FA1B
  5
2FA1B
331
2F8F8
  5
2F8F8
331
2F937
  5
2F937
331
2F83B
  5
2F83B
331
2F87A
  5
2F87A
331
2F7C5
  5
2F7C5
331
2F804
  5
2F804
331
2F8B1
  5
2F8B1
331
2F976
  5
2F976
331
2FD42
  5
2FD4A
331
2F8B9
  5
2F8B9
331
2F97E
  5
2F97E
331
2F9AD
  5
2F9AD
331
2F843
  5
2F843
331
2F7CD
  5
2F7CD
331
2F9EC
  5
2F9EC
331
2FA23
  5
2FA23
331
2FA2B
  5
2FA2B
331
2F9B5
  5
2F9B5
331
2F9F4
  5
2F9F4
331
2F947
  5
2F947
331
2FA33
  5
2FA33
331
2F9BD
  5
2F9BD
331
2FD39
  5
2FD41
331
2FD19
  5
2FD19
331
2F6D9
  5
2F6D9
331
2F718
  5
2F718
331
2FD11
  5
2FD11
331
2F75F
  5
2F75F
331
2FD21
  5
2FD21
331
2FD4D
  5
3004C
331
2CE3A
  5
2CE3A
331
2F6E1
  5
2F6E1
331
2F720
  5
2F720
331
2F728
  5
2F728
331
2F767
  5
2F767
331
2CE42
  5
2CE42
331
2F6F9
  5
2F6F9
331
2F914
  5
2F914
331
2F701
  5
2F701
331
2F730
  5
2F730
331
2CE4A
  5
2CE4A
331
2F76F
  5
2F76F
331
2F777
  5
2F777
331
2F8D4
  5
2F8D4
331
2F8C1
  5
2F8C1
331
2F900
  5
2F900
331
2F80C
  5
2F80C
331
2F84B
  5
2F84B
331
2F796
  5
2F796
331
2F7D5
  5
2F7D5
331
2F882
  5
2F882
331
2F94F
  5
2F94F
331
2F88A
  5
2F88A
331
2F8C9
  5
2F8C9
331
2F7DD
  5
2F7DD
331
2F814
  5
2F814
331
2F79E
  5
2F79E
331
2F853
  5
2F853
331
2F908
  5
2F908
331
2F9FC
  5
2F9FC
331
2F918
  5
2F918
331
2F957
  5
2F957
331
2F986
  5
2F986
331
2F85B
  5
2F85B
331
2F892
  5
2F892
331
2F7E5
  5
2F7E5
331
2F81C
  5
2F81C
331
2F8D9
  5
2F8D9
331
2F7A6
  5
2F7A6
331
2F9C5
  5
2F9C5
331
2F9CD
  5
2F9CD
331
2FA04
  5
2FA04
331
2F920
  5
2F920
331
2F95F
  5
2F95F
331
2F98E
  5
2F98E
331
2FCFB
  5
2FCFB
331
2F863
  5
2F863
331
2F89A
  5
2F89A
331
2F7AE
  5
2F7AE
331
2F7ED
  5
2F7ED
331
2F824
  5
2F824
331
2F8E1
  5
2F8E1
331
2FD0B
  5
2FD0B
331
2F996
  5
2F996
331
2F9D5
  5
2F9D5
331
2FA0C
  5
2FA0C
331
2FA14
  5
2FA14
331
2FD2B
  5
2FD33
331
2F99E
  5
2F99E
331
2F9DD
  5
2F9DD
331
2FCE8
  5
2FCE8
331
2FD01
  5
2FD01
331
2F6E9
  5
2F6E9
331
2F709
  5
2F709
331
2F738
  5
2F738
331
2F6C1
  5
2F6C1
331
2CE52
  5
2CE52
331
2F77F
  5
2F77F
331
2F6F4
  5
2F6F4
331
2F740
  5
2F740
331
2F748
  5
2F748
331
2F787
  5
2F787
331
2F711
  5
2F711
331
2F750
  5
2F750
331
2F78F
  5
2F78F
331
2F8E9
  5
2F8E9
331
2F928
  5
2F928
331
2F82C
  5
2F82C
331
2F86B
  5
2F86B
331
2F7B6
  5
2F7B6
331
2F7F5
  5
2F7F5
331
2F8A2
  5
2F8A2
331
2F96F
  5
2F96F
331
2F8AA
  5
2F8AA
331
2F8F1
  5
2F8F1
331
2F7FD
  5
2F7FD
331
2F834
  5
2F834
331
2F7BE
  5
2F7BE
331
2F873
  5
2F873
331
2F930
  5
2F930
331
2FA1C
  5
2FA1C
331
2FD33
  5
2FD3B
331
2F938
  5
2F938
331
2F977
  5
2F977
331
2F9A6
  5
2F9A6
331
2F8B2
  5
2F8B2
331
2F8F9
  5
2F8F9
331
2F9E5
  5
2F9E5
331
2F805
  5
2F805
331
2F83C
  5
2F83C
331
2F7C6
  5
2F7C6
331
2F87B
  5
2F87B
331
2F9ED
  5
2F9ED
331
2FA24
  5
2FA24
331
2F8BA
  5
2F8BA
331
2F97F
  5
2F97F
331
2F9AE
  5
2F9AE
331
2F7CE
  5
2F7CE
331
2F844
  5
2F844
331
2FD43
  5
2FD4B
331
302FB
  5
2FD27
331
2F9B6
  5
2F9B6
331
2F9F5
  5
2F9F5
331
2FA2C
  5
2FA2C
331
2F9BE
  5
2F9BE
331
2FA34
  5
2FA34
  0
XRECORD
  5
31FC7
102
{ACAD_REACTORS
330
31FC6
102
}
330
31FC6
100
AcDbXrecord
280
     1
 40
6207437.0
  1
\pxql;排水栓　Rc3／4\P（膨張水・排水兼用）
  0
GROUP
  5
3917
102
{ACAD_REACTORS
330
D
102
}
330
D
100
AcDbGroup
300
SSE_Dim15
 70
     1
 71
     1
  0
GROUP
  5
14DF3
102
{ACAD_REACTORS
330
D
102
}
330
D
100
AcDbGroup
300

 70
     1
 71
     1
  0
GROUP
  5
14E80
102
{ACAD_REACTORS
330
D
102
}
330
D
100
AcDbGroup
300

 70
     1
 71
     1
  0
GROUP
  5
14E82
102
{ACAD_REACTORS
330
D
102
}
330
D
100
AcDbGroup
300

 70
     1
 71
     1
  0
GROUP
  5
17876
102
{ACAD_REACTORS
330
D
102
}
330
D
100
AcDbGroup
300

 70
     1
 71
     1
  0
GROUP
  5
3E2F
102
{ACAD_REACTORS
330
D
102
}
330
D
100
AcDbGroup
300

 70
     1
 71
     1
  0
GROUP
  5
14154
102
{ACAD_REACTORS
330
D
102
}
330
D
100
AcDbGroup
300

 70
     1
 71
     1
  0
GROUP
  5
14C46
102
{ACAD_REACTORS
330
D
102
}
330
D
100
AcDbGroup
300

 70
     1
 71
     1
  0
GROUP
  5
14C48
102
{ACAD_REACTORS
330
D
102
}
330
D
100
AcDbGroup
300

 70
     1
 71
     1
  0
GROUP
  5
14DF1
102
{ACAD_REACTORS
330
D
102
}
330
D
100
AcDbGroup
300

 70
     1
 71
     1
  0
LAYOUT
  5
36
102
{ACAD_REACTORS
330
34
102
}
330
34
100
AcDbPlotSettings
  1

  2
Docu3050② - 技術開発部 熱利用技術G（裏A4）.pc3
  4
A4
  6

 40
0.0
 41
0.0
 42
1.015670776367187
 43
1.010650634765625
 44
210.0156707763672
 45
297.0106506347656
 46
-0.0000000000000003
 47
0.2071428571428567
 48
-146.8466723106355
 49
-64.40253034048168
140
6384.6204135816
141
4550.539056607019
142
1.0
143
17.08133971291866
 70
 11956
 72
     1
 73
     0
 74
     2
  7
monochrome.ctb
 75
     0
147
0.0585434173669468
 76
     0
 77
     2
 78
   300
148
0.0
149
0.0
100
AcDbLayout
  1
Model
 70
     1
 71
     0
 10
0.0
 20
0.0
 11
12.0
 21
9.0
 12
0.0
 22
0.0
 32
0.0
 14
0.0
 24
0.0
 34
0.0
 15
0.0
 25
0.0
 35
0.0
146
0.0
 13
0.0
 23
0.0
 33
0.0
 16
1.0
 26
0.0
 36
0.0
 17
0.0
 27
1.0
 37
0.0
 76
     0
330
17
331
2EEB6
1001
ACAD_PSEXT
1000
Docu3050② - 技術開発部 熱利用技術G（裏A4）.pc3
1000
FX DocuPrint 3050
1000
192.168.3.90
1000

1070
     0
  0
LAYOUT
  5
37
102
{ACAD_REACTORS
330
34
102
}
330
34
100
AcDbPlotSettings
  1

  2
EPSON LP-8300C
  4

  6

 40
0.0
 41
0.0
 42
0.0
 43
0.0
 44
0.0
 45
0.0
 46
0.0
 47
0.0
 48
0.0
 49
0.0
140
0.0
141
0.0
142
1.0
143
1.0
 70
   688
 72
     0
 73
     0
 74
     5
  7
monochrome.ctb
 75
    16
147
1.0
 76
     0
 77
     2
 78
   300
148
0.0
149
0.0
100
AcDbLayout
  1
ﾚｲｱｳﾄ1
 70
     0
 71
     1
 10
0.0
 20
0.0
 11
12.0
 21
9.0
 12
0.0
 22
0.0
 32
0.0
 14
1.000000000000000E+20
 24
1.000000000000000E+20
 34
1.000000000000000E+20
 15
-1.000000000000000E+20
 25
-1.000000000000000E+20
 35
-1.000000000000000E+20
146
0.0
 13
0.0
 23
0.0
 33
0.0
 16
1.0
 26
0.0
 36
0.0
 17
0.0
 27
1.0
 37
0.0
 76
     0
330
14
  0
MATERIAL
  5
2EEC4
102
{ACAD_XDICTIONARY
360
2EEC5
102
}
102
{ACAD_REACTORS
330
2EEBB
102
}
330
2EEBB
100
AcDbMaterial
  1
ByBlock
 72
     0
 43
0.0208333333333333
 43
0.0
 43
0.0
 43
0.0
 43
0.0
 43
0.0208333333333333
 43
0.0
 43
0.0
 43
0.0
 43
0.0
 43
1.0
 43
0.0
 43
0.0
 43
0.0
 43
0.0
 43
1.0
 77
     0
 47
0.0208333333333333
 47
0.0
 47
0.0
 47
0.0
 47
0.0
 47
0.0208333333333333
 47
0.0
 47
0.0
 47
0.0
 47
0.0
 47
1.0
 47
0.0
 47
0.0
 47
0.0
 47
0.0
 47
1.0
171
     0
 49
0.0208333333333333
 49
0.0
 49
0.0
 49
0.0
 49
0.0
 49
0.0208333333333333
 49
0.0
 49
0.0
 49
0.0
 49
0.0
 49
1.0
 49
0.0
 49
0.0
 49
0.0
 49
0.0
 49
1.0
175
     0
142
0.0208333333333333
142
0.0
142
0.0
142
0.0
142
0.0
142
0.0208333333333333
142
0.0
142
0.0
142
0.0
142
0.0
142
1.0
142
0.0
142
0.0
142
0.0
142
0.0
142
1.0
179
     0
144
0.0208333333333333
144
0.0
144
0.0
144
0.0
144
0.0
144
0.0208333333333333
144
0.0
144
0.0
144
0.0
144
0.0
144
1.0
144
0.0
144
0.0
144
0.0
144
0.0
144
1.0
147
0.0208333333333333
147
0.0
147
0.0
147
0.0
147
0.0
147
0.0208333333333333
147
0.0
147
0.0
147
0.0
147
0.0
147
1.0
147
0.0
147
0.0
147
0.0
147
0.0
147
1.0
  0
MATERIAL
  5
2EEBC
102
{ACAD_XDICTIONARY
360
2EEBD
102
}
102
{ACAD_REACTORS
330
2EEBB
102
}
330
2EEBB
100
AcDbMaterial
  1
ByLayer
 72
     0
 43
0.0208333333333333
 43
0.0
 43
0.0
 43
0.0
 43
0.0
 43
0.0208333333333333
 43
0.0
 43
0.0
 43
0.0
 43
0.0
 43
1.0
 43
0.0
 43
0.0
 43
0.0
 43
0.0
 43
1.0
 77
     0
 47
0.0208333333333333
 47
0.0
 47
0.0
 47
0.0
 47
0.0
 47
0.0208333333333333
 47
0.0
 47
0.0
 47
0.0
 47
0.0
 47
1.0
 47
0.0
 47
0.0
 47
0.0
 47
0.0
 47
1.0
171
     0
 49
0.0208333333333333
 49
0.0
 49
0.0
 49
0.0
 49
0.0
 49
0.0208333333333333
 49
0.0
 49
0.0
 49
0.0
 49
0.0
 49
1.0
 49
0.0
 49
0.0
 49
0.0
 49
0.0
 49
1.0
175
     0
142
0.0208333333333333
142
0.0
142
0.0
142
0.0
142
0.0
142
0.0208333333333333
142
0.0
142
0.0
142
0.0
142
0.0
142
1.0
142
0.0
142
0.0
142
0.0
142
0.0
142
1.0
179
     0
144
0.0208333333333333
144
0.0
144
0.0
144
0.0
144
0.0
144
0.0208333333333333
144
0.0
144
0.0
144
0.0
144
0.0
144
1.0
144
0.0
144
0.0
144
0.0
144
0.0
144
1.0
147
0.0208333333333333
147
0.0
147
0.0
147
0.0
147
0.0
147
0.0208333333333333
147
0.0
147
0.0
147
0.0
147
0.0
147
1.0
147
0.0
147
0.0
147
0.0
147
0.0
147
1.0
  0
MATERIAL
  5
2EECC
102
{ACAD_XDICTIONARY
360
2EECD
102
}
102
{ACAD_REACTORS
330
2EEBB
102
}
330
2EEBB
100
AcDbMaterial
  1
Global
 72
     0
 43
0.0208333333333333
 43
0.0
 43
0.0
 43
0.0
 43
0.0
 43
0.0208333333333333
 43
0.0
 43
0.0
 43
0.0
 43
0.0
 43
1.0
 43
0.0
 43
0.0
 43
0.0
 43
0.0
 43
1.0
 77
     0
 47
0.0208333333333333
 47
0.0
 47
0.0
 47
0.0
 47
0.0
 47
0.0208333333333333
 47
0.0
 47
0.0
 47
0.0
 47
0.0
 47
1.0
 47
0.0
 47
0.0
 47
0.0
 47
0.0
 47
1.0
171
     0
 49
0.0208333333333333
 49
0.0
 49
0.0
 49
0.0
 49
0.0
 49
0.0208333333333333
 49
0.0
 49
0.0
 49
0.0
 49
0.0
 49
1.0
 49
0.0
 49
0.0
 49
0.0
 49
0.0
 49
1.0
175
     0
142
0.0208333333333333
142
0.0
142
0.0
142
0.0
142
0.0
142
0.0208333333333333
142
0.0
142
0.0
142
0.0
142
0.0
142
1.0
142
0.0
142
0.0
142
0.0
142
0.0
142
1.0
179
     0
144
0.0208333333333333
144
0.0
144
0.0
144
0.0
144
0.0
144
0.0208333333333333
144
0.0
144
0.0
144
0.0
144
0.0
144
1.0
144
0.0
144
0.0
144
0.0
144
0.0
144
1.0
147
0.0208333333333333
147
0.0
147
0.0
147
0.0
147
0.0
147
0.0208333333333333
147
0.0
147
0.0
147
0.0
147
0.0
147
1.0
147
0.0
147
0.0
147
0.0
147
0.0
147
1.0
  0
MLEADERSTYLE
  5
2EF0B
102
{ACAD_REACTORS
330
2EF0A
102
}
330
2EF0A
100
AcDbMLeaderStyle
170
     2
171
     1
172
     0
 90
        2
 40
0.0
 41
0.0
173
     1
 91
-1056964608
340
11
 92
       -2
290
     1
 42
2.0
291
     1
 43
0.36
  3
Standard
 44
4.0
300

342
F
174
     1
178
     6
175
     1
176
     0
 93
-1056964608
 45
4.0
292
     0
297
     0
 46
4.0
 94
-1056964608
 47
1.0
 49
1.0
140
1.0
293
     1
141
0.0
294
     1
177
     0
142
1.0
295
     0
296
     0
143
0.125
1001
ACAD_MLEADERVER
1070
     2
  0
MLINESTYLE
  5
1B
102
{ACAD_REACTORS
330
1A
102
}
330
1A
100
AcDbMlineStyle
  2
STANDARD
 70
     0
  3

 62
   256
 51
90.0
 52
90.0
 71
     2
 49
0.5
 62
   256
  6
BYLAYER
 49
-0.5
 62
   256
  6
BYLAYER
  0
ACDBPLACEHOLDER
  5
33
102
{ACAD_REACTORS
330
32
102
}
330
32
  0
SCALE
  5
2EEE9
102
{ACAD_REACTORS
330
2EEE8
102
}
330
2EEE8
100
AcDbScale
 70
     0
300
1:1
140
1.0
141
1.0
290
     1
  0
SCALE
  5
2EEEA
102
{ACAD_REACTORS
330
2EEE8
102
}
330
2EEE8
100
AcDbScale
 70
     0
300
1:2
140
1.0
141
2.0
290
     0
  0
SCALE
  5
2EEEB
102
{ACAD_REACTORS
330
2EEE8
102
}
330
2EEE8
100
AcDbScale
 70
     0
300
1:4
140
1.0
141
4.0
290
     0
  0
SCALE
  5
2EEEC
102
{ACAD_REACTORS
330
2EEE8
102
}
330
2EEE8
100
AcDbScale
 70
     0
300
1:5
140
1.0
141
5.0
290
     0
  0
SCALE
  5
2EEED
102
{ACAD_REACTORS
330
2EEE8
102
}
330
2EEE8
100
AcDbScale
 70
     0
300
1:8
140
1.0
141
8.0
290
     0
  0
SCALE
  5
2EEEE
102
{ACAD_REACTORS
330
2EEE8
102
}
330
2EEE8
100
AcDbScale
 70
     0
300
1:10
140
1.0
141
10.0
290
     0
  0
SCALE
  5
2EEEF
102
{ACAD_REACTORS
330
2EEE8
102
}
330
2EEE8
100
AcDbScale
 70
     0
300
1:16
140
1.0
141
16.0
290
     0
  0
SCALE
  5
2EEF0
102
{ACAD_REACTORS
330
2EEE8
102
}
330
2EEE8
100
AcDbScale
 70
     0
300
1:20
140
1.0
141
20.0
290
     0
  0
SCALE
  5
2EEF1
102
{ACAD_REACTORS
330
2EEE8
102
}
330
2EEE8
100
AcDbScale
 70
     0
300
1:30
140
1.0
141
30.0
290
     0
  0
SCALE
  5
2EEF2
102
{ACAD_REACTORS
330
2EEE8
102
}
330
2EEE8
100
AcDbScale
 70
     0
300
1:40
140
1.0
141
40.0
290
     0
  0
SCALE
  5
2EEF3
102
{ACAD_REACTORS
330
2EEE8
102
}
330
2EEE8
100
AcDbScale
 70
     0
300
1:50
140
1.0
141
50.0
290
     0
  0
SCALE
  5
2EEF4
102
{ACAD_REACTORS
330
2EEE8
102
}
330
2EEE8
100
AcDbScale
 70
     0
300
1:100
140
1.0
141
100.0
290
     0
  0
SCALE
  5
2EEF5
102
{ACAD_REACTORS
330
2EEE8
102
}
330
2EEE8
100
AcDbScale
 70
     0
300
2:1
140
2.0
141
1.0
290
     0
  0
SCALE
  5
2EEF6
102
{ACAD_REACTORS
330
2EEE8
102
}
330
2EEE8
100
AcDbScale
 70
     0
300
4:1
140
4.0
141
1.0
290
     0
  0
SCALE
  5
2EEF7
102
{ACAD_REACTORS
330
2EEE8
102
}
330
2EEE8
100
AcDbScale
 70
     0
300
8:1
140
8.0
141
1.0
290
     0
  0
SCALE
  5
2EEF8
102
{ACAD_REACTORS
330
2EEE8
102
}
330
2EEE8
100
AcDbScale
 70
     0
300
10:1
140
10.0
141
1.0
290
     0
  0
SCALE
  5
2EEF9
102
{ACAD_REACTORS
330
2EEE8
102
}
330
2EEE8
100
AcDbScale
 70
     0
300
100:1
140
100.0
141
1.0
290
     0
  0
SCALE
  5
2EEFA
102
{ACAD_REACTORS
330
2EEE8
102
}
330
2EEE8
100
AcDbScale
 70
     0
300
1/128" = 1'-0"
140
0.0078125
141
12.0
290
     0
  0
SCALE
  5
2EEFB
102
{ACAD_REACTORS
330
2EEE8
102
}
330
2EEE8
100
AcDbScale
 70
     0
300
1/64" = 1'-0"
140
0.015625
141
12.0
290
     0
  0
SCALE
  5
2EEFC
102
{ACAD_REACTORS
330
2EEE8
102
}
330
2EEE8
100
AcDbScale
 70
     0
300
1/32" = 1'-0"
140
0.03125
141
12.0
290
     0
  0
SCALE
  5
2EEFD
102
{ACAD_REACTORS
330
2EEE8
102
}
330
2EEE8
100
AcDbScale
 70
     0
300
1/16" = 1'-0"
140
0.0625
141
12.0
290
     0
  0
SCALE
  5
2EEFE
102
{ACAD_REACTORS
330
2EEE8
102
}
330
2EEE8
100
AcDbScale
 70
     0
300
3/32" = 1'-0"
140
0.09375
141
12.0
290
     0
  0
SCALE
  5
2EEFF
102
{ACAD_REACTORS
330
2EEE8
102
}
330
2EEE8
100
AcDbScale
 70
     0
300
1/8" = 1'-0"
140
0.125
141
12.0
290
     0
  0
SCALE
  5
2EF00
102
{ACAD_REACTORS
330
2EEE8
102
}
330
2EEE8
100
AcDbScale
 70
     0
300
3/16" = 1'-0"
140
0.1875
141
12.0
290
     0
  0
SCALE
  5
2EF01
102
{ACAD_REACTORS
330
2EEE8
102
}
330
2EEE8
100
AcDbScale
 70
     0
300
1/4" = 1'-0"
140
0.25
141
12.0
290
     0
  0
SCALE
  5
2EF02
102
{ACAD_REACTORS
330
2EEE8
102
}
330
2EEE8
100
AcDbScale
 70
     0
300
3/8" = 1'-0"
140
0.375
141
12.0
290
     0
  0
SCALE
  5
2EF03
102
{ACAD_REACTORS
330
2EEE8
102
}
330
2EEE8
100
AcDbScale
 70
     0
300
1/2" = 1'-0"
140
0.5
141
12.0
290
     0
  0
SCALE
  5
2EF04
102
{ACAD_REACTORS
330
2EEE8
102
}
330
2EEE8
100
AcDbScale
 70
     0
300
3/4" = 1'-0"
140
0.75
141
12.0
290
     0
  0
SCALE
  5
2EF05
102
{ACAD_REACTORS
330
2EEE8
102
}
330
2EEE8
100
AcDbScale
 70
     0
300
1" = 1'-0"
140
1.0
141
12.0
290
     0
  0
SCALE
  5
2EF06
102
{ACAD_REACTORS
330
2EEE8
102
}
330
2EEE8
100
AcDbScale
 70
     0
300
1-1/2" = 1'-0"
140
1.5
141
12.0
290
     0
  0
SCALE
  5
2EF07
102
{ACAD_REACTORS
330
2EEE8
102
}
330
2EEE8
100
AcDbScale
 70
     0
300
3" = 1'-0"
140
3.0
141
12.0
290
     0
  0
SCALE
  5
2EF08
102
{ACAD_REACTORS
330
2EEE8
102
}
330
2EEE8
100
AcDbScale
 70
     0
300
6" = 1'-0"
140
6.0
141
12.0
290
     0
  0
SCALE
  5
2EF09
102
{ACAD_REACTORS
330
2EEE8
102
}
330
2EEE8
100
AcDbScale
 70
     0
300
1'-0" = 1'-0"
140
12.0
141
12.0
290
     0
  0
TABLESTYLE
  5
2EEE7
102
{ACAD_XDICTIONARY
360
2EF1A
102
}
102
{ACAD_REACTORS
330
2EEE6
102
}
330
2EEE6
100
AcDbTableStyle
  3
Standard
 70
     0
 71
     0
 40
1.5
 41
1.5
280
     0
281
     0
  7
STANDARD
140
4.5
170
     2
 62
     0
 63
     7
283
     0
 90
      512
 91
        0
  1

274
    -2
284
     1
 64
     0
275
    -2
285
     1
 65
     0
276
    -2
286
     1
 66
     0
277
    -2
287
     1
 67
     0
278
    -2
288
     1
 68
     0
279
    -2
289
     1
 69
     0
  7
STANDARD
140
6.0
170
     5
 62
     0
 63
     7
283
     0
 90
      512
 91
        0
  1

274
    -2
284
     1
 64
     0
275
    -2
285
     1
 65
     0
276
    -2
286
     1
 66
     0
277
    -2
287
     1
 67
     0
278
    -2
288
     1
 68
     0
279
    -2
289
     1
 69
     0
  7
STANDARD
140
4.5
170
     5
 62
     0
 63
     7
283
     0
 90
      512
 91
        0
  1

274
    -2
284
     1
 64
     0
275
    -2
285
     1
 65
     0
276
    -2
286
     1
 66
     0
277
    -2
287
     1
 67
     0
278
    -2
288
     1
 68
     0
279
    -2
289
     1
 69
     0
  0
VISUALSTYLE
  5
2EEDA
102
{ACAD_REACTORS
330
2EED4
102
}
330
2EED4
100
AcDbVisualStyle
  2
2dWireframe
 70
     4
 71
     0
 72
     2
 73
     0
 90
        0
 40
-0.6
 41
-30.0
 62
     5
 63
     7
421
 16777215
 74
     1
 91
        4
 64
     7
 65
   257
 75
     1
175
     1
 42
1.0
 92
        0
 66
   257
 43
1.0
 76
     1
 77
     6
 78
     2
 67
     7
 79
     5
170
     0
171
     0
290
     0
174
     0
 93
        1
 44
0.0
173
     0
291
     0
 45
0.0
  0
VISUALSTYLE
  5
2EEDC
102
{ACAD_REACTORS
330
2EED4
102
}
330
2EED4
100
AcDbVisualStyle
  2
3D Hidden
 70
     6
 71
     1
 72
     2
 73
     2
 90
        0
 40
-0.6
 41
-30.0
 62
     5
 63
     7
421
 16777215
 74
     2
 91
        2
 64
     7
 65
   257
 75
     2
175
     1
 42
40.0
 92
        0
 66
   257
 43
1.0
 76
     1
 77
     6
 78
     2
 67
     7
 79
     3
170
     0
171
     0
290
     0
174
     0
 93
        1
 44
0.0
173
     0
291
     0
 45
0.0
  0
VISUALSTYLE
  5
2EEDB
102
{ACAD_REACTORS
330
2EED4
102
}
330
2EED4
100
AcDbVisualStyle
  2
3dWireframe
 70
     5
 71
     0
 72
     2
 73
     0
 90
        0
 40
-0.6
 41
-30.0
 62
     5
 63
     7
421
 16777215
 74
     1
 91
        4
 64
     7
 65
   257
 75
     1
175
     1
 42
1.0
 92
        0
 66
   257
 43
1.0
 76
     1
 77
     6
 78
     2
 67
     7
 79
     5
170
     0
171
     0
290
     0
174
     0
 93
        1
 44
0.0
173
     0
291
     0
 45
0.0
  0
VISUALSTYLE
  5
2EED9
102
{ACAD_REACTORS
330
2EED4
102
}
330
2EED4
100
AcDbVisualStyle
  2
Basic
 70
     7
 71
     1
 72
     0
 73
     1
 90
        0
 40
-0.6
 41
-30.0
 62
     5
 63
     7
421
 16777215
 74
     0
 91
        4
 64
     7
 65
   257
 75
     1
175
     1
 42
1.0
 92
        8
 66
     7
 43
1.0
 76
     1
 77
     6
 78
     2
 67
     7
 79
     5
170
     0
171
     0
290
     0
174
     0
 93
        1
 44
0.0
173
     0
291
     1
 45
0.0
  0
VISUALSTYLE
  5
2EEE0
102
{ACAD_REACTORS
330
2EED4
102
}
330
2EED4
100
AcDbVisualStyle
  2
Brighten
 70
    12
 71
     2
 72
     2
 73
     0
 90
        0
 40
-0.6
 41
-30.0
 62
     5
 63
     7
421
 16777215
 74
     1
 91
        4
 64
     7
 65
   257
 75
     1
175
     1
 42
1.0
 92
        8
 66
     7
 43
1.0
 76
     1
 77
     6
 78
     2
 67
     7
 79
     5
170
     0
171
     0
290
     0
174
     0
 93
        1
 44
50.0
173
     0
291
     1
 45
0.0
  0
VISUALSTYLE
  5
2EEE4
102
{ACAD_REACTORS
330
2EED4
102
}
330
2EED4
100
AcDbVisualStyle
  2
ColorChange
 70
    16
 71
     2
 72
     2
 73
     3
 90
        0
 40
-0.6
 41
-30.0
 62
     5
 63
     8
421
  8421504
 74
     1
 91
        4
 64
     7
 65
   257
 75
     1
175
     1
 42
1.0
 92
        8
 66
     8
424
  8421504
 43
1.0
 76
     1
 77
     6
 78
     2
 67
     7
 79
     5
170
     0
171
     0
290
     0
174
     0
 93
        1
 44
0.0
173
     0
291
     1
 45
0.0
  0
VISUALSTYLE
  5
2EEDD
102
{ACAD_REACTORS
330
2EED4
102
}
330
2EED4
100
AcDbVisualStyle
  2
Conceptual
 70
     9
 71
     3
 72
     2
 73
     0
 90
        0
 40
-0.6
 41
-30.0
 62
     5
 63
     7
421
 16777215
 74
     2
 91
        2
 64
     7
 65
   257
 75
     1
175
     1
 42
40.0
 92
        8
 66
     7
 43
1.0
 76
     1
 77
     6
 78
     2
 67
     7
 79
     3
170
     0
171
     0
290
     0
174
     0
 93
        1
 44
0.0
173
     0
291
     0
 45
0.0
  0
VISUALSTYLE
  5
2EEDF
102
{ACAD_REACTORS
330
2EED4
102
}
330
2EED4
100
AcDbVisualStyle
  2
Dim
 70
    11
 71
     2
 72
     2
 73
     0
 90
        0
 40
-0.6
 41
-30.0
 62
     5
 63
     7
421
 16777215
 74
     1
 91
        4
 64
     7
 65
   257
 75
     1
175
     1
 42
1.0
 92
        8
 66
     7
 43
1.0
 76
     1
 77
     6
 78
     2
 67
     7
 79
     5
170
     0
171
     0
290
     0
174
     0
 93
        1
 44
-50.0
173
     0
291
     1
 45
0.0
  0
VISUALSTYLE
  5
2EEE3
102
{ACAD_REACTORS
330
2EED4
102
}
330
2EED4
100
AcDbVisualStyle
  2
Facepattern
 70
    15
 71
     2
 72
     2
 73
     0
 90
        0
 40
-0.6
 41
-30.0
 62
     5
 63
     7
421
 16777215
 74
     1
 91
        4
 64
     7
 65
   257
 75
     1
175
     1
 42
1.0
 92
        8
 66
     7
 43
1.0
 76
     1
 77
     6
 78
     2
 67
     7
 79
     5
170
     0
171
     0
290
     0
174
     0
 93
        1
 44
0.0
173
     0
291
     1
 45
0.0
  0
VISUALSTYLE
  5
2EED5
102
{ACAD_REACTORS
330
2EED4
102
}
330
2EED4
100
AcDbVisualStyle
  2
Flat
 70
     0
 71
     2
 72
     1
 73
     1
 90
        2
 40
-0.6
 41
30.0
 62
     5
 63
     7
421
 16777215
 74
     0
 91
        4
 64
     7
 65
   257
 75
     1
175
     1
 42
1.0
 92
        8
 66
     7
 43
1.0
 76
     1
 77
     6
 78
     2
 67
     7
 79
     5
170
     0
171
     0
290
     0
174
     0
 93
       13
 44
0.0
173
     0
291
     1
 45
0.0
  0
VISUALSTYLE
  5
2EED6
102
{ACAD_REACTORS
330
2EED4
102
}
330
2EED4
100
AcDbVisualStyle
  2
FlatWithEdges
 70
     1
 71
     2
 72
     1
 73
     1
 90
        2
 40
-0.6
 41
30.0
 62
     5
 63
     7
421
 16777215
 74
     1
 91
        4
 64
     7
 65
   257
 75
     1
175
     1
 42
1.0
 92
        0
 66
   257
 43
1.0
 76
     1
 77
     6
 78
     2
 67
     7
 79
     5
170
     0
171
     0
290
     0
174
     0
 93
       13
 44
0.0
173
     0
291
     1
 45
0.0
  0
VISUALSTYLE
  5
2EED7
102
{ACAD_REACTORS
330
2EED4
102
}
330
2EED4
100
AcDbVisualStyle
  2
Gouraud
 70
     2
 71
     2
 72
     2
 73
     1
 90
        2
 40
-0.6
 41
30.0
 62
     5
 63
     7
421
 16777215
 74
     0
 91
        4
 64
     7
 65
   257
 75
     1
175
     1
 42
1.0
 92
        0
 66
     7
 43
1.0
 76
     1
 77
     6
 78
     2
 67
     7
 79
     5
170
     0
171
     0
290
     0
174
     0
 93
       13
 44
0.0
173
     0
291
     1
 45
0.0
  0
VISUALSTYLE
  5
2EED8
102
{ACAD_REACTORS
330
2EED4
102
}
330
2EED4
100
AcDbVisualStyle
  2
GouraudWithEdges
 70
     3
 71
     2
 72
     2
 73
     1
 90
        2
 40
-0.6
 41
30.0
 62
     5
 63
     7
421
 16777215
 74
     1
 91
        4
 64
     7
 65
   257
 75
     1
175
     1
 42
1.0
 92
        0
 66
   257
 43
1.0
 76
     1
 77
     6
 78
     2
 67
     7
 79
     5
170
     0
171
     0
290
     0
174
     0
 93
       13
 44
0.0
173
     0
291
     1
 45
0.0
  0
VISUALSTYLE
  5
2EEE2
102
{ACAD_REACTORS
330
2EED4
102
}
330
2EED4
100
AcDbVisualStyle
  2
Linepattern
 70
    14
 71
     2
 72
     2
 73
     0
 90
        0
 40
-0.6
 41
-30.0
 62
     5
 63
     7
421
 16777215
 74
     1
 91
        4
 64
     7
 65
   257
 75
     7
175
     7
 42
1.0
 92
        8
 66
     7
 43
1.0
 76
     1
 77
     6
 78
     2
 67
     7
 79
     5
170
     0
171
     0
290
     0
174
     0
 93
        1
 44
0.0
173
     0
291
     1
 45
0.0
  0
VISUALSTYLE
  5
2EEDE
102
{ACAD_REACTORS
330
2EED4
102
}
330
2EED4
100
AcDbVisualStyle
  2
Realistic
 70
     8
 71
     2
 72
     2
 73
     0
 90
        0
 40
-0.6
 41
-30.0
 62
     5
 63
     7
421
 16777215
 74
     1
 91
        0
 64
     7
 65
   257
 75
     1
175
     1
 42
1.0
 92
        8
 66
     8
424
  7895160
 43
1.0
 76
     1
 77
     6
 78
     2
 67
     7
 79
     5
170
     0
171
     0
290
     0
174
     0
 93
       13
 44
0.0
173
     0
291
     0
 45
0.0
  0
VISUALSTYLE
  5
2EEE1
102
{ACAD_REACTORS
330
2EED4
102
}
330
2EED4
100
AcDbVisualStyle
  2
Thicken
 70
    13
 71
     2
 72
     2
 73
     0
 90
        0
 40
-0.6
 41
-30.0
 62
     5
 63
     7
421
 16777215
 74
     1
 91
        4
 64
     7
 65
   257
 75
     1
175
     1
 42
1.0
 92
       12
 66
     7
 43
1.0
 76
     1
 77
     6
 78
     2
 67
     7
 79
     5
170
     0
171
     0
290
     0
174
     0
 93
        1
 44
0.0
173
     0
291
     1
 45
0.0
  0
DICTIONARYVAR
  5
2EF20
102
{ACAD_REACTORS
330
44
102
}
330
44
100
DictionaryVariables
280
     0
  1
1:1
  0
DICTIONARYVAR
  5
2EF1E
102
{ACAD_REACTORS
330
44
102
}
330
44
100
DictionaryVariables
280
     0
  1
STANDARD
  0
DICTIONARYVAR
  5
2EF1D
102
{ACAD_REACTORS
330
44
102
}
330
44
100
DictionaryVariables
280
     0
  1
STANDARD
  0
DICTIONARYVAR
  5
45
102
{ACAD_REACTORS
330
44
102
}
330
44
100
DictionaryVariables
280
     0
  1
1
  0
DICTIONARYVAR
  5
2EF21
102
{ACAD_REACTORS
330
44
102
}
330
44
100
DictionaryVariables
280
     0
  1
0
  0
DICTIONARYVAR
  5
2EF1F
102
{ACAD_REACTORS
330
44
102
}
330
44
100
DictionaryVariables
280
     0
  1
0
  0
DICTIONARYVAR
  5
6F8C
102
{ACAD_REACTORS
330
44
102
}
330
44
100
DictionaryVariables
280
     0
  1
96
  0
DICTIONARY
  5
2EEC5
330
2EEC4
100
AcDbDictionary
280
     1
281
     1
  3
BUMPTILE
360
2EEC7
  3
DIFFUSETILE
360
2EEC6
  3
OPACITYTILE
360
2EECA
  3
REFLECTIONTILE
360
2EEC9
  3
REFRACTIONTILE
360
2EECB
  3
SPECULARTILE
360
2EEC8
  0
DICTIONARY
  5
2EEBD
330
2EEBC
100
AcDbDictionary
280
     1
281
     1
  3
BUMPTILE
360
2EEBF
  3
DIFFUSETILE
360
2EEBE
  3
OPACITYTILE
360
2EEC2
  3
REFLECTIONTILE
360
2EEC1
  3
REFRACTIONTILE
360
2EEC3
  3
SPECULARTILE
360
2EEC0
  0
DICTIONARY
  5
2EECD
330
2EECC
100
AcDbDictionary
280
     1
281
     1
  3
BUMPTILE
360
2EECF
  3
DIFFUSETILE
360
2EECE
  3
OPACITYTILE
360
2EED2
  3
REFLECTIONTILE
360
2EED1
  3
REFRACTIONTILE
360
2EED3
  3
SPECULARTILE
360
2EED0
  0
DICTIONARY
  5
2EF1A
330
2EEE7
100
AcDbDictionary
280
     1
281
     1
  3
ACAD_ROUNDTRIP_2008_TABLESTYLE_CELLSTYLEMAP
360
31FC5
  0
XRECORD
  5
2EEC7
102
{ACAD_REACTORS
330
2EEC5
102
}
330
2EEC5
100
AcDbXrecord
280
     1
270
     1
271
     1
  0
XRECORD
  5
2EEC6
102
{ACAD_REACTORS
330
2EEC5
102
}
330
2EEC5
100
AcDbXrecord
280
     1
270
     1
271
     1
  0
XRECORD
  5
2EECA
102
{ACAD_REACTORS
330
2EEC5
102
}
330
2EEC5
100
AcDbXrecord
280
     1
270
     1
271
     1
  0
XRECORD
  5
2EEC9
102
{ACAD_REACTORS
330
2EEC5
102
}
330
2EEC5
100
AcDbXrecord
280
     1
270
     1
271
     1
  0
XRECORD
  5
2EECB
102
{ACAD_REACTORS
330
2EEC5
102
}
330
2EEC5
100
AcDbXrecord
280
     1
270
     1
271
     1
  0
XRECORD
  5
2EEC8
102
{ACAD_REACTORS
330
2EEC5
102
}
330
2EEC5
100
AcDbXrecord
280
     1
270
     1
271
     1
  0
XRECORD
  5
2EEBF
102
{ACAD_REACTORS
330
2EEBD
102
}
330
2EEBD
100
AcDbXrecord
280
     1
270
     1
271
     1
  0
XRECORD
  5
2EEBE
102
{ACAD_REACTORS
330
2EEBD
102
}
330
2EEBD
100
AcDbXrecord
280
     1
270
     1
271
     1
  0
XRECORD
  5
2EEC2
102
{ACAD_REACTORS
330
2EEBD
102
}
330
2EEBD
100
AcDbXrecord
280
     1
270
     1
271
     1
  0
XRECORD
  5
2EEC1
102
{ACAD_REACTORS
330
2EEBD
102
}
330
2EEBD
100
AcDbXrecord
280
     1
270
     1
271
     1
  0
XRECORD
  5
2EEC3
102
{ACAD_REACTORS
330
2EEBD
102
}
330
2EEBD
100
AcDbXrecord
280
     1
270
     1
271
     1
  0
XRECORD
  5
2EEC0
102
{ACAD_REACTORS
330
2EEBD
102
}
330
2EEBD
100
AcDbXrecord
280
     1
270
     1
271
     1
  0
XRECORD
  5
2EECF
102
{ACAD_REACTORS
330
2EECD
102
}
330
2EECD
100
AcDbXrecord
280
     1
270
     1
271
     1
  0
XRECORD
  5
2EECE
102
{ACAD_REACTORS
330
2EECD
102
}
330
2EECD
100
AcDbXrecord
280
     1
270
     1
271
     1
  0
XRECORD
  5
2EED2
102
{ACAD_REACTORS
330
2EECD
102
}
330
2EECD
100
AcDbXrecord
280
     1
270
     1
271
     1
  0
XRECORD
  5
2EED1
102
{ACAD_REACTORS
330
2EECD
102
}
330
2EECD
100
AcDbXrecord
280
     1
270
     1
271
     1
  0
XRECORD
  5
2EED3
102
{ACAD_REACTORS
330
2EECD
102
}
330
2EECD
100
AcDbXrecord
280
     1
270
     1
271
     1
  0
XRECORD
  5
2EED0
102
{ACAD_REACTORS
330
2EECD
102
}
330
2EECD
100
AcDbXrecord
280
     1
270
     1
271
     1
  0
CELLSTYLEMAP
  5
31FC5
102
{ACAD_REACTORS
330
2EF1A
102
}
330
2EF1A
100
AcDbCellStyleMap
 90
        3
300
CELLSTYLE
  1
TABLEFORMAT_BEGIN
 90
        5
170
     1
 91
        0
 92
    32768
 62
   257
 93
        1
300
CONTENTFORMAT
  1
CONTENTFORMAT_BEGIN
 90
        0
 91
        0
 92
      512
 93
        0
300

 40
0.0
140
1.0
 94
        5
 62
     0
340
F
144
6.0
309
CONTENTFORMAT_END
171
     1
301
MARGIN
  1
CELLMARGIN_BEGIN
 40
1.5
 40
1.5
 40
1.5
 40
1.5
 40
0.18
 40
0.18
309
CELLMARGIN_END
 94
        6
 95
        1
302
GRIDFORMAT
  1
GRIDFORMAT_BEGIN
 90
        0
 91
        1
 62
     0
 92
       -2
340
0
 93
        0
 40
1.125
309
GRIDFORMAT_END
 95
        2
302
GRIDFORMAT
  1
GRIDFORMAT_BEGIN
 90
        0
 91
        1
 62
     0
 92
       -2
340
0
 93
        0
 40
1.125
309
GRIDFORMAT_END
 95
        4
302
GRIDFORMAT
  1
GRIDFORMAT_BEGIN
 90
        0
 91
        1
 62
     0
 92
       -2
340
0
 93
        0
 40
1.125
309
GRIDFORMAT_END
 95
        8
302
GRIDFORMAT
  1
GRIDFORMAT_BEGIN
 90
        0
 91
        1
 62
     0
 92
       -2
340
0
 93
        0
 40
1.125
309
GRIDFORMAT_END
 95
       16
302
GRIDFORMAT
  1
GRIDFORMAT_BEGIN
 90
        0
 91
        1
 62
     0
 92
       -2
340
0
 93
        0
 40
1.125
309
GRIDFORMAT_END
 95
       32
302
GRIDFORMAT
  1
GRIDFORMAT_BEGIN
 90
        0
 91
        1
 62
     0
 92
       -2
340
0
 93
        0
 40
1.125
309
GRIDFORMAT_END
309
TABLEFORMAT_END
  1
CELLSTYLE_BEGIN
 90
        1
 91
        1
300
_TITLE
309
CELLSTYLE_END
300
CELLSTYLE
  1
TABLEFORMAT_BEGIN
 90
        5
170
     1
 91
        0
 92
        0
 62
   257
 93
        1
300
CONTENTFORMAT
  1
CONTENTFORMAT_BEGIN
 90
        0
 91
        0
 92
      512
 93
        0
300

 40
0.0
140
1.0
 94
        5
 62
     0
340
F
144
4.5
309
CONTENTFORMAT_END
171
     1
301
MARGIN
  1
CELLMARGIN_BEGIN
 40
1.5
 40
1.5
 40
1.5
 40
1.5
 40
0.18
 40
0.18
309
CELLMARGIN_END
 94
        6
 95
        1
302
GRIDFORMAT
  1
GRIDFORMAT_BEGIN
 90
        0
 91
        1
 62
     0
 92
       -2
340
0
 93
        0
 40
1.125
309
GRIDFORMAT_END
 95
        2
302
GRIDFORMAT
  1
GRIDFORMAT_BEGIN
 90
        0
 91
        1
 62
     0
 92
       -2
340
0
 93
        0
 40
1.125
309
GRIDFORMAT_END
 95
        4
302
GRIDFORMAT
  1
GRIDFORMAT_BEGIN
 90
        0
 91
        1
 62
     0
 92
       -2
340
0
 93
        0
 40
1.125
309
GRIDFORMAT_END
 95
        8
302
GRIDFORMAT
  1
GRIDFORMAT_BEGIN
 90
        0
 91
        1
 62
     0
 92
       -2
340
0
 93
        0
 40
1.125
309
GRIDFORMAT_END
 95
       16
302
GRIDFORMAT
  1
GRIDFORMAT_BEGIN
 90
        0
 91
        1
 62
     0
 92
       -2
340
0
 93
        0
 40
1.125
309
GRIDFORMAT_END
 95
       32
302
GRIDFORMAT
  1
GRIDFORMAT_BEGIN
 90
        0
 91
        1
 62
     0
 92
       -2
340
0
 93
        0
 40
1.125
309
GRIDFORMAT_END
309
TABLEFORMAT_END
  1
CELLSTYLE_BEGIN
 90
        2
 91
        1
300
_HEADER
309
CELLSTYLE_END
300
CELLSTYLE
  1
TABLEFORMAT_BEGIN
 90
        5
170
     1
 91
        0
 92
        0
 62
   257
 93
        1
300
CONTENTFORMAT
  1
CONTENTFORMAT_BEGIN
 90
        0
 91
        0
 92
      512
 93
        0
300

 40
0.0
140
1.0
 94
        2
 62
     0
340
F
144
4.5
309
CONTENTFORMAT_END
171
     1
301
MARGIN
  1
CELLMARGIN_BEGIN
 40
1.5
 40
1.5
 40
1.5
 40
1.5
 40
0.18
 40
0.18
309
CELLMARGIN_END
 94
        6
 95
        1
302
GRIDFORMAT
  1
GRIDFORMAT_BEGIN
 90
        0
 91
        1
 62
     0
 92
       -2
340
0
 93
        0
 40
1.125
309
GRIDFORMAT_END
 95
        2
302
GRIDFORMAT
  1
GRIDFORMAT_BEGIN
 90
        0
 91
        1
 62
     0
 92
       -2
340
0
 93
        0
 40
1.125
309
GRIDFORMAT_END
 95
        4
302
GRIDFORMAT
  1
GRIDFORMAT_BEGIN
 90
        0
 91
        1
 62
     0
 92
       -2
340
0
 93
        0
 40
1.125
309
GRIDFORMAT_END
 95
        8
302
GRIDFORMAT
  1
GRIDFORMAT_BEGIN
 90
        0
 91
        1
 62
     0
 92
       -2
340
0
 93
        0
 40
1.125
309
GRIDFORMAT_END
 95
       16
302
GRIDFORMAT
  1
GRIDFORMAT_BEGIN
 90
        0
 91
        1
 62
     0
 92
       -2
340
0
 93
        0
 40
1.125
309
GRIDFORMAT_END
 95
       32
302
GRIDFORMAT
  1
GRIDFORMAT_BEGIN
 90
        0
 91
        1
 62
     0
 92
       -2
340
0
 93
        0
 40
1.125
309
GRIDFORMAT_END
309
TABLEFORMAT_END
  1
CELLSTYLE_BEGIN
 90
        3
 91
        2
300
_DATA
309
CELLSTYLE_END
  0
ENDSEC
  0
EOF
