  0
SECTION
  2
HEADER
  9
$ACADVER
  1
AC1021
  9
$ACADMAINTVER
 70
    26
  9
$DWGCODEPAGE
  3
ANSI_932
  9
$LASTSAVEDBY
  1
yoshino
  9
$INSBASE
 10
0.0
 20
0.0
 30
0.0
  9
$EXTMIN
 10
-0.1088313771591132
 20
-0.1539186619845818
 30
-0.000000000000001
  9
$EXTMAX
 10
3570.109005942217
 20
5049.154165546848
 30
0.0000000000000142
  9
$LIMMIN
 10
0.0
 20
0.0
  9
$LIMMAX
 10
3570.0
 20
5049.0
  9
$ORTHOMODE
 70
     0
  9
$REGENMODE
 70
     1
  9
$FILLMODE
 70
     1
  9
$QTEXTMODE
 70
     0
  9
$MIRRTEXT
 70
     0
  9
$LTSCALE
 40
17.0
  9
$ATTMODE
 70
     1
  9
$TEXTSIZE
 40
16.0
  9
$TRACEWID
 40
0.05
  9
$TEXTSTYLE
  7
STANDARD
  9
$CLAYER
  8
0
  9
$CELTYPE
  6
BYLAYER
  9
$CECOLOR
 62
   256
  9
$CELTSCALE
 40
1.0
  9
$DISPSILH
 70
     0
  9
$DIMSCALE
 40
17.0
  9
$DIMASZ
 40
3.0
  9
$DIMEXO
 40
2.0
  9
$DIMDLI
 40
10.0
  9
$DIMRND
 40
0.0
  9
$DIMDLE
 40
0.0
  9
$DIMEXE
 40
2.0
  9
$DIMTP
 40
0.0
  9
$DIMTM
 40
0.0
  9
$DIMTXT
 40
3.2
  9
$DIMCEN
 40
0.09
  9
$DIMTSZ
 40
0.0
  9
$DIMTOL
 70
     0
  9
$DIMLIM
 70
     0
  9
$DIMTIH
 70
     0
  9
$DIMTOH
 70
     0
  9
$DIMSE1
 70
     0
  9
$DIMSE2
 70
     0
  9
$DIMTAD
 70
     1
  9
$DIMZIN
 70
     8
  9
$DIMBLK
  1
Open30
  9
$DIMASO
 70
     1
  9
$DIMSHO
 70
     0
  9
$DIMPOST
  1

  9
$DIMAPOST
  1

  9
$DIMALT
 70
     0
  9
$DIMALTD
 70
     2
  9
$DIMALTF
 40
25.4
  9
$DIMLFAC
 40
1.0
  9
$DIMTOFL
 70
     1
  9
$DIMTVP
 40
0.0
  9
$DIMTIX
 70
     0
  9
$DIMSOXD
 70
     0
  9
$DIMSAH
 70
     0
  9
$DIMBLK1
  1

  9
$DIMBLK2
  1

  9
$DIMSTYLE
  2
STANDARD
  9
$DIMCLRD
 70
     0
  9
$DIMCLRE
 70
     0
  9
$DIMCLRT
 70
     0
  9
$DIMTFAC
 40
1.0
  9
$DIMGAP
 40
0.9999999999999996
  9
$DIMJUST
 70
     0
  9
$DIMSD1
 70
     0
  9
$DIMSD2
 70
     0
  9
$DIMTOLJ
 70
     1
  9
$DIMTZIN
 70
     0
  9
$DIMALTZ
 70
     0
  9
$DIMALTTZ
 70
     0
  9
$DIMUPT
 70
     0
  9
$DIMDEC
 70
     2
  9
$DIMTDEC
 70
     2
  9
$DIMALTU
 70
     2
  9
$DIMALTTD
 70
     2
  9
$DIMTXSTY
  7
STANDARD
  9
$DIMAUNIT
 70
     0
  9
$DIMADEC
 70
     4
  9
$DIMALTRND
 40
0.0
  9
$DIMAZIN
 70
     2
  9
$DIMDSEP
 70
    46
  9
$DIMATFIT
 70
     3
  9
$DIMFRAC
 70
     0
  9
$DIMLDRBLK
  1
Open30
  9
$DIMLUNIT
 70
     2
  9
$DIMLWD
 70
    -2
  9
$DIMLWE
 70
    -2
  9
$DIMTMOVE
 70
     0
  9
$DIMFXL
 40
1.0
  9
$DIMFXLON
 70
     0
  9
$DIMJOGANG
 40
0.7853981633974483
  9
$DIMTFILL
 70
     0
  9
$DIMTFILLCLR
 70
     0
  9
$DIMARCSYM
 70
     0
  9
$DIMLTYPE
  6

  9
$DIMLTEX1
  6

  9
$DIMLTEX2
  6

  9
$LUNITS
 70
     2
  9
$LUPREC
 70
     2
  9
$SKETCHINC
 40
0.1
  9
$FILLETRAD
 40
20.0
  9
$AUNITS
 70
     0
  9
$AUPREC
 70
     2
  9
$MENU
  1
dash
  9
$ELEVATION
 40
0.0
  9
$PELEVATION
 40
0.0
  9
$THICKNESS
 40
0.0
  9
$LIMCHECK
 70
     0
  9
$CHAMFERA
 40
0.0
  9
$CHAMFERB
 40
0.0
  9
$CHAMFERC
 40
0.0
  9
$CHAMFERD
 40
0.0
  9
$SKPOLY
 70
     0
  9
$TDCREATE
 40
2453136.600744352
  9
$TDUCREATE
 40
2453136.225744352
  9
$TDUPDATE
 40
2454838.816246019
  9
$TDUUPDATE
 40
2454838.441246019
  9
$TDINDWG
 40
7.0776423032
  9
$TDUSRTIMER
 40
7.0776404861
  9
$USRTIMER
 70
     1
  9
$ANGBASE
 50
0.0
  9
$ANGDIR
 70
     0
  9
$PDMODE
 70
    35
  9
$PDSIZE
 40
1.0
  9
$PLINEWID
 40
0.0
  9
$SPLFRAME
 70
     0
  9
$SPLINETYPE
 70
     6
  9
$SPLINESEGS
 70
     8
  9
$HANDSEED
  5
2CF26
  9
$SURFTAB1
 70
     6
  9
$SURFTAB2
 70
     6
  9
$SURFTYPE
 70
     6
  9
$SURFU
 70
     6
  9
$SURFV
 70
     6
  9
$UCSBASE
  2

  9
$UCSNAME
  2

  9
$UCSORG
 10
0.0
 20
0.0
 30
0.0
  9
$UCSXDIR
 10
1.0
 20
0.0
 30
0.0
  9
$UCSYDIR
 10
0.0
 20
1.0
 30
0.0
  9
$UCSORTHOREF
  2

  9
$UCSORTHOVIEW
 70
     0
  9
$UCSORGTOP
 10
0.0
 20
0.0
 30
0.0
  9
$UCSORGBOTTOM
 10
0.0
 20
0.0
 30
0.0
  9
$UCSORGLEFT
 10
0.0
 20
0.0
 30
0.0
  9
$UCSORGRIGHT
 10
0.0
 20
0.0
 30
0.0
  9
$UCSORGFRONT
 10
0.0
 20
0.0
 30
0.0
  9
$UCSORGBACK
 10
0.0
 20
0.0
 30
0.0
  9
$PUCSBASE
  2

  9
$PUCSNAME
  2

  9
$PUCSORG
 10
0.0
 20
0.0
 30
0.0
  9
$PUCSXDIR
 10
1.0
 20
0.0
 30
0.0
  9
$PUCSYDIR
 10
0.0
 20
1.0
 30
0.0
  9
$PUCSORTHOREF
  2

  9
$PUCSORTHOVIEW
 70
     0
  9
$PUCSORGTOP
 10
0.0
 20
0.0
 30
0.0
  9
$PUCSORGBOTTOM
 10
0.0
 20
0.0
 30
0.0
  9
$PUCSORGLEFT
 10
0.0
 20
0.0
 30
0.0
  9
$PUCSORGRIGHT
 10
0.0
 20
0.0
 30
0.0
  9
$PUCSORGFRONT
 10
0.0
 20
0.0
 30
0.0
  9
$PUCSORGBACK
 10
0.0
 20
0.0
 30
0.0
  9
$USERI1
 70
     0
  9
$USERI2
 70
     0
  9
$USERI3
 70
     0
  9
$USERI4
 70
     0
  9
$USERI5
 70
     0
  9
$USERR1
 40
0.0
  9
$USERR2
 40
3.2
  9
$USERR3
 40
0.0
  9
$USERR4
 40
0.0
  9
$USERR5
 40
0.0
  9
$WORLDVIEW
 70
     1
  9
$SHADEDGE
 70
     3
  9
$SHADEDIF
 70
    70
  9
$TILEMODE
 70
     1
  9
$MAXACTVP
 70
    48
  9
$PINSBASE
 10
0.0
 20
0.0
 30
0.0
  9
$PLIMCHECK
 70
     0
  9
$PEXTMIN
 10
1.000000000000000E+20
 20
1.000000000000000E+20
 30
1.000000000000000E+20
  9
$PEXTMAX
 10
-1.000000000000000E+20
 20
-1.000000000000000E+20
 30
-1.000000000000000E+20
  9
$PLIMMIN
 10
0.0
 20
0.0
  9
$PLIMMAX
 10
12.0
 20
9.0
  9
$UNITMODE
 70
     0
  9
$VISRETAIN
 70
     0
  9
$PLINEGEN
 70
     0
  9
$PSLTSCALE
 70
     0
  9
$TREEDEPTH
 70
  3020
  9
$CMLSTYLE
  2
STANDARD
  9
$CMLJUST
 70
     0
  9
$CMLSCALE
 40
1.0
  9
$PROXYGRAPHICS
 70
     1
  9
$MEASUREMENT
 70
     1
  9
$CELWEIGHT
370
    -1
  9
$ENDCAPS
280
     0
  9
$JOINSTYLE
280
     0
  9
$LWDISPLAY
290
     0
  9
$INSUNITS
 70
     0
  9
$HYPERLINKBASE
  1

  9
$STYLESHEET
  1
monochrome.ctb
  9
$XEDIT
290
     1
  9
$CEPSNTYPE
380
     0
  9
$PSTYLEMODE
290
     1
  9
$FINGERPRINTGUID
  2
{F2A97C53-EF7E-49C1-956A-0F2CE1E6DF2C}
  9
$VERSIONGUID
  2
{3C947C1A-5354-4630-859A-7528306063C8}
  9
$EXTNAMES
290
     1
  9
$PSVPSCALE
 40
0.0
  9
$OLESTARTUP
290
     0
  9
$SORTENTS
280
    96
  9
$INDEXCTL
280
     0
  9
$HIDETEXT
280
     0
  9
$XCLIPFRAME
290
     0
  9
$HALOGAP
280
     0
  9
$OBSCOLOR
 70
   257
  9
$OBSLTYPE
280
     0
  9
$INTERSECTIONDISPLAY
280
     0
  9
$INTERSECTIONCOLOR
 70
   257
  9
$DIMASSOC
280
     1
  9
$PROJECTNAME
  1

  9
$CAMERADISPLAY
290
     0
  9
$LENSLENGTH
 40
50.0
  9
$CAMERAHEIGHT
 40
0.0
  9
$STEPSPERSEC
 40
2.0
  9
$STEPSIZE
 40
6.0
  9
$3DDWFPREC
 40
2.0
  9
$PSOLWIDTH
 40
0.25
  9
$PSOLHEIGHT
 40
4.0
  9
$LOFTANG1
 40
1.570796326794896
  9
$LOFTANG2
 40
1.570796326794896
  9
$LOFTMAG1
 40
0.0
  9
$LOFTMAG2
 40
0.0
  9
$LOFTPARAM
 70
     7
  9
$LOFTNORMALS
280
     1
  9
$LATITUDE
 40
37.795
  9
$LONGITUDE
 40
-122.394
  9
$NORTHDIRECTION
 40
0.0
  9
$TIMEZONE
 70
 -8000
  9
$LIGHTGLYPHDISPLAY
280
     1
  9
$TILEMODELIGHTSYNCH
280
     1
  9
$CMATERIAL
347
2AC48
  9
$SOLIDHIST
280
     1
  9
$SHOWHIST
280
     1
  9
$DWFFRAME
280
     2
  9
$DGNFRAME
280
     0
  9
$REALWORLDSCALE
290
     1
  9
$INTERFERECOLOR
 62
     1
  9
$INTERFEREOBJVS
345
2AC6A
  9
$INTERFEREVPVS
346
2AC67
  9
$CSHADOW
280
     0
  9
$SHADOWPLANELOCATION
 40
0.0
  0
ENDSEC
  0
SECTION
  2
CLASSES
  0
CLASS
  1
ACDBDICTIONARYWDFLT
  2
AcDbDictionaryWithDefault
  3
ObjectDBX Classes
 90
        0
 91
        1
280
     0
281
     0
  0
CLASS
  1
DICTIONARYVAR
  2
AcDbDictionaryVar
  3
ObjectDBX Classes
 90
        0
 91
        7
280
     0
281
     0
  0
CLASS
  1
MATERIAL
  2
AcDbMaterial
  3
ObjectDBX Classes
 90
     1153
 91
        3
280
     0
281
     0
  0
CLASS
  1
VISUALSTYLE
  2
AcDbVisualStyle
  3
ObjectDBX Classes
 90
     4095
 91
       16
280
     0
281
     0
  0
CLASS
  1
TABLESTYLE
  2
AcDbTableStyle
  3
ObjectDBX Classes
 90
     4095
 91
        1
280
     0
281
     0
  0
CLASS
  1
SCALE
  2
AcDbScale
  3
ObjectDBX Classes
 90
     1153
 91
       33
280
     0
281
     0
  0
CLASS
  1
MLEADERSTYLE
  2
AcDbMLeaderStyle
  3
ACDB_MLEADERSTYLE_CLASS
 90
     4095
 91
        1
280
     0
281
     0
  0
CLASS
  1
CELLSTYLEMAP
  2
AcDbCellStyleMap
  3
ObjectDBX Classes
 90
     1152
 91
        2
280
     0
281
     0
  0
CLASS
  1
SORTENTSTABLE
  2
AcDbSortentsTable
  3
ObjectDBX Classes
 90
        0
 91
        1
280
     0
281
     0
  0
ENDSEC
  0
SECTION
  2
TABLES
  0
TABLE
  2
VPORT
  5
8
330
0
100
AcDbSymbolTable
 70
     1
  0
VPORT
  5
2AC42
330
8
100
AcDbSymbolTableRecord
100
AcDbViewportTableRecord
  2
*Active
 70
     0
 10
0.0
 20
0.0
 11
1.0
 21
1.0
 12
1785.000087282529
 22
2524.500123442432
 13
0.0
 23
0.0
 14
1.0
 24
1.0
 15
0.0
 25
0.0
 16
0.0
 26
0.0
 36
1.0
 17
0.0
 27
0.0
 37
0.0
 40
5089.066415580556
 41
1.565045992115637
 42
50.0
 43
0.0
 44
0.0
 50
0.0
 51
0.0
 71
     0
 72
  2000
 73
     1
 74
     3
 75
     0
 76
     0
 77
     0
 78
     0
281
     0
 65
     1
110
0.0
120
0.0
130
0.0
111
1.0
121
0.0
131
0.0
112
0.0
122
1.0
132
0.0
 79
     0
146
0.0
348
2AC66
 60
     3
 61
     5
292
     1
282
     1
141
0.0
142
0.0
 63
   250
421
  3355443
  0
ENDTAB
  0
TABLE
  2
LTYPE
  5
5
330
0
100
AcDbSymbolTable
 70
     3
  0
LTYPE
  5
11
330
5
100
AcDbSymbolTableRecord
100
AcDbLinetypeTableRecord
  2
BYBLOCK
 70
     0
  3

 72
    65
 73
     0
 40
0.0
  0
LTYPE
  5
12
330
5
100
AcDbSymbolTableRecord
100
AcDbLinetypeTableRecord
  2
BYLAYER
 70
     0
  3

 72
    65
 73
     0
 40
0.0
  0
LTYPE
  5
13
330
5
100
AcDbSymbolTableRecord
100
AcDbLinetypeTableRecord
  2
CONTINUOUS
 70
     0
  3
Solid line
 72
    65
 73
     0
 40
0.0
  0
LTYPE
  5
1C
330
5
100
AcDbSymbolTableRecord
100
AcDbLinetypeTableRecord
  2
DASHED
 70
     0
  3
__ __ __ __ __ __ __ __ __ __ __ __ __ __ __
 72
    65
 73
     2
 40
3.0
 49
2.0
 74
     0
 49
-1.0
 74
     0
  0
LTYPE
  5
1D
330
5
100
AcDbSymbolTableRecord
100
AcDbLinetypeTableRecord
  2
CENTER
 70
     0
  3
____ _ ____ _ ____ _ ____ _ ____ _ ____ _ ____
 72
    65
 73
     4
 40
12.0
 49
9.0
 74
     0
 49
-1.0
 74
     0
 49
1.0
 74
     0
 49
-1.0
 74
     0
  0
ENDTAB
  0
TABLE
  2
LAYER
  5
2
102
{ACAD_XDICTIONARY
360
299D4
102
}
330
0
100
AcDbSymbolTable
 70
     7
  0
LAYER
  5
E
102
{ACAD_XDICTIONARY
360
2AC9A
102
}
330
2
100
AcDbSymbolTableRecord
100
AcDbLayerTableRecord
  2
0
 70
     0
 62
     3
  6
CONTINUOUS
370
    25
390
33
347
2AC58
  0
LAYER
  5
21
102
{ACAD_XDICTIONARY
360
2AC9C
102
}
330
2
100
AcDbSymbolTableRecord
100
AcDbLayerTableRecord
  2
CEN
 70
     0
 62
     4
  6
CENTER
370
    18
390
33
347
2AC58
  0
LAYER
  5
22
102
{ACAD_XDICTIONARY
360
2AC9E
102
}
330
2
100
AcDbSymbolTableRecord
100
AcDbLayerTableRecord
  2
HID
 70
     0
 62
     2
  6
DASHED
370
    18
390
33
347
2AC58
  0
LAYER
  5
23
102
{ACAD_XDICTIONARY
360
2ACA0
102
}
330
2
100
AcDbSymbolTableRecord
100
AcDbLayerTableRecord
  2
DIM
 70
     0
 62
     7
  6
CONTINUOUS
370
    18
390
33
347
2AC58
  0
LAYER
  5
24
102
{ACAD_XDICTIONARY
360
2ACA2
102
}
330
2
100
AcDbSymbolTableRecord
100
AcDbLayerTableRecord
  2
WAKU
 70
     0
 62
     3
  6
CONTINUOUS
370
    25
390
33
347
2AC58
  0
LAYER
  5
27
102
{ACAD_XDICTIONARY
360
2ACA4
102
}
330
2
100
AcDbSymbolTableRecord
100
AcDbLayerTableRecord
  2
DIMTEXT
 70
     0
 62
     7
  6
CONTINUOUS
370
    18
390
33
347
2AC58
  0
LAYER
  5
42A
330
2
100
AcDbSymbolTableRecord
100
AcDbLayerTableRecord
  2
Defpoints
 70
     0
 62
     7
  6
CONTINUOUS
290
     0
370
    -3
390
33
347
2AC58
  0
ENDTAB
  0
TABLE
  2
STYLE
  5
3
330
0
100
AcDbSymbolTable
 70
     1
  0
STYLE
  5
F
330
3
100
AcDbSymbolTableRecord
100
AcDbTextStyleTableRecord
  2
STANDARD
 70
     0
 40
0.0
 41
0.8
 50
0.0
 71
     0
 42
16.0
  3
sse
  4
bigfont
  0
ENDTAB
  0
TABLE
  2
VIEW
  5
6
330
0
100
AcDbSymbolTable
 70
     0
  0
ENDTAB
  0
TABLE
  2
UCS
  5
7
330
0
100
AcDbSymbolTable
 70
     0
  0
ENDTAB
  0
TABLE
  2
APPID
  5
9
330
0
100
AcDbSymbolTable
 70
    14
  0
APPID
  5
10
330
9
100
AcDbSymbolTableRecord
100
AcDbRegAppTableRecord
  2
ACAD
 70
     0
  0
APPID
  5
91
330
9
100
AcDbSymbolTableRecord
100
AcDbRegAppTableRecord
  2
SSE
 70
     0
  0
APPID
  5
92
330
9
100
AcDbSymbolTableRecord
100
AcDbRegAppTableRecord
  2
SSE_DIMTEXT
 70
     0
  0
APPID
  5
6B32
330
9
100
AcDbSymbolTableRecord
100
AcDbRegAppTableRecord
  2
GENIUS_GENODEF_13
 70
     0
  0
APPID
  5
6B33
330
9
100
AcDbSymbolTableRecord
100
AcDbRegAppTableRecord
  2
GENIUS_GENOBJ-N-CEN_13
 70
     0
  0
APPID
  5
6B34
330
9
100
AcDbSymbolTableRecord
100
AcDbRegAppTableRecord
  2
GENIUS_GENOBJ-N-FIL_13
 70
     0
  0
APPID
  5
B60B
330
9
100
AcDbSymbolTableRecord
100
AcDbRegAppTableRecord
  2
SSE_BALOON
 70
     0
  0
APPID
  5
1414F
330
9
100
AcDbSymbolTableRecord
100
AcDbRegAppTableRecord
  2
TYP
 70
     0
  0
APPID
  5
14150
330
9
100
AcDbSymbolTableRecord
100
AcDbRegAppTableRecord
  2
BNO
 70
     0
  0
APPID
  5
14151
330
9
100
AcDbSymbolTableRecord
100
AcDbRegAppTableRecord
  2
BLN
 70
     0
  0
APPID
  5
14152
330
9
100
AcDbSymbolTableRecord
100
AcDbRegAppTableRecord
  2
ETC
 70
     0
  0
APPID
  5
14153
330
9
100
AcDbSymbolTableRecord
100
AcDbRegAppTableRecord
  2
DEF
 70
     0
  0
APPID
  5
2AC98
330
9
100
AcDbSymbolTableRecord
100
AcDbRegAppTableRecord
  2
ACAD_MLEADERVER
 70
     0
  0
APPID
  5
2AD3F
330
9
100
AcDbSymbolTableRecord
100
AcDbRegAppTableRecord
  2
ACAD_PSEXT
 70
     0
  0
ENDTAB
  0
TABLE
  2
DIMSTYLE
  5
A
330
0
100
AcDbSymbolTable
 70
     1
100
AcDbDimStyleTable
 71
     1
340
2C
  0
DIMSTYLE
105
2C
102
{ACAD_REACTORS
330
2B6B8
330
2B6BC
330
2B6C4
330
2B6D0
330
2B6C8
330
2B6CC
330
2AF80
330
2AF7E
330
2AF7C
330
2B6AD
330
2B6AF
330
2B6B4
330
2B6D5
330
2B6B3
330
2B6B2
330
2B6D4
330
2B6A9
330
2B6AB
330
2B6AC
330
2B6AA
330
2B6B7
330
2B6B5
330
2B6B0
330
2B6B1
330
2B6AE
330
2B6B6
330
2AF7F
330
2B069
330
2B068
330
2B09B
330
2B099
330
2B098
330
2B09A
102
}
330
A
100
AcDbSymbolTableRecord
100
AcDbDimStyleTableRecord
  2
STANDARD
 70
     0
 40
17.0
340
F
  0
ENDTAB
  0
TABLE
  2
BLOCK_RECORD
  5
1
330
0
100
AcDbSymbolTable
 70
    33
  0
BLOCK_RECORD
  5
17
102
{ACAD_XDICTIONARY
360
2C357
102
}
330
1
100
AcDbSymbolTableRecord
100
AcDbBlockTableRecord
  2
*MODEL_SPACE
340
36
 70
     0
280
     1
281
     0
  0
BLOCK_RECORD
  5
14
330
1
100
AcDbSymbolTableRecord
100
AcDbBlockTableRecord
  2
*PAPER_SPACE
340
37
 70
     0
280
     1
281
     0
  0
BLOCK_RECORD
  5
4A
330
1
100
AcDbSymbolTableRecord
100
AcDbBlockTableRecord
  2
_Open30
340
0
102
{BLKREFS
331
2CC32
331
2CC33
331
2CC3B
331
2CC3C
331
2CC46
331
2CC47
331
2CC4F
331
2CC50
331
2CC58
331
2CC59
331
2CC6C
331
2CC6D
331
2CC98
331
2CC99
331
2CCA1
331
2CCA2
331
2CCAA
331
2CCAB
331
2CCB5
331
2CCB6
331
2CCC0
331
2CCC1
331
2CCC9
331
2CCCA
331
2CCD4
331
2CCD5
331
2CCDD
331
2CCDE
331
2CCE6
331
2CCE7
331
2CCF1
331
2CCF2
331
2CD80
331
2CDC1
331
2CDC2
331
2CDCB
331
2CDCC
331
2CDD5
331
2CDD6
331
2CDE0
331
2CDE1
331
2CE1C
331
2CE1D
331
2CE25
331
2CE26
331
2CE87
331
2CE88
331
2CE90
331
2CE91
331
2CE99
331
2CE9A
102
}
 70
     0
280
     1
281
     0
  0
BLOCK_RECORD
  5
2C2
330
1
100
AcDbSymbolTableRecord
100
AcDbBlockTableRecord
  2
dimstat
340
0
102
{BLKREFS
331
1549A
102
}
 70
     0
280
     1
281
     0
  0
BLOCK_RECORD
  5
2CD
330
1
100
AcDbSymbolTableRecord
100
AcDbBlockTableRecord
  2
dimstat2
340
0
102
{BLKREFS
331
15497
102
}
 70
     0
280
     1
281
     0
  0
BLOCK_RECORD
  5
5132
330
1
100
AcDbSymbolTableRecord
100
AcDbBlockTableRecord
  2
_DotSmall
340
0
 70
     0
280
     1
281
     0
  0
BLOCK_RECORD
  5
192FE
330
1
100
AcDbSymbolTableRecord
100
AcDbBlockTableRecord
  2
waku0
340
0
102
{BLKREFS
331
2CA0D
102
}
 70
     0
280
     1
281
     0
  0
BLOCK_RECORD
  5
29FEA
330
1
100
AcDbSymbolTableRecord
100
AcDbBlockTableRecord
  2
_None
340
0
 70
     0
280
     1
281
     0
  0
BLOCK_RECORD
  5
29FEE
330
1
100
AcDbSymbolTableRecord
100
AcDbBlockTableRecord
  2
SSE_BALOON1
340
0
102
{BLKREFS
331
2B6B9
331
2B6BD
331
2B6C5
331
2B6C9
331
2B6CD
331
2C332
102
}
 70
     0
280
     1
281
     0
  0
BLOCK_RECORD
  5
2B1B2
330
1
100
AcDbSymbolTableRecord
100
AcDbBlockTableRecord
  2
*D7
340
0
 70
     0
280
     1
281
     0
  0
BLOCK_RECORD
  5
2B1C0
330
1
100
AcDbSymbolTableRecord
100
AcDbBlockTableRecord
  2
*D8
340
0
 70
     0
280
     1
281
     0
  0
BLOCK_RECORD
  5
2B1CC
330
1
100
AcDbSymbolTableRecord
100
AcDbBlockTableRecord
  2
*D9
340
0
 70
     0
280
     1
281
     0
  0
BLOCK_RECORD
  5
2B1D8
330
1
100
AcDbSymbolTableRecord
100
AcDbBlockTableRecord
  2
*D10
340
0
 70
     0
280
     1
281
     0
  0
BLOCK_RECORD
  5
2B1E4
330
1
100
AcDbSymbolTableRecord
100
AcDbBlockTableRecord
  2
*D11
340
0
 70
     0
280
     1
281
     0
  0
BLOCK_RECORD
  5
2B1F0
330
1
100
AcDbSymbolTableRecord
100
AcDbBlockTableRecord
  2
*D12
340
0
 70
     0
280
     1
281
     0
  0
BLOCK_RECORD
  5
2B1FC
330
1
100
AcDbSymbolTableRecord
100
AcDbBlockTableRecord
  2
*D13
340
0
 70
     0
280
     1
281
     0
  0
BLOCK_RECORD
  5
2B208
330
1
100
AcDbSymbolTableRecord
100
AcDbBlockTableRecord
  2
*D14
340
0
 70
     0
280
     1
281
     0
  0
BLOCK_RECORD
  5
2B216
330
1
100
AcDbSymbolTableRecord
100
AcDbBlockTableRecord
  2
*D15
340
0
 70
     0
280
     1
281
     0
  0
BLOCK_RECORD
  5
2B6D6
330
1
100
AcDbSymbolTableRecord
100
AcDbBlockTableRecord
  2
*D16
340
0
 70
     0
280
     1
281
     0
  0
BLOCK_RECORD
  5
2B6E3
330
1
100
AcDbSymbolTableRecord
100
AcDbBlockTableRecord
  2
*D17
340
0
 70
     0
280
     1
281
     0
  0
BLOCK_RECORD
  5
2B6F2
330
1
100
AcDbSymbolTableRecord
100
AcDbBlockTableRecord
  2
*D18
340
0
 70
     0
280
     1
281
     0
  0
BLOCK_RECORD
  5
2B6FF
330
1
100
AcDbSymbolTableRecord
100
AcDbBlockTableRecord
  2
*D19
340
0
 70
     0
280
     1
281
     0
  0
BLOCK_RECORD
  5
2B70C
330
1
100
AcDbSymbolTableRecord
100
AcDbBlockTableRecord
  2
*D20
340
0
 70
     0
280
     1
281
     0
  0
BLOCK_RECORD
  5
2B719
330
1
100
AcDbSymbolTableRecord
100
AcDbBlockTableRecord
  2
*D21
340
0
 70
     0
280
     1
281
     0
  0
BLOCK_RECORD
  5
2B726
330
1
100
AcDbSymbolTableRecord
100
AcDbBlockTableRecord
  2
*D22
340
0
 70
     0
280
     1
281
     0
  0
BLOCK_RECORD
  5
2B733
330
1
100
AcDbSymbolTableRecord
100
AcDbBlockTableRecord
  2
*D23
340
0
 70
     0
280
     1
281
     0
  0
BLOCK_RECORD
  5
2B740
330
1
100
AcDbSymbolTableRecord
100
AcDbBlockTableRecord
  2
*D24
340
0
 70
     0
280
     1
281
     0
  0
BLOCK_RECORD
  5
2B74D
330
1
100
AcDbSymbolTableRecord
100
AcDbBlockTableRecord
  2
*D25
340
0
 70
     0
280
     1
281
     0
  0
BLOCK_RECORD
  5
2B75A
330
1
100
AcDbSymbolTableRecord
100
AcDbBlockTableRecord
  2
*D26
340
0
 70
     0
280
     1
281
     0
  0
BLOCK_RECORD
  5
2B767
330
1
100
AcDbSymbolTableRecord
100
AcDbBlockTableRecord
  2
*D27
340
0
 70
     0
280
     1
281
     0
  0
BLOCK_RECORD
  5
2B774
330
1
100
AcDbSymbolTableRecord
100
AcDbBlockTableRecord
  2
*D28
340
0
 70
     0
280
     1
281
     0
  0
BLOCK_RECORD
  5
2B780
330
1
100
AcDbSymbolTableRecord
100
AcDbBlockTableRecord
  2
*D29
340
0
 70
     0
280
     1
281
     0
  0
BLOCK_RECORD
  5
2B78D
330
1
100
AcDbSymbolTableRecord
100
AcDbBlockTableRecord
  2
*D30
340
0
 70
     0
280
     1
281
     0
  0
BLOCK_RECORD
  5
2B7B4
330
1
100
AcDbSymbolTableRecord
100
AcDbBlockTableRecord
  2
*D31
340
0
 70
     0
280
     1
281
     0
  0
BLOCK_RECORD
  5
2B7C1
330
1
100
AcDbSymbolTableRecord
100
AcDbBlockTableRecord
  2
*D32
340
0
 70
     0
280
     1
281
     0
  0
ENDTAB
  0
ENDSEC
  0
SECTION
  2
BLOCKS
  0
BLOCK
  5
2A
330
17
100
AcDbEntity
  8
0
100
AcDbBlockBegin
  2
*MODEL_SPACE
 70
     0
 10
0.0
 20
0.0
 30
0.0
  3
*MODEL_SPACE
  1

  0
ENDBLK
  5
2B
330
17
100
AcDbEntity
  8
0
100
AcDbBlockEnd
  0
BLOCK
  5
28
330
14
100
AcDbEntity
 67
     1
  8
0
100
AcDbBlockBegin
  2
*PAPER_SPACE
 70
     0
 10
0.0
 20
0.0
 30
0.0
  3
*PAPER_SPACE
  1

  0
ENDBLK
  5
29
330
14
100
AcDbEntity
 67
     1
  8
0
100
AcDbBlockEnd
  0
BLOCK
  5
4E
330
4A
100
AcDbEntity
  8
0
100
AcDbBlockBegin
  2
_Open30
 70
     0
 10
0.0
 20
0.0
 30
0.0
  3
_Open30
  1

  0
LINE
  5
4B
330
4A
100
AcDbEntity
  8
0
  6
ByBlock
 62
     0
370
    -2
100
AcDbLine
 10
-1.0
 20
0.26794919
 30
0.0
 11
0.0
 21
0.0
 31
0.0
  0
LINE
  5
4C
330
4A
100
AcDbEntity
  8
0
  6
ByBlock
 62
     0
370
    -2
100
AcDbLine
 10
0.0
 20
0.0
 30
0.0
 11
-1.0
 21
-0.26794919
 31
0.0
  0
LINE
  5
4D
330
4A
100
AcDbEntity
  8
0
  6
ByBlock
 62
     0
370
    -2
100
AcDbLine
 10
0.0
 20
0.0
 30
0.0
 11
-1.0
 21
0.0
 31
0.0
  0
ENDBLK
  5
4F
330
4A
100
AcDbEntity
  8
0
100
AcDbBlockEnd
  0
BLOCK
  5
2C6
330
2C2
100
AcDbEntity
  8
0
100
AcDbBlockBegin
  2
dimstat
 70
     2
 10
0.0
 20
0.0
 30
0.0
  3
dimstat
  1

  0
ATTDEF
  5
2C3
330
2C2
100
AcDbEntity
  8
0
100
AcDbText
 10
0.0
 20
1.0
 30
0.0
 40
1.0
  1

 41
0.7
 51
15.0
100
AcDbAttributeDefinition
  3

  2
DIMEXT
 70
     1
280
     0
  0
ATTDEF
  5
2C4
330
2C2
100
AcDbEntity
  8
0
100
AcDbText
 10
0.0
 20
0.0
 30
0.0
 40
1.0
  1

 41
0.7
 51
15.0
100
AcDbAttributeDefinition
  3

  2
DIMBAL
 70
     1
280
     0
  0
ATTDEF
  5
2C5
330
2C2
100
AcDbEntity
  8
0
100
AcDbText
 10
1.50719045723035
 20
-0.911649989012119
 30
0.0
 40
1.0
  1

 41
0.7
 51
15.0
 72
     1
 11
1.50719045723035
 21
-0.911649989012119
 31
0.0
100
AcDbAttributeDefinition
  3

  2
SYMSCL
 70
     1
280
     0
  0
ENDBLK
  5
2C7
330
2C2
100
AcDbEntity
  8
0
100
AcDbBlockEnd
  0
BLOCK
  5
2CF
330
2CD
100
AcDbEntity
  8
0
100
AcDbBlockBegin
  2
dimstat2
 70
     2
 10
0.0
 20
0.0
 30
0.0
  3
dimstat2
  1

  0
ATTDEF
  5
2CE
330
2CD
100
AcDbEntity
  8
0
100
AcDbText
 10
0.0
 20
0.0
 30
0.0
 40
1.0
  1

 41
0.7
100
AcDbAttributeDefinition
  3

  2
DIMSIZ
 70
     1
280
     0
  0
ENDBLK
  5
2D0
330
2CD
100
AcDbEntity
  8
0
100
AcDbBlockEnd
  0
BLOCK
  5
5134
330
5132
100
AcDbEntity
  8
0
100
AcDbBlockBegin
  2
_DotSmall
 70
     0
 10
0.0
 20
0.0
 30
0.0
  3
_DotSmall
  1

  0
LWPOLYLINE
  5
5133
330
5132
100
AcDbEntity
  8
0
  6
ByBlock
 62
     0
100
AcDbPolyline
 90
        2
 70
     1
 43
0.5
 10
-0.0625
 20
0.0
 42
1.0
 10
0.0625
 20
0.0
 42
1.0
  0
ENDBLK
  5
5135
330
5132
100
AcDbEntity
  8
0
100
AcDbBlockEnd
  0
BLOCK
  5
19303
330
192FE
100
AcDbEntity
  8
0
100
AcDbBlockBegin
  2
waku0
 70
     0
 10
0.0
 20
0.0
 30
0.0
  3
waku0
  1

  0
LINE
  5
192FF
330
192FE
100
AcDbEntity
  8
0
100
AcDbLine
 10
0.0
 20
1.0
 30
0.0
 11
0.0
 21
0.0
 31
0.0
  0
LINE
  5
19300
330
192FE
100
AcDbEntity
  8
0
100
AcDbLine
 10
1.0
 20
1.0
 30
0.0
 11
0.0
 21
1.0
 31
0.0
  0
LINE
  5
19301
330
192FE
100
AcDbEntity
  8
0
100
AcDbLine
 10
1.0
 20
0.0
 30
0.0
 11
1.0
 21
1.0
 31
0.0
  0
LINE
  5
19302
330
192FE
100
AcDbEntity
  8
0
100
AcDbLine
 10
0.0
 20
0.0
 30
0.0
 11
1.0
 21
0.0
 31
0.0
  0
ENDBLK
  5
19304
330
192FE
100
AcDbEntity
  8
0
100
AcDbBlockEnd
  0
BLOCK
  5
29FEB
330
29FEA
100
AcDbEntity
  8
0
100
AcDbBlockBegin
  2
_None
 70
     0
 10
0.0
 20
0.0
 30
0.0
  3
_None
  1

  0
ENDBLK
  5
29FEC
330
29FEA
100
AcDbEntity
  8
0
100
AcDbBlockEnd
  0
BLOCK
  5
29FF1
330
29FEE
100
AcDbEntity
  8
0
100
AcDbBlockBegin
  2
SSE_BALOON1
 70
     2
 10
0.0
 20
0.0
 30
0.0
  3
SSE_BALOON1
  1

  0
CIRCLE
  5
29FEF
330
29FEE
100
AcDbEntity
  8
0
  6
ByBlock
 62
     0
370
    -2
100
AcDbCircle
 10
0.0
 20
0.0
 30
0.0
 40
1.0
  0
ATTDEF
  5
29FF0
330
29FEE
100
AcDbEntity
  8
DIMTEXT
100
AcDbText
 10
0.0
 20
0.0
 30
0.0
 40
1.0
  1

 72
     4
 11
0.0
 21
0.0
 31
0.0
100
AcDbAttributeDefinition
  3
番号
  2
BAL_NUM
 70
     0
280
     0
  0
ENDBLK
  5
29FF2
330
29FEE
100
AcDbEntity
  8
0
100
AcDbBlockEnd
  0
BLOCK
  5
2B1B3
330
2B1B2
100
AcDbEntity
  8
0
100
AcDbBlockBegin
  2
*D7
 70
     1
 10
0.0
 20
0.0
 30
0.0
  3
*D7
  1

  0
LINE
  5
2CE82
330
2B1B2
100
AcDbEntity
  8
DIM
 62
     0
370
    -2
100
AcDbLine
 10
1275.231971898284
 20
3821.605726667717
 30
0.0
 11
1602.909700437801
 21
3821.605726667717
 31
0.0
  0
LINE
  5
2CE83
330
2B1B2
100
AcDbEntity
  8
DIM
 62
     0
370
    -2
100
AcDbLine
 10
1488.631971898282
 20
3731.605726667717
 30
0.0
 11
1602.909700437801
 21
3731.605726667717
 31
0.0
  0
LINE
  5
2CE84
330
2B1B2
100
AcDbEntity
  8
DIM
 62
     0
370
    -2
100
AcDbLine
 10
1568.909700437801
 20
3680.605726667717
 30
0.0
 11
1568.909700437801
 21
3629.605726667717
 31
0.0
  0
LINE
  5
2CE85
330
2B1B2
100
AcDbEntity
  8
DIM
 62
     0
370
    -2
100
AcDbLine
 10
1568.909700437801
 20
3872.605726667717
 30
0.0
 11
1568.909700437801
 21
4220.435440953431
 31
0.0
  0
LINE
  5
2CE86
330
2B1B2
100
AcDbEntity
  8
DIM
 62
     0
370
    -2
100
AcDbLine
 10
1568.909700437801
 20
3731.605726667717
 30
0.0
 11
1568.909700437801
 21
3821.605726667717
 31
0.0
  0
INSERT
  5
2CE87
330
2B1B2
100
AcDbEntity
  8
DIM
 62
     0
370
    -2
100
AcDbBlockReference
  2
_Open30
 10
1568.909700437801
 20
3731.605726667717
 30
0.0
 41
51.0
 42
51.0
 43
51.0
 50
90.0
  0
INSERT
  5
2CE88
330
2B1B2
100
AcDbEntity
  8
DIM
 62
     0
370
    -2
100
AcDbBlockReference
  2
_Open30
 10
1568.909700437801
 20
3821.605726667717
 30
0.0
 41
51.0
 42
51.0
 43
51.0
 50
270.0
  0
MTEXT
  5
2CE89
330
2B1B2
100
AcDbEntity
  8
DIM
 62
     0
100
AcDbMText
 10
1530.6597004378
 20
4088.15925047724
 30
0.0
 40
42.5
 41
0.0
 46
0.0
 71
     5
 72
     1
  1
\A1;最大90mm
 11
0.0000000000000001
 21
1.0
 31
0.0
 73
     1
 44
1.0
  0
POINT
  5
2CE8A
330
2B1B2
100
AcDbEntity
  8
Defpoints
 62
     0
100
AcDbPoint
 10
1241.231971898284
 20
3821.605726667717
 30
0.0
  0
POINT
  5
2CE8B
330
2B1B2
100
AcDbEntity
  8
Defpoints
 62
     0
100
AcDbPoint
 10
1454.631971898282
 20
3731.605726667717
 30
0.0
  0
POINT
  5
2CE8C
330
2B1B2
100
AcDbEntity
  8
Defpoints
 62
     0
100
AcDbPoint
 10
1568.909700437801
 20
3731.605726667717
 30
0.0
  0
ENDBLK
  5
2B1B4
330
2B1B2
100
AcDbEntity
  8
0
100
AcDbBlockEnd
  0
BLOCK
  5
2B1C1
330
2B1C0
100
AcDbEntity
  8
0
100
AcDbBlockBegin
  2
*D8
 70
     1
 10
0.0
 20
0.0
 30
0.0
  3
*D8
  1

  0
LINE
  5
2CE8D
330
2B1C0
100
AcDbEntity
  8
DIM
 62
     0
370
    -2
100
AcDbLine
 10
905.2319718982809
 20
3763.605726667716
 30
0.0
 11
905.2319718982809
 21
3930.329080397771
 31
0.0
  0
LINE
  5
2CE8E
330
2B1C0
100
AcDbEntity
  8
DIM
 62
     0
370
    -2
100
AcDbLine
 10
1457.231971898283
 20
3763.605726667716
 30
0.0
 11
1457.231971898283
 21
3930.329080397771
 31
0.0
  0
LINE
  5
2CE8F
330
2B1C0
100
AcDbEntity
  8
DIM
 62
     0
370
    -2
100
AcDbLine
 10
956.2319718982809
 20
3896.329080397771
 30
0.0
 11
1406.231971898283
 21
3896.329080397771
 31
0.0
  0
INSERT
  5
2CE90
330
2B1C0
100
AcDbEntity
  8
DIM
 62
     0
370
    -2
100
AcDbBlockReference
  2
_Open30
 10
905.2319718982809
 20
3896.329080397771
 30
0.0
 41
51.0
 42
51.0
 43
51.0
 50
180.0
  0
INSERT
  5
2CE91
330
2B1C0
100
AcDbEntity
  8
DIM
 62
     0
370
    -2
100
AcDbBlockReference
  2
_Open30
 10
1457.231971898283
 20
3896.329080397771
 30
0.0
 41
51.0
 42
51.0
 43
51.0
  0
MTEXT
  5
2CE92
330
2B1C0
100
AcDbEntity
  8
DIM
 62
     0
100
AcDbMText
 10
1181.231971898282
 20
3934.579080397771
 30
0.0
 40
42.5
 41
0.0
 46
0.0
 71
     5
 72
     1
  1
\A1;（560）
 73
     1
 44
1.0
  0
POINT
  5
2CE93
330
2B1C0
100
AcDbEntity
  8
Defpoints
 62
     0
100
AcDbPoint
 10
905.2319718982809
 20
3729.605726667716
 30
0.0
  0
POINT
  5
2CE94
330
2B1C0
100
AcDbEntity
  8
Defpoints
 62
     0
100
AcDbPoint
 10
1457.231971898283
 20
3729.605726667716
 30
0.0
  0
POINT
  5
2CE95
330
2B1C0
100
AcDbEntity
  8
Defpoints
 62
     0
100
AcDbPoint
 10
1457.231971898283
 20
3896.329080397771
 30
0.0
  0
ENDBLK
  5
2B1C2
330
2B1C0
100
AcDbEntity
  8
0
100
AcDbBlockEnd
  0
BLOCK
  5
2B1CD
330
2B1CC
100
AcDbEntity
  8
0
100
AcDbBlockBegin
  2
*D9
 70
     1
 10
0.0
 20
0.0
 30
0.0
  3
*D9
  1

  0
LINE
  5
2CE96
330
2B1CC
100
AcDbEntity
  8
DIM
 62
     0
370
    -2
100
AcDbLine
 10
1488.631971898282
 20
3731.605726667716
 30
0.0
 11
1602.909700437797
 21
3731.605726667716
 31
0.0
  0
LINE
  5
2CE97
330
2B1CC
100
AcDbEntity
  8
DIM
 62
     0
370
    -2
100
AcDbLine
 10
1488.631971898283
 20
3231.605726667716
 30
0.0
 11
1602.909700437797
 21
3231.605726667716
 31
0.0
  0
LINE
  5
2CE98
330
2B1CC
100
AcDbEntity
  8
DIM
 62
     0
370
    -2
100
AcDbLine
 10
1568.909700437797
 20
3680.605726667716
 30
0.0
 11
1568.909700437797
 21
3282.605726667716
 31
0.0
  0
INSERT
  5
2CE99
330
2B1CC
100
AcDbEntity
  8
DIM
 62
     0
370
    -2
100
AcDbBlockReference
  2
_Open30
 10
1568.909700437797
 20
3731.605726667716
 30
0.0
 41
51.0
 42
51.0
 43
51.0
 50
90.0
  0
INSERT
  5
2CE9A
330
2B1CC
100
AcDbEntity
  8
DIM
 62
     0
370
    -2
100
AcDbBlockReference
  2
_Open30
 10
1568.909700437797
 20
3231.605726667716
 30
0.0
 41
51.0
 42
51.0
 43
51.0
 50
270.0
  0
MTEXT
  5
2CE9B
330
2B1CC
100
AcDbEntity
  8
DIM
 62
     0
100
AcDbMText
 10
1530.659700437796
 20
3481.605726667716
 30
0.0
 40
42.5
 41
0.0
 46
0.0
 71
     5
 72
     1
  1
\A1;（508）
 11
0.0000000000000001
 21
1.0
 31
0.0
 73
     1
 44
1.0
  0
POINT
  5
2CE9C
330
2B1CC
100
AcDbEntity
  8
Defpoints
 62
     0
100
AcDbPoint
 10
1454.631971898282
 20
3731.605726667716
 30
0.0
  0
POINT
  5
2CE9D
330
2B1CC
100
AcDbEntity
  8
Defpoints
 62
     0
100
AcDbPoint
 10
1454.631971898282
 20
3231.605726667716
 30
0.0
  0
POINT
  5
2CE9E
330
2B1CC
100
AcDbEntity
  8
Defpoints
 62
     0
100
AcDbPoint
 10
1568.909700437797
 20
3231.605726667716
 30
0.0
  0
ENDBLK
  5
2B1CE
330
2B1CC
100
AcDbEntity
  8
0
100
AcDbBlockEnd
  0
BLOCK
  5
2B1D9
330
2B1D8
100
AcDbEntity
  8
0
100
AcDbBlockBegin
  2
*D10
 70
     1
 10
0.0
 20
0.0
 30
0.0
  3
*D10
  1

  0
LINE
  5
2CE22
330
2B1D8
100
AcDbEntity
  8
DIM
 62
     0
370
    -2
100
AcDbLine
 10
1416.666355127517
 20
2127.544015179679
 30
0.0
 11
2050.9097004378
 21
2127.544015179679
 31
0.0
  0
LINE
  5
2CE23
330
2B1D8
100
AcDbEntity
  8
DIM
 62
     0
370
    -2
100
AcDbLine
 10
1451.530823108632
 20
571.7440151796792
 30
0.0
 11
2050.909700437799
 21
571.7440151796791
 31
0.0
  0
LINE
  5
2CE24
330
2B1D8
100
AcDbEntity
  8
DIM
 62
     0
370
    -2
100
AcDbLine
 10
2016.9097004378
 20
2076.544015179679
 30
0.0
 11
2016.909700437799
 21
622.7440151796791
 31
0.0
  0
INSERT
  5
2CE25
330
2B1D8
100
AcDbEntity
  8
DIM
 62
     0
370
    -2
100
AcDbBlockReference
  2
_Open30
 10
2016.9097004378
 20
2127.544015179679
 30
0.0
 41
51.0
 42
51.0
 43
51.0
 50
90.0
  0
INSERT
  5
2CE26
330
2B1D8
100
AcDbEntity
  8
DIM
 62
     0
370
    -2
100
AcDbBlockReference
  2
_Open30
 10
2016.909700437799
 20
571.7440151796791
 30
0.0
 41
51.0
 42
51.0
 43
51.0
 50
270.0
  0
MTEXT
  5
2CE27
330
2B1D8
100
AcDbEntity
  8
DIM
 62
     0
100
AcDbMText
 10
1978.659700437799
 20
1349.644015179679
 30
0.0
 40
42.5
 41
0.0
 46
0.0
 71
     5
 72
     1
  1
\A1;（1556）
 11
0.0000000000000001
 21
1.0
 31
0.0
 73
     1
 44
1.0
  0
POINT
  5
2CE28
330
2B1D8
100
AcDbEntity
  8
Defpoints
 62
     0
100
AcDbPoint
 10
1382.666355127517
 20
2127.544015179679
 30
0.0
  0
POINT
  5
2CE29
330
2B1D8
100
AcDbEntity
  8
Defpoints
 62
     0
100
AcDbPoint
 10
1417.530823108632
 20
571.7440151796792
 30
0.0
  0
POINT
  5
2CE2A
330
2B1D8
100
AcDbEntity
  8
Defpoints
 62
     0
100
AcDbPoint
 10
2016.909700437799
 20
571.7440151796791
 30
0.0
  0
ENDBLK
  5
2B1DA
330
2B1D8
100
AcDbEntity
  8
0
100
AcDbBlockEnd
  0
BLOCK
  5
2B1E5
330
2B1E4
100
AcDbEntity
  8
0
100
AcDbBlockBegin
  2
*D11
 70
     1
 10
0.0
 20
0.0
 30
0.0
  3
*D11
  1

  0
LINE
  5
2CDBE
330
2B1E4
100
AcDbEntity
  8
DIM
 62
     0
370
    -2
100
AcDbLine
 10
1489.181971898295
 20
2471.244015179678
 30
0.0
 11
2162.909700437801
 21
2471.244015179678
 31
0.0
  0
LINE
  5
2CDBF
330
2B1E4
100
AcDbEntity
  8
DIM
 62
     0
370
    -2
100
AcDbLine
 10
1451.530823108632
 20
571.7440151796792
 30
0.0
 11
2162.9097004378
 21
571.7440151796791
 31
0.0
  0
LINE
  5
2CDC0
330
2B1E4
100
AcDbEntity
  8
DIM
 62
     0
370
    -2
100
AcDbLine
 10
2128.909700437801
 20
2420.244015179678
 30
0.0
 11
2128.9097004378
 21
622.7440151796791
 31
0.0
  0
INSERT
  5
2CDC1
330
2B1E4
100
AcDbEntity
  8
DIM
 62
     0
370
    -2
100
AcDbBlockReference
  2
_Open30
 10
2128.909700437801
 20
2471.244015179678
 30
0.0
 41
51.0
 42
51.0
 43
51.0
 50
90.0
  0
INSERT
  5
2CDC2
330
2B1E4
100
AcDbEntity
  8
DIM
 62
     0
370
    -2
100
AcDbBlockReference
  2
_Open30
 10
2128.9097004378
 20
571.7440151796791
 30
0.0
 41
51.0
 42
51.0
 43
51.0
 50
270.0
  0
MTEXT
  5
2CDC3
330
2B1E4
100
AcDbEntity
  8
DIM
 62
     0
100
AcDbMText
 10
2090.6597004378
 20
1521.494015179679
 30
0.0
 40
42.5
 41
0.0
 46
0.0
 71
     5
 72
     1
  1
\A1;1900
 11
0.0000000000000001
 21
1.0
 31
0.0
 73
     1
 44
1.0
  0
POINT
  5
2CDC4
330
2B1E4
100
AcDbEntity
  8
Defpoints
 62
     0
100
AcDbPoint
 10
1455.181971898295
 20
2471.244015179678
 30
0.0
  0
POINT
  5
2CDC5
330
2B1E4
100
AcDbEntity
  8
Defpoints
 62
     0
100
AcDbPoint
 10
1417.530823108632
 20
571.7440151796792
 30
0.0
  0
POINT
  5
2CDC6
330
2B1E4
100
AcDbEntity
  8
Defpoints
 62
     0
100
AcDbPoint
 10
2128.9097004378
 20
571.7440151796791
 30
0.0
  0
ENDBLK
  5
2B1E6
330
2B1E4
100
AcDbEntity
  8
0
100
AcDbBlockEnd
  0
BLOCK
  5
2B1F1
330
2B1F0
100
AcDbEntity
  8
0
100
AcDbBlockBegin
  2
*D12
 70
     1
 10
0.0
 20
0.0
 30
0.0
  3
*D12
  1

  0
LINE
  5
2CDC7
330
2B1F0
100
AcDbEntity
  8
DIM
 62
     0
370
    -2
100
AcDbLine
 10
1350.231971898281
 20
741.2440151796763
 30
0.0
 11
1708.312484208045
 21
741.2440151796763
 31
0.0
  0
LINE
  5
2CDC8
330
2B1F0
100
AcDbEntity
  8
DIM
 62
     0
370
    -2
100
AcDbLine
 10
1451.530818005479
 20
571.7440151796792
 30
0.0
 11
1708.312484208045
 21
571.7440151796792
 31
0.0
  0
LINE
  5
2CDC9
330
2B1F0
100
AcDbEntity
  8
DIM
 62
     0
370
    -2
100
AcDbLine
 10
1674.312484208045
 20
690.2440151796763
 30
0.0
 11
1674.312484208045
 21
622.7440151796793
 31
0.0
  0
LINE
  5
2CDCA
330
2B1F0
100
AcDbEntity
  8
DIM
 62
     0
370
    -2
100
AcDbLine
 10
1674.312484208045
 20
571.7440151796792
 30
0.0
 11
1674.312484208045
 21
384.7184150859635
 31
0.0
  0
INSERT
  5
2CDCB
330
2B1F0
100
AcDbEntity
  8
DIM
 62
     0
370
    -2
100
AcDbBlockReference
  2
_Open30
 10
1674.312484208045
 20
741.2440151796763
 30
0.0
 41
51.0
 42
51.0
 43
51.0
 50
90.0
  0
INSERT
  5
2CDCC
330
2B1F0
100
AcDbEntity
  8
DIM
 62
     0
370
    -2
100
AcDbBlockReference
  2
_Open30
 10
1674.312484208045
 20
571.7440151796792
 30
0.0
 41
51.0
 42
51.0
 43
51.0
 50
270.0
  0
MTEXT
  5
2CDCD
330
2B1F0
100
AcDbEntity
  8
DIM
 62
     0
100
AcDbMText
 10
1636.062484208045
 20
442.1946055621543
 30
0.0
 40
42.5
 41
0.0
 46
0.0
 71
     5
 72
     1
  1
\A1;170
 11
0.0000000000000001
 21
1.0
 31
0.0
 73
     1
 44
1.0
  0
POINT
  5
2CDCE
330
2B1F0
100
AcDbEntity
  8
Defpoints
 62
     0
100
AcDbPoint
 10
1316.231971898281
 20
741.2440151796763
 30
0.0
  0
POINT
  5
2CDCF
330
2B1F0
100
AcDbEntity
  8
Defpoints
 62
     0
100
AcDbPoint
 10
1417.530818005479
 20
571.7440151796792
 30
0.0
  0
POINT
  5
2CDD0
330
2B1F0
100
AcDbEntity
  8
Defpoints
 62
     0
100
AcDbPoint
 10
1674.312484208045
 20
571.7440151796792
 30
0.0
  0
ENDBLK
  5
2B1F2
330
2B1F0
100
AcDbEntity
  8
0
100
AcDbBlockEnd
  0
BLOCK
  5
2B1FD
330
2B1FC
100
AcDbEntity
  8
0
100
AcDbBlockBegin
  2
*D13
 70
     1
 10
0.0
 20
0.0
 30
0.0
  3
*D13
  1

  0
LINE
  5
2CDD1
330
2B1FC
100
AcDbEntity
  8
DIM
 62
     0
370
    -2
100
AcDbLine
 10
1488.731971898281
 20
826.7440151796783
 30
0.0
 11
1829.084606254042
 21
826.7440151796781
 31
0.0
  0
LINE
  5
2CDD2
330
2B1FC
100
AcDbEntity
  8
DIM
 62
     0
370
    -2
100
AcDbLine
 10
1451.530818005479
 20
571.7440151796792
 30
0.0
 11
1829.084606254042
 21
571.7440151796791
 31
0.0
  0
LINE
  5
2CDD3
330
2B1FC
100
AcDbEntity
  8
DIM
 62
     0
370
    -2
100
AcDbLine
 10
1795.084606254042
 20
775.7440151796782
 30
0.0
 11
1795.084606254042
 21
622.7440151796791
 31
0.0
  0
LINE
  5
2CDD4
330
2B1FC
100
AcDbEntity
  8
DIM
 62
     0
370
    -2
100
AcDbLine
 10
1795.084606254042
 20
571.7440151796791
 30
0.0
 11
1795.084606254042
 21
382.6523137204521
 31
0.0
  0
INSERT
  5
2CDD5
330
2B1FC
100
AcDbEntity
  8
DIM
 62
     0
370
    -2
100
AcDbBlockReference
  2
_Open30
 10
1795.084606254042
 20
826.7440151796781
 30
0.0
 41
51.0
 42
51.0
 43
51.0
 50
90.0
  0
INSERT
  5
2CDD6
330
2B1FC
100
AcDbEntity
  8
DIM
 62
     0
370
    -2
100
AcDbBlockReference
  2
_Open30
 10
1795.084606254042
 20
571.7440151796791
 30
0.0
 41
51.0
 42
51.0
 43
51.0
 50
270.0
  0
MTEXT
  5
2CDD7
330
2B1FC
100
AcDbEntity
  8
DIM
 62
     0
100
AcDbMText
 10
1756.834606254042
 20
443.366599434738
 30
0.0
 40
42.5
 41
0.0
 46
0.0
 71
     5
 72
     1
  1
\A1;255
 11
0.0000000000000001
 21
1.0
 31
0.0
 73
     1
 44
1.0
  0
POINT
  5
2CDD8
330
2B1FC
100
AcDbEntity
  8
Defpoints
 62
     0
100
AcDbPoint
 10
1454.731971898281
 20
826.7440151796783
 30
0.0
  0
POINT
  5
2CDD9
330
2B1FC
100
AcDbEntity
  8
Defpoints
 62
     0
100
AcDbPoint
 10
1417.530818005479
 20
571.7440151796792
 30
0.0
  0
POINT
  5
2CDDA
330
2B1FC
100
AcDbEntity
  8
Defpoints
 62
     0
100
AcDbPoint
 10
1795.084606254042
 20
571.7440151796791
 30
0.0
  0
ENDBLK
  5
2B1FE
330
2B1FC
100
AcDbEntity
  8
0
100
AcDbBlockEnd
  0
BLOCK
  5
2B209
330
2B208
100
AcDbEntity
  8
0
100
AcDbBlockBegin
  2
*D14
 70
     1
 10
0.0
 20
0.0
 30
0.0
  3
*D14
  1

  0
LINE
  5
2CDDB
330
2B208
100
AcDbEntity
  8
DIM
 62
     0
370
    -2
100
AcDbLine
 10
1488.731971898281
 20
696.7440151796782
 30
0.0
 11
1602.783411642486
 21
696.7440151796782
 31
0.0
  0
LINE
  5
2CDDC
330
2B208
100
AcDbEntity
  8
DIM
 62
     0
370
    -2
100
AcDbLine
 10
1451.530823108632
 20
571.7440151796792
 30
0.0
 11
1602.783411642486
 21
571.7440151796792
 31
0.0
  0
LINE
  5
2CDDD
330
2B208
100
AcDbEntity
  8
DIM
 62
     0
370
    -2
100
AcDbLine
 10
1568.783411642486
 20
747.7440151796781
 30
0.0
 11
1568.783411642486
 21
798.7440151796781
 31
0.0
  0
LINE
  5
2CDDE
330
2B208
100
AcDbEntity
  8
DIM
 62
     0
370
    -2
100
AcDbLine
 10
1568.783411642486
 20
520.7440151796792
 30
0.0
 11
1568.783411642486
 21
343.458300893965
 31
0.0
  0
LINE
  5
2CDDF
330
2B208
100
AcDbEntity
  8
DIM
 62
     0
370
    -2
100
AcDbLine
 10
1568.783411642486
 20
696.7440151796782
 30
0.0
 11
1568.783411642486
 21
571.7440151796792
 31
0.0
  0
INSERT
  5
2CDE0
330
2B208
100
AcDbEntity
  8
DIM
 62
     0
370
    -2
100
AcDbBlockReference
  2
_Open30
 10
1568.783411642486
 20
696.7440151796782
 30
0.0
 41
51.0
 42
51.0
 43
51.0
 50
270.0
  0
INSERT
  5
2CDE1
330
2B208
100
AcDbEntity
  8
DIM
 62
     0
370
    -2
100
AcDbBlockReference
  2
_Open30
 10
1568.783411642486
 20
571.7440151796792
 30
0.0
 41
51.0
 42
51.0
 43
51.0
 50
90.0
  0
MTEXT
  5
2CDE2
330
2B208
100
AcDbEntity
  8
DIM
 62
     0
100
AcDbMText
 10
1530.533411642486
 20
400.9344913701557
 30
0.0
 40
42.5
 41
0.0
 46
0.0
 71
     5
 72
     1
  1
\A1;125
 11
0.0000000000000001
 21
1.0
 31
0.0
 73
     1
 44
1.0
  0
POINT
  5
2CDE3
330
2B208
100
AcDbEntity
  8
Defpoints
 62
     0
100
AcDbPoint
 10
1454.731971898281
 20
696.7440151796782
 30
0.0
  0
POINT
  5
2CDE4
330
2B208
100
AcDbEntity
  8
Defpoints
 62
     0
100
AcDbPoint
 10
1417.530823108632
 20
571.7440151796792
 30
0.0
  0
POINT
  5
2CDE5
330
2B208
100
AcDbEntity
  8
Defpoints
 62
     0
100
AcDbPoint
 10
1568.783411642486
 20
571.7440151796792
 30
0.0
  0
ENDBLK
  5
2B20A
330
2B208
100
AcDbEntity
  8
0
100
AcDbBlockEnd
  0
BLOCK
  5
2B217
330
2B216
100
AcDbEntity
  8
0
100
AcDbBlockBegin
  2
*D15
 70
     1
 10
0.0
 20
0.0
 30
0.0
  3
*D15
  1

  0
LINE
  5
2CE19
330
2B216
100
AcDbEntity
  8
DIM
 62
     0
370
    -2
100
AcDbLine
 10
1079.957681898287
 20
1495.647185352345
 30
0.0
 11
1938.909700437799
 21
1495.647185352344
 31
0.0
  0
LINE
  5
2CE1A
330
2B216
100
AcDbEntity
  8
DIM
 62
     0
370
    -2
100
AcDbLine
 10
1483.530818005479
 20
571.7440151796791
 30
0.0
 11
1938.909700437799
 21
571.744015179679
 31
0.0
  0
LINE
  5
2CE1B
330
2B216
100
AcDbEntity
  8
DIM
 62
     0
370
    -2
100
AcDbLine
 10
1904.909700437799
 20
1444.647185352345
 30
0.0
 11
1904.909700437799
 21
622.744015179679
 31
0.0
  0
INSERT
  5
2CE1C
330
2B216
100
AcDbEntity
  8
DIM
 62
     0
370
    -2
100
AcDbBlockReference
  2
_Open30
 10
1904.909700437799
 20
1495.647185352344
 30
0.0
 41
51.0
 42
51.0
 43
51.0
 50
90.0
  0
INSERT
  5
2CE1D
330
2B216
100
AcDbEntity
  8
DIM
 62
     0
370
    -2
100
AcDbBlockReference
  2
_Open30
 10
1904.909700437799
 20
571.744015179679
 30
0.0
 41
51.0
 42
51.0
 43
51.0
 50
270.0
  0
MTEXT
  5
2CE1E
330
2B216
100
AcDbEntity
  8
DIM
 62
     0
100
AcDbMText
 10
1866.659700437799
 20
1033.695600266012
 30
0.0
 40
42.5
 41
0.0
 46
0.0
 71
     5
 72
     1
  1
\A1;（924）
 11
0.0000000000000001
 21
1.0
 31
0.0
 73
     1
 44
1.0
  0
POINT
  5
2CE1F
330
2B216
100
AcDbEntity
  8
Defpoints
 62
     0
100
AcDbPoint
 10
1045.957681898287
 20
1495.647185352345
 30
0.0
  0
POINT
  5
2CE20
330
2B216
100
AcDbEntity
  8
Defpoints
 62
     0
100
AcDbPoint
 10
1449.530818005479
 20
571.7440151796791
 30
0.0
  0
POINT
  5
2CE21
330
2B216
100
AcDbEntity
  8
Defpoints
 62
     0
100
AcDbPoint
 10
1904.909700437799
 20
571.744015179679
 30
0.0
  0
ENDBLK
  5
2B218
330
2B216
100
AcDbEntity
  8
0
100
AcDbBlockEnd
  0
BLOCK
  5
2B6D7
330
2B6D6
100
AcDbEntity
  8
0
100
AcDbBlockBegin
  2
*D16
 70
     1
 10
0.0
 20
0.0
 30
0.0
  3
*D16
  1

  0
LINE
  5
2CD7D
330
2B6D6
100
AcDbEntity
  8
DIM
 62
     0
370
    -2
100
AcDbLine
 10
2734.846557750036
 20
3157.732086393612
 30
0.0
 11
2734.846557750036
 21
3017.057262486491
 31
0.0
  0
LINE
  5
2CD7E
330
2B6D6
100
AcDbEntity
  8
DIM
 62
     0
370
    -2
100
AcDbLine
 10
2854.846557750036
 20
3226.685726667861
 30
0.0
 11
2854.846557750036
 21
3017.057262486491
 31
0.0
  0
LINE
  5
2CD7F
330
2B6D6
100
AcDbEntity
  8
DIM
 62
     0
370
    -2
100
AcDbLine
 10
2734.846557750036
 20
3051.057262486491
 30
0.0
 11
2803.846557750036
 21
3051.057262486491
 31
0.0
  0
INSERT
  5
2CD80
330
2B6D6
100
AcDbEntity
  8
DIM
 62
     0
370
    -2
100
AcDbBlockReference
  2
_Open30
 10
2854.846557750036
 20
3051.057262486491
 30
0.0
 41
51.0
 42
51.0
 43
51.0
  0
MTEXT
  5
2CD81
330
2B6D6
100
AcDbEntity
  8
DIM
 62
     0
100
AcDbMText
 10
2794.846557750036
 20
3089.307262486491
 30
0.0
 40
42.5
 41
0.0
 46
0.0
 71
     5
 72
     1
  1
\A1;120
 73
     1
 44
1.0
  0
POINT
  5
2CD82
330
2B6D6
100
AcDbEntity
  8
Defpoints
 62
     0
100
AcDbPoint
 10
2734.846557750036
 20
3191.732086393612
 30
0.0
  0
POINT
  5
2CD83
330
2B6D6
100
AcDbEntity
  8
Defpoints
 62
     0
100
AcDbPoint
 10
2854.846557750036
 20
3260.685726667861
 30
0.0
  0
POINT
  5
2CD84
330
2B6D6
100
AcDbEntity
  8
Defpoints
 62
     0
100
AcDbPoint
 10
2854.846557750036
 20
3051.057262486491
 30
0.0
  0
ENDBLK
  5
2B6D8
330
2B6D6
100
AcDbEntity
  8
0
100
AcDbBlockEnd
  0
BLOCK
  5
2B6E4
330
2B6E3
100
AcDbEntity
  8
0
100
AcDbBlockBegin
  2
*D17
 70
     1
 10
0.0
 20
0.0
 30
0.0
  3
*D17
  1

  0
LINE
  5
2CCA7
330
2B6E3
100
AcDbEntity
  8
DIM
 62
     0
370
    -2
100
AcDbLine
 10
2924.846557750036
 20
3202.155726667819
 30
0.0
 11
2924.846557750036
 21
2767.138493849
 31
0.0
  0
LINE
  5
2CCA8
330
2B6E3
100
AcDbEntity
  8
DIM
 62
     0
370
    -2
100
AcDbLine
 10
2734.846557750036
 20
3157.418825738151
 30
0.0
 11
2734.846557750036
 21
2767.138493849
 31
0.0
  0
LINE
  5
2CCA9
330
2B6E3
100
AcDbEntity
  8
DIM
 62
     0
370
    -2
100
AcDbLine
 10
2873.846557750036
 20
2801.138493849
 30
0.0
 11
2785.846557750036
 21
2801.138493849
 31
0.0
  0
INSERT
  5
2CCAA
330
2B6E3
100
AcDbEntity
  8
DIM
 62
     0
370
    -2
100
AcDbBlockReference
  2
_Open30
 10
2924.846557750036
 20
2801.138493849
 30
0.0
 41
51.0
 42
51.0
 43
51.0
  0
INSERT
  5
2CCAB
330
2B6E3
100
AcDbEntity
  8
DIM
 62
     0
370
    -2
100
AcDbBlockReference
  2
_Open30
 10
2734.846557750036
 20
2801.138493849
 30
0.0
 41
51.0
 42
51.0
 43
51.0
 50
180.0
  0
MTEXT
  5
2CCAC
330
2B6E3
100
AcDbEntity
  8
DIM
 62
     0
100
AcDbMText
 10
2829.846557750036
 20
2839.388493849
 30
0.0
 40
42.5
 41
0.0
 46
0.0
 71
     5
 72
     1
  1
\A1;190
 73
     1
 44
1.0
  0
POINT
  5
2CCAD
330
2B6E3
100
AcDbEntity
  8
Defpoints
 62
     0
100
AcDbPoint
 10
2924.846557750036
 20
3236.155726667819
 30
0.0
  0
POINT
  5
2CCAE
330
2B6E3
100
AcDbEntity
  8
Defpoints
 62
     0
100
AcDbPoint
 10
2734.846557750036
 20
3191.418825738151
 30
0.0
  0
POINT
  5
2CCAF
330
2B6E3
100
AcDbEntity
  8
Defpoints
 62
     0
100
AcDbPoint
 10
2734.846557750036
 20
2801.138493849
 30
0.0
  0
ENDBLK
  5
2B6E5
330
2B6E3
100
AcDbEntity
  8
0
100
AcDbBlockEnd
  0
BLOCK
  5
2B6F3
330
2B6F2
100
AcDbEntity
  8
0
100
AcDbBlockBegin
  2
*D18
 70
     1
 10
0.0
 20
0.0
 30
0.0
  3
*D18
  1

  0
LINE
  5
2CC93
330
2B6F2
100
AcDbEntity
  8
DIM
 62
     0
370
    -2
100
AcDbLine
 10
2734.846557750036
 20
3157.418825738151
 30
0.0
 11
2734.846557750036
 21
3017.057262486491
 31
0.0
  0
LINE
  5
2CC94
330
2B6F2
100
AcDbEntity
  8
DIM
 62
     0
370
    -2
100
AcDbLine
 10
2640.846557750036
 20
3219.155726667815
 30
0.0
 11
2640.846557750036
 21
3017.057262486491
 31
0.0
  0
LINE
  5
2CC95
330
2B6F2
100
AcDbEntity
  8
DIM
 62
     0
370
    -2
100
AcDbLine
 10
2785.846557750036
 20
3051.057262486491
 30
0.0
 11
2836.846557750036
 21
3051.057262486491
 31
0.0
  0
LINE
  5
2CC96
330
2B6F2
100
AcDbEntity
  8
DIM
 62
     0
370
    -2
100
AcDbLine
 10
2589.846557750036
 20
3051.057262486491
 30
0.0
 11
2538.846557750036
 21
3051.057262486491
 31
0.0
  0
LINE
  5
2CC97
330
2B6F2
100
AcDbEntity
  8
DIM
 62
     0
370
    -2
100
AcDbLine
 10
2734.846557750036
 20
3051.057262486491
 30
0.0
 11
2640.846557750036
 21
3051.057262486491
 31
0.0
  0
INSERT
  5
2CC98
330
2B6F2
100
AcDbEntity
  8
DIM
 62
     0
370
    -2
100
AcDbBlockReference
  2
_Open30
 10
2734.846557750036
 20
3051.057262486491
 30
0.0
 41
51.0
 42
51.0
 43
51.0
 50
180.0
  0
INSERT
  5
2CC99
330
2B6F2
100
AcDbEntity
  8
DIM
 62
     0
370
    -2
100
AcDbBlockReference
  2
_Open30
 10
2640.846557750036
 20
3051.057262486491
 30
0.0
 41
51.0
 42
51.0
 43
51.0
  0
MTEXT
  5
2CC9A
330
2B6F2
100
AcDbEntity
  8
DIM
 62
     0
100
AcDbMText
 10
2687.846557750036
 20
3089.307262486491
 30
0.0
 40
42.5
 41
0.0
 46
0.0
 71
     5
 72
     1
  1
\A1;94
 73
     1
 44
1.0
  0
POINT
  5
2CC9B
330
2B6F2
100
AcDbEntity
  8
Defpoints
 62
     0
100
AcDbPoint
 10
2734.846557750036
 20
3191.418825738151
 30
0.0
  0
POINT
  5
2CC9C
330
2B6F2
100
AcDbEntity
  8
Defpoints
 62
     0
100
AcDbPoint
 10
2640.846557750036
 20
3253.155726667815
 30
0.0
  0
POINT
  5
2CC9D
330
2B6F2
100
AcDbEntity
  8
Defpoints
 62
     0
100
AcDbPoint
 10
2640.846557750036
 20
3051.057262486491
 30
0.0
  0
ENDBLK
  5
2B6F4
330
2B6F2
100
AcDbEntity
  8
0
100
AcDbBlockEnd
  0
BLOCK
  5
2B700
330
2B6FF
100
AcDbEntity
  8
0
100
AcDbBlockBegin
  2
*D19
 70
     1
 10
0.0
 20
0.0
 30
0.0
  3
*D19
  1

  0
LINE
  5
2CC9E
330
2B6FF
100
AcDbEntity
  8
DIM
 62
     0
370
    -2
100
AcDbLine
 10
2734.846557750036
 20
3157.732086393612
 30
0.0
 11
2734.846557750036
 21
2907.338831315489
 31
0.0
  0
LINE
  5
2CC9F
330
2B6FF
100
AcDbEntity
  8
DIM
 62
     0
370
    -2
100
AcDbLine
 10
2587.84655775004
 20
3202.155726667832
 30
0.0
 11
2587.84655775004
 21
2907.338831315489
 31
0.0
  0
LINE
  5
2CCA0
330
2B6FF
100
AcDbEntity
  8
DIM
 62
     0
370
    -2
100
AcDbLine
 10
2683.846557750036
 20
2941.338831315489
 30
0.0
 11
2638.84655775004
 21
2941.338831315489
 31
0.0
  0
INSERT
  5
2CCA1
330
2B6FF
100
AcDbEntity
  8
DIM
 62
     0
370
    -2
100
AcDbBlockReference
  2
_Open30
 10
2734.846557750036
 20
2941.338831315489
 30
0.0
 41
51.0
 42
51.0
 43
51.0
  0
INSERT
  5
2CCA2
330
2B6FF
100
AcDbEntity
  8
DIM
 62
     0
370
    -2
100
AcDbBlockReference
  2
_Open30
 10
2587.84655775004
 20
2941.338831315489
 30
0.0
 41
51.0
 42
51.0
 43
51.0
 50
180.0
  0
MTEXT
  5
2CCA3
330
2B6FF
100
AcDbEntity
  8
DIM
 62
     0
100
AcDbMText
 10
2661.346557750038
 20
2979.588831315489
 30
0.0
 40
42.5
 41
0.0
 46
0.0
 71
     5
 72
     1
  1
\A1;147
 73
     1
 44
1.0
  0
POINT
  5
2CCA4
330
2B6FF
100
AcDbEntity
  8
Defpoints
 62
     0
100
AcDbPoint
 10
2734.846557750036
 20
3191.732086393612
 30
0.0
  0
POINT
  5
2CCA5
330
2B6FF
100
AcDbEntity
  8
Defpoints
 62
     0
100
AcDbPoint
 10
2587.84655775004
 20
3236.155726667833
 30
0.0
  0
POINT
  5
2CCA6
330
2B6FF
100
AcDbEntity
  8
Defpoints
 62
     0
100
AcDbPoint
 10
2587.84655775004
 20
2941.338831315489
 30
0.0
  0
ENDBLK
  5
2B701
330
2B6FF
100
AcDbEntity
  8
0
100
AcDbBlockEnd
  0
BLOCK
  5
2B70D
330
2B70C
100
AcDbEntity
  8
0
100
AcDbBlockBegin
  2
*D20
 70
     1
 10
0.0
 20
0.0
 30
0.0
  3
*D20
  1

  0
LINE
  5
2CCDA
330
2B70C
100
AcDbEntity
  8
DIM
 62
     0
370
    -2
100
AcDbLine
 10
2734.846557750036
 20
3157.418825738151
 30
0.0
 11
2734.846557750036
 21
2767.138493849
 31
0.0
  0
LINE
  5
2CCDB
330
2B70C
100
AcDbEntity
  8
DIM
 62
     0
370
    -2
100
AcDbLine
 10
2531.346557750036
 20
3219.155726667843
 30
0.0
 11
2531.346557750036
 21
2767.138493849
 31
0.0
  0
LINE
  5
2CCDC
330
2B70C
100
AcDbEntity
  8
DIM
 62
     0
370
    -2
100
AcDbLine
 10
2683.846557750036
 20
2801.138493849
 30
0.0
 11
2582.346557750036
 21
2801.138493849
 31
0.0
  0
INSERT
  5
2CCDD
330
2B70C
100
AcDbEntity
  8
DIM
 62
     0
370
    -2
100
AcDbBlockReference
  2
_Open30
 10
2734.846557750036
 20
2801.138493849
 30
0.0
 41
51.0
 42
51.0
 43
51.0
  0
INSERT
  5
2CCDE
330
2B70C
100
AcDbEntity
  8
DIM
 62
     0
370
    -2
100
AcDbBlockReference
  2
_Open30
 10
2531.346557750036
 20
2801.138493849
 30
0.0
 41
51.0
 42
51.0
 43
51.0
 50
180.0
  0
MTEXT
  5
2CCDF
330
2B70C
100
AcDbEntity
  8
DIM
 62
     0
100
AcDbMText
 10
2633.096557750036
 20
2839.388493849
 30
0.0
 40
42.5
 41
0.0
 46
0.0
 71
     5
 72
     1
  1
\A1;203.5
 73
     1
 44
1.0
  0
POINT
  5
2CCE0
330
2B70C
100
AcDbEntity
  8
Defpoints
 62
     0
100
AcDbPoint
 10
2734.846557750036
 20
3191.418825738151
 30
0.0
  0
POINT
  5
2CCE1
330
2B70C
100
AcDbEntity
  8
Defpoints
 62
     0
100
AcDbPoint
 10
2531.346557750036
 20
3253.155726667844
 30
0.0
  0
POINT
  5
2CCE2
330
2B70C
100
AcDbEntity
  8
Defpoints
 62
     0
100
AcDbPoint
 10
2531.346557750036
 20
2801.138493849
 30
0.0
  0
ENDBLK
  5
2B70E
330
2B70C
100
AcDbEntity
  8
0
100
AcDbBlockEnd
  0
BLOCK
  5
2B71A
330
2B719
100
AcDbEntity
  8
0
100
AcDbBlockBegin
  2
*D21
 70
     1
 10
0.0
 20
0.0
 30
0.0
  3
*D21
  1

  0
LINE
  5
2CCE3
330
2B719
100
AcDbEntity
  8
DIM
 62
     0
370
    -2
100
AcDbLine
 10
2734.846557750036
 20
3157.418825738151
 30
0.0
 11
2734.846557750036
 21
2629.295651989839
 31
0.0
  0
LINE
  5
2CCE4
330
2B719
100
AcDbEntity
  8
DIM
 62
     0
370
    -2
100
AcDbLine
 10
2491.346557750036
 20
3219.155726667815
 30
0.0
 11
2491.346557750036
 21
2629.295651989839
 31
0.0
  0
LINE
  5
2CCE5
330
2B719
100
AcDbEntity
  8
DIM
 62
     0
370
    -2
100
AcDbLine
 10
2683.846557750036
 20
2663.29565198984
 30
0.0
 11
2542.346557750036
 21
2663.29565198984
 31
0.0
  0
INSERT
  5
2CCE6
330
2B719
100
AcDbEntity
  8
DIM
 62
     0
370
    -2
100
AcDbBlockReference
  2
_Open30
 10
2734.846557750036
 20
2663.29565198984
 30
0.0
 41
51.0
 42
51.0
 43
51.0
  0
INSERT
  5
2CCE7
330
2B719
100
AcDbEntity
  8
DIM
 62
     0
370
    -2
100
AcDbBlockReference
  2
_Open30
 10
2491.346557750036
 20
2663.29565198984
 30
0.0
 41
51.0
 42
51.0
 43
51.0
 50
180.0
  0
MTEXT
  5
2CCE8
330
2B719
100
AcDbEntity
  8
DIM
 62
     0
100
AcDbMText
 10
2613.096557750036
 20
2701.54565198984
 30
0.0
 40
42.5
 41
0.0
 46
0.0
 71
     5
 72
     1
  1
\A1;243.5
 73
     1
 44
1.0
  0
POINT
  5
2CCE9
330
2B719
100
AcDbEntity
  8
Defpoints
 62
     0
100
AcDbPoint
 10
2734.846557750036
 20
3191.418825738151
 30
0.0
  0
POINT
  5
2CCEA
330
2B719
100
AcDbEntity
  8
Defpoints
 62
     0
100
AcDbPoint
 10
2491.346557750036
 20
3253.155726667815
 30
0.0
  0
POINT
  5
2CCEB
330
2B719
100
AcDbEntity
  8
Defpoints
 62
     0
100
AcDbPoint
 10
2491.346557750036
 20
2663.29565198984
 30
0.0
  0
ENDBLK
  5
2B71B
330
2B719
100
AcDbEntity
  8
0
100
AcDbBlockEnd
  0
BLOCK
  5
2B727
330
2B726
100
AcDbEntity
  8
0
100
AcDbBlockBegin
  2
*D22
 70
     1
 10
0.0
 20
0.0
 30
0.0
  3
*D22
  1

  0
LINE
  5
2CC2F
330
2B726
100
AcDbEntity
  8
DIM
 62
     0
370
    -2
100
AcDbLine
 10
2541.803358084126
 20
3375.973249026676
 30
0.0
 11
2541.803358084126
 21
4037.960829835215
 31
0.0
  0
LINE
  5
2CC30
330
2B726
100
AcDbEntity
  8
DIM
 62
     0
370
    -2
100
AcDbLine
 10
2927.889757415948
 20
3375.973249026676
 30
0.0
 11
2927.889757415948
 21
4037.960829835215
 31
0.0
  0
LINE
  5
2CC31
330
2B726
100
AcDbEntity
  8
DIM
 62
     0
370
    -2
100
AcDbLine
 10
2592.803358084126
 20
4003.960829835215
 30
0.0
 11
2876.889757415948
 21
4003.960829835215
 31
0.0
  0
INSERT
  5
2CC32
330
2B726
100
AcDbEntity
  8
DIM
 62
     0
370
    -2
100
AcDbBlockReference
  2
_Open30
 10
2541.803358084126
 20
4003.960829835215
 30
0.0
 41
51.0
 42
51.0
 43
51.0
 50
180.0
  0
INSERT
  5
2CC33
330
2B726
100
AcDbEntity
  8
DIM
 62
     0
370
    -2
100
AcDbBlockReference
  2
_Open30
 10
2927.889757415948
 20
4003.960829835215
 30
0.0
 41
51.0
 42
51.0
 43
51.0
  0
MTEXT
  5
2CC34
330
2B726
100
AcDbEntity
  8
DIM
 62
     0
100
AcDbMText
 10
2734.846557750037
 20
4042.210829835215
 30
0.0
 40
42.5
 41
0.0
 46
0.0
 71
     5
 72
     1
  1
\A1;386
 73
     1
 44
1.0
  0
POINT
  5
2CC35
330
2B726
100
AcDbEntity
  8
Defpoints
 62
     0
100
AcDbPoint
 10
2541.803358084126
 20
3341.973249026676
 30
0.0
  0
POINT
  5
2CC36
330
2B726
100
AcDbEntity
  8
Defpoints
 62
     0
100
AcDbPoint
 10
2927.889757415948
 20
3341.973249026676
 30
0.0
  0
POINT
  5
2CC37
330
2B726
100
AcDbEntity
  8
Defpoints
 62
     0
100
AcDbPoint
 10
2927.889757415948
 20
4003.960829835215
 30
0.0
  0
ENDBLK
  5
2B728
330
2B726
100
AcDbEntity
  8
0
100
AcDbBlockEnd
  0
BLOCK
  5
2B734
330
2B733
100
AcDbEntity
  8
0
100
AcDbBlockBegin
  2
*D23
 70
     1
 10
0.0
 20
0.0
 30
0.0
  3
*D23
  1

  0
LINE
  5
2CCC6
330
2B733
100
AcDbEntity
  8
DIM
 62
     0
370
    -2
100
AcDbLine
 10
2507.803358084126
 20
3341.973249026676
 30
0.0
 11
2142.844115605777
 21
3341.973249026676
 31
0.0
  0
LINE
  5
2CCC7
330
2B733
100
AcDbEntity
  8
DIM
 62
     0
370
    -2
100
AcDbLine
 10
2534.614913593219
 20
3658.440637969708
 30
0.0
 11
2142.844115605777
 21
3658.440637969708
 31
0.0
  0
LINE
  5
2CCC8
330
2B733
100
AcDbEntity
  8
DIM
 62
     0
370
    -2
100
AcDbLine
 10
2176.844115605776
 20
3392.973249026676
 30
0.0
 11
2176.844115605776
 21
3607.440637969708
 31
0.0
  0
INSERT
  5
2CCC9
330
2B733
100
AcDbEntity
  8
DIM
 62
     0
370
    -2
100
AcDbBlockReference
  2
_Open30
 10
2176.844115605776
 20
3341.973249026676
 30
0.0
 41
51.0
 42
51.0
 43
51.0
 50
270.0
  0
INSERT
  5
2CCCA
330
2B733
100
AcDbEntity
  8
DIM
 62
     0
370
    -2
100
AcDbBlockReference
  2
_Open30
 10
2176.844115605776
 20
3658.440637969708
 30
0.0
 41
51.0
 42
51.0
 43
51.0
 50
90.0
  0
MTEXT
  5
2CCCB
330
2B733
100
AcDbEntity
  8
DIM
 62
     0
100
AcDbMText
 10
2138.594115605776
 20
3500.206943498192
 30
0.0
 40
42.5
 41
0.0
 46
0.0
 71
     5
 72
     1
  1
\A1;316
 11
0.0000000000000001
 21
1.0
 31
0.0
 73
     1
 44
1.0
  0
POINT
  5
2CCCC
330
2B733
100
AcDbEntity
  8
Defpoints
 62
     0
100
AcDbPoint
 10
2541.803358084126
 20
3341.973249026676
 30
0.0
  0
POINT
  5
2CCCD
330
2B733
100
AcDbEntity
  8
Defpoints
 62
     0
100
AcDbPoint
 10
2568.614913593219
 20
3658.440637969708
 30
0.0
  0
POINT
  5
2CCCE
330
2B733
100
AcDbEntity
  8
Defpoints
 62
     0
100
AcDbPoint
 10
2176.844115605776
 20
3658.440637969708
 30
0.0
  0
ENDBLK
  5
2B735
330
2B733
100
AcDbEntity
  8
0
100
AcDbBlockEnd
  0
BLOCK
  5
2B741
330
2B740
100
AcDbEntity
  8
0
100
AcDbBlockBegin
  2
*D24
 70
     1
 10
0.0
 20
0.0
 30
0.0
  3
*D24
  1

  0
LINE
  5
2CCCF
330
2B740
100
AcDbEntity
  8
DIM
 62
     0
370
    -2
100
AcDbLine
 10
2534.614913593219
 20
3658.440637969708
 30
0.0
 11
2142.844115605777
 21
3658.440637969708
 31
0.0
  0
LINE
  5
2CCD0
330
2B740
100
AcDbEntity
  8
DIM
 62
     0
370
    -2
100
AcDbLine
 10
2427.446557750038
 20
3735.605726667716
 30
0.0
 11
2142.844115605777
 21
3735.605726667716
 31
0.0
  0
LINE
  5
2CCD1
330
2B740
100
AcDbEntity
  8
DIM
 62
     0
370
    -2
100
AcDbLine
 10
2176.844115605776
 20
3607.440637969708
 30
0.0
 11
2176.844115605776
 21
3556.440637969708
 31
0.0
  0
LINE
  5
2CCD2
330
2B740
100
AcDbEntity
  8
DIM
 62
     0
370
    -2
100
AcDbLine
 10
2176.844115605776
 20
3786.605726667716
 30
0.0
 11
2176.844115605777
 21
3926.653345715335
 31
0.0
  0
LINE
  5
2CCD3
330
2B740
100
AcDbEntity
  8
DIM
 62
     0
370
    -2
100
AcDbLine
 10
2176.844115605776
 20
3658.440637969708
 30
0.0
 11
2176.844115605776
 21
3735.605726667716
 31
0.0
  0
INSERT
  5
2CCD4
330
2B740
100
AcDbEntity
  8
DIM
 62
     0
370
    -2
100
AcDbBlockReference
  2
_Open30
 10
2176.844115605776
 20
3658.440637969708
 30
0.0
 41
51.0
 42
51.0
 43
51.0
 50
90.0
  0
INSERT
  5
2CCD5
330
2B740
100
AcDbEntity
  8
DIM
 62
     0
370
    -2
100
AcDbBlockReference
  2
_Open30
 10
2176.844115605776
 20
3735.605726667716
 30
0.0
 41
51.0
 42
51.0
 43
51.0
 50
270.0
  0
MTEXT
  5
2CCD6
330
2B740
100
AcDbEntity
  8
DIM
 62
     0
100
AcDbMText
 10
2138.594115605777
 20
3882.129536191526
 30
0.0
 40
42.5
 41
0.0
 46
0.0
 71
     5
 72
     1
  1
\A1;77
 11
0.0000000000000001
 21
1.0
 31
0.0
 73
     1
 44
1.0
  0
POINT
  5
2CCD7
330
2B740
100
AcDbEntity
  8
Defpoints
 62
     0
100
AcDbPoint
 10
2568.614913593219
 20
3658.440637969708
 30
0.0
  0
POINT
  5
2CCD8
330
2B740
100
AcDbEntity
  8
Defpoints
 62
     0
100
AcDbPoint
 10
2461.446557750038
 20
3735.605726667716
 30
0.0
  0
POINT
  5
2CCD9
330
2B740
100
AcDbEntity
  8
Defpoints
 62
     0
100
AcDbPoint
 10
2176.844115605776
 20
3735.605726667716
 30
0.0
  0
ENDBLK
  5
2B742
330
2B740
100
AcDbEntity
  8
0
100
AcDbBlockEnd
  0
BLOCK
  5
2B74E
330
2B74D
100
AcDbEntity
  8
0
100
AcDbBlockBegin
  2
*D25
 70
     1
 10
0.0
 20
0.0
 30
0.0
  3
*D25
  1

  0
LINE
  5
2CC55
330
2B74D
100
AcDbEntity
  8
DIM
 62
     0
370
    -2
100
AcDbLine
 10
3042.246557750037
 20
3735.605726667716
 30
0.0
 11
3286.379591773551
 21
3735.605726667715
 31
0.0
  0
LINE
  5
2CC56
330
2B74D
100
AcDbEntity
  8
DIM
 62
     0
370
    -2
100
AcDbLine
 10
2998.346557750036
 20
3275.655726667819
 30
0.0
 11
3286.379591773551
 21
3275.655726667818
 31
0.0
  0
LINE
  5
2CC57
330
2B74D
100
AcDbEntity
  8
DIM
 62
     0
370
    -2
100
AcDbLine
 10
3252.379591773551
 20
3684.605726667716
 30
0.0
 11
3252.379591773551
 21
3326.655726667818
 31
0.0
  0
INSERT
  5
2CC58
330
2B74D
100
AcDbEntity
  8
DIM
 62
     0
370
    -2
100
AcDbBlockReference
  2
_Open30
 10
3252.379591773551
 20
3735.605726667715
 30
0.0
 41
51.0
 42
51.0
 43
51.0
 50
90.0
  0
INSERT
  5
2CC59
330
2B74D
100
AcDbEntity
  8
DIM
 62
     0
370
    -2
100
AcDbBlockReference
  2
_Open30
 10
3252.379591773551
 20
3275.655726667818
 30
0.0
 41
51.0
 42
51.0
 43
51.0
 50
270.0
  0
MTEXT
  5
2CC5A
330
2B74D
100
AcDbEntity
  8
DIM
 62
     0
100
AcDbMText
 10
3214.129591773551
 20
3505.630726667768
 30
0.0
 40
42.5
 41
0.0
 46
0.0
 71
     5
 72
     1
  1
\A1;460
 11
0.0000000000000001
 21
1.0
 31
0.0
 73
     1
 44
1.0
  0
POINT
  5
2CC5B
330
2B74D
100
AcDbEntity
  8
Defpoints
 62
     0
100
AcDbPoint
 10
3008.246557750037
 20
3735.605726667716
 30
0.0
  0
POINT
  5
2CC5C
330
2B74D
100
AcDbEntity
  8
Defpoints
 62
     0
100
AcDbPoint
 10
2964.346557750036
 20
3275.655726667819
 30
0.0
  0
POINT
  5
2CC5D
330
2B74D
100
AcDbEntity
  8
Defpoints
 62
     0
100
AcDbPoint
 10
3252.379591773551
 20
3275.655726667818
 30
0.0
  0
ENDBLK
  5
2B74F
330
2B74D
100
AcDbEntity
  8
0
100
AcDbBlockEnd
  0
BLOCK
  5
2B75B
330
2B75A
100
AcDbEntity
  8
0
100
AcDbBlockBegin
  2
*D26
 70
     1
 10
0.0
 20
0.0
 30
0.0
  3
*D26
  1

  0
LINE
  5
2CC4C
330
2B75A
100
AcDbEntity
  8
DIM
 62
     0
370
    -2
100
AcDbLine
 10
2872.846557750036
 20
3283.185726667846
 30
0.0
 11
3158.486450662889
 21
3283.185726667845
 31
0.0
  0
LINE
  5
2CC4D
330
2B75A
100
AcDbEntity
  8
DIM
 62
     0
370
    -2
100
AcDbLine
 10
3042.246557750037
 20
3735.605726667716
 30
0.0
 11
3158.486450662889
 21
3735.605726667715
 31
0.0
  0
LINE
  5
2CC4E
330
2B75A
100
AcDbEntity
  8
DIM
 62
     0
370
    -2
100
AcDbLine
 10
3124.486450662889
 20
3334.185726667846
 30
0.0
 11
3124.486450662889
 21
3684.605726667716
 31
0.0
  0
INSERT
  5
2CC4F
330
2B75A
100
AcDbEntity
  8
DIM
 62
     0
370
    -2
100
AcDbBlockReference
  2
_Open30
 10
3124.486450662889
 20
3283.185726667845
 30
0.0
 41
51.0
 42
51.0
 43
51.0
 50
270.0
  0
INSERT
  5
2CC50
330
2B75A
100
AcDbEntity
  8
DIM
 62
     0
370
    -2
100
AcDbBlockReference
  2
_Open30
 10
3124.486450662889
 20
3735.605726667715
 30
0.0
 41
51.0
 42
51.0
 43
51.0
 50
90.0
  0
MTEXT
  5
2CC51
330
2B75A
100
AcDbEntity
  8
DIM
 62
     0
100
AcDbMText
 10
3086.236450662888
 20
3509.395726667781
 30
0.0
 40
42.5
 41
0.0
 46
0.0
 71
     5
 72
     1
  1
\A1;452
 11
0.0000000000000001
 21
1.0
 31
0.0
 73
     1
 44
1.0
  0
POINT
  5
2CC52
330
2B75A
100
AcDbEntity
  8
Defpoints
 62
     0
100
AcDbPoint
 10
2838.846557750036
 20
3283.185726667846
 30
0.0
  0
POINT
  5
2CC53
330
2B75A
100
AcDbEntity
  8
Defpoints
 62
     0
100
AcDbPoint
 10
3008.246557750037
 20
3735.605726667716
 30
0.0
  0
POINT
  5
2CC54
330
2B75A
100
AcDbEntity
  8
Defpoints
 62
     0
100
AcDbPoint
 10
3124.486450662889
 20
3735.605726667715
 30
0.0
  0
ENDBLK
  5
2B75C
330
2B75A
100
AcDbEntity
  8
0
100
AcDbBlockEnd
  0
BLOCK
  5
2B768
330
2B767
100
AcDbEntity
  8
0
100
AcDbBlockBegin
  2
*D27
 70
     1
 10
0.0
 20
0.0
 30
0.0
  3
*D27
  1

  0
LINE
  5
2CC38
330
2B767
100
AcDbEntity
  8
DIM
 62
     0
370
    -2
100
AcDbLine
 10
2568.61491359322
 20
3692.440637969708
 30
0.0
 11
2568.61491359322
 21
3933.294163168548
 31
0.0
  0
LINE
  5
2CC39
330
2B767
100
AcDbEntity
  8
DIM
 62
     0
370
    -2
100
AcDbLine
 10
2901.078201906854
 20
3692.440637969708
 30
0.0
 11
2901.078201906854
 21
3933.294163168548
 31
0.0
  0
LINE
  5
2CC3A
330
2B767
100
AcDbEntity
  8
DIM
 62
     0
370
    -2
100
AcDbLine
 10
2619.61491359322
 20
3899.294163168548
 30
0.0
 11
2850.078201906855
 21
3899.294163168548
 31
0.0
  0
INSERT
  5
2CC3B
330
2B767
100
AcDbEntity
  8
DIM
 62
     0
370
    -2
100
AcDbBlockReference
  2
_Open30
 10
2568.61491359322
 20
3899.294163168548
 30
0.0
 41
51.0
 42
51.0
 43
51.0
 50
180.0
  0
INSERT
  5
2CC3C
330
2B767
100
AcDbEntity
  8
DIM
 62
     0
370
    -2
100
AcDbBlockReference
  2
_Open30
 10
2901.078201906854
 20
3899.294163168548
 30
0.0
 41
51.0
 42
51.0
 43
51.0
  0
MTEXT
  5
2CC3D
330
2B767
100
AcDbEntity
  8
DIM
 62
     0
100
AcDbMText
 10
2734.846557750037
 20
3937.544163168548
 30
0.0
 40
42.5
 41
0.0
 46
0.0
 71
     5
 72
     1
  1
\A1;332
 73
     1
 44
1.0
  0
POINT
  5
2CC3E
330
2B767
100
AcDbEntity
  8
Defpoints
 62
     0
100
AcDbPoint
 10
2568.61491359322
 20
3658.440637969708
 30
0.0
  0
POINT
  5
2CC3F
330
2B767
100
AcDbEntity
  8
Defpoints
 62
     0
100
AcDbPoint
 10
2901.078201906854
 20
3658.440637969708
 30
0.0
  0
POINT
  5
2CC40
330
2B767
100
AcDbEntity
  8
Defpoints
 62
     0
100
AcDbPoint
 10
2901.078201906854
 20
3899.294163168548
 30
0.0
  0
ENDBLK
  5
2B769
330
2B767
100
AcDbEntity
  8
0
100
AcDbBlockEnd
  0
BLOCK
  5
2B775
330
2B774
100
AcDbEntity
  8
0
100
AcDbBlockBegin
  2
*D28
 70
     1
 10
0.0
 20
0.0
 30
0.0
  3
*D28
  1

  0
LINE
  5
2CCBB
330
2B774
100
AcDbEntity
  8
DIM
 62
     0
370
    -2
100
AcDbLine
 10
2507.803358084126
 20
3341.973249026676
 30
0.0
 11
2142.844115605777
 21
3341.973249026676
 31
0.0
  0
LINE
  5
2CCBC
330
2B774
100
AcDbEntity
  8
DIM
 62
     0
370
    -2
100
AcDbLine
 10
2427.446557750038
 20
3227.605726667714
 30
0.0
 11
2142.844115605777
 21
3227.605726667714
 31
0.0
  0
LINE
  5
2CCBD
330
2B774
100
AcDbEntity
  8
DIM
 62
     0
370
    -2
100
AcDbLine
 10
2176.844115605777
 20
3392.973249026676
 30
0.0
 11
2176.844115605777
 21
3443.973249026676
 31
0.0
  0
LINE
  5
2CCBE
330
2B774
100
AcDbEntity
  8
DIM
 62
     0
370
    -2
100
AcDbLine
 10
2176.844115605777
 20
3176.605726667714
 30
0.0
 11
2176.844115605777
 21
2951.700583810572
 31
0.0
  0
LINE
  5
2CCBF
330
2B774
100
AcDbEntity
  8
DIM
 62
     0
370
    -2
100
AcDbLine
 10
2176.844115605777
 20
3341.973249026676
 30
0.0
 11
2176.844115605777
 21
3227.605726667714
 31
0.0
  0
INSERT
  5
2CCC0
330
2B774
100
AcDbEntity
  8
DIM
 62
     0
370
    -2
100
AcDbBlockReference
  2
_Open30
 10
2176.844115605777
 20
3341.973249026676
 30
0.0
 41
51.0
 42
51.0
 43
51.0
 50
270.0
  0
INSERT
  5
2CCC1
330
2B774
100
AcDbEntity
  8
DIM
 62
     0
370
    -2
100
AcDbBlockReference
  2
_Open30
 10
2176.844115605777
 20
3227.605726667714
 30
0.0
 41
51.0
 42
51.0
 43
51.0
 50
90.0
  0
MTEXT
  5
2CCC2
330
2B774
100
AcDbEntity
  8
DIM
 62
     0
100
AcDbMText
 10
2138.594115605777
 20
3030.062488572477
 30
0.0
 40
42.5
 41
0.0
 46
0.0
 71
     5
 72
     1
  1
\A1;（114）
 11
0.0000000000000001
 21
1.0
 31
0.0
 73
     1
 44
1.0
  0
POINT
  5
2CCC3
330
2B774
100
AcDbEntity
  8
Defpoints
 62
     0
100
AcDbPoint
 10
2541.803358084126
 20
3341.973249026676
 30
0.0
  0
POINT
  5
2CCC4
330
2B774
100
AcDbEntity
  8
Defpoints
 62
     0
100
AcDbPoint
 10
2461.446557750038
 20
3227.605726667714
 30
0.0
  0
POINT
  5
2CCC5
330
2B774
100
AcDbEntity
  8
Defpoints
 62
     0
100
AcDbPoint
 10
2176.844115605777
 20
3227.605726667714
 30
0.0
  0
ENDBLK
  5
2B776
330
2B774
100
AcDbEntity
  8
0
100
AcDbBlockEnd
  0
BLOCK
  5
2B781
330
2B780
100
AcDbEntity
  8
0
100
AcDbBlockBegin
  2
*D29
 70
     1
 10
0.0
 20
0.0
 30
0.0
  3
*D29
  1

  0
LINE
  5
2CCEC
330
2B780
100
AcDbEntity
  8
DIM
 62
     0
370
    -2
100
AcDbLine
 10
2491.346557750036
 20
3219.155726667815
 30
0.0
 11
2491.346557750036
 21
2629.295651989839
 31
0.0
  0
LINE
  5
2CCED
330
2B780
100
AcDbEntity
  8
DIM
 62
     0
370
    -2
100
AcDbLine
 10
2454.846557750036
 20
3199.605726667716
 30
0.0
 11
2454.846557750036
 21
2629.295651989839
 31
0.0
  0
LINE
  5
2CCEE
330
2B780
100
AcDbEntity
  8
DIM
 62
     0
370
    -2
100
AcDbLine
 10
2542.346557750036
 20
2663.29565198984
 30
0.0
 11
2593.346557750036
 21
2663.29565198984
 31
0.0
  0
LINE
  5
2CCEF
330
2B780
100
AcDbEntity
  8
DIM
 62
     0
370
    -2
100
AcDbLine
 10
2403.846557750036
 20
2663.29565198984
 30
0.0
 11
2166.979891083369
 21
2663.29565198984
 31
0.0
  0
LINE
  5
2CCF0
330
2B780
100
AcDbEntity
  8
DIM
 62
     0
370
    -2
100
AcDbLine
 10
2491.346557750036
 20
2663.29565198984
 30
0.0
 11
2454.846557750036
 21
2663.29565198984
 31
0.0
  0
INSERT
  5
2CCF1
330
2B780
100
AcDbEntity
  8
DIM
 62
     0
370
    -2
100
AcDbBlockReference
  2
_Open30
 10
2491.346557750036
 20
2663.29565198984
 30
0.0
 41
51.0
 42
51.0
 43
51.0
 50
180.0
  0
INSERT
  5
2CCF2
330
2B780
100
AcDbEntity
  8
DIM
 62
     0
370
    -2
100
AcDbBlockReference
  2
_Open30
 10
2454.846557750036
 20
2663.29565198984
 30
0.0
 41
51.0
 42
51.0
 43
51.0
  0
MTEXT
  5
2CCF3
330
2B780
100
AcDbEntity
  8
DIM
 62
     0
100
AcDbMText
 10
2259.913224416703
 20
2701.54565198984
 30
0.0
 40
42.5
 41
0.0
 46
0.0
 71
     5
 72
     1
  1
\A1;（36.5）
 73
     1
 44
1.0
  0
POINT
  5
2CCF4
330
2B780
100
AcDbEntity
  8
Defpoints
 62
     0
100
AcDbPoint
 10
2491.346557750036
 20
3253.155726667815
 30
0.0
  0
POINT
  5
2CCF5
330
2B780
100
AcDbEntity
  8
Defpoints
 62
     0
100
AcDbPoint
 10
2454.846557750036
 20
3233.605726667716
 30
0.0
  0
POINT
  5
2CCF6
330
2B780
100
AcDbEntity
  8
Defpoints
 62
     0
100
AcDbPoint
 10
2454.846557750036
 20
2663.29565198984
 30
0.0
  0
ENDBLK
  5
2B782
330
2B780
100
AcDbEntity
  8
0
100
AcDbBlockEnd
  0
BLOCK
  5
2B78E
330
2B78D
100
AcDbEntity
  8
0
100
AcDbBlockBegin
  2
*D30
 70
     1
 10
0.0
 20
0.0
 30
0.0
  3
*D30
  1

  0
LINE
  5
2CCB0
330
2B78D
100
AcDbEntity
  8
DIM
 62
     0
370
    -2
100
AcDbLine
 10
2924.846557750036
 20
3202.155726667819
 30
0.0
 11
2924.846557750036
 21
2767.138493849
 31
0.0
  0
LINE
  5
2CCB1
330
2B78D
100
AcDbEntity
  8
DIM
 62
     0
370
    -2
100
AcDbLine
 10
3014.846557750038
 20
3199.605726667716
 30
0.0
 11
3014.846557750038
 21
2767.138493849
 31
0.0
  0
LINE
  5
2CCB2
330
2B78D
100
AcDbEntity
  8
DIM
 62
     0
370
    -2
100
AcDbLine
 10
2873.846557750036
 20
2801.138493849
 30
0.0
 11
2822.846557750036
 21
2801.138493849
 31
0.0
  0
LINE
  5
2CCB3
330
2B78D
100
AcDbEntity
  8
DIM
 62
     0
370
    -2
100
AcDbLine
 10
3065.846557750038
 20
2801.138493849
 30
0.0
 11
3254.141795845276
 21
2801.138493849
 31
0.0
  0
LINE
  5
2CCB4
330
2B78D
100
AcDbEntity
  8
DIM
 62
     0
370
    -2
100
AcDbLine
 10
2924.846557750036
 20
2801.138493849
 30
0.0
 11
3014.846557750038
 21
2801.138493849
 31
0.0
  0
INSERT
  5
2CCB5
330
2B78D
100
AcDbEntity
  8
DIM
 62
     0
370
    -2
100
AcDbBlockReference
  2
_Open30
 10
2924.846557750036
 20
2801.138493849
 30
0.0
 41
51.0
 42
51.0
 43
51.0
  0
INSERT
  5
2CCB6
330
2B78D
100
AcDbEntity
  8
DIM
 62
     0
370
    -2
100
AcDbBlockReference
  2
_Open30
 10
3014.846557750038
 20
2801.138493849
 30
0.0
 41
51.0
 42
51.0
 43
51.0
 50
180.0
  0
MTEXT
  5
2CCB7
330
2B78D
100
AcDbEntity
  8
DIM
 62
     0
100
AcDbMText
 10
3185.494176797657
 20
2839.388493849
 30
0.0
 40
42.5
 41
0.0
 46
0.0
 71
     5
 72
     1
  1
\A1;（90）
 73
     1
 44
1.0
  0
POINT
  5
2CCB8
330
2B78D
100
AcDbEntity
  8
Defpoints
 62
     0
100
AcDbPoint
 10
2924.846557750036
 20
3236.155726667819
 30
0.0
  0
POINT
  5
2CCB9
330
2B78D
100
AcDbEntity
  8
Defpoints
 62
     0
100
AcDbPoint
 10
3014.846557750038
 20
3233.605726667716
 30
0.0
  0
POINT
  5
2CCBA
330
2B78D
100
AcDbEntity
  8
Defpoints
 62
     0
100
AcDbPoint
 10
3014.846557750038
 20
2801.138493849
 30
0.0
  0
ENDBLK
  5
2B78F
330
2B78D
100
AcDbEntity
  8
0
100
AcDbBlockEnd
  0
BLOCK
  5
2B7B5
330
2B7B4
100
AcDbEntity
  8
0
100
AcDbBlockBegin
  2
*D31
 70
     1
 10
0.0
 20
0.0
 30
0.0
  3
*D31
  1

  0
LINE
  5
2CC67
330
2B7B4
100
AcDbEntity
  8
DIM
 62
     0
370
    -2
100
AcDbLine
 10
2998.346557750036
 20
3275.655726667819
 30
0.0
 11
3286.379591773551
 21
3275.655726667818
 31
0.0
  0
LINE
  5
2CC68
330
2B7B4
100
AcDbEntity
  8
DIM
 62
     0
370
    -2
100
AcDbLine
 10
3042.246557750037
 20
3227.605726667716
 30
0.0
 11
3286.379591773551
 21
3227.605726667715
 31
0.0
  0
LINE
  5
2CC69
330
2B7B4
100
AcDbEntity
  8
DIM
 62
     0
370
    -2
100
AcDbLine
 10
3252.379591773551
 20
3326.655726667818
 30
0.0
 11
3252.379591773551
 21
3377.655726667819
 31
0.0
  0
LINE
  5
2CC6A
330
2B7B4
100
AcDbEntity
  8
DIM
 62
     0
370
    -2
100
AcDbLine
 10
3252.379591773551
 20
3176.605726667716
 30
0.0
 11
3252.379591773551
 21
2988.310488572478
 31
0.0
  0
LINE
  5
2CC6B
330
2B7B4
100
AcDbEntity
  8
DIM
 62
     0
370
    -2
100
AcDbLine
 10
3252.379591773551
 20
3275.655726667818
 30
0.0
 11
3252.379591773551
 21
3227.605726667715
 31
0.0
  0
INSERT
  5
2CC6C
330
2B7B4
100
AcDbEntity
  8
DIM
 62
     0
370
    -2
100
AcDbBlockReference
  2
_Open30
 10
3252.379591773551
 20
3275.655726667818
 30
0.0
 41
51.0
 42
51.0
 43
51.0
 50
270.0
  0
INSERT
  5
2CC6D
330
2B7B4
100
AcDbEntity
  8
DIM
 62
     0
370
    -2
100
AcDbBlockReference
  2
_Open30
 10
3252.379591773551
 20
3227.605726667715
 30
0.0
 41
51.0
 42
51.0
 43
51.0
 50
90.0
  0
MTEXT
  5
2CC6E
330
2B7B4
100
AcDbEntity
  8
DIM
 62
     0
100
AcDbMText
 10
3214.129591773551
 20
3056.958107620097
 30
0.0
 40
42.5
 41
0.0
 46
0.0
 71
     5
 72
     1
  1
\A1;（48）
 11
0.0000000000000001
 21
1.0
 31
0.0
 73
     1
 44
1.0
  0
POINT
  5
2CC6F
330
2B7B4
100
AcDbEntity
  8
Defpoints
 62
     0
100
AcDbPoint
 10
2964.346557750036
 20
3275.655726667819
 30
0.0
  0
POINT
  5
2CC70
330
2B7B4
100
AcDbEntity
  8
Defpoints
 62
     0
100
AcDbPoint
 10
3008.246557750037
 20
3227.605726667716
 30
0.0
  0
POINT
  5
2CC71
330
2B7B4
100
AcDbEntity
  8
Defpoints
 62
     0
100
AcDbPoint
 10
3252.379591773551
 20
3227.605726667715
 30
0.0
  0
ENDBLK
  5
2B7B6
330
2B7B4
100
AcDbEntity
  8
0
100
AcDbBlockEnd
  0
BLOCK
  5
2B7C2
330
2B7C1
100
AcDbEntity
  8
0
100
AcDbBlockBegin
  2
*D32
 70
     1
 10
0.0
 20
0.0
 30
0.0
  3
*D32
  1

  0
LINE
  5
2CC41
330
2B7C1
100
AcDbEntity
  8
DIM
 62
     0
370
    -2
100
AcDbLine
 10
2908.078201906854
 20
3707.440637969708
 30
0.0
 11
2908.078201906854
 21
3828.627496501882
 31
0.0
  0
LINE
  5
2CC42
330
2B7C1
100
AcDbEntity
  8
DIM
 62
     0
370
    -2
100
AcDbLine
 10
2894.078201906854
 20
3707.440637969708
 30
0.0
 11
2894.078201906854
 21
3828.627496501882
 31
0.0
  0
LINE
  5
2CC43
330
2B7C1
100
AcDbEntity
  8
DIM
 62
     0
370
    -2
100
AcDbLine
 10
2959.078201906855
 20
3794.627496501882
 30
0.0
 11
3010.078201906854
 21
3794.627496501882
 31
0.0
  0
LINE
  5
2CC44
330
2B7C1
100
AcDbEntity
  8
DIM
 62
     0
370
    -2
100
AcDbLine
 10
2843.078201906855
 20
3794.627496501882
 30
0.0
 11
2707.887725716378
 21
3794.627496501882
 31
0.0
  0
LINE
  5
2CC45
330
2B7C1
100
AcDbEntity
  8
DIM
 62
     0
370
    -2
100
AcDbLine
 10
2908.078201906854
 20
3794.627496501882
 30
0.0
 11
2894.078201906854
 21
3794.627496501882
 31
0.0
  0
INSERT
  5
2CC46
330
2B7C1
100
AcDbEntity
  8
DIM
 62
     0
370
    -2
100
AcDbBlockReference
  2
_Open30
 10
2908.078201906854
 20
3794.627496501882
 30
0.0
 41
51.0
 42
51.0
 43
51.0
 50
180.0
  0
INSERT
  5
2CC47
330
2B7C1
100
AcDbEntity
  8
DIM
 62
     0
370
    -2
100
AcDbBlockReference
  2
_Open30
 10
2894.078201906854
 20
3794.627496501882
 30
0.0
 41
51.0
 42
51.0
 43
51.0
  0
MTEXT
  5
2CC48
330
2B7C1
100
AcDbEntity
  8
DIM
 62
     0
100
AcDbMText
 10
2749.982963811616
 20
3832.877496501882
 30
0.0
 40
42.5
 41
0.0
 46
0.0
 71
     5
 72
     1
  1
\A1;14
 73
     1
 44
1.0
  0
POINT
  5
2CC49
330
2B7C1
100
AcDbEntity
  8
Defpoints
 62
     0
100
AcDbPoint
 10
2908.078201906854
 20
3673.440637969708
 30
0.0
  0
POINT
  5
2CC4A
330
2B7C1
100
AcDbEntity
  8
Defpoints
 62
     0
100
AcDbPoint
 10
2894.078201906854
 20
3673.440637969708
 30
0.0
  0
POINT
  5
2CC4B
330
2B7C1
100
AcDbEntity
  8
Defpoints
 62
     0
100
AcDbPoint
 10
2894.078201906854
 20
3794.627496501882
 30
0.0
  0
ENDBLK
  5
2B7C3
330
2B7C1
100
AcDbEntity
  8
0
100
AcDbBlockEnd
  0
ENDSEC
  0
SECTION
  2
ENTITIES
  0
INSERT
  5
15497
330
17
100
AcDbEntity
  8
0
100
AcDbBlockReference
 66
     1
  2
dimstat2
 10
7723.001826654316
 20
1309.141213428434
 30
0.0
  0
ATTRIB
  5
15498
330
15497
100
AcDbEntity
  8
0
100
AcDbText
 10
7723.001826654316
 20
1309.141213428434
 30
0.0
 40
1.0
  1
(1.28 1.92 0 0 0 0 0 3.2 12 0 )
 41
0.7
100
AcDbAttribute
  2
DIMSIZ
 70
     1
280
     0
  0
SEQEND
  5
15499
330
15497
100
AcDbEntity
  8
0
  0
INSERT
  5
1549A
330
17
100
AcDbEntity
  8
0
100
AcDbBlockReference
 66
     1
  2
dimstat
 10
7723.001826654316
 20
1309.141213428434
 30
0.0
  0
ATTRIB
  5
1549B
330
1549A
100
AcDbEntity
  8
0
100
AcDbText
 10
7723.001826654316
 20
1310.141213428434
 30
0.0
 40
1.0
  1
1
 41
0.7
 51
15.0
100
AcDbAttribute
  2
DIMEXT
 70
     1
280
     0
  0
ATTRIB
  5
1549C
330
1549A
100
AcDbEntity
  8
0
100
AcDbText
 10
7723.001826654316
 20
1309.141213428434
 30
0.0
 40
1.0
  1
10 
 41
0.7
 51
15.0
100
AcDbAttribute
  2
DIMBAL
 70
     1
280
     0
  0
ATTRIB
  5
1549D
330
1549A
100
AcDbEntity
  8
0
100
AcDbText
 10
7723.965683778214
 20
1308.229563439422
 30
0.0
 40
1.0
  1
4 
 41
0.7
 51
15.0
 72
     1
 11
7724.509017111548
 21
1308.229563439422
 31
0.0
100
AcDbAttribute
  2
SYMSCL
 70
     1
280
     0
  0
SEQEND
  5
1549E
330
1549A
100
AcDbEntity
  8
0
  0
TEXT
  5
25323
330
17
100
AcDbEntity
  8
DIM
100
AcDbText
 10
307.4392343690368
 20
4635.336379782718
 30
0.0
 40
96.0
  1
給湯専用角形２００Ｌ外形図』
 41
0.8
100
AcDbText
  0
TEXT
  5
29A1F
330
17
100
AcDbEntity
  8
DIMTEXT
100
AcDbText
 10
2342.185249700009
 20
4636.259518379797
 30
0.0
 40
48.0
  1
質量
 41
0.8
 72
     1
 11
2383.145249700009
 21
4660.259518379797
 31
0.0
100
AcDbText
 73
     2
  0
TEXT
  5
29A20
330
17
100
AcDbEntity
  8
DIMTEXT
100
AcDbText
 10
2312.360345463718
 20
4566.634853247903
 30
0.0
 40
48.0
  1
（kg）
 41
0.8
 72
     1
 11
2375.994631178003
 21
4590.634853247903
 31
0.0
100
AcDbText
 73
     2
  0
LINE
  5
29A22
330
17
100
AcDbEntity
  8
WAKU
100
AcDbLine
 10
2285.441927431141
 20
4538.969263665038
 30
0.0
 11
3285.441927431142
 21
4538.969263665037
 31
0.0
  0
LINE
  5
29A23
330
17
100
AcDbEntity
  8
WAKU
100
AcDbLine
 10
2285.441927431141
 20
4858.969263665041
 30
0.0
 11
2285.441927431141
 21
4538.969263665038
 31
0.0
  0
LINE
  5
29A24
330
17
100
AcDbEntity
  8
WAKU
100
AcDbLine
 10
2285.441927431141
 20
4698.969263665039
 30
0.0
 11
3285.441927431142
 21
4698.969263665039
 31
0.0
  0
LINE
  5
29A25
330
17
100
AcDbEntity
  8
WAKU
100
AcDbLine
 10
2485.441927431141
 20
4618.969263665038
 30
0.0
 11
3285.441927431142
 21
4618.969263665038
 31
0.0
  0
LINE
  5
29A26
330
17
100
AcDbEntity
  8
WAKU
100
AcDbLine
 10
2285.441927431141
 20
4778.96926366504
 30
0.0
 11
3285.441927431142
 21
4778.969263665039
 31
0.0
  0
LINE
  5
29A28
330
17
100
AcDbEntity
  8
WAKU
100
AcDbLine
 10
2735.441927431139
 20
4858.969263665041
 30
0.0
 11
2735.441927431139
 21
4538.969263665038
 31
0.0
  0
LINE
  5
29A29
330
17
100
AcDbEntity
  8
WAKU
100
AcDbLine
 10
2485.44192743114
 20
4698.969263665039
 30
0.0
 11
2485.441927431141
 21
4538.969263665038
 31
0.0
  0
TEXT
  5
29A2A
330
17
100
AcDbEntity
  8
DIMTEXT
100
AcDbText
 10
2442.721927431142
 20
4714.969263665039
 30
0.0
 40
48.0
  1
圧　力
 41
0.8
 72
     1
 11
2505.441927431141
 21
4738.96926366504
 31
0.0
100
AcDbText
 73
     2
  0
TEXT
  5
29A2B
330
17
100
AcDbEntity
  8
DIMTEXT
100
AcDbText
 10
2546.441927431141
 20
4634.969263665039
 30
0.0
 40
48.0
  1
本　体
 41
0.8
 72
     1
 11
2610.441927431141
 21
4658.969263665039
 31
0.0
100
AcDbText
 73
     2
  0
TEXT
  5
29A2C
330
17
100
AcDbEntity
  8
DIMTEXT
100
AcDbText
 10
2546.441927431141
 20
4554.969263665038
 30
0.0
 40
48.0
  1
満水時
 41
0.8
 72
     1
 11
2610.441927431141
 21
4578.969263665038
 31
0.0
100
AcDbText
 73
     2
  0
TEXT
  5
29A2D
330
17
100
AcDbEntity
  8
DIMTEXT
100
AcDbText
 10
2441.441927431141
 20
4798.35288330479
 30
0.0
 40
48.0
  1
品　番
 41
0.8
 72
     1
 11
2505.441927431141
 21
4822.35288330479
 31
0.0
100
AcDbText
 73
     2
  0
LINE
  5
29A2E
330
17
100
AcDbEntity
  8
WAKU
100
AcDbLine
 10
2735.441927431143
 20
4548.969263665036
 30
0.0
 11
2735.441927431143
 21
4538.969263665038
 31
0.0
  0
LINE
  5
29A2F
330
17
100
AcDbEntity
  8
WAKU
100
AcDbLine
 10
3285.441927431142
 20
4858.96926366504
 30
0.0
 11
3285.441927431142
 21
4538.969263665038
 31
0.0
  0
TEXT
  5
2A245
330
17
100
AcDbEntity
  8
DIMTEXT
100
AcDbText
 10
2798.327641716857
 20
4794.96926366504
 30
0.0
 40
48.0
  1
YS20NBC1-J17
 41
0.8
 72
     1
 11
3010.441927431143
 21
4818.96926366504
 31
0.0
100
AcDbText
 73
     2
  0
TEXT
  5
2A246
330
17
100
AcDbEntity
  8
DIMTEXT
100
AcDbText
 10
2876.504894981445
 20
4714.96926366504
 30
0.0
 40
48.0
  1
標準圧タイプ
 41
0.8
 72
     1
 11
3009.624894981445
 21
4738.96926366504
 31
0.0
100
AcDbText
 73
     2
  0
TEXT
  5
2A247
330
17
100
AcDbEntity
  8
DIMTEXT
100
AcDbText
 10
2978.539180695731
 20
4634.969263665041
 30
0.0
 40
48.0
  1
55
 41
0.8
 72
     1
 11
3009.624894981445
 21
4658.969263665041
 31
0.0
100
AcDbText
 73
     2
  0
TEXT
  5
2A248
330
17
100
AcDbEntity
  8
DIMTEXT
100
AcDbText
 10
2960.253466410017
 20
4554.969263665041
 30
0.0
 40
48.0
  1
255
 41
0.8
 72
     1
 11
3009.624894981445
 21
4578.969263665041
 31
0.0
100
AcDbText
 73
     2
  0
LEADER
  5
2AF7C
330
17
100
AcDbEntity
  8
DIM
100
AcDbLeader
  3
STANDARD
 73
     0
 75
     1
 40
42.5
 41
276.5333333333334
 76
     3
 10
1121.231971898282
 20
3781.004426772033
 30
0.0
 10
809.7263988875367
 20
3964.160269430378
 30
0.0
 10
758.7263988875366
 20
3964.160269430378
 30
0.0
340
2AF7D
1001
ACAD
1000
DSTYLE
1002
{
1070
    41
1040
3.0
1070
    42
1040
2.0
1070
    43
1040
10.0
1070
    44
1040
2.0
1070
    45
1040
1.0
1070
    73
1070
     0
1070
    74
1070
     0
1070
    77
1070
     1
1070
    78
1070
     8
1070
    79
1070
     2
1070
   140
1040
3.2
1070
   147
1040
0.9999999999999996
1070
   172
1070
     1
1070
   271
1070
     1
1070
   272
1070
     1
1070
   341
1005
4A
1070
   342
1005
4A
1002
}
  0
MTEXT
  5
2AF7D
102
{ACAD_REACTORS
330
2AF7C
102
}
330
17
100
AcDbEntity
  8
DIM
100
AcDbMText
 10
741.7263988875366
 20
3981.160269430378
 30
0.0
 40
42.5
 41
539.5
 46
0.0
 71
     9
 72
     1
  1
上部振止め金具
 73
     1
 44
1.0
  0
DIMENSION
  5
2AF7E
330
17
100
AcDbEntity
  8
DIM
100
AcDbDimension
  2
*D7
 10
1568.909700437801
 20
3731.605726667717
 30
0.0
 11
1568.9097004378
 21
4088.15925047724
 31
0.0
 70
   160
  1
最大<>mm
 71
     5
 42
89.99999999999955
 73
     0
 74
     0
 75
     0
  3
STANDARD
100
AcDbAlignedDimension
 13
1241.231971898284
 23
3821.605726667717
 33
0.0
 14
1454.631971898282
 24
3731.605726667717
 34
0.0
 50
90.0
100
AcDbRotatedDimension
1001
ACAD
1000
DSTYLE
1002
{
1070
    41
1040
3.0
1070
    42
1040
2.0
1070
    43
1040
10.0
1070
    44
1040
2.0
1070
    45
1040
1.0
1070
    73
1070
     0
1070
    74
1070
     0
1070
    77
1070
     1
1070
    78
1070
     8
1070
    79
1070
     2
1070
   140
1040
2.5
1070
   147
1040
0.9999999999999996
1070
   172
1070
     1
1070
   271
1070
     1
1070
   272
1070
     1
1070
   341
1005
4A
1070
   342
1005
4A
1002
}
  0
DIMENSION
  5
2AF7F
330
17
100
AcDbEntity
  8
DIM
100
AcDbDimension
  2
*D8
 10
1457.231971898283
 20
3896.329080397771
 30
0.0
 11
1181.231971898282
 21
3934.579080397771
 31
0.0
 70
    32
  1
（560）
 71
     5
 42
552.0000000000021
 73
     0
 74
     0
 75
     0
  3
STANDARD
100
AcDbAlignedDimension
 13
905.2319718982809
 23
3729.605726667716
 33
0.0
 14
1457.231971898283
 24
3729.605726667716
 34
0.0
100
AcDbRotatedDimension
1001
ACAD
1000
DSTYLE
1002
{
1070
    41
1040
3.0
1070
    42
1040
2.0
1070
    43
1040
10.0
1070
    44
1040
2.0
1070
    45
1040
1.0
1070
    73
1070
     0
1070
    74
1070
     0
1070
    77
1070
     1
1070
    78
1070
     8
1070
    79
1070
     2
1070
   140
1040
2.5
1070
   147
1040
0.9999999999999996
1070
   172
1070
     1
1070
   271
1070
     1
1070
   272
1070
     1
1070
   341
1005
4A
1070
   342
1005
4A
1002
}
  0
DIMENSION
  5
2AF80
330
17
100
AcDbEntity
  8
DIM
100
AcDbDimension
  2
*D9
 10
1568.909700437797
 20
3231.605726667716
 30
0.0
 11
1530.659700437796
 21
3481.605726667716
 31
0.0
 70
    32
  1
（508）
 71
     5
 42
500.0
 73
     0
 74
     0
 75
     0
  3
STANDARD
100
AcDbAlignedDimension
 13
1454.631971898282
 23
3731.605726667716
 33
0.0
 14
1454.631971898282
 24
3231.605726667716
 34
0.0
 50
90.0
100
AcDbRotatedDimension
1001
ACAD
1000
DSTYLE
1002
{
1070
    41
1040
3.0
1070
    42
1040
2.0
1070
    43
1040
10.0
1070
    44
1040
2.0
1070
    45
1040
1.0
1070
    73
1070
     0
1070
    74
1070
     0
1070
    77
1070
     1
1070
    78
1070
     8
1070
    79
1070
     2
1070
   140
1040
2.5
1070
   147
1040
0.9999999999999996
1070
   172
1070
     1
1070
   271
1070
     1
1070
   272
1070
     1
1070
   341
1005
4A
1070
   342
1005
4A
1002
}
  0
LEADER
  5
2AF82
330
17
100
AcDbEntity
  8
DIM
100
AcDbLeader
  3
STANDARD
 73
     0
 75
     1
 40
42.5
 41
235.7333333333333
 76
     3
 10
1234.731971898282
 20
2384.434921727628
 30
0.0
 10
571.2167794352373
 20
2634.366442558422
 30
0.0
 10
537.2167794352373
 20
2634.366442558422
 30
0.0
340
2AF83
1001
ACAD
1000
DSTYLE
1002
{
1070
    41
1040
2.0
1070
   147
1040
1.0
1070
    77
1070
     1
1070
    43
1040
10.0
1070
    73
1070
     0
1070
    74
1070
     0
1070
   172
1070
     1
1070
   179
1070
     1
1070
   271
1070
     1
1070
   272
1070
     1
1070
   341
1005
4A
1070
   342
1005
0
1002
}
  0
MTEXT
  5
2AF83
102
{ACAD_REACTORS
330
2AF82
102
}
330
17
100
AcDbEntity
  8
DIM
100
AcDbMText
 10
520.2167794352373
 20
2651.366442558422
 30
0.0
 40
42.5
 41
539.5
 46
0.0
 71
     9
 72
     1
  1
逃し弁点検窓
 73
     1
 44
1.0
  0
LEADER
  5
2AF84
330
17
100
AcDbEntity
  8
DIM
100
AcDbLeader
  3
STANDARD
 73
     0
 75
     1
 40
42.5
 41
355.8666666666666
 76
     3
 10
933.7970606674959
 20
589.346754614474
 30
0.0
 10
692.7485667356425
 20
419.2661667938535
 30
0.0
 10
658.7485667356425
 20
419.2661667938535
 30
0.0
340
2AF85
1001
ACAD
1000
DSTYLE
1002
{
1070
    41
1040
2.0
1070
   147
1040
1.0
1070
    77
1070
     1
1070
    43
1040
10.0
1070
    73
1070
     0
1070
    74
1070
     0
1070
   172
1070
     1
1070
   179
1070
     1
1070
   271
1070
     1
1070
   272
1070
     1
1070
   341
1005
4A
1070
   342
1005
4A
1002
}
  0
MTEXT
  5
2AF85
102
{ACAD_REACTORS
330
2AF84
102
}
330
17
100
AcDbEntity
  8
DIM
100
AcDbMText
 10
641.7485667356425
 20
436.2661667938535
 30
0.0
 40
42.5
 41
539.5
 46
0.0
 71
     9
 72
     1
  1
排水パンゴムホース
 73
     1
 44
1.0
  0
LEADER
  5
2AF86
330
17
100
AcDbEntity
  8
DIM
100
AcDbLeader
  3
STANDARD
 73
     0
 75
     1
 40
47.22222222222223
 41
35.25925925925926
 76
     3
 10
955.9730244641361
 20
642.2464409306285
 30
0.0
 10
371.870404497121
 20
848.131982320986
 30
0.0
 10
337.870404497121
 20
848.131982320986
 30
0.0
340
2AF87
1001
ACAD
1000
DSTYLE
1002
{
1070
    41
1040
2.0
1070
   147
1040
1.0
1070
    77
1070
     1
1070
    43
1040
10.0
1070
    73
1070
     0
1070
    74
1070
     0
1070
   172
1070
     1
1070
   179
1070
     1
1070
   271
1070
     1
1070
   272
1070
     1
1070
   341
1005
4A
1070
   342
1005
4A
1002
}
  0
MTEXT
  5
2AF87
102
{ACAD_REACTORS
330
2AF86
102
}
330
17
100
AcDbEntity
  8
DIM
100
AcDbMText
 10
320.870404497121
 20
865.131982320986
 30
0.0
 40
47.22222222222222
 41
599.4444444444444
 46
0.0
 71
     9
 72
     1
  1
脚
 73
     1
 44
1.0
  0
LEADER
  5
2AF88
330
17
100
AcDbEntity
  8
DIM
100
AcDbLeader
  3
STANDARD
 73
     0
 75
     1
 40
113.3333333333333
 41
364.9333333333333
 76
     3
 10
1280.610098248059
 20
784.0609577353847
 30
0.0
 10
701.8152334023092
 20
1098.352607795266
 30
0.0
 10
667.8152334023092
 20
1098.352607795266
 30
0.0
340
2AF89
213
-53.06399062146488
223
0.0
233
0.0
1001
ACAD
1000
DSTYLE
1002
{
1070
    41
1040
2.0
1070
   147
1040
1.0
1070
    77
1070
     1
1070
    43
1040
10.0
1070
    73
1070
     0
1070
    74
1070
     0
1070
   172
1070
     1
1070
   179
1070
     1
1070
   271
1070
     1
1070
   272
1070
     1
1070
   341
1005
4A
1070
   342
1005
0
1002
}
  0
MTEXT
  5
2AF89
102
{ACAD_XDICTIONARY
360
2CF24
102
}
102
{ACAD_REACTORS
330
2AF88
102
}
330
17
100
AcDbEntity
  8
DIM
100
AcDbMText
 10
703.879224023774
 20
1115.352607795266
 30
0.0
 40
42.5
 41
417.129111255204
 46
0.0
 71
     9
 72
     1
  1
排水栓　Rc3／4\P（膨張水・排水兼用）
 73
     1
 44
1.0
  0
LEADER
  5
2AF8A
330
17
100
AcDbEntity
  8
DIM
100
AcDbLeader
  3
STANDARD
 73
     0
 75
     1
 40
42.50000000000001
 41
376.2666666666668
 76
     3
 10
1020.977816898287
 20
1506.140780352344
 30
0.0
 10
711.1263988875369
 20
1763.959474605435
 30
0.0
 10
677.1263988875368
 20
1763.959474605435
 30
0.0
340
2AF8B
1001
ACAD
1000
DSTYLE
1002
{
1070
    41
1040
2.0
1070
   147
1040
1.0
1070
    77
1070
     1
1070
    43
1040
10.0
1070
    73
1070
     0
1070
    74
1070
     0
1070
   172
1070
     1
1070
   179
1070
     1
1070
   271
1070
     1
1070
   272
1070
     1
1070
   341
1005
4A
1070
   342
1005
0
1002
}
  0
MTEXT
  5
2AF8B
102
{ACAD_REACTORS
330
2AF8A
102
}
330
17
100
AcDbEntity
  8
DIM
100
AcDbMText
 10
660.1263988875368
 20
1780.959474605436
 30
0.0
 40
42.5
 41
539.5
 46
0.0
 71
     9
 72
     1
  1
給水配管口　R3／4
 73
     1
 44
1.0
  0
LEADER
  5
2AF8C
330
17
100
AcDbEntity
  8
DIM
100
AcDbLeader
  3
STANDARD
 73
     0
 75
     1
 40
42.50000000000002
 41
235.7333333333334
 76
     3
 10
988.5896145654649
 20
1914.208627294944
 30
0.0
 10
571.2167794352368
 20
2060.137287305959
 30
0.0
 10
537.2167794352368
 20
2060.137287305959
 30
0.0
340
2AF8D
1001
ACAD
1000
DSTYLE
1002
{
1070
    41
1040
2.0
1070
   147
1040
1.0
1070
    77
1070
     1
1070
    43
1040
10.0
1070
    73
1070
     0
1070
    74
1070
     0
1070
   172
1070
     1
1070
   179
1070
     1
1070
   271
1070
     1
1070
   272
1070
     1
1070
   341
1005
5132
1070
   342
1005
0
1002
}
  0
MTEXT
  5
2AF8D
102
{ACAD_REACTORS
330
2AF8C
102
}
330
17
100
AcDbEntity
  8
DIM
100
AcDbMText
 10
520.2167794352368
 20
2077.137287305959
 30
0.0
 40
42.5
 41
539.5
 46
0.0
 71
     9
 72
     1
  1
漏電しゃ断器
 73
     1
 44
1.0
  0
MTEXT
  5
2AF8E
330
17
100
AcDbEntity
  8
DIM
100
AcDbMText
 10
663.8605873834709
 20
358.8016286973476
 30
0.0
 40
42.5
 41
539.5
 46
0.0
 71
     9
 72
     1
  1
（%%c16×0.8m）
 73
     1
 44
1.0
  0
LEADER
  5
2AF8F
330
17
100
AcDbEntity
  8
DIM
100
AcDbLeader
  3
STANDARD
 73
     0
 74
     0
 75
     1
 40
42.5
 41
154.1333333333333
 76
     3
 10
1375.893216937516
 20
1004.744015179665
 30
0.0
 10
1480.959770876235
 20
1194.677116348451
 30
0.0
 10
1514.959770876235
 20
1194.677116348451
 30
0.0
340
2AF90
1001
ACAD
1000
DSTYLE
1002
{
1070
    41
1040
2.0
1070
   147
1040
1.0
1070
    77
1070
     1
1070
    43
1040
10.0
1070
    73
1070
     0
1070
    74
1070
     0
1070
   172
1070
     1
1070
   179
1070
     1
1070
   271
1070
     1
1070
   272
1070
     1
1070
   341
1005
4A
1070
   342
1005
0
1002
}
  0
MTEXT
  5
2AF90
102
{ACAD_REACTORS
330
2AF8F
102
}
330
17
100
AcDbEntity
  8
DIM
100
AcDbMText
 10
1531.959770876235
 20
1232.927116348451
 30
0.0
 40
42.5
 41
539.5
 46
0.0
 71
     4
 72
     1
  1
型式銘板
 73
     1
 44
1.0
  0
LEADER
  5
2AF91
330
17
100
AcDbEntity
  8
DIM
100
AcDbLeader
  3
STANDARD
 73
     0
 75
     1
 40
42.50000000000002
 41
376.2666666666668
 76
     3
 10
1357.929672322344
 20
2135.543329946914
 30
0.0
 10
711.1263988875369
 20
2472.526991377619
 30
0.0
 10
677.1263988875368
 20
2472.526991377619
 30
0.0
340
2AF92
1001
ACAD
1000
DSTYLE
1002
{
1070
    41
1040
2.0
1070
   147
1040
1.0
1070
    77
1070
     1
1070
    43
1040
10.0
1070
    73
1070
     0
1070
    74
1070
     0
1070
   172
1070
     1
1070
   179
1070
     1
1070
   271
1070
     1
1070
   272
1070
     1
1070
   341
1005
4A
1070
   342
1005
0
1002
}
  0
MTEXT
  5
2AF92
102
{ACAD_REACTORS
330
2AF91
102
}
330
17
100
AcDbEntity
  8
DIM
100
AcDbMText
 10
660.1263988875368
 20
2489.526991377619
 30
0.0
 40
42.5
 41
539.5
 46
0.0
 71
     9
 72
     1
  1
給湯配管口　R3／4
 73
     1
 44
1.0
  0
LINE
  5
2AF93
330
17
100
AcDbEntity
  8
0
100
AcDbLine
 10
1454.731971898281
 20
824.7440151796773
 30
0.0
 11
1454.731971898281
 21
698.7440151796778
 31
0.0
  0
LINE
  5
2AF94
330
17
100
AcDbEntity
  8
0
100
AcDbLine
 10
907.731971898281
 20
824.7440151796773
 30
0.0
 11
907.731971898281
 21
698.7440151796782
 31
0.0
  0
LINE
  5
2AF95
330
17
100
AcDbEntity
  8
0
100
AcDbLine
 10
907.1819718982821
 20
698.7440151796773
 30
0.0
 11
1455.28197189828
 21
698.7440151796773
 31
0.0
  0
LINE
  5
2AF96
330
17
100
AcDbEntity
  8
0
100
AcDbLine
 10
907.731971898281
 20
826.7440151796783
 30
0.0
 11
931.2319718982777
 21
826.7440151796783
 31
0.0
  0
LINE
  5
2AF97
330
17
100
AcDbEntity
  8
0
100
AcDbLine
 10
1431.231971898281
 20
826.7440151796783
 30
0.0
 11
1454.731971898281
 21
826.7440151796783
 31
0.0
  0
LINE
  5
2AF98
330
17
100
AcDbEntity
  8
0
100
AcDbLine
 10
907.7319718982833
 20
827.7440151796792
 30
0.0
 11
907.731971898281
 21
826.7440151796783
 31
0.0
  0
LINE
  5
2AF99
330
17
100
AcDbEntity
  8
0
100
AcDbLine
 10
908.5319718982802
 20
824.7440151796773
 30
0.0
 11
907.731971898281
 21
824.7440151796773
 31
0.0
  0
CIRCLE
  5
2AF9A
330
17
100
AcDbEntity
  8
0
100
AcDbCircle
 10
1031.231971898281
 20
836.7440151796774
 30
0.0
 40
1.55
  0
CIRCLE
  5
2AF9B
330
17
100
AcDbEntity
  8
0
100
AcDbCircle
 10
1331.231971898281
 20
773.2440151796764
 30
0.0
 40
2.0
  0
CIRCLE
  5
2AF9C
330
17
100
AcDbEntity
  8
0
100
AcDbCircle
 10
1271.231971898281
 20
773.2440151796764
 30
0.0
 40
2.0
  0
CIRCLE
  5
2AF9D
330
17
100
AcDbEntity
  8
0
100
AcDbCircle
 10
1301.231971898281
 20
773.2440151796764
 30
0.0
 40
16.0
  0
LINE
  5
2AF9E
330
17
100
AcDbEntity
  8
0
100
AcDbLine
 10
1454.731971898283
 20
827.7440151796799
 30
0.0
 11
1454.731971898281
 21
826.7440151796783
 31
0.0
  0
LINE
  5
2AF9F
330
17
100
AcDbEntity
  8
0
100
AcDbLine
 10
1453.931971898282
 20
824.7440151796773
 30
0.0
 11
1454.731971898281
 21
824.7440151796773
 31
0.0
  0
CIRCLE
  5
2AFA0
330
17
100
AcDbEntity
  8
0
100
AcDbCircle
 10
1331.231971898281
 20
836.7440151796774
 30
0.0
 40
1.55
  0
LINE
  5
2AFA1
330
17
100
AcDbEntity
  8
0
100
AcDbLine
 10
1453.931971898282
 20
827.7440151796799
 30
0.0
 11
1453.931971898282
 21
827.5440151796784
 31
0.0
  0
LINE
  5
2AFA2
330
17
100
AcDbEntity
  8
0
100
AcDbLine
 10
1431.231971898281
 20
827.5440151796789
 30
0.0
 11
1453.931971898282
 21
827.5440151796784
 31
0.0
  0
LINE
  5
2AFA3
330
17
100
AcDbEntity
  8
0
100
AcDbLine
 10
908.5319718982802
 20
827.5440151796784
 30
0.0
 11
931.2319718982777
 21
827.5440151796784
 31
0.0
  0
LINE
  5
2AFA4
330
17
100
AcDbEntity
  8
0
100
AcDbLine
 10
908.5319718982825
 20
827.7440151796792
 30
0.0
 11
908.5319718982802
 21
827.5440151796784
 31
0.0
  0
LINE
  5
2AFA5
330
17
100
AcDbEntity
  8
0
100
AcDbLine
 10
1453.931971898282
 20
826.7440151796783
 30
0.0
 11
1453.931971898282
 21
824.7440151796773
 31
0.0
  0
LINE
  5
2AFA6
330
17
100
AcDbEntity
  8
0
100
AcDbLine
 10
908.5319718982802
 20
826.7440151796783
 30
0.0
 11
908.5319718982802
 21
824.7440151796773
 31
0.0
  0
LINE
  5
2AFA7
330
17
100
AcDbEntity
  8
0
100
AcDbLine
 10
907.7319718982796
 20
696.7440151796782
 30
0.0
 11
1454.731971898279
 21
696.7440151796782
 31
0.0
  0
LINE
  5
2AFA8
330
17
100
AcDbEntity
  8
0
100
AcDbLine
 10
1454.731971898279
 20
721.7440151796782
 30
0.0
 11
1454.731971898279
 21
696.7440151796782
 31
0.0
  0
LINE
  5
2AFA9
330
17
100
AcDbEntity
  8
0
100
AcDbLine
 10
907.7319718982796
 20
721.7440151796782
 30
0.0
 11
907.7319718982796
 21
696.7440151796782
 31
0.0
  0
LINE
  5
2AFAA
330
17
100
AcDbEntity
  8
0
100
AcDbLine
 10
907.1819718982821
 20
2441.244015179678
 30
0.0
 11
907.1819718982803
 21
698.7440151796773
 31
0.0
  0
LINE
  5
2AFAB
330
17
100
AcDbEntity
  8
0
100
AcDbLine
 10
907.1819718982803
 20
827.7440151796792
 30
0.0
 11
921.1819718982798
 21
827.7440151796792
 31
0.0
  0
LINE
  5
2AFAC
330
17
100
AcDbEntity
  8
0
100
AcDbLine
 10
907.731971898281
 20
827.7440151796774
 30
0.0
 11
907.731971898281
 21
698.7440151796773
 31
0.0
  0
LINE
  5
2AFAD
330
17
100
AcDbEntity
  8
0
100
AcDbLine
 10
1455.28197189828
 20
2441.244015179678
 30
0.0
 11
1455.28197189828
 21
698.7440151796773
 31
0.0
  0
LINE
  5
2AFAE
330
17
100
AcDbEntity
  8
0
100
AcDbLine
 10
1455.28197189828
 20
827.7440151796799
 30
0.0
 11
1441.281971898281
 21
827.7440151796799
 31
0.0
  0
LINE
  5
2AFAF
330
17
100
AcDbEntity
  8
0
100
AcDbLine
 10
1454.731971898279
 20
827.7440151796792
 30
0.0
 11
1454.731971898279
 21
698.7440151796773
 31
0.0
  0
LINE
  5
2AFB0
330
17
100
AcDbEntity
  8
0
100
AcDbLine
 10
907.2819718982934
 20
2471.244015179678
 30
0.0
 11
1455.181971898295
 21
2471.244015179678
 31
0.0
  0
LINE
  5
2AFB1
330
17
100
AcDbEntity
  8
0
100
AcDbLine
 10
905.2319718982941
 20
2441.244015179678
 30
0.0
 11
1457.231971898296
 21
2441.244015179678
 31
0.0
  0
LINE
  5
2AFB2
330
17
100
AcDbEntity
  8
0
100
AcDbLine
 10
1457.231971898294
 20
2469.194015179678
 30
0.0
 11
1457.231971898296
 21
2441.244015179678
 31
0.0
  0
ARC
  5
2AFB3
330
17
100
AcDbEntity
  8
0
100
AcDbCircle
 10
1455.181971898295
 20
2469.194015179678
 30
0.0
 40
2.05
100
AcDbArc
 50
0.0
 51
90.0
  0
LINE
  5
2AFB4
330
17
100
AcDbEntity
  8
0
100
AcDbLine
 10
905.2319718982941
 20
2469.194015179678
 30
0.0
 11
905.2319718982923
 21
2441.244015179678
 31
0.0
  0
ARC
  5
2AFB5
330
17
100
AcDbEntity
  8
0
100
AcDbCircle
 10
907.2819718982934
 20
2469.194015179678
 30
0.0
 40
2.05
100
AcDbArc
 50
90.0
 51
180.0
  0
LINE
  5
2AFB6
330
17
100
AcDbEntity
  8
0
100
AcDbLine
 10
1285.231971898281
 20
753.9556221604749
 30
0.0
 11
1266.856971898281
 21
767.1522687141702
 31
0.0
  0
LINE
  5
2AFB7
330
17
100
AcDbEntity
  8
0
100
AcDbLine
 10
1317.231971898281
 20
753.9556221604749
 30
0.0
 11
1335.606971898281
 21
767.1522687141702
 31
0.0
  0
CIRCLE
  5
2AFB8
330
17
100
AcDbEntity
  8
0
100
AcDbCircle
 10
1301.231971898281
 20
773.2440151796764
 30
0.0
 40
17.0
  0
ARC
  5
2AFB9
330
17
100
AcDbEntity
  8
0
100
AcDbCircle
 10
1301.231971898281
 20
773.2440151796764
 30
0.0
 40
25.0
100
AcDbArc
 50
157.3316499999748
 51
202.6683500000249
  0
ARC
  5
2AFBA
330
17
100
AcDbEntity
  8
0
100
AcDbCircle
 10
1301.231971898281
 20
773.2440151796764
 30
0.0
 40
25.0
100
AcDbArc
 50
337.3316499999749
 51
22.66835000002492
  0
ARC
  5
2AFBB
330
17
100
AcDbEntity
  8
0
100
AcDbCircle
 10
1333.935661898281
 20
740.5403351796768
 30
0.0
 40
25.0
100
AcDbArc
 50
112.6683500000217
 51
157.3316499999748
  0
ARC
  5
2AFBC
330
17
100
AcDbEntity
  8
0
100
AcDbCircle
 10
1268.528281898281
 20
740.5403351796768
 30
0.0
 40
25.0
100
AcDbArc
 50
22.66835000002492
 51
67.33164999997832
  0
LINE
  5
2AFBD
330
17
100
AcDbEntity
  8
0
100
AcDbLine
 10
1317.231971898281
 20
750.2440151796764
 30
0.0
 11
1314.651971898281
 21
750.2440151796764
 31
0.0
  0
LINE
  5
2AFBE
330
17
100
AcDbEntity
  8
0
100
AcDbLine
 10
1317.231971898281
 20
750.2440151796764
 30
0.0
 11
1314.651971898281
 21
750.2440151796764
 31
0.0
  0
LINE
  5
2AFBF
330
17
100
AcDbEntity
  8
0
100
AcDbLine
 10
1314.651971898281
 20
743.2440151796765
 30
0.0
 11
1317.231971898281
 21
743.2440151796765
 31
0.0
  0
LINE
  5
2AFC0
330
17
100
AcDbEntity
  8
0
100
AcDbLine
 10
1317.231971898281
 20
742.2440151796764
 30
0.0
 11
1316.231971898281
 21
741.2440151796764
 31
0.0
  0
LINE
  5
2AFC1
330
17
100
AcDbEntity
  8
0
100
AcDbLine
 10
1301.231971898281
 20
741.2440151796764
 30
0.0
 11
1316.231971898281
 21
741.2440151796764
 31
0.0
  0
LINE
  5
2AFC2
330
17
100
AcDbEntity
  8
0
100
AcDbLine
 10
1314.651971898281
 20
743.2440151796765
 30
0.0
 11
1314.651971898281
 21
750.2440151796764
 31
0.0
  0
LINE
  5
2AFC3
330
17
100
AcDbEntity
  8
0
100
AcDbLine
 10
1317.231971898281
 20
742.2440151796764
 30
0.0
 11
1317.231971898281
 21
759.1410551796762
 31
0.0
  0
LINE
  5
2AFC4
330
17
100
AcDbEntity
  8
0
100
AcDbLine
 10
1285.231971898281
 20
750.2440151796764
 30
0.0
 11
1287.811971898281
 21
750.2440151796764
 31
0.0
  0
LINE
  5
2AFC5
330
17
100
AcDbEntity
  8
0
100
AcDbLine
 10
1285.231971898281
 20
750.2440151796764
 30
0.0
 11
1287.811971898281
 21
750.2440151796764
 31
0.0
  0
LINE
  5
2AFC6
330
17
100
AcDbEntity
  8
0
100
AcDbLine
 10
1287.811971898281
 20
743.2440151796765
 30
0.0
 11
1285.231971898281
 21
743.2440151796765
 31
0.0
  0
LINE
  5
2AFC7
330
17
100
AcDbEntity
  8
0
100
AcDbLine
 10
1285.231971898281
 20
742.2440151796764
 30
0.0
 11
1286.231971898281
 21
741.2440151796764
 31
0.0
  0
LINE
  5
2AFC8
330
17
100
AcDbEntity
  8
0
100
AcDbLine
 10
1285.231971898281
 20
742.2440151796764
 30
0.0
 11
1285.231971898281
 21
759.1410551796762
 31
0.0
  0
LINE
  5
2AFC9
330
17
100
AcDbEntity
  8
0
100
AcDbLine
 10
1287.811971898281
 20
743.2440151796765
 30
0.0
 11
1287.811971898281
 21
750.2440151796764
 31
0.0
  0
LINE
  5
2AFCA
330
17
100
AcDbEntity
  8
0
100
AcDbLine
 10
1301.231971898281
 20
741.2440151796764
 30
0.0
 11
1286.231971898281
 21
741.2440151796764
 31
0.0
  0
ARC
  5
2AFCB
330
17
100
AcDbEntity
  8
0
100
AcDbCircle
 10
1301.231971898281
 20
773.2440151796764
 30
0.0
 40
25.0
100
AcDbArc
 50
247.3316499999783
 51
292.6683500000217
  0
LINE
  5
2AFCC
330
17
100
AcDbEntity
  8
0
100
AcDbLine
 10
1315.815305231615
 20
793.5498367313613
 30
0.0
 11
1335.606971898281
 21
779.3357616451818
 31
0.0
  0
ARC
  5
2AFCD
330
17
100
AcDbEntity
  8
0
100
AcDbCircle
 10
1333.935661898281
 20
805.9477051796767
 30
0.0
 40
25.0
100
AcDbArc
 50
202.6683500000249
 51
247.3316499999783
  0
LINE
  5
2AFCE
330
17
100
AcDbEntity
  8
0
100
AcDbLine
 10
1286.648638564949
 20
793.5498367313613
 30
0.0
 11
1266.856971898281
 21
779.3357616451818
 31
0.0
  0
ARC
  5
2AFCF
330
17
100
AcDbEntity
  8
0
100
AcDbCircle
 10
1268.528281898281
 20
805.9477051796767
 30
0.0
 40
25.0
100
AcDbArc
 50
292.6683500000217
 51
337.3316499999749
  0
CIRCLE
  5
2AFD0
330
17
100
AcDbEntity
  8
0
100
AcDbCircle
 10
1271.231971898281
 20
773.244015179676
 30
0.0
 40
2.5
  0
ARC
  5
2AFD1
330
17
100
AcDbEntity
  8
0
100
AcDbCircle
 10
1271.231971898281
 20
773.244015179676
 30
0.0
 40
7.5
100
AcDbArc
 50
125.6853347126945
 51
234.3146652873055
  0
ARC
  5
2AFD2
330
17
100
AcDbEntity
  8
0
100
AcDbCircle
 10
1301.231971898281
 20
773.244015179676
 30
0.0
 40
25.0
100
AcDbArc
 50
112.6683608344143
 51
125.6853347126945
  0
ARC
  5
2AFD3
330
17
100
AcDbEntity
  8
0
100
AcDbCircle
 10
1301.231971898281
 20
773.244015179676
 30
0.0
 40
25.0
100
AcDbArc
 50
54.31466528730549
 51
67.33163916558568
  0
LINE
  5
2AFD4
330
17
100
AcDbEntity
  8
0
100
AcDbLine
 10
1312.106481898281
 20
780.3675751796764
 30
0.0
 11
1311.269981898281
 21
779.8196151796766
 31
0.0
  0
LINE
  5
2AFD5
330
17
100
AcDbEntity
  8
0
100
AcDbLine
 10
1310.891231898281
 20
775.8322051796768
 30
0.0
 11
1312.106481898281
 21
780.3675751796764
 31
0.0
  0
TEXT
  5
2AFD6
330
17
100
AcDbEntity
  8
0
100
AcDbText
 10
1311.231971898281
 20
775.7440151796765
 30
0.0
 40
5.0
  1
閉
 50
270.0
 41
1.153846153846153
 72
     5
 11
1311.231971898281
 21
770.7440151796764
 31
0.0
100
AcDbText
  0
LINE
  5
2AFD7
330
17
100
AcDbEntity
  8
0
100
AcDbLine
 10
1303.820161898281
 20
782.9032751796768
 30
0.0
 11
1304.337801898282
 21
784.8351251796767
 31
0.0
  0
ARC
  5
2AFD8
330
17
100
AcDbEntity
  8
0
100
AcDbCircle
 10
1301.231971898281
 20
773.2440151796764
 30
0.0
 40
10.0
100
AcDbArc
 50
14.99999999999445
 51
75.00000000000554
  0
ARC
  5
2AFD9
330
17
100
AcDbEntity
  8
0
100
AcDbCircle
 10
1301.231971898281
 20
773.2440151796764
 30
0.0
 40
12.0
100
AcDbArc
 50
33.22758999999737
 51
75.00000000000554
  0
TEXT
  5
2AFDA
330
17
100
AcDbEntity
  8
0
100
AcDbText
 10
1291.231971898281
 20
770.7440151796764
 30
0.0
 40
5.0
  1
開
 50
90.0
 41
1.153846153846153
 72
     5
 11
1291.231971898281
 21
775.7440151796765
 31
0.0
100
AcDbText
  0
LINE
  5
2AFDB
330
17
100
AcDbEntity
  8
0
100
AcDbLine
 10
1298.126141898281
 20
784.8351251796767
 30
0.0
 11
1298.643781898281
 21
782.9032751796768
 31
0.0
  0
LINE
  5
2AFDC
330
17
100
AcDbEntity
  8
0
100
AcDbLine
 10
1290.357461898281
 20
780.3675751796764
 30
0.0
 11
1291.193961898281
 21
779.8196151796766
 31
0.0
  0
LINE
  5
2AFDD
330
17
100
AcDbEntity
  8
0
100
AcDbLine
 10
1291.572711898281
 20
775.8322051796768
 30
0.0
 11
1290.357461898281
 21
780.3675751796764
 31
0.0
  0
ARC
  5
2AFDE
330
17
100
AcDbEntity
  8
0
100
AcDbCircle
 10
1301.231971898281
 20
773.2440151796764
 30
0.0
 40
10.0
100
AcDbArc
 50
104.9999999999944
 51
165.0000000000055
  0
ARC
  5
2AFDF
330
17
100
AcDbEntity
  8
0
100
AcDbCircle
 10
1301.231971898281
 20
773.2440151796764
 30
0.0
 40
12.0
100
AcDbArc
 50
104.9999999999944
 51
146.7724100000026
  0
ARC
  5
2AFE0
330
17
100
AcDbEntity
  8
0
100
AcDbCircle
 10
1301.231971898281
 20
773.2440151796764
 30
0.0
 40
25.0
100
AcDbArc
 50
67.33164999997832
 51
112.6683500000217
  0
LINE
  5
2AFE1
330
17
100
AcDbEntity
  8
0
100
AcDbLine
 10
1293.230382696438
 20
796.9294537444012
 30
0.0
 11
1293.230382696438
 21
823.7440151797583
 31
0.0
  0
LINE
  5
2AFE2
330
17
100
AcDbEntity
  8
0
100
AcDbLine
 10
1309.230382696437
 20
796.9294537444012
 30
0.0
 11
1309.230382696437
 21
823.7440151797583
 31
0.0
  0
ARC
  5
2AFE3
330
17
100
AcDbEntity
  8
0
100
AcDbCircle
 10
1331.231971898281
 20
773.244015179676
 30
0.0
 40
7.5
100
AcDbArc
 50
305.6853347126945
 51
54.31466528730549
  0
CIRCLE
  5
2AFE4
330
17
100
AcDbEntity
  8
0
100
AcDbCircle
 10
1331.231971898281
 20
773.244015179676
 30
0.0
 40
2.5
  0
LINE
  5
2AFE5
330
17
100
AcDbEntity
  8
0
100
AcDbLine
 10
1066.846708608036
 20
1547.647185352344
 30
0.0
 11
1066.846708608036
 21
1540.647189614909
 31
0.0
  0
ELLIPSE
  5
2AFE6
330
17
100
AcDbEntity
  8
0
100
AcDbEllipse
 10
1000.685322898552
 20
1563.147185352345
 30
0.0
 11
-0.0000000000009747
 21
20.13425223725221
 31
0.0
210
0.0
220
0.0
230
1.0
 40
0.3111235549702221
 41
0.3455858681091553
 42
2.796006785480506
  0
LINE
  5
2AFE7
330
17
100
AcDbEntity
  8
0
100
AcDbLine
 10
992.6710827658332
 20
1583.147185352345
 30
0.0
 11
992.6710827658332
 21
1543.147185352345
 31
0.0
  0
LINE
  5
2AFE8
330
17
100
AcDbEntity
  8
0
100
AcDbLine
 10
993.1710827658328
 20
1583.147185352345
 30
0.0
 11
993.1710827658328
 21
1543.147185352345
 31
0.0
  0
LINE
  5
2AFE9
330
17
100
AcDbEntity
  8
0
100
AcDbLine
 10
1001.867235188539
 20
1547.647185352344
 30
0.0
 11
1001.867235188539
 21
1540.647189614909
 31
0.0
  0
LINE
  5
2AFEA
330
17
100
AcDbEntity
  8
0
100
AcDbLine
 10
1004.867235188539
 20
1547.647185352344
 30
0.0
 11
1004.867235188539
 21
1540.647189614909
 31
0.0
  0
LINE
  5
2AFEB
330
17
100
AcDbEntity
  8
0
100
AcDbLine
 10
1016.617235188538
 20
1547.647185352344
 30
0.0
 11
1016.617235188538
 21
1540.647189614909
 31
0.0
  0
LINE
  5
2AFEC
330
17
100
AcDbEntity
  8
0
100
AcDbLine
 10
1013.367235188537
 20
1547.647185352344
 30
0.0
 11
1013.367235188537
 21
1540.647189614909
 31
0.0
  0
LINE
  5
2AFED
330
17
100
AcDbEntity
  8
0
100
AcDbLine
 10
1038.991858278671
 20
1546.284278074999
 30
0.0
 11
1025.375158865984
 21
1537.780335178423
 31
0.0
  0
LINE
  5
2AFEE
330
17
100
AcDbEntity
  8
0
100
AcDbLine
 10
1048.722085517905
 20
1546.284278074999
 30
0.0
 11
1062.338784930592
 21
1537.780335178423
 31
0.0
  0
LINE
  5
2AFEF
330
17
100
AcDbEntity
  8
0
100
AcDbLine
 10
1039.741858278671
 20
1546.284278074999
 30
0.0
 11
1026.125158865985
 21
1537.780335178423
 31
0.0
  0
LINE
  5
2AFF0
330
17
100
AcDbEntity
  8
0
100
AcDbLine
 10
1011.071001577884
 20
1528.147185352345
 30
0.0
 11
1006.1614638226
 21
1528.147185352345
 31
0.0
  0
LINE
  5
2AFF1
330
17
100
AcDbEntity
  8
0
100
AcDbLine
 10
999.2797624019747
 20
1532.661015352353
 30
0.0
 11
1009.623093789481
 21
1532.66101535235
 31
0.0
  0
LINE
  5
2AFF2
330
17
100
AcDbEntity
  8
0
100
AcDbLine
 10
1011.864065139585
 20
1540.647189614909
 30
0.0
 11
1001.867235188539
 21
1540.647189614909
 31
0.0
  0
ELLIPSE
  5
2AFF3
330
17
100
AcDbEntity
  8
0
100
AcDbEllipse
 10
999.2797624019747
 20
1537.161015352353
 30
0.0
 11
0.0
 21
-4.499999999999546
 31
0.0
210
0.0
220
0.0
230
-1.0
 40
0.5797065858110909
 41
0.0
 42
2.733788927252468
  0
ARC
  5
2AFF4
330
17
100
AcDbEntity
  8
0
100
AcDbCircle
 10
997.050062821839
 20
1542.895642577815
 30
0.0
 40
2.0
100
AcDbArc
 50
306.6950794066193
 51
40.83193513724828
  0
LINE
  5
2AFF5
330
17
100
AcDbEntity
  8
0
100
AcDbLine
 10
1005.6614638226
 20
1528.147185352345
 30
0.0
 11
1006.1614638226
 21
1528.147185352345
 31
0.0
  0
ELLIPSE
  5
2AFF6
330
17
100
AcDbEntity
  8
0
100
AcDbEllipse
 10
1005.6614638226
 20
1543.147185352345
 30
0.0
 11
0.0
 21
-15.0
 31
0.0
210
0.0
220
0.0
230
-1.0
 40
0.8660254037844426
 41
0.0
 42
1.570796326794896
  0
ELLIPSE
  5
2AFF7
330
17
100
AcDbEntity
  8
0
100
AcDbEllipse
 10
1006.1614638226
 20
1543.147185352345
 30
0.0
 11
0.0
 21
-15.0
 31
0.0
210
0.0
220
0.0
230
-1.0
 40
0.8660254037844426
 41
0.0
 42
1.570796326794896
  0
LINE
  5
2AFF8
330
17
100
AcDbEntity
  8
0
100
AcDbLine
 10
1047.231971898288
 20
1517.147185352345
 30
0.0
 11
1047.231971898288
 21
1521.45533849935
 31
0.0
  0
LINE
  5
2AFF9
330
17
100
AcDbEntity
  8
0
100
AcDbLine
 10
1021.231971898288
 20
1517.147185352345
 30
0.0
 11
1021.231971898288
 21
1521.455699523742
 31
0.0
  0
ELLIPSE
  5
2AFFA
330
17
100
AcDbEntity
  8
0
100
AcDbEllipse
 10
1022.033034605462
 20
1537.203162511769
 30
0.0
 11
-0.8679725078059579
 21
17.95922830681291
 31
0.0
210
0.0
220
0.0
230
-1.0
 40
0.7190469609725393
 41
3.270638671782762
 42
4.599233869711473
  0
LINE
  5
2AFFB
330
17
100
AcDbEntity
  8
0
100
AcDbLine
 10
1057.748314886715
 20
1540.647189614909
 30
0.0
 11
1066.846708608038
 21
1540.647189614909
 31
0.0
  0
LINE
  5
2AFFC
330
17
100
AcDbEntity
  8
0
100
AcDbLine
 10
1023.738275162541
 20
1540.647189614909
 30
0.0
 11
1013.367235188537
 21
1540.647189614909
 31
0.0
  0
LINE
  5
2AFFD
330
17
100
AcDbEntity
  8
0
100
AcDbLine
 10
1045.957681898287
 20
1495.647185352345
 30
0.0
 11
1047.143591898287
 21
1496.331875352343
 31
0.0
  0
ARC
  5
2AFFE
330
17
100
AcDbEntity
  8
0
100
AcDbCircle
 10
1048.731971898289
 20
1517.147185352346
 30
0.0
 40
1.5
100
AcDbArc
 50
180.0
 51
232.971280000035
  0
ARC
  5
2AFFF
330
17
100
AcDbEntity
  8
0
100
AcDbCircle
 10
1048.731971898289
 20
1517.147185352346
 30
0.0
 40
1.5
100
AcDbArc
 50
180.0
 51
232.971280000035
  0
LINE
  5
2B000
330
17
100
AcDbEntity
  8
0
100
AcDbLine
 10
1047.231971898288
 20
1518.355685352344
 30
0.0
 11
1047.231971898288
 21
1517.147185352345
 31
0.0
  0
LINE
  5
2B001
330
17
100
AcDbEntity
  8
0
100
AcDbLine
 10
1046.551321898286
 20
1512.647185352344
 30
0.0
 11
1047.828651898287
 21
1515.949685352344
 31
0.0
  0
LINE
  5
2B002
330
17
100
AcDbEntity
  8
0
100
AcDbLine
 10
1045.957681898287
 20
1495.647185352345
 30
0.0
 11
1046.551341898287
 21
1512.647185352344
 31
0.0
  0
LINE
  5
2B003
330
17
100
AcDbEntity
  8
0
100
AcDbLine
 10
1047.143591898287
 20
1496.331875352343
 30
0.0
 11
1047.828661898287
 21
1515.949685352344
 31
0.0
  0
LINE
  5
2B004
330
17
100
AcDbEntity
  8
0
100
AcDbLine
 10
1022.506271898288
 20
1495.647185352345
 30
0.0
 11
1045.957681898287
 21
1495.647185352345
 31
0.0
  0
LINE
  5
2B005
330
17
100
AcDbEntity
  8
0
100
AcDbLine
 10
1020.750611898286
 20
1512.647185352344
 30
0.0
 11
1047.713335892223
 21
1512.647185352344
 31
0.0
  0
LINE
  5
2B006
330
17
100
AcDbEntity
  8
0
100
AcDbLine
 10
1020.635281898286
 20
1515.949685352344
 30
0.0
 11
1047.828651898287
 21
1515.949685352345
 31
0.0
  0
LINE
  5
2B007
330
17
100
AcDbEntity
  8
0
100
AcDbLine
 10
1022.506261898288
 20
1495.647185352345
 30
0.0
 11
1021.320351898287
 21
1496.331875352343
 31
0.0
  0
ARC
  5
2B008
330
17
100
AcDbEntity
  8
0
100
AcDbCircle
 10
1019.731971898288
 20
1517.147185352346
 30
0.0
 40
1.5
100
AcDbArc
 50
307.028719999965
 51
0.0
  0
ARC
  5
2B009
330
17
100
AcDbEntity
  8
0
100
AcDbCircle
 10
1019.731971898288
 20
1517.147185352346
 30
0.0
 40
1.5
100
AcDbArc
 50
307.028719999965
 51
0.0
  0
LINE
  5
2B00A
330
17
100
AcDbEntity
  8
0
100
AcDbLine
 10
1021.231971898288
 20
1518.355685352344
 30
0.0
 11
1021.231971898288
 21
1517.147185352345
 31
0.0
  0
LINE
  5
2B00B
330
17
100
AcDbEntity
  8
0
100
AcDbLine
 10
1021.912621898287
 20
1512.647185352344
 30
0.0
 11
1020.635291898288
 21
1515.949685352344
 31
0.0
  0
LINE
  5
2B00C
330
17
100
AcDbEntity
  8
0
100
AcDbLine
 10
1022.506261898288
 20
1495.647185352345
 30
0.0
 11
1021.912611898287
 21
1512.647185352344
 31
0.0
  0
LINE
  5
2B00D
330
17
100
AcDbEntity
  8
0
100
AcDbLine
 10
1021.320351898287
 20
1496.331875352343
 30
0.0
 11
1020.635281898286
 21
1515.949685352344
 31
0.0
  0
ELLIPSE
  5
2B00E
330
17
100
AcDbEntity
  8
0
100
AcDbEllipse
 10
1043.481971898288
 20
1522.687951087374
 30
0.0
 11
-5.0
 21
0.0
 31
0.0
210
0.0
220
0.0
230
-1.0
 40
0.3081531470059418
 41
4.712388980384689
 42
5.827643344102719
  0
ELLIPSE
  5
2B00F
330
17
100
AcDbEntity
  8
0
100
AcDbEllipse
 10
1044.231971898289
 20
1522.687951087374
 30
0.0
 11
-5.0
 21
0.0
 31
0.0
210
0.0
220
0.0
230
-1.0
 40
0.3081531470059418
 41
3.597134616666659
 42
5.827643344102719
  0
LINE
  5
2B010
330
17
100
AcDbEntity
  8
0
100
AcDbLine
 10
1043.481971898288
 20
1521.147185352345
 30
0.0
 11
1044.231971898289
 21
1521.147185352345
 31
0.0
  0
LINE
  5
2B011
330
17
100
AcDbEntity
  8
0
100
AcDbLine
 10
1038.991858278671
 20
1522.010092629691
 30
0.0
 11
1025.375158865984
 21
1530.514035526266
 31
0.0
  0
ELLIPSE
  5
2B012
330
17
100
AcDbEntity
  8
0
100
AcDbEllipse
 10
1025.996400313136
 20
1534.147185352344
 30
0.0
 11
0.0
 21
3.822219999999106
 31
0.0
210
0.0
220
0.0
230
1.0
 40
0.523256118172284
 41
0.3158459890366398
 42
2.825746664553153
  0
ELLIPSE
  5
2B013
330
17
100
AcDbEntity
  8
0
100
AcDbEllipse
 10
1061.717543483437
 20
1534.147185352344
 30
0.0
 11
0.0
 21
3.822219999999106
 31
0.0
210
0.0
220
0.0
230
-1.0
 40
0.523256118172284
 41
0.3158459890366398
 42
2.825746664553153
  0
ELLIPSE
  5
2B014
330
17
100
AcDbEntity
  8
0
100
AcDbEllipse
 10
1026.746400313136
 20
1534.147185352344
 30
0.0
 11
0.0
 21
3.822219999999106
 31
0.0
210
0.0
220
0.0
230
1.0
 40
0.523256118172284
 41
0.3158459890366398
 42
2.825746664553153
  0
LINE
  5
2B015
330
17
100
AcDbEntity
  8
0
100
AcDbLine
 10
1048.722085517905
 20
1522.010092629691
 30
0.0
 11
1062.338784930592
 21
1530.514035526266
 31
0.0
  0
LINE
  5
2B016
330
17
100
AcDbEntity
  8
0
100
AcDbLine
 10
1039.741858278671
 20
1522.010092629691
 30
0.0
 11
1026.125158865985
 21
1530.514035526266
 31
0.0
  0
ELLIPSE
  5
2B017
330
17
100
AcDbEntity
  8
0
100
AcDbEllipse
 10
1044.231971898289
 20
1534.147185352344
 30
0.0
 11
0.0
 21
-2.015999999999507
 31
0.0
210
0.0
220
0.0
230
1.0
 40
0.8591521862943897
 41
3.141592653589793
 42
6.283185307179586
  0
LINE
  5
2B018
330
17
100
AcDbEntity
  8
0
100
AcDbLine
 10
1047.831971898287
 20
1536.163185352344
 30
0.0
 11
1044.231971898289
 21
1536.163185352344
 31
0.0
  0
LINE
  5
2B019
330
17
100
AcDbEntity
  8
0
100
AcDbLine
 10
1047.831971898287
 20
1532.131185352345
 30
0.0
 11
1044.231971898289
 21
1532.131185352345
 31
0.0
  0
ELLIPSE
  5
2B01A
330
17
100
AcDbEntity
  8
0
100
AcDbEllipse
 10
1047.831971898287
 20
1534.147185352344
 30
0.0
 11
0.0
 21
-2.015999999999507
 31
0.0
210
0.0
220
0.0
230
1.0
 40
0.8591521862943897
 41
0.0
 42
6.283185307179586
  0
ELLIPSE
  5
2B01B
330
17
100
AcDbEntity
  8
0
100
AcDbEllipse
 10
1026.981971898288
 20
1563.147185352345
 30
0.0
 11
0.0
 21
-31.0
 31
0.0
210
0.0
220
0.0
230
1.0
 40
0.8101527970886834
 41
3.644396961410063
 42
5.131397777794829
  0
ELLIPSE
  5
2B01C
330
17
100
AcDbEntity
  8
0
100
AcDbEllipse
 10
1029.981971898288
 20
1563.147185352345
 30
0.0
 11
0.0
 21
-31.0
 31
0.0
210
0.0
220
0.0
230
1.0
 40
0.8101527970886834
 41
3.693647737311384
 42
5.121950921263657
  0
LINE
  5
2B01D
330
17
100
AcDbEntity
  8
0
100
AcDbLine
 10
999.2797624019747
 20
1593.633355352337
 30
0.0
 11
1016.125565437736
 21
1593.633355352342
 31
0.0
  0
LINE
  5
2B01E
330
17
100
AcDbEntity
  8
0
100
AcDbLine
 10
1016.125565437736
 20
1598.147185352345
 30
0.0
 11
1006.1614638226
 21
1598.147185352345
 31
0.0
  0
LINE
  5
2B01F
330
17
100
AcDbEntity
  8
0
100
AcDbLine
 10
1011.864065139585
 20
1547.647185352344
 30
0.0
 11
1001.867235188539
 21
1547.647185352344
 31
0.0
  0
ELLIPSE
  5
2B020
330
17
100
AcDbEntity
  8
0
100
AcDbEllipse
 10
999.2797624019747
 20
1589.133355352337
 30
0.0
 11
0.0
 21
4.499999999999546
 31
0.0
210
0.0
220
0.0
230
1.0
 40
0.5797065858110909
 41
0.0
 42
2.733788927252468
  0
ARC
  5
2B021
330
17
100
AcDbEntity
  8
0
100
AcDbCircle
 10
997.050062821839
 20
1583.398728126875
 30
0.0
 40
2.0
100
AcDbArc
 50
319.1680648627517
 51
53.30492059338077
  0
LINE
  5
2B022
330
17
100
AcDbEntity
  8
0
100
AcDbLine
 10
1005.6614638226
 20
1598.147185352345
 30
0.0
 11
1006.1614638226
 21
1598.147185352345
 31
0.0
  0
ELLIPSE
  5
2B023
330
17
100
AcDbEntity
  8
0
100
AcDbEllipse
 10
1005.6614638226
 20
1583.147185352345
 30
0.0
 11
0.0
 21
15.0
 31
0.0
210
0.0
220
0.0
230
1.0
 40
0.8660254037844426
 41
0.0
 42
1.570796326794896
  0
SPLINE
  5
2B024
330
17
100
AcDbEntity
  8
0
100
AcDbSpline
210
0.0
220
0.0
230
1.0
 70
     8
 71
     3
 72
    18
 73
    14
 74
     0
 42
0.0000000001
 43
0.0000000001
 40
0.6632107530124897
 40
0.6632107530124897
 40
0.6632107530124897
 40
0.6632107530124897
 40
0.8823300790087184
 40
0.8823300790087184
 40
1.217886221126945
 40
1.217886221126945
 40
1.553442363245172
 40
1.553442363245172
 40
1.888998505363399
 40
1.888998505363399
 40
2.224554647481627
 40
2.224554647481627
 40
2.47838629607988
 40
2.47838629607988
 40
2.47838629607988
 40
2.47838629607988
 10
993.1710827658328
 20
1575.911219174166
 30
0.0
 10
992.3753994523334
 20
1575.193067194805
 30
0.0
 10
991.6441448586986
 20
1574.371480247969
 30
0.0
 10
990.0063266447043
 20
1572.072888988302
 30
0.0
 10
989.2139833449453
 20
1570.480248192244
 30
0.0
 10
988.1261188006677
 20
1567.069830692485
 30
0.0
 10
987.8310147771934
 20
1565.253027187255
 30
0.0
 10
987.776214418279
 20
1561.607076468052
 30
0.0
 10
988.0165370905721
 20
1559.778955062592
 30
0.0
 10
989.0018691148085
 20
1556.324855699554
 30
0.0
 10
989.7465070222036
 20
1554.699863298404
 30
0.0
 10
991.4143442597467
 20
1552.18619156556
 30
0.0
 10
992.2494015729874
 20
1551.21497703251
 30
0.0
 10
993.1710827658328
 20
1550.382962190754
 30
0.0
  0
ELLIPSE
  5
2B025
330
17
100
AcDbEntity
  8
0
100
AcDbEllipse
 10
1006.1614638226
 20
1583.147185352345
 30
0.0
 11
0.0
 21
15.0
 31
0.0
210
0.0
220
0.0
230
1.0
 40
0.8660254037844426
 41
0.0
 42
1.570796326794896
  0
ELLIPSE
  5
2B026
330
17
100
AcDbEntity
  8
0
100
AcDbEllipse
 10
1029.981971898288
 20
1563.147185352345
 30
0.0
 11
0.0
 21
-31.0
 31
0.0
210
0.0
220
0.0
230
1.0
 40
0.8101527970886834
 41
8.056885341888573
 42
8.746925324490071
  0
ELLIPSE
  5
2B027
330
17
100
AcDbEntity
  8
0
100
AcDbEllipse
 10
1040.631971898286
 20
1573.773390215003
 30
0.0
 11
-4.706945021173851
 21
0.0
 31
0.0
210
0.0
220
0.0
230
1.0
 40
0.7167696079230882
 41
3.985342887398487
 42
5.439435073370891
  0
LINE
  5
2B028
330
17
100
AcDbEntity
  8
0
100
AcDbLine
 10
1052.338378358841
 20
1592.147185352345
 30
0.0
 11
1050.231971898288
 21
1592.147185352345
 31
0.0
  0
LINE
  5
2B029
330
17
100
AcDbEntity
  8
0
100
AcDbLine
 10
1052.338378358839
 20
1599.147185352344
 30
0.0
 11
1050.231971898288
 21
1599.147185352344
 31
0.0
  0
LINE
  5
2B02A
330
17
100
AcDbEntity
  8
0
100
AcDbLine
 10
1052.338378358839
 20
1599.147185352344
 30
0.0
 11
1052.338378358839
 21
1592.147185352345
 31
0.0
  0
LINE
  5
2B02B
330
17
100
AcDbEntity
  8
0
100
AcDbLine
 10
1026.303038475147
 20
1592.147185352345
 30
0.0
 11
1016.125565437736
 21
1592.147185352345
 31
0.0
  0
LINE
  5
2B02C
330
17
100
AcDbEntity
  8
0
100
AcDbLine
 10
1026.303038475145
 20
1599.147185352344
 30
0.0
 11
1016.125565437736
 21
1599.147185352344
 31
0.0
  0
LINE
  5
2B02D
330
17
100
AcDbEntity
  8
0
100
AcDbLine
 10
1024.625565437736
 20
1599.147185352344
 30
0.0
 11
1024.625565437736
 21
1592.147185352345
 31
0.0
  0
LINE
  5
2B02E
330
17
100
AcDbEntity
  8
0
100
AcDbLine
 10
1016.125565437736
 20
1599.147185352344
 30
0.0
 11
1016.125565437736
 21
1592.147185352345
 31
0.0
  0
ARC
  5
2B02F
330
17
100
AcDbEntity
  8
0
100
AcDbCircle
 10
1047.231971898288
 20
1589.147185352345
 30
0.0
 40
1.5
100
AcDbArc
 50
90.0
 51
180.0
  0
LINE
  5
2B030
330
17
100
AcDbEntity
  8
0
100
AcDbLine
 10
1045.731971898288
 20
1581.271485352344
 30
0.0
 11
1045.731971898288
 21
1589.147185352344
 31
0.0
  0
ARC
  5
2B031
330
17
100
AcDbEntity
  8
0
100
AcDbCircle
 10
1021.231971898288
 20
1589.147185352345
 30
0.0
 40
1.5
100
AcDbArc
 50
0.0
 51
90.0
  0
LINE
  5
2B032
330
17
100
AcDbEntity
  8
0
100
AcDbLine
 10
1022.731971898289
 20
1581.271485352344
 30
0.0
 11
1022.731971898289
 21
1589.147185352344
 31
0.0
  0
LINE
  5
2B033
330
17
100
AcDbEntity
  8
0
100
AcDbLine
 10
1050.231971898288
 20
1592.147185352345
 30
0.0
 11
1050.231971898288
 21
1599.647185352345
 31
0.0
  0
ARC
  5
2B034
330
17
100
AcDbEntity
  8
0
100
AcDbCircle
 10
1048.731971898289
 20
1592.147185352346
 30
0.0
 40
1.5
100
AcDbArc
 50
270.0
 51
0.0
  0
LINE
  5
2B035
330
17
100
AcDbEntity
  8
0
100
AcDbLine
 10
1049.231971898288
 20
1600.647185352345
 30
0.0
 11
1050.231971898288
 21
1599.647185352345
 31
0.0
  0
LINE
  5
2B036
330
17
100
AcDbEntity
  8
0
100
AcDbLine
 10
1019.731971898288
 20
1590.647185352345
 30
0.0
 11
1034.231971898289
 21
1590.647185352345
 31
0.0
  0
LINE
  5
2B037
330
17
100
AcDbEntity
  8
0
100
AcDbLine
 10
1019.231971898288
 20
1600.647185352345
 30
0.0
 11
1034.231971898289
 21
1600.647185352345
 31
0.0
  0
LINE
  5
2B038
330
17
100
AcDbEntity
  8
0
100
AcDbLine
 10
1018.231971898288
 20
1599.647185352345
 30
0.0
 11
1034.231971898289
 21
1599.647185352345
 31
0.0
  0
ARC
  5
2B039
330
17
100
AcDbEntity
  8
0
100
AcDbCircle
 10
1019.731971898288
 20
1592.147185352346
 30
0.0
 40
1.5
100
AcDbArc
 50
180.0
 51
270.0
  0
LINE
  5
2B03A
330
17
100
AcDbEntity
  8
0
100
AcDbLine
 10
1019.231971898288
 20
1600.647185352345
 30
0.0
 11
1018.231971898288
 21
1599.647185352345
 31
0.0
  0
LINE
  5
2B03B
330
17
100
AcDbEntity
  8
0
100
AcDbLine
 10
1018.231971898288
 20
1599.147185352344
 30
0.0
 11
1018.231971898288
 21
1599.647185352345
 31
0.0
  0
LINE
  5
2B03C
330
17
100
AcDbEntity
  8
0
100
AcDbLine
 10
1048.731971898289
 20
1590.647185352345
 30
0.0
 11
1034.231971898289
 21
1590.647185352345
 31
0.0
  0
LINE
  5
2B03D
330
17
100
AcDbEntity
  8
0
100
AcDbLine
 10
1049.231971898288
 20
1600.647185352345
 30
0.0
 11
1034.231971898289
 21
1600.647185352345
 31
0.0
  0
LINE
  5
2B03E
330
17
100
AcDbEntity
  8
0
100
AcDbLine
 10
1050.231971898288
 20
1599.647185352345
 30
0.0
 11
1034.231971898289
 21
1599.647185352345
 31
0.0
  0
ELLIPSE
  5
2B03F
330
17
100
AcDbEntity
  8
0
100
AcDbEllipse
 10
1040.802479973977
 20
1583.147185352345
 30
0.0
 11
0.0
 21
15.0
 31
0.0
210
0.0
220
0.0
230
-1.0
 40
0.8660254037844426
 41
0.9272952180016257
 42
1.570796326794896
  0
LINE
  5
2B040
330
17
100
AcDbEntity
  8
0
100
AcDbLine
 10
1053.792861030744
 20
1553.288598399181
 30
0.0
 11
1053.792861030744
 21
1547.647185352344
 31
0.0
  0
ELLIPSE
  5
2B041
330
17
100
AcDbEntity
  8
0
100
AcDbEllipse
 10
1029.981971898288
 20
1563.147185352345
 30
0.0
 11
0.0
 21
-31.0
 31
0.0
210
0.0
220
0.0
230
1.0
 40
0.8101527970886834
 41
7.330382858376178
 42
7.65107792606039
  0
LINE
  5
2B042
330
17
100
AcDbEntity
  8
0
100
AcDbLine
 10
1049.301724719339
 20
1547.647185352344
 30
0.0
 11
1066.846708608036
 21
1547.647185352344
 31
0.0
  0
LINE
  5
2B043
330
17
100
AcDbEntity
  8
0
100
AcDbLine
 10
1053.792861030744
 20
1583.147185352345
 30
0.0
 11
1053.792861030744
 21
1573.005772305509
 31
0.0
  0
LINE
  5
2B044
330
17
100
AcDbEntity
  8
0
100
AcDbLine
 10
1049.301724719336
 20
1553.533613595733
 30
0.0
 11
1049.301724719337
 21
1547.647185352344
 31
0.0
  0
ELLIPSE
  5
2B045
330
17
100
AcDbEntity
  8
0
100
AcDbEllipse
 10
1038.466551454406
 20
1568.655546234304
 30
0.0
 11
0.0
 21
-15.72196648595286
 31
0.0
210
0.0
220
0.0
230
-1.0
 40
0.7542197057154545
 41
-2.945090338853026
 42
-1.80581093177489
  0
LINE
  5
2B046
330
17
100
AcDbEntity
  8
0
100
AcDbLine
 10
1022.374154961982
 20
1556.179130029367
 30
0.0
 11
1022.374154961982
 21
1549.738779765979
 31
0.0
  0
ELLIPSE
  5
2B047
330
17
100
AcDbEntity
  8
0
100
AcDbEllipse
 10
1034.231971898286
 20
1568.655546234304
 30
0.0
 11
0.0
 21
-15.72196648595286
 31
0.0
210
0.0
220
0.0
230
1.0
 40
0.7542197057154545
 41
-2.945090338853026
 42
-1.720057908898253
  0
LINE
  5
2B048
330
17
100
AcDbEntity
  8
0
100
AcDbLine
 10
1019.580684666858
 20
1566.87429888599
 30
0.0
 11
1022.374154961982
 21
1568.655546234304
 31
0.0
  0
LINE
  5
2B049
330
17
100
AcDbEntity
  8
0
100
AcDbLine
 10
1019.580684666858
 20
1559.4200718187
 30
0.0
 11
1022.374154961982
 21
1557.638824470386
 31
0.0
  0
ELLIPSE
  5
2B04A
330
17
100
AcDbEntity
  8
0
100
AcDbEllipse
 10
1020.405026594583
 20
1563.147185352345
 30
0.0
 11
0.0
 21
3.966658014797872
 31
0.0
210
0.0
220
0.0
230
1.0
 40
0.607218034038241
 41
0.3493058667721709
 42
2.792286786817622
  0
ELLIPSE
  5
2B04B
330
17
100
AcDbEntity
  8
0
100
AcDbEllipse
 10
1057.708917201989
 20
1563.147185352345
 30
0.0
 11
0.0
 21
3.966658014797872
 31
0.0
210
0.0
220
0.0
230
-1.0
 40
0.607218034038241
 41
0.3493058667721709
 42
2.792286786817622
  0
ELLIPSE
  5
2B04C
330
17
100
AcDbEntity
  8
0
100
AcDbEllipse
 10
1040.631971898286
 20
1552.520980489687
 30
0.0
 11
-4.706945021173851
 21
0.0
 31
0.0
210
0.0
220
0.0
230
-1.0
 40
0.7167696079230882
 41
3.985342887398487
 42
5.439435073370891
  0
ELLIPSE
  5
2B04D
330
17
100
AcDbEntity
  8
0
100
AcDbEllipse
 10
1023.555026594585
 20
1563.147185352345
 30
0.0
 11
0.0
 21
3.966658014797872
 31
0.0
210
0.0
220
0.0
230
1.0
 40
0.607218034038241
 41
0.3493058667721709
 42
2.792286786817622
  0
LINE
  5
2B04E
330
17
100
AcDbEntity
  8
0
100
AcDbLine
 10
1058.533259129717
 20
1566.87429888599
 30
0.0
 11
1043.760516113283
 21
1576.294090952961
 31
0.0
  0
LINE
  5
2B04F
330
17
100
AcDbEntity
  8
0
100
AcDbLine
 10
1058.533259129717
 20
1559.4200718187
 30
0.0
 11
1043.760516113283
 21
1550.000279751728
 31
0.0
  0
LINE
  5
2B050
330
17
100
AcDbEntity
  8
0
100
AcDbLine
 10
1022.730684666859
 20
1559.4200718187
 30
0.0
 11
1037.503427683293
 21
1550.000279751728
 31
0.0
  0
LINE
  5
2B051
330
17
100
AcDbEntity
  8
0
100
AcDbLine
 10
1022.730684666859
 20
1566.87429888599
 30
0.0
 11
1037.503427683293
 21
1576.294090952961
 31
0.0
  0
ELLIPSE
  5
2B052
330
17
100
AcDbEntity
  8
0
100
AcDbEllipse
 10
1040.631971898286
 20
1563.147185352345
 30
0.0
 11
0.0
 21
-8.800000000000409
 31
0.0
210
0.0
220
0.0
230
1.0
 40
0.7272727272726522
 41
3.141592653589793
 42
6.283185307179586
  0
LINE
  5
2B053
330
17
100
AcDbEntity
  8
0
100
AcDbLine
 10
1044.231971898289
 20
1554.347185352344
 30
0.0
 11
1040.631971898286
 21
1554.347185352344
 31
0.0
  0
LINE
  5
2B054
330
17
100
AcDbEntity
  8
0
100
AcDbLine
 10
1044.231971898289
 20
1571.947185352345
 30
0.0
 11
1040.631971898286
 21
1571.947185352345
 31
0.0
  0
ELLIPSE
  5
2B055
330
17
100
AcDbEntity
  8
0
100
AcDbEllipse
 10
1044.231971898289
 20
1563.147185352345
 30
0.0
 11
0.0
 21
-8.800000000000409
 31
0.0
210
0.0
220
0.0
230
1.0
 40
0.7272727272726522
 41
0.0
 42
6.283185307179586
  0
LINE
  5
2B056
330
17
100
AcDbEntity
  8
0
100
AcDbLine
 10
1024.490663690386
 20
1547.647185352344
 30
0.0
 11
1013.367235188537
 21
1547.647185352344
 31
0.0
  0
LINE
  5
2B057
330
17
100
AcDbEntity
  8
0
100
AcDbLine
 10
1021.731971898289
 20
1607.647185352344
 30
0.0
 11
1021.731971898289
 21
1600.647185352345
 31
0.0
  0
LINE
  5
2B058
330
17
100
AcDbEntity
  8
0
100
AcDbLine
 10
1019.231971898288
 20
1609.703445988478
 30
0.0
 11
1019.231971898288
 21
1608.147185352345
 31
0.0
  0
LINE
  5
2B059
330
17
100
AcDbEntity
  8
0
100
AcDbLine
 10
1019.231971898288
 20
1608.147185352345
 30
0.0
 11
1019.731971898288
 21
1607.647185352344
 31
0.0
  0
LINE
  5
2B05A
330
17
100
AcDbEntity
  8
0
100
AcDbLine
 10
1049.231971898288
 20
1608.147185352345
 30
0.0
 11
1048.731971898289
 21
1607.647185352344
 31
0.0
  0
LINE
  5
2B05B
330
17
100
AcDbEntity
  8
0
100
AcDbLine
 10
1048.731971898289
 20
1610.647185352345
 30
0.0
 11
1049.231971898288
 21
1610.147185352344
 31
0.0
  0
LINE
  5
2B05C
330
17
100
AcDbEntity
  8
0
100
AcDbLine
 10
1049.231971898288
 20
1610.147185352344
 30
0.0
 11
1049.231971898288
 21
1608.147185352345
 31
0.0
  0
LINE
  5
2B05D
330
17
100
AcDbEntity
  8
0
100
AcDbLine
 10
1046.731971898289
 20
1607.647185352344
 30
0.0
 11
1046.731971898289
 21
1600.647185352345
 31
0.0
  0
LINE
  5
2B05E
330
17
100
AcDbEntity
  8
0
100
AcDbLine
 10
1019.940159979799
 20
1610.147185352344
 30
0.0
 11
1049.231971898288
 21
1610.147185352344
 31
0.0
  0
LINE
  5
2B05F
330
17
100
AcDbEntity
  8
0
100
AcDbLine
 10
1020.755917794427
 20
1610.647185352345
 30
0.0
 11
1048.731971898289
 21
1610.647185352345
 31
0.0
  0
LINE
  5
2B060
330
17
100
AcDbEntity
  8
0
100
AcDbLine
 10
1048.731971898289
 20
1607.647185352344
 30
0.0
 11
1019.731971898288
 21
1607.647185352344
 31
0.0
  0
LINE
  5
2B061
330
17
100
AcDbEntity
  8
0
100
AcDbLine
 10
1048.731971898289
 20
1610.647185352345
 30
0.0
 11
1034.231971898289
 21
1610.647185352345
 31
0.0
  0
LINE
  5
2B062
330
17
100
AcDbEntity
  8
0
100
AcDbLine
 10
1049.231971898288
 20
1608.147185352345
 30
0.0
 11
1019.231971898288
 21
1608.147185352345
 31
0.0
  0
ELLIPSE
  5
2B063
330
17
100
AcDbEntity
  8
0
100
AcDbEllipse
 10
1043.481971898288
 20
1545.606419617316
 30
0.0
 11
-5.0
 21
0.0
 31
0.0
210
0.0
220
0.0
230
1.0
 40
0.3081531470059418
 41
4.712388980384689
 42
5.827643344102719
  0
LINE
  5
2B064
330
17
100
AcDbEntity
  8
0
100
AcDbLine
 10
1043.481971898288
 20
1547.147185352346
 30
0.0
 11
1044.231971898289
 21
1547.147185352346
 31
0.0
  0
ELLIPSE
  5
2B065
330
17
100
AcDbEntity
  8
0
100
AcDbEllipse
 10
1044.231971898289
 20
1545.606419617316
 30
0.0
 11
-5.0
 21
0.0
 31
0.0
210
0.0
220
0.0
230
1.0
 40
0.3081531470059418
 41
3.597134616666659
 42
5.827643344102719
  0
LINE
  5
2B066
330
17
100
AcDbEntity
  8
0
100
AcDbLine
 10
954.6030327251536
 20
1418.037857429714
 30
0.0
 11
954.6030327251589
 21
1594.753762177735
 31
0.0
  0
LINE
  5
2B067
330
17
100
AcDbEntity
  8
0
100
AcDbLine
 10
970.4830325824202
 20
1417.111093988019
 30
0.0
 11
970.4830325084056
 21
1593.826998733865
 31
0.0
  0
DIMENSION
  5
2B068
330
17
100
AcDbEntity
  8
DIM
100
AcDbDimension
  2
*D10
 10
2016.909700437799
 20
571.7440151796791
 30
0.0
 11
1978.659700437799
 21
1349.644015179679
 31
0.0
 70
    32
  1
（<>）
 71
     5
 42
1555.8
 73
     0
 74
     0
 75
     0
  3
STANDARD
100
AcDbAlignedDimension
 13
1382.666355127517
 23
2127.544015179679
 33
0.0
 14
1417.530823108632
 24
571.7440151796794
 34
0.0
 50
90.0
100
AcDbRotatedDimension
1001
ACAD
1000
DSTYLE
1002
{
1070
    41
1040
3.0
1070
    42
1040
2.0
1070
    43
1040
10.0
1070
    44
1040
2.0
1070
    45
1040
1.0
1070
    73
1070
     0
1070
    74
1070
     0
1070
    77
1070
     1
1070
    78
1070
     8
1070
    79
1070
     2
1070
   140
1040
2.5
1070
   147
1040
0.9999999999999996
1070
   172
1070
     1
1070
   271
1070
     1
1070
   272
1070
     1
1070
   341
1005
4A
1070
   342
1005
4A
1002
}
  0
DIMENSION
  5
2B069
330
17
100
AcDbEntity
  8
DIM
100
AcDbDimension
  2
*D11
 10
2128.9097004378
 20
571.7440151796791
 30
0.0
 11
2090.6597004378
 21
1521.494015179679
 31
0.0
 70
    32
 71
     5
 42
1899.499999999999
 73
     0
 74
     0
 75
     0
  3
STANDARD
100
AcDbAlignedDimension
 13
1455.181971898295
 23
2471.244015179678
 33
0.0
 14
1417.530823108632
 24
571.7440151796794
 34
0.0
 50
90.0
100
AcDbRotatedDimension
1001
ACAD
1000
DSTYLE
1002
{
1070
    41
1040
3.0
1070
    42
1040
2.0
1070
    43
1040
10.0
1070
    44
1040
2.0
1070
    45
1040
1.0
1070
    73
1070
     0
1070
    74
1070
     0
1070
    77
1070
     1
1070
    78
1070
     8
1070
    79
1070
     2
1070
   140
1040
2.5
1070
   147
1040
0.9999999999999996
1070
   172
1070
     1
1070
   271
1070
     1
1070
   272
1070
     1
1070
   341
1005
4A
1070
   342
1005
4A
1002
}
  0
LINE
  5
2B06A
330
17
100
AcDbEntity
  8
0
100
AcDbLine
 10
964.0842368690549
 20
696.7440151796782
 30
0.0
 11
964.0842368690549
 21
692.2440151796791
 31
0.0
  0
LINE
  5
2B06B
330
17
100
AcDbEntity
  8
0
100
AcDbLine
 10
944.9331257910827
 20
571.7440151796794
 30
0.0
 11
1065.916418613874
 21
571.7440151796794
 31
0.0
  0
LINE
  5
2B06C
330
17
100
AcDbEntity
  8
0
100
AcDbLine
 10
964.0842368690549
 20
696.7440151796782
 30
0.0
 11
1065.916418613874
 21
696.7440151796782
 31
0.0
  0
LINE
  5
2B06D
330
17
100
AcDbEntity
  8
0
100
AcDbLine
 10
966.9767811126455
 20
692.2440151796791
 30
0.0
 11
1009.400763351966
 21
692.2440151796791
 31
0.0
  0
LINE
  5
2B06E
330
17
100
AcDbEntity
  8
0
100
AcDbLine
 10
947.8256700346735
 20
576.2440151796804
 30
0.0
 11
990.2496522739941
 21
576.2440151796804
 31
0.0
  0
LINE
  5
2B06F
330
17
100
AcDbEntity
  8
0
100
AcDbLine
 10
1065.916418613874
 20
696.7440151796782
 30
0.0
 11
1065.916418613874
 21
599.6742580166793
 31
0.0
  0
LINE
  5
2B070
330
17
100
AcDbEntity
  8
0
100
AcDbLine
 10
1065.916418613874
 20
583.6742580166793
 30
0.0
 11
1065.916418613874
 21
571.7440151796794
 31
0.0
  0
LINE
  5
2B071
330
17
100
AcDbEntity
  8
0
100
AcDbLine
 10
1012.293307595557
 20
696.7440151796782
 30
0.0
 11
1012.293307595557
 21
692.2440151796783
 31
0.0
  0
LINE
  5
2B072
330
17
100
AcDbEntity
  8
0
100
AcDbLine
 10
944.9331257910827
 20
571.7440151796794
 30
0.0
 11
944.9331257910827
 21
576.2440151796804
 31
0.0
  0
LINE
  5
2B073
330
17
100
AcDbEntity
  8
0
100
AcDbLine
 10
993.1421965175848
 20
576.2440151796793
 30
0.0
 11
993.1421965175848
 21
571.7440151796794
 31
0.0
  0
LINE
  5
2B074
330
17
100
AcDbEntity
  8
0
100
AcDbLine
 10
964.0842368690549
 20
692.2440151796791
 30
0.0
 11
948.801360128629
 21
599.6742580166793
 31
0.0
  0
LINE
  5
2B075
330
17
100
AcDbEntity
  8
0
100
AcDbLine
 10
946.1598275661501
 20
583.6742580166793
 30
0.0
 11
944.9331257910827
 21
576.2440151796804
 31
0.0
  0
LINE
  5
2B076
330
17
100
AcDbEntity
  8
0
100
AcDbLine
 10
966.9767811126455
 20
692.2440151796791
 30
0.0
 11
951.6939043722171
 21
599.6742580166793
 31
0.0
  0
LINE
  5
2B077
330
17
100
AcDbEntity
  8
0
100
AcDbLine
 10
949.052371809739
 20
583.6742580166793
 30
0.0
 11
947.8256700346735
 21
576.2440151796804
 31
0.0
  0
LINE
  5
2B078
330
17
100
AcDbEntity
  8
0
100
AcDbLine
 10
990.2496522739941
 20
576.2440151796804
 30
0.0
 11
991.47635404906
 21
583.6742580166793
 31
0.0
  0
LINE
  5
2B079
330
17
100
AcDbEntity
  8
0
100
AcDbLine
 10
994.1178866115386
 20
599.6742580166793
 30
0.0
 11
1009.400763351966
 21
692.2440151796791
 31
0.0
  0
LINE
  5
2B07A
330
17
100
AcDbEntity
  8
0
100
AcDbLine
 10
993.1421965175848
 20
576.2440151796804
 30
0.0
 11
994.3688982926502
 21
583.6742580166793
 31
0.0
  0
LINE
  5
2B07B
330
17
100
AcDbEntity
  8
0
100
AcDbLine
 10
997.0104308551306
 20
599.6742580166793
 30
0.0
 11
1012.293307595557
 21
692.2440151796791
 31
0.0
  0
LINE
  5
2B07C
330
17
100
AcDbEntity
  8
0
100
AcDbLine
 10
1398.379706927507
 20
696.7440151796782
 30
0.0
 11
1398.379706927507
 21
692.2440151796791
 31
0.0
  0
LINE
  5
2B07D
330
17
100
AcDbEntity
  8
0
100
AcDbLine
 10
1417.530818005479
 20
571.7440151796794
 30
0.0
 11
1296.547525182688
 21
571.7440151796794
 31
0.0
  0
LINE
  5
2B07E
330
17
100
AcDbEntity
  8
0
100
AcDbLine
 10
1398.379706927507
 20
696.7440151796782
 30
0.0
 11
1296.547525182688
 21
696.7440151796782
 31
0.0
  0
LINE
  5
2B07F
330
17
100
AcDbEntity
  8
0
100
AcDbLine
 10
1395.487162683917
 20
692.2440151796791
 30
0.0
 11
1353.063180444596
 21
692.2440151796791
 31
0.0
  0
LINE
  5
2B080
330
17
100
AcDbEntity
  8
0
100
AcDbLine
 10
1414.638273761889
 20
576.2440151796804
 30
0.0
 11
1372.214291522568
 21
576.2440151796804
 31
0.0
  0
LINE
  5
2B081
330
17
100
AcDbEntity
  8
0
100
AcDbLine
 10
1296.547525182688
 20
696.7440151796782
 30
0.0
 11
1296.547525182688
 21
571.7440151796794
 31
0.0
  0
LINE
  5
2B082
330
17
100
AcDbEntity
  8
0
100
AcDbLine
 10
1350.170636201005
 20
696.7440151796782
 30
0.0
 11
1350.170636201005
 21
692.2440151796783
 31
0.0
  0
LINE
  5
2B083
330
17
100
AcDbEntity
  8
0
100
AcDbLine
 10
1417.530818005479
 20
571.7440151796794
 30
0.0
 11
1417.530818005479
 21
576.2440151796804
 31
0.0
  0
LINE
  5
2B084
330
17
100
AcDbEntity
  8
0
100
AcDbLine
 10
1369.321747278978
 20
576.2440151796793
 30
0.0
 11
1369.321747278978
 21
571.7440151796794
 31
0.0
  0
LINE
  5
2B085
330
17
100
AcDbEntity
  8
0
100
AcDbLine
 10
1398.379706927507
 20
692.2440151796791
 30
0.0
 11
1417.530818005479
 21
576.2440151796804
 31
0.0
  0
LINE
  5
2B086
330
17
100
AcDbEntity
  8
0
100
AcDbLine
 10
1395.487162683917
 20
692.2440151796791
 30
0.0
 11
1414.638273761889
 21
576.2440151796804
 31
0.0
  0
LINE
  5
2B087
330
17
100
AcDbEntity
  8
0
100
AcDbLine
 10
1372.214291522568
 20
576.2440151796804
 30
0.0
 11
1353.063180444596
 21
692.2440151796791
 31
0.0
  0
LINE
  5
2B088
330
17
100
AcDbEntity
  8
0
100
AcDbLine
 10
1369.321747278978
 20
576.2440151796804
 30
0.0
 11
1350.170636201005
 21
692.2440151796791
 31
0.0
  0
LINE
  5
2B089
330
17
100
AcDbEntity
  8
0
100
AcDbLine
 10
1455.231971898281
 20
2441.244015179678
 30
0.0
 11
1455.231971898279
 21
827.7440151796771
 31
0.0
  0
LINE
  5
2B08A
330
17
100
AcDbEntity
  8
0
100
AcDbLine
 10
907.2319718982814
 20
2441.244015179678
 30
0.0
 11
907.2319718982814
 21
827.7440151796778
 31
0.0
  0
LINE
  5
2B08B
330
17
100
AcDbEntity
  8
0
100
AcDbLine
 10
1431.231971898281
 20
823.744015179677
 30
0.0
 11
931.2319718982777
 21
823.7440151796779
 31
0.0
  0
LINE
  5
2B08C
330
17
100
AcDbEntity
  8
0
100
AcDbLine
 10
907.2319718982814
 20
827.7440151796778
 30
0.0
 11
931.2319718982777
 21
827.7440151796771
 31
0.0
  0
CIRCLE
  5
2B08D
330
17
100
AcDbEntity
  8
0
100
AcDbCircle
 10
1031.231971898283
 20
836.7440151796779
 30
0.0
 40
3.0
  0
LINE
  5
2B08E
330
17
100
AcDbEntity
  8
0
100
AcDbLine
 10
1455.231971898283
 20
827.7440151796771
 30
0.0
 11
1431.231971898281
 21
827.7440151796771
 31
0.0
  0
CIRCLE
  5
2B08F
330
17
100
AcDbEntity
  8
0
100
AcDbCircle
 10
1331.231971898281
 20
836.7440151796779
 30
0.0
 40
3.0
  0
LINE
  5
2B090
330
17
100
AcDbEntity
  8
0
100
AcDbLine
 10
1431.231971898281
 20
823.744015179677
 30
0.0
 11
1431.231971898281
 21
827.7440151796771
 31
0.0
  0
LINE
  5
2B091
330
17
100
AcDbEntity
  8
0
100
AcDbLine
 10
931.2319718982777
 20
823.7440151796779
 30
0.0
 11
931.2319718982777
 21
827.7440151796778
 31
0.0
  0
LINE
  5
2B092
330
17
100
AcDbEntity
  8
0
100
AcDbLine
 10
1378.392725503388
 20
2425.744015179678
 30
0.0
 11
1246.071218293173
 21
2425.744015179678
 31
0.0
  0
LINE
  5
2B093
330
17
100
AcDbEntity
  8
0
100
AcDbLine
 10
1378.392725503388
 20
2325.744015179678
 30
0.0
 11
1246.071218293173
 21
2325.744015179678
 31
0.0
  0
LINE
  5
2B094
330
17
100
AcDbEntity
  8
0
100
AcDbLine
 10
1243.231971898279
 20
2422.904015179678
 30
0.0
 11
1243.231971898279
 21
2328.584015179679
 31
0.0
  0
ARC
  5
2B095
330
17
100
AcDbEntity
  8
0
100
AcDbCircle
 10
1246.071218293173
 20
2422.904015179678
 30
0.0
 40
2.839246394892143
100
AcDbArc
 50
90.0
 51
180.0
  0
LINE
  5
2B096
330
17
100
AcDbEntity
  8
0
100
AcDbLine
 10
1381.231971898279
 20
2422.904015179678
 30
0.0
 11
1381.231971898279
 21
2328.584015179679
 31
0.0
  0
ARC
  5
2B097
330
17
100
AcDbEntity
  8
0
100
AcDbCircle
 10
1378.392725503388
 20
2328.584015179679
 30
0.0
 40
2.839246394892143
100
AcDbArc
 50
270.0
 51
0.0
  0
DIMENSION
  5
2B098
330
17
100
AcDbEntity
  8
DIM
100
AcDbDimension
  2
*D12
 10
1674.312484208045
 20
571.7440151796792
 30
0.0
 11
1674.312484208045
 21
442.1946055621543
 31
0.0
 70
   160
 71
     5
 42
169.499999999997
 73
     0
 74
     0
 75
     0
  3
STANDARD
100
AcDbAlignedDimension
 13
1316.231971898281
 23
741.2440151796764
 33
0.0
 14
1417.530818005479
 24
571.7440151796794
 34
0.0
 50
90.0
100
AcDbRotatedDimension
1001
ACAD
1000
DSTYLE
1002
{
1070
    41
1040
3.0
1070
    42
1040
2.0
1070
    43
1040
10.0
1070
    44
1040
2.0
1070
    45
1040
1.0
1070
    73
1070
     0
1070
    74
1070
     0
1070
    77
1070
     1
1070
    78
1070
     8
1070
    79
1070
     2
1070
   140
1040
2.5
1070
   147
1040
0.9999999999999996
1070
   172
1070
     1
1070
   271
1070
     1
1070
   272
1070
     1
1070
   341
1005
4A
1070
   342
1005
4A
1002
}
  0
DIMENSION
  5
2B099
330
17
100
AcDbEntity
  8
DIM
100
AcDbDimension
  2
*D13
 10
1795.084606254042
 20
571.7440151796791
 30
0.0
 11
1795.084606254042
 21
443.366599434738
 31
0.0
 70
   160
 71
     5
 42
254.999999999999
 73
     0
 74
     0
 75
     0
  3
STANDARD
100
AcDbAlignedDimension
 13
1454.731971898281
 23
826.7440151796783
 33
0.0
 14
1417.530818005479
 24
571.7440151796794
 34
0.0
 50
90.0
100
AcDbRotatedDimension
1001
ACAD
1000
DSTYLE
1002
{
1070
    41
1040
3.0
1070
    42
1040
2.0
1070
    43
1040
10.0
1070
    44
1040
2.0
1070
    45
1040
1.0
1070
    73
1070
     0
1070
    74
1070
     0
1070
    77
1070
     1
1070
    78
1070
     8
1070
    79
1070
     2
1070
   140
1040
2.5
1070
   147
1040
0.9999999999999996
1070
   172
1070
     1
1070
   271
1070
     1
1070
   272
1070
     1
1070
   341
1005
4A
1070
   342
1005
4A
1002
}
  0
DIMENSION
  5
2B09A
330
17
100
AcDbEntity
  8
DIM
100
AcDbDimension
  2
*D14
 10
1568.783411642486
 20
571.7440151796792
 30
0.0
 11
1568.783411642486
 21
400.9344913701557
 31
0.0
 70
   160
 71
     5
 42
124.9999999999988
 73
     0
 74
     0
 75
     0
  3
STANDARD
100
AcDbAlignedDimension
 13
1454.731971898281
 23
696.7440151796782
 33
0.0
 14
1417.530823108632
 24
571.7440151796794
 34
0.0
 50
90.0
100
AcDbRotatedDimension
1001
ACAD
1000
DSTYLE
1002
{
1070
    41
1040
3.0
1070
    42
1040
2.0
1070
    43
1040
10.0
1070
    44
1040
2.0
1070
    45
1040
1.0
1070
    73
1070
     0
1070
    74
1070
     0
1070
    77
1070
     1
1070
    78
1070
     8
1070
    79
1070
     2
1070
   140
1040
2.5
1070
   147
1040
0.9999999999999996
1070
   172
1070
     1
1070
   271
1070
     1
1070
   272
1070
     1
1070
   341
1005
4A
1070
   342
1005
4A
1002
}
  0
DIMENSION
  5
2B09B
330
17
100
AcDbEntity
  8
DIM
100
AcDbDimension
  2
*D15
 10
1904.909700437799
 20
571.744015179679
 30
0.0
 11
1866.659700437799
 21
1033.695600266012
 31
0.0
 70
    32
  1
（<>）
 71
     5
 42
923.9031701726656
 73
     0
 74
     0
 75
     0
  3
STANDARD
100
AcDbAlignedDimension
 13
1045.957681898287
 23
1495.647185352345
 33
0.0
 14
1449.53081800548
 24
571.7440151796792
 34
0.0
 50
90.0
100
AcDbRotatedDimension
1001
ACAD
1000
DSTYLE
1002
{
1070
    41
1040
3.0
1070
    42
1040
2.0
1070
    43
1040
10.0
1070
    44
1040
2.0
1070
    45
1040
1.0
1070
    73
1070
     0
1070
    74
1070
     0
1070
    77
1070
     1
1070
    78
1070
     8
1070
    79
1070
     2
1070
   140
1040
2.5
1070
   147
1040
0.9999999999999996
1070
   172
1070
     1
1070
   271
1070
     1
1070
   272
1070
     1
1070
   341
1005
4A
1070
   342
1005
4A
1002
}
  0
LINE
  5
2B09C
330
17
100
AcDbEntity
  8
0
100
AcDbLine
 10
1083.981971898288
 20
1582.962705750356
 30
0.0
 11
1053.792861030745
 21
1582.962705750357
 31
0.0
  0
LINE
  5
2B09D
330
17
100
AcDbEntity
  8
0
100
AcDbLine
 10
1085.981971898288
 20
1621.952485161494
 30
0.0
 11
1085.981971898288
 21
1532.962705750356
 31
0.0
  0
LINE
  5
2B09E
330
17
100
AcDbEntity
  8
0
100
AcDbLine
 10
1115.981971898288
 20
1609.964955431997
 30
0.0
 11
1115.981971898288
 21
1532.962705750356
 31
0.0
  0
LINE
  5
2B09F
330
17
100
AcDbEntity
  8
0
100
AcDbLine
 10
1115.981971898288
 20
1532.962705750356
 30
0.0
 11
1063.619086296009
 21
1532.962705750356
 31
0.0
  0
LINE
  5
2B0A0
330
17
100
AcDbEntity
  8
0
100
AcDbLine
 10
1083.981971898288
 20
1622.337440943656
 30
0.0
 11
1083.981971898288
 21
1582.962705750356
 31
0.0
  0
ARC
  5
2B0A1
330
17
100
AcDbEntity
  8
0
100
AcDbCircle
 10
867.8147732060695
 20
1532.954466441287
 30
0.0
 40
90.8333333333333
100
AcDbArc
 50
56.60151153206292
 51
64.31645056757988
  0
ARC
  5
2B0A2
330
17
100
AcDbEntity
  8
0
100
AcDbCircle
 10
967.8147732060695
 20
1684.621133107953
 30
0.0
 40
90.83333333333326
100
AcDbArc
 50
236.6015115320629
 51
303.3984884679368
  0
ARC
  5
2B0A3
330
17
100
AcDbEntity
  8
0
100
AcDbCircle
 10
967.8147732060695
 20
1507.905228359932
 30
0.0
 40
90.83333333333326
100
AcDbArc
 50
236.6015115320629
 51
303.3984884679368
  0
ARC
  5
2B0A4
330
17
100
AcDbEntity
  8
0
100
AcDbCircle
 10
867.8147732060695
 20
1356.238561693265
 30
0.0
 40
90.8333333333333
100
AcDbArc
 50
56.60151153206292
 51
64.31645056757988
  0
ARC
  5
2B0A5
330
17
100
AcDbEntity
  8
0
100
AcDbCircle
 10
1167.814773206069
 20
1507.905228359932
 30
0.0
 40
90.83333333333326
100
AcDbArc
 50
236.6015115320629
 51
250.3800348466906
  0
ARC
  5
2B0A6
330
17
100
AcDbEntity
  8
0
100
AcDbCircle
 10
1067.814773206069
 20
1356.238561693265
 30
0.0
 40
90.83333333333326
100
AcDbArc
 50
56.60151153206292
 51
123.398488467937
  0
LINE
  5
2B0A7
330
17
100
AcDbEntity
  8
0
100
AcDbLine
 10
1137.314773206069
 20
1422.345632495737
 30
0.0
 11
1137.314773206069
 21
1599.061537243758
 31
0.0
  0
ARC
  5
2B0A8
330
17
100
AcDbEntity
  8
0
100
AcDbCircle
 10
1067.814773206056
 20
1532.954466441292
 30
0.0
 40
90.83333333333326
100
AcDbArc
 50
56.60151153206292
 51
123.398488467937
  0
ARC
  5
2B0A9
330
17
100
AcDbEntity
  8
0
100
AcDbCircle
 10
1167.814773206057
 20
1684.621133107957
 30
0.0
 40
90.83333333333326
100
AcDbArc
 50
236.6015115320629
 51
250.3800348466906
  0
LINE
  5
2B0AA
330
17
100
AcDbEntity
  8
0
100
AcDbLine
 10
1411.676234419503
 20
1004.744015179663
 30
0.0
 11
1411.676234419503
 21
874.7440151796633
 31
0.0
  0
LINE
  5
2B0AB
330
17
100
AcDbEntity
  8
0
100
AcDbLine
 10
1326.676234419503
 20
1004.744015179665
 30
0.0
 11
1326.676234419503
 21
874.7440151796633
 31
0.0
  0
LINE
  5
2B0AC
330
17
100
AcDbEntity
  8
0
100
AcDbLine
 10
1326.676234419503
 20
874.7440151796633
 30
0.0
 11
1411.676234419503
 21
874.7440151796633
 31
0.0
  0
LINE
  5
2B0AD
330
17
100
AcDbEntity
  8
0
100
AcDbLine
 10
1326.676234419503
 20
1004.744015179665
 30
0.0
 11
1411.676234419503
 21
1004.744015179665
 31
0.0
  0
LINE
  5
2B0AE
330
17
100
AcDbEntity
  8
0
100
AcDbLine
 10
937.60835515652
 20
599.6742580166793
 30
0.0
 11
1153.231971898019
 21
599.6742580166793
 31
0.0
  0
LINE
  5
2B0AF
330
17
100
AcDbEntity
  8
0
100
AcDbLine
 10
937.60835515652
 20
583.6742580166793
 30
0.0
 11
1153.231971898019
 21
583.6742580166793
 31
0.0
  0
ELLIPSE
  5
2B0B0
330
17
100
AcDbEntity
  8
0
100
AcDbEllipse
 10
937.60835515652
 20
591.6742580166795
 30
0.0
 11
0.0
 21
8.0
 31
0.0
210
0.0
220
0.0
230
1.0
 40
0.4979522642465498
 41
0.0
 42
6.283185307179586
  0
ELLIPSE
  5
2B0B1
330
17
100
AcDbEntity
  8
0
100
AcDbEllipse
 10
937.60835515652
 20
591.6742580166795
 30
0.0
 11
0.0
 21
-6.770257745728372
 31
0.0
210
0.0
220
0.0
230
1.0
 40
0.4512710656364212
 41
0.0
 42
6.283185307179586
  0
LINE
  5
2B0B2
330
17
100
AcDbEntity
  8
0
100
AcDbLine
 10
1189.231971898019
 20
671.6602770718974
 30
0.0
 11
1189.231971898019
 21
619.6742580166793
 31
0.0
  0
LINE
  5
2B0B3
330
17
100
AcDbEntity
  8
0
100
AcDbLine
 10
1173.231971898019
 20
671.6602770718974
 30
0.0
 11
1173.231971898019
 21
619.6742580166793
 31
0.0
  0
ARC
  5
2B0B4
330
17
100
AcDbEntity
  8
0
100
AcDbCircle
 10
1153.231971898019
 20
619.6742580166793
 30
0.0
 40
36.0
100
AcDbArc
 50
270.0
 51
0.0
  0
ARC
  5
2B0B5
330
17
100
AcDbEntity
  8
0
100
AcDbCircle
 10
1153.231971898019
 20
619.6742580166793
 30
0.0
 40
20.0
100
AcDbArc
 50
270.0
 51
0.0
  0
LINE
  5
2B0B6
330
17
100
AcDbEntity
  8
0
100
AcDbLine
 10
1200.231971898281
 20
693.7440151796782
 30
0.0
 11
1162.231971898281
 21
693.7440151796782
 31
0.0
  0
LINE
  5
2B0B7
330
17
100
AcDbEntity
  8
0
100
AcDbLine
 10
1169.867989760572
 20
684.8602770718977
 30
0.0
 11
1150.24030200791
 21
684.8602770718977
 31
0.0
  0
LINE
  5
2B0B8
330
17
100
AcDbEntity
  8
0
100
AcDbLine
 10
1169.867989760572
 20
670.4602770718971
 30
0.0
 11
1150.24030200791
 21
670.4602770718971
 31
0.0
  0
LINE
  5
2B0B9
330
17
100
AcDbEntity
  8
0
100
AcDbLine
 10
1151.740302007911
 20
670.4602770718971
 30
0.0
 11
1151.740302007911
 21
684.8602770718977
 31
0.0
  0
LINE
  5
2B0BA
330
17
100
AcDbEntity
  8
0
100
AcDbLine
 10
1150.24030200791
 20
670.4602770718971
 30
0.0
 11
1150.24030200791
 21
684.8602770718977
 31
0.0
  0
LINE
  5
2B0BB
330
17
100
AcDbEntity
  8
0
100
AcDbLine
 10
1169.867989760572
 20
670.4602770718971
 30
0.0
 11
1169.867989760572
 21
684.8602770718977
 31
0.0
  0
LINE
  5
2B0BC
330
17
100
AcDbEntity
  8
0
100
AcDbLine
 10
1169.867989760572
 20
671.6602770718979
 30
0.0
 11
1192.731971898019
 21
671.6602770718979
 31
0.0
  0
LINE
  5
2B0BD
330
17
100
AcDbEntity
  8
0
100
AcDbLine
 10
1169.867989760572
 20
683.6602770718974
 30
0.0
 11
1192.731971898019
 21
683.6602770718974
 31
0.0
  0
LINE
  5
2B0BE
330
17
100
AcDbEntity
  8
0
100
AcDbLine
 10
1192.731971898019
 20
683.6602770718974
 30
0.0
 11
1192.731971898019
 21
671.6602770718979
 31
0.0
  0
LINE
  5
2B0BF
330
17
100
AcDbEntity
  8
0
100
AcDbLine
 10
1174.54062894719
 20
687.7440151796783
 30
0.0
 11
1174.54062894719
 21
693.7440151796782
 31
0.0
  0
LINE
  5
2B0C0
330
17
100
AcDbEntity
  8
0
100
AcDbLine
 10
1164.54062894719
 20
687.7440151796783
 30
0.0
 11
1164.54062894719
 21
693.7440151796782
 31
0.0
  0
LINE
  5
2B0C1
330
17
100
AcDbEntity
  8
0
100
AcDbLine
 10
1173.540628947189
 20
686.7440151796783
 30
0.0
 11
1165.540628947189
 21
686.7440151796783
 31
0.0
  0
ARC
  5
2B0C2
330
17
100
AcDbEntity
  8
0
100
AcDbCircle
 10
1165.540628947189
 20
687.7440151796783
 30
0.0
 40
1.0
100
AcDbArc
 50
180.0
 51
270.0
  0
ARC
  5
2B0C3
330
17
100
AcDbEntity
  8
0
100
AcDbCircle
 10
1173.540628947189
 20
687.7440151796783
 30
0.0
 40
1.0
100
AcDbArc
 50
270.0
 51
0.0
  0
LINE
  5
2B0C4
330
17
100
AcDbEntity
  8
0
100
AcDbLine
 10
1173.231971898019
 20
686.7440151796801
 30
0.0
 11
1173.231971898019
 21
683.6602770718974
 31
0.0
  0
LINE
  5
2B0C5
330
17
100
AcDbEntity
  8
0
100
AcDbLine
 10
1162.231971898281
 20
696.7440151796782
 30
0.0
 11
1162.231971898281
 21
693.7440151796782
 31
0.0
  0
LINE
  5
2B0C6
330
17
100
AcDbEntity
  8
0
100
AcDbLine
 10
1187.92331484937
 20
693.7440151796782
 30
0.0
 11
1187.92331484937
 21
687.7440151796783
 31
0.0
  0
LINE
  5
2B0C7
330
17
100
AcDbEntity
  8
0
100
AcDbLine
 10
1197.92331484937
 20
693.7440151796782
 30
0.0
 11
1197.92331484937
 21
687.7440151796783
 31
0.0
  0
LINE
  5
2B0C8
330
17
100
AcDbEntity
  8
0
100
AcDbLine
 10
1188.923314849371
 20
686.7440151796783
 30
0.0
 11
1196.92331484937
 21
686.7440151796783
 31
0.0
  0
ARC
  5
2B0C9
330
17
100
AcDbEntity
  8
0
100
AcDbCircle
 10
1188.923314849371
 20
687.7440151796783
 30
0.0
 40
1.0
100
AcDbArc
 50
180.0
 51
270.0
  0
LINE
  5
2B0CA
330
17
100
AcDbEntity
  8
0
100
AcDbLine
 10
1189.231971898019
 20
686.7440151796801
 30
0.0
 11
1189.231971898019
 21
683.6602770718974
 31
0.0
  0
ARC
  5
2B0CB
330
17
100
AcDbEntity
  8
0
100
AcDbCircle
 10
1196.92331484937
 20
687.7440151796783
 30
0.0
 40
1.0
100
AcDbArc
 50
270.0
 51
0.0
  0
LINE
  5
2B0CC
330
17
100
AcDbEntity
  8
0
100
AcDbLine
 10
1200.231971898281
 20
696.7440151796782
 30
0.0
 11
1200.231971898281
 21
693.7440151796782
 31
0.0
  0
LINE
  5
2B0CD
330
17
100
AcDbEntity
  8
0
100
AcDbLine
 10
1162.231971898281
 20
696.7440151796782
 30
0.0
 11
1200.231971898281
 21
696.7440151796782
 31
0.0
  0
LINE
  5
2B0CE
330
17
100
AcDbEntity
  8
0
100
AcDbLine
 10
1358.296562726902
 20
2128.54264471415
 30
0.0
 11
1357.562781917786
 21
2142.544015179679
 31
0.0
  0
LINE
  5
2B0CF
330
17
100
AcDbEntity
  8
0
100
AcDbLine
 10
1359.45856274085
 20
2128.54264471415
 30
0.0
 11
1358.724781917786
 21
2142.544015179679
 31
0.0
  0
LINE
  5
2B0D0
330
17
100
AcDbEntity
  8
0
100
AcDbLine
 10
1359.348898688558
 20
2127.544015179679
 30
0.0
 11
1382.217665147015
 21
2127.544015179679
 31
0.0
  0
LINE
  5
2B0D1
330
17
100
AcDbEntity
  8
0
100
AcDbLine
 10
1358.296562726902
 20
2128.54264471415
 30
0.0
 11
1370.783281917787
 21
2128.54264471415
 31
0.0
  0
LINE
  5
2B0D2
330
17
100
AcDbEntity
  8
0
100
AcDbLine
 10
1359.348898688558
 20
2127.544015179679
 30
0.0
 11
1358.296562726902
 21
2128.54264471415
 31
0.0
  0
LINE
  5
2B0D3
330
17
100
AcDbEntity
  8
0
100
AcDbLine
 10
1357.95731255376
 20
2167.544015179679
 30
0.0
 11
1363.609064061995
 21
2167.544015179679
 31
0.0
  0
LINE
  5
2B0D4
330
17
100
AcDbEntity
  8
0
100
AcDbLine
 10
1377.95731255376
 20
2167.544015179679
 30
0.0
 11
1383.609064061995
 21
2167.544015179679
 31
0.0
  0
LINE
  5
2B0D5
330
17
100
AcDbEntity
  8
0
100
AcDbLine
 10
1357.562781917786
 20
2142.544015179679
 30
0.0
 11
1370.783281917787
 21
2142.544015179679
 31
0.0
  0
LINE
  5
2B0D6
330
17
100
AcDbEntity
  8
0
100
AcDbLine
 10
1370.783281917787
 20
2152.544015179679
 30
0.0
 11
1357.792900917788
 21
2152.544015179679
 31
0.0
  0
ARC
  5
2B0D7
330
17
100
AcDbEntity
  8
0
100
AcDbCircle
 10
1370.783281917787
 20
2174.20426917968
 30
0.0
 40
28.660254
100
AcDbArc
 50
252.4120460000488
 51
270.0
  0
ARC
  5
2B0D8
330
17
100
AcDbEntity
  8
0
100
AcDbCircle
 10
1370.783281917787
 20
2123.883761179679
 30
0.0
 40
28.660254
100
AcDbArc
 50
90.0
 51
107.5879539999512
  0
LINE
  5
2B0D9
330
17
100
AcDbEntity
  8
0
100
AcDbLine
 10
1357.562781917786
 20
2145.544015179678
 30
0.0
 11
1370.783281917787
 21
2145.544015179678
 31
0.0
  0
LINE
  5
2B0DA
330
17
100
AcDbEntity
  8
0
100
AcDbLine
 10
1362.123027917787
 20
2146.883761179679
 30
0.0
 11
1362.123027917787
 21
2151.204269179679
 31
0.0
  0
LINE
  5
2B0DB
330
17
100
AcDbEntity
  8
0
100
AcDbLine
 10
1353.462773917786
 20
2146.883761179679
 30
0.0
 11
1353.462773917786
 21
2151.204269179679
 31
0.0
  0
LINE
  5
2B0DC
330
17
100
AcDbEntity
  8
0
100
AcDbLine
 10
1357.562781917786
 20
2144.556658179679
 30
0.0
 11
1358.724781917786
 21
2142.544015179679
 31
0.0
  0
ARC
  5
2B0DD
330
17
100
AcDbEntity
  8
0
100
AcDbCircle
 10
1357.792900917788
 20
2153.211483679679
 30
0.0
 40
7.667467999999999
100
AcDbArc
 50
235.615753000059
 51
304.384246999941
  0
LINE
  5
2B0DE
330
17
100
AcDbEntity
  8
0
100
AcDbLine
 10
1357.562781917786
 20
2142.544015179679
 30
0.0
 11
1357.562781917786
 21
2145.544015179678
 31
0.0
  0
ARC
  5
2B0DF
330
17
100
AcDbEntity
  8
0
100
AcDbCircle
 10
1357.792900917788
 20
2144.876547179679
 30
0.0
 40
7.667467999999999
100
AcDbArc
 50
55.61575300005899
 51
124.384246999941
  0
LINE
  5
2B0E0
330
17
100
AcDbEntity
  8
0
100
AcDbLine
 10
1357.783188307878
 20
2177.544015179679
 30
0.0
 11
1363.783188307877
 21
2177.544015179679
 31
0.0
  0
LINE
  5
2B0E1
330
17
100
AcDbEntity
  8
0
100
AcDbLine
 10
1377.783188307877
 20
2177.544015179679
 30
0.0
 11
1383.783188307877
 21
2177.544015179679
 31
0.0
  0
CIRCLE
  5
2B0E2
330
17
100
AcDbEntity
  8
0
100
AcDbCircle
 10
1360.783281917787
 20
2172.544015179679
 30
0.0
 40
1.500000000000454
  0
CIRCLE
  5
2B0E3
330
17
100
AcDbEntity
  8
0
100
AcDbCircle
 10
1380.783281917787
 20
2172.544015179678
 30
0.0
 40
1.500000000000454
  0
LINE
  5
2B0E4
330
17
100
AcDbEntity
  8
0
100
AcDbLine
 10
1362.843281917785
 20
2161.551202462311
 30
0.0
 11
1362.843281917785
 21
2152.54401517968
 31
0.0
  0
LINE
  5
2B0E5
330
17
100
AcDbEntity
  8
0
100
AcDbLine
 10
1378.723281917786
 20
2161.551202462311
 30
0.0
 11
1378.723281917786
 21
2146.544015179679
 31
0.0
  0
ARC
  5
2B0E6
330
17
100
AcDbEntity
  8
0
100
AcDbCircle
 10
1380.783188307878
 20
2178.551202462311
 30
0.0
 40
3.0
100
AcDbArc
 50
0.0
 51
180.0
  0
ARC
  5
2B0E7
330
17
100
AcDbEntity
  8
0
100
AcDbCircle
 10
1380.783188307878
 20
2168.551202462311
 30
0.0
 40
3.0
100
AcDbArc
 50
180.0
 51
0.0
  0
LINE
  5
2B0E8
330
17
100
AcDbEntity
  8
0
100
AcDbLine
 10
1358.283281917752
 20
2161.551202462311
 30
0.0
 11
1383.283281917752
 21
2161.551202462311
 31
0.0
  0
LINE
  5
2B0E9
330
17
100
AcDbEntity
  8
0
100
AcDbLine
 10
1353.283281917752
 20
2166.55120246231
 30
0.0
 11
1353.283281917752
 21
2196.436596555839
 31
0.0
  0
LINE
  5
2B0EA
330
17
100
AcDbEntity
  8
0
100
AcDbLine
 10
1363.783188307877
 20
2178.551202462311
 30
0.0
 11
1363.783188307877
 21
2168.551202462311
 31
0.0
  0
LINE
  5
2B0EB
330
17
100
AcDbEntity
  8
0
100
AcDbLine
 10
1357.783188307878
 20
2178.551202462311
 30
0.0
 11
1357.783188307878
 21
2168.551202462311
 31
0.0
  0
ARC
  5
2B0EC
330
17
100
AcDbEntity
  8
0
100
AcDbCircle
 10
1358.283281917752
 20
2166.55120246231
 30
0.0
 40
5.0
100
AcDbArc
 50
180.0
 51
270.0
  0
ARC
  5
2B0ED
330
17
100
AcDbEntity
  8
0
100
AcDbCircle
 10
1360.783188307878
 20
2168.551202462311
 30
0.0
 40
3.0
100
AcDbArc
 50
180.0
 51
0.0
  0
ARC
  5
2B0EE
330
17
100
AcDbEntity
  8
0
100
AcDbCircle
 10
1360.783188307878
 20
2178.551202462311
 30
0.0
 40
3.0
100
AcDbArc
 50
0.0
 51
180.0
  0
LINE
  5
2B0EF
330
17
100
AcDbEntity
  8
0
100
AcDbLine
 10
1377.783188307877
 20
2178.551202462311
 30
0.0
 11
1377.783188307877
 21
2168.551202462311
 31
0.0
  0
LINE
  5
2B0F0
330
17
100
AcDbEntity
  8
0
100
AcDbLine
 10
1388.283281917754
 20
2166.551202462311
 30
0.0
 11
1388.283281917754
 21
2209.993332775062
 31
0.0
  0
LINE
  5
2B0F1
330
17
100
AcDbEntity
  8
0
100
AcDbLine
 10
1383.783188307877
 20
2178.551202462311
 30
0.0
 11
1383.783188307877
 21
2168.551202462311
 31
0.0
  0
ARC
  5
2B0F2
330
17
100
AcDbEntity
  8
0
100
AcDbCircle
 10
1383.283281917752
 20
2166.551202462311
 30
0.0
 40
5.0
100
AcDbArc
 50
270.0
 51
0.0
  0
ARC
  5
2B0F3
330
17
100
AcDbEntity
  8
0
100
AcDbCircle
 10
1502.883281917767
 20
2160.369222465704
 30
0.0
 40
90.8333333333333
100
AcDbArc
 50
236.6015115319382
 51
238.3956129754956
  0
ARC
  5
2B0F4
330
17
100
AcDbEntity
  8
0
100
AcDbCircle
 10
1502.883281917767
 20
2272.007701956142
 30
0.0
 40
90.8333333333333
100
AcDbArc
 50
236.6015115319382
 51
238.3956129754956
  0
LINE
  5
2B0F5
330
17
100
AcDbEntity
  8
0
100
AcDbLine
 10
1252.883281917743
 20
2196.174368622825
 30
0.0
 11
1252.883281917761
 21
2084.535889132381
 31
0.0
  0
ARC
  5
2B0F6
330
17
100
AcDbEntity
  8
0
100
AcDbCircle
 10
1302.883281917767
 20
2160.369222465704
 30
0.0
 40
90.83333333333326
100
AcDbArc
 50
236.6015115319382
 51
303.3984884680618
  0
ARC
  5
2B0F7
330
17
100
AcDbEntity
  8
0
100
AcDbCircle
 10
1402.883281917767
 20
2008.702555799039
 30
0.0
 40
90.83333333333326
100
AcDbArc
 50
56.60151153193817
 51
123.3984884680618
  0
ARC
  5
2B0F8
330
17
100
AcDbEntity
  8
0
100
AcDbCircle
 10
1302.883281917767
 20
2272.007701956142
 30
0.0
 40
90.83333333333326
100
AcDbArc
 50
236.6015115319382
 51
303.3984884680618
  0
ARC
  5
2B0F9
330
17
100
AcDbEntity
  8
0
100
AcDbCircle
 10
1402.883281917767
 20
2120.341035289476
 30
0.0
 40
90.83333333333326
100
AcDbArc
 50
56.60151153193817
 51
123.3984884680618
  0
LINE
  5
2B0FA
330
17
100
AcDbEntity
  8
0
100
AcDbLine
 10
1383.270001108672
 20
2128.54264471415
 30
0.0
 11
1384.003781917788
 21
2142.544015179679
 31
0.0
  0
LINE
  5
2B0FB
330
17
100
AcDbEntity
  8
0
100
AcDbLine
 10
1382.108001094724
 20
2128.54264471415
 30
0.0
 11
1382.841781917788
 21
2142.544015179679
 31
0.0
  0
LINE
  5
2B0FC
330
17
100
AcDbEntity
  8
0
100
AcDbLine
 10
1383.270001108672
 20
2128.54264471415
 30
0.0
 11
1370.783281917787
 21
2128.54264471415
 31
0.0
  0
LINE
  5
2B0FD
330
17
100
AcDbEntity
  8
0
100
AcDbLine
 10
1382.217665147015
 20
2127.544015179679
 30
0.0
 11
1383.270001108672
 21
2128.54264471415
 31
0.0
  0
LINE
  5
2B0FE
330
17
100
AcDbEntity
  8
0
100
AcDbLine
 10
1384.003781917788
 20
2142.544015179679
 30
0.0
 11
1370.783281917787
 21
2142.544015179679
 31
0.0
  0
LINE
  5
2B0FF
330
17
100
AcDbEntity
  8
0
100
AcDbLine
 10
1370.783281917787
 20
2152.544015179679
 30
0.0
 11
1383.773662917787
 21
2152.544015179679
 31
0.0
  0
ARC
  5
2B100
330
17
100
AcDbEntity
  8
0
100
AcDbCircle
 10
1370.783281917787
 20
2174.20426917968
 30
0.0
 40
28.660254
100
AcDbArc
 50
270.0
 51
287.5879539999512
  0
ARC
  5
2B101
330
17
100
AcDbEntity
  8
0
100
AcDbCircle
 10
1370.783281917787
 20
2123.883761179679
 30
0.0
 40
28.660254
100
AcDbArc
 50
72.41204600004876
 51
90.0
  0
LINE
  5
2B102
330
17
100
AcDbEntity
  8
0
100
AcDbLine
 10
1384.003781917788
 20
2145.544015179678
 30
0.0
 11
1370.783281917787
 21
2145.544015179678
 31
0.0
  0
LINE
  5
2B103
330
17
100
AcDbEntity
  8
0
100
AcDbLine
 10
1379.443535917787
 20
2146.883761179679
 30
0.0
 11
1379.443535917787
 21
2151.204269179679
 31
0.0
  0
LINE
  5
2B104
330
17
100
AcDbEntity
  8
0
100
AcDbLine
 10
1388.103789917788
 20
2146.883761179679
 30
0.0
 11
1388.103789917788
 21
2151.204269179679
 31
0.0
  0
LINE
  5
2B105
330
17
100
AcDbEntity
  8
0
100
AcDbLine
 10
1384.003781917788
 20
2144.556658179679
 30
0.0
 11
1382.841781917788
 21
2142.544015179679
 31
0.0
  0
ARC
  5
2B106
330
17
100
AcDbEntity
  8
0
100
AcDbCircle
 10
1383.773662917787
 20
2153.211483679679
 30
0.0
 40
7.667467999999998
100
AcDbArc
 50
235.615753000059
 51
304.384246999941
  0
LINE
  5
2B107
330
17
100
AcDbEntity
  8
0
100
AcDbLine
 10
1384.003781917788
 20
2142.544015179679
 30
0.0
 11
1384.003781917788
 21
2145.544015179678
 31
0.0
  0
ARC
  5
2B108
330
17
100
AcDbEntity
  8
0
100
AcDbCircle
 10
1383.773662917787
 20
2144.876547179679
 30
0.0
 40
7.667467999999998
100
AcDbArc
 50
55.61575300005899
 51
124.384246999941
  0
LINE
  5
2B109
330
17
100
AcDbEntity
  8
0
100
AcDbLine
 10
1020.755917794425
 20
1610.647185352345
 30
0.0
 11
1049.231971898288
 21
1610.647185352345
 31
0.0
  0
LINE
  5
2B10A
330
17
100
AcDbEntity
  8
0
100
AcDbLine
 10
1020.755917794425
 20
1610.647185352345
 30
0.0
 11
1048.731971898289
 21
1610.647185352345
 31
0.0
  0
LINE
  5
2B10B
330
17
100
AcDbEntity
  8
0
100
AcDbLine
 10
1048.731971898289
 20
1610.647185352345
 30
0.0
 11
1034.231971898289
 21
1610.647185352345
 31
0.0
  0
LINE
  5
2B10C
330
17
100
AcDbEntity
  8
0
100
AcDbLine
 10
1049.231971898288
 20
1612.647185352344
 30
0.0
 11
1024.228479523196
 21
1612.647185352344
 31
0.0
  0
LINE
  5
2B10D
330
17
100
AcDbEntity
  8
0
100
AcDbLine
 10
1046.731971898289
 20
1617.647185352344
 30
0.0
 11
1034.984332942516
 21
1617.647185352345
 31
0.0
  0
LINE
  5
2B10E
330
17
100
AcDbEntity
  8
0
100
AcDbLine
 10
1049.231971898288
 20
1612.647185352344
 30
0.0
 11
1049.231971898288
 21
1610.647185352345
 31
0.0
  0
LINE
  5
2B10F
330
17
100
AcDbEntity
  8
0
100
AcDbLine
 10
1046.731971898289
 20
1617.647185352344
 30
0.0
 11
1046.731971898289
 21
1612.647185352344
 31
0.0
  0
LINE
  5
2B112
330
17
100
AcDbEntity
  8
0
100
AcDbLine
 10
956.7523614907228
 20
2403.242015179607
 30
0.0
 11
956.7523614907228
 21
2382.848015179606
 31
0.0
  0
LINE
  5
2B113
330
17
100
AcDbEntity
  8
0
100
AcDbLine
 10
965.6515614907233
 20
2403.242015179607
 30
0.0
 11
965.6515614907233
 21
2385.072815179607
 31
0.0
  0
LINE
  5
2B114
330
17
100
AcDbEntity
  8
0
100
AcDbLine
 10
960.8311614907227
 20
2403.242015179607
 30
0.0
 11
960.8311614907227
 21
2386.185215179607
 31
0.0
  0
LINE
  5
2B115
330
17
100
AcDbEntity
  8
0
100
AcDbLine
 10
969.7303614907221
 20
2403.242015179607
 30
0.0
 11
969.7303614907221
 21
2372.836415179607
 31
0.0
  0
LINE
  5
2B116
330
17
100
AcDbEntity
  8
0
100
AcDbLine
 10
1020.15916149072
 20
2382.848015179606
 30
0.0
 11
1020.15916149072
 21
2403.242015179607
 31
0.0
  0
LINE
  5
2B117
330
17
100
AcDbEntity
  8
0
100
AcDbLine
 10
1016.080361490721
 20
2371.724015179606
 30
0.0
 11
1016.080361490721
 21
2403.242015179607
 31
0.0
  0
LINE
  5
2B118
330
17
100
AcDbEntity
  8
0
100
AcDbLine
 10
973.4383614907212
 20
2371.724015179606
 30
0.0
 11
982.7083614907216
 21
2371.724015179606
 31
0.0
  0
LINE
  5
2B119
330
17
100
AcDbEntity
  8
0
100
AcDbLine
 10
971.5843614907219
 20
2390.264015179606
 30
0.0
 11
975.6631614907211
 21
2390.264015179606
 31
0.0
  0
LINE
  5
2B11A
330
17
100
AcDbEntity
  8
0
100
AcDbLine
 10
958.6063614907223
 20
2380.994015179608
 30
0.0
 11
965.6515614907233
 21
2380.994015179608
 31
0.0
  0
ARC
  5
2B11B
330
17
100
AcDbEntity
  8
0
100
AcDbCircle
 10
958.6063614907223
 20
2382.848015179606
 30
0.0
 40
1.853999999999999
100
AcDbArc
 50
180.0
 51
270.0
  0
LINE
  5
2B11C
330
17
100
AcDbEntity
  8
0
100
AcDbLine
 10
971.5843614907219
 20
2390.264015179606
 30
0.0
 11
971.5843614907219
 21
2373.578015179606
 31
0.0
  0
ARC
  5
2B11D
330
17
100
AcDbEntity
  8
0
100
AcDbCircle
 10
961.9435614907208
 20
2386.185215179607
 30
0.0
 40
1.112399999999999
100
AcDbArc
 50
180.0
 51
270.0
  0
LINE
  5
2B11E
330
17
100
AcDbEntity
  8
0
100
AcDbLine
 10
961.9435614907208
 20
2385.072815179607
 30
0.0
 11
965.6515614907233
 21
2385.072815179607
 31
0.0
  0
ARC
  5
2B11F
330
17
100
AcDbEntity
  8
0
100
AcDbCircle
 10
973.4383614907212
 20
2373.578015179606
 30
0.0
 40
1.853999999999999
100
AcDbArc
 50
180.0
 51
270.0
  0
LINE
  5
2B120
330
17
100
AcDbEntity
  8
0
100
AcDbLine
 10
969.7303614907221
 20
2372.836415179607
 30
0.0
 11
969.7303614907221
 21
2372.775056294205
 31
0.0
  0
LINE
  5
2B121
330
17
100
AcDbEntity
  8
0
100
AcDbLine
 10
969.7303614907221
 20
2372.836415179607
 30
0.0
 11
969.7303614907221
 21
2372.775056294205
 31
0.0
  0
LINE
  5
2B122
330
17
100
AcDbEntity
  8
0
100
AcDbLine
 10
966.5610350921353
 20
2363.611527035951
 30
0.0
 11
965.6515614907233
 21
2362.454015179606
 31
0.0
  0
ARC
  5
2B123
330
17
100
AcDbEntity
  8
0
100
AcDbCircle
 10
954.8983614907198
 20
2372.775056294205
 30
0.0
 40
14.832
100
AcDbArc
 50
321.8427734125672
 51
0.0
  0
LINE
  5
2B124
330
17
100
AcDbEntity
  8
0
100
AcDbLine
 10
965.6515614907233
 20
2380.994015179608
 30
0.0
 11
965.6515614907233
 21
2362.454015179606
 31
0.0
  0
ARC
  5
2B125
330
17
100
AcDbEntity
  8
0
100
AcDbCircle
 10
1009.03516149072
 20
2385.072815179607
 30
0.0
 40
1.112399999999999
100
AcDbArc
 50
0.0
 51
90.0
  0
ARC
  5
2B126
330
17
100
AcDbEntity
  8
0
100
AcDbCircle
 10
1009.03516149072
 20
2376.915215179606
 30
0.0
 40
1.112399999999999
100
AcDbArc
 50
270.0
 51
0.0
  0
LINE
  5
2B127
330
17
100
AcDbEntity
  8
0
100
AcDbLine
 10
1012.372361490722
 20
2371.724015179606
 30
0.0
 11
1003.102361490721
 21
2371.724015179606
 31
0.0
  0
LINE
  5
2B128
330
17
100
AcDbEntity
  8
0
100
AcDbLine
 10
1012.372361490722
 20
2390.264015179606
 30
0.0
 11
1003.102361490721
 21
2390.264015179606
 31
0.0
  0
ARC
  5
2B129
330
17
100
AcDbEntity
  8
0
100
AcDbCircle
 10
997.5403614907202
 20
2388.410015179606
 30
0.0
 40
1.853999999999999
100
AcDbArc
 50
0.0
 51
90.0
  0
LINE
  5
2B12A
330
17
100
AcDbEntity
  8
0
100
AcDbLine
 10
991.607561490721
 20
2386.185215179607
 30
0.0
 11
994.203161490722
 21
2386.185215179607
 31
0.0
  0
ARC
  5
2B12B
330
17
100
AcDbEntity
  8
0
100
AcDbCircle
 10
991.607561490721
 20
2385.072815179607
 30
0.0
 40
1.112399999999999
100
AcDbArc
 50
90.0
 51
180.0
  0
ARC
  5
2B12C
330
17
100
AcDbEntity
  8
0
100
AcDbCircle
 10
994.203161490722
 20
2385.072815179607
 30
0.0
 40
1.112399999999999
100
AcDbArc
 50
0.0
 51
90.0
  0
LINE
  5
2B12D
330
17
100
AcDbEntity
  8
0
100
AcDbLine
 10
995.3155614907203
 20
2371.724015179606
 30
0.0
 11
999.3943614907232
 21
2371.724015179606
 31
0.0
  0
LINE
  5
2B12E
330
17
100
AcDbEntity
  8
0
100
AcDbLine
 10
990.4951614907229
 20
2371.724015179606
 30
0.0
 11
990.4951614907229
 21
2385.072815179607
 31
0.0
  0
LINE
  5
2B12F
330
17
100
AcDbEntity
  8
0
100
AcDbLine
 10
999.3943614907232
 20
2371.724015179606
 30
0.0
 11
999.3943614907232
 21
2388.410015179606
 31
0.0
  0
LINE
  5
2B130
330
17
100
AcDbEntity
  8
0
100
AcDbLine
 10
995.3155614907203
 20
2371.724015179606
 30
0.0
 11
995.3155614907203
 21
2385.072815179607
 31
0.0
  0
LINE
  5
2B131
330
17
100
AcDbEntity
  8
0
100
AcDbLine
 10
988.2703614907233
 20
2390.264015179606
 30
0.0
 11
997.5403614907202
 21
2390.264015179606
 31
0.0
  0
LINE
  5
2B132
330
17
100
AcDbEntity
  8
0
100
AcDbLine
 10
980.4835614907213
 20
2390.264015179606
 30
0.0
 11
980.4835614907213
 21
2376.915215179606
 31
0.0
  0
LINE
  5
2B133
330
17
100
AcDbEntity
  8
0
100
AcDbLine
 10
975.6631614907211
 20
2390.264015179606
 30
0.0
 11
975.6631614907211
 21
2376.915215179606
 31
0.0
  0
LINE
  5
2B134
330
17
100
AcDbEntity
  8
0
100
AcDbLine
 10
984.5623614907211
 20
2390.264015179606
 30
0.0
 11
984.5623614907211
 21
2373.578015179606
 31
0.0
  0
ARC
  5
2B135
330
17
100
AcDbEntity
  8
0
100
AcDbCircle
 10
979.371161490723
 20
2376.915215179606
 30
0.0
 40
1.112399999999999
100
AcDbArc
 50
270.0
 51
0.0
  0
ARC
  5
2B136
330
17
100
AcDbEntity
  8
0
100
AcDbCircle
 10
982.7083614907216
 20
2373.578015179606
 30
0.0
 40
1.853999999999999
100
AcDbArc
 50
270.0
 51
0.0
  0
ARC
  5
2B137
330
17
100
AcDbEntity
  8
0
100
AcDbCircle
 10
976.775561490723
 20
2376.915215179606
 30
0.0
 40
1.112399999999999
100
AcDbArc
 50
180.0
 51
270.0
  0
LINE
  5
2B138
330
17
100
AcDbEntity
  8
0
100
AcDbLine
 10
976.775561490723
 20
2375.802815179605
 30
0.0
 11
979.371161490723
 21
2375.802815179605
 31
0.0
  0
LINE
  5
2B139
330
17
100
AcDbEntity
  8
0
100
AcDbLine
 10
986.4163614907203
 20
2371.724015179606
 30
0.0
 11
986.4163614907203
 21
2388.410015179606
 31
0.0
  0
LINE
  5
2B13A
330
17
100
AcDbEntity
  8
0
100
AcDbLine
 10
980.4835614907213
 20
2390.264015179606
 30
0.0
 11
984.5623614907211
 21
2390.264015179606
 31
0.0
  0
ARC
  5
2B13B
330
17
100
AcDbEntity
  8
0
100
AcDbCircle
 10
988.2703614907233
 20
2388.410015179606
 30
0.0
 40
1.853999999999999
100
AcDbArc
 50
90.0
 51
180.0
  0
LINE
  5
2B13C
330
17
100
AcDbEntity
  8
0
100
AcDbLine
 10
986.4163614907203
 20
2371.724015179606
 30
0.0
 11
990.4951614907229
 21
2371.724015179606
 31
0.0
  0
ARC
  5
2B13D
330
17
100
AcDbEntity
  8
0
100
AcDbCircle
 10
1003.102361490721
 20
2388.410015179606
 30
0.0
 40
1.853999999999999
100
AcDbArc
 50
90.0
 51
180.0
  0
ARC
  5
2B13E
330
17
100
AcDbEntity
  8
0
100
AcDbCircle
 10
1003.102361490721
 20
2373.578015179606
 30
0.0
 40
1.853999999999999
100
AcDbArc
 50
180.0
 51
270.0
  0
LINE
  5
2B13F
330
17
100
AcDbEntity
  8
0
100
AcDbLine
 10
1001.248361490722
 20
2373.578015179606
 30
0.0
 11
1001.248361490722
 21
2388.410015179606
 31
0.0
  0
ARC
  5
2B140
330
17
100
AcDbEntity
  8
0
100
AcDbCircle
 10
1006.43956149072
 20
2385.072815179607
 30
0.0
 40
1.112399999999999
100
AcDbArc
 50
90.0
 51
180.0
  0
LINE
  5
2B141
330
17
100
AcDbEntity
  8
0
100
AcDbLine
 10
1009.03516149072
 20
2386.185215179607
 30
0.0
 11
1006.43956149072
 21
2386.185215179607
 31
0.0
  0
ARC
  5
2B142
330
17
100
AcDbEntity
  8
0
100
AcDbCircle
 10
1006.43956149072
 20
2376.915215179606
 30
0.0
 40
1.112399999999999
100
AcDbArc
 50
180.0
 51
270.0
  0
LINE
  5
2B143
330
17
100
AcDbEntity
  8
0
100
AcDbLine
 10
1009.03516149072
 20
2375.802815179605
 30
0.0
 11
1006.439561490723
 21
2375.802815179605
 31
0.0
  0
LINE
  5
2B144
330
17
100
AcDbEntity
  8
0
100
AcDbLine
 10
1010.147561490722
 20
2376.915215179606
 30
0.0
 11
1010.147561490722
 21
2385.072815179607
 31
0.0
  0
LINE
  5
2B145
330
17
100
AcDbEntity
  8
0
100
AcDbLine
 10
1005.327161490722
 20
2376.915215179606
 30
0.0
 11
1005.327161490722
 21
2385.072815179607
 31
0.0
  0
LINE
  5
2B146
330
17
100
AcDbEntity
  8
0
100
AcDbLine
 10
1042.407161490723
 20
2371.724015179606
 30
0.0
 11
1033.137161490722
 21
2371.724015179606
 31
0.0
  0
LINE
  5
2B147
330
17
100
AcDbEntity
  8
0
100
AcDbLine
 10
1042.407161490723
 20
2390.264015179606
 30
0.0
 11
1031.28316149072
 21
2390.264015179606
 31
0.0
  0
LINE
  5
2B148
330
17
100
AcDbEntity
  8
0
100
AcDbLine
 10
1029.799961490721
 20
2390.264015179606
 30
0.0
 11
1025.350361490721
 21
2382.848015179606
 31
0.0
  0
LINE
  5
2B149
330
17
100
AcDbEntity
  8
0
100
AcDbLine
 10
1031.28316149072
 20
2390.264015179606
 30
0.0
 11
1031.28316149072
 21
2386.185215179607
 31
0.0
  0
LINE
  5
2B14A
330
17
100
AcDbEntity
  8
0
100
AcDbLine
 10
1033.137161490722
 20
2382.848015179606
 30
0.0
 11
1040.182361490723
 21
2382.848015179606
 31
0.0
  0
LINE
  5
2B14B
330
17
100
AcDbEntity
  8
0
100
AcDbLine
 10
1040.182361490723
 20
2386.185215179607
 30
0.0
 11
1031.28316149072
 21
2386.185215179607
 31
0.0
  0
LINE
  5
2B14C
330
17
100
AcDbEntity
  8
0
100
AcDbLine
 10
1025.350361490721
 20
2382.848015179606
 30
0.0
 11
1027.575161490721
 21
2382.848015179606
 31
0.0
  0
ARC
  5
2B14D
330
17
100
AcDbEntity
  8
0
100
AcDbCircle
 10
1027.575161490721
 20
2380.994015179608
 30
0.0
 40
1.853999999999999
100
AcDbArc
 50
0.0
 51
90.0
  0
ARC
  5
2B14E
330
17
100
AcDbEntity
  8
0
100
AcDbCircle
 10
1033.137161490722
 20
2380.994015179608
 30
0.0
 40
1.853999999999999
100
AcDbArc
 50
90.0
 51
180.0
  0
LINE
  5
2B14F
330
17
100
AcDbEntity
  8
0
100
AcDbLine
 10
1040.182361490723
 20
2386.185215179607
 30
0.0
 11
1040.182361490723
 21
2382.848015179606
 31
0.0
  0
LINE
  5
2B150
330
17
100
AcDbEntity
  8
0
100
AcDbLine
 10
1036.474361490721
 20
2378.769215179608
 30
0.0
 11
1040.182361490723
 21
2378.769215179608
 31
0.0
  0
LINE
  5
2B151
330
17
100
AcDbEntity
  8
0
100
AcDbLine
 10
1029.429161490721
 20
2371.724015179606
 30
0.0
 11
1025.350361490721
 21
2371.724015179606
 31
0.0
  0
LINE
  5
2B152
330
17
100
AcDbEntity
  8
0
100
AcDbLine
 10
1025.350361490721
 20
2377.656815179606
 30
0.0
 11
1025.350361490721
 21
2371.724015179606
 31
0.0
  0
ARC
  5
2B153
330
17
100
AcDbEntity
  8
0
100
AcDbCircle
 10
1033.137161490722
 20
2373.578015179606
 30
0.0
 40
1.853999999999999
100
AcDbArc
 50
180.0
 51
270.0
  0
LINE
  5
2B154
330
17
100
AcDbEntity
  8
0
100
AcDbLine
 10
1035.361961490723
 20
2377.656815179606
 30
0.0
 11
1035.361961490723
 21
2376.915215179606
 31
0.0
  0
ARC
  5
2B155
330
17
100
AcDbEntity
  8
0
100
AcDbCircle
 10
1036.474361490721
 20
2376.915215179606
 30
0.0
 40
1.112399999999999
100
AcDbArc
 50
180.0
 51
270.0
  0
LINE
  5
2B156
330
17
100
AcDbEntity
  8
0
100
AcDbLine
 10
1040.182361490723
 20
2375.802815179605
 30
0.0
 11
1036.474361490721
 21
2375.802815179605
 31
0.0
  0
LINE
  5
2B157
330
17
100
AcDbEntity
  8
0
100
AcDbLine
 10
1029.429161490721
 20
2380.994015179608
 30
0.0
 11
1029.429161490721
 21
2371.724015179606
 31
0.0
  0
LINE
  5
2B158
330
17
100
AcDbEntity
  8
0
100
AcDbLine
 10
1031.28316149072
 20
2380.994015179608
 30
0.0
 11
1031.28316149072
 21
2373.578015179606
 31
0.0
  0
LINE
  5
2B159
330
17
100
AcDbEntity
  8
0
100
AcDbLine
 10
1040.182361490723
 20
2378.769215179608
 30
0.0
 11
1040.182361490723
 21
2375.802815179605
 31
0.0
  0
ARC
  5
2B15A
330
17
100
AcDbEntity
  8
0
100
AcDbCircle
 10
1036.474361490721
 20
2377.656815179606
 30
0.0
 40
1.112399999999999
100
AcDbArc
 50
90.0
 51
180.0
  0
ARC
  5
2B15B
330
17
100
AcDbEntity
  8
0
100
AcDbCircle
 10
1042.407161490723
 20
2388.410015179606
 30
0.0
 40
1.853999999999999
100
AcDbArc
 50
0.0
 51
90.0
  0
ARC
  5
2B15C
330
17
100
AcDbEntity
  8
0
100
AcDbCircle
 10
1042.407161490723
 20
2373.578015179606
 30
0.0
 40
1.853999999999999
100
AcDbArc
 50
270.0
 51
0.0
  0
LINE
  5
2B15D
330
17
100
AcDbEntity
  8
0
100
AcDbLine
 10
1044.261161490722
 20
2388.410015179606
 30
0.0
 11
1044.261161490722
 21
2373.578015179606
 31
0.0
  0
LINE
  5
2B15E
330
17
100
AcDbEntity
  8
0
100
AcDbLine
 10
1024.60876149072
 20
2390.264015179606
 30
0.0
 11
1020.15916149072
 21
2382.848015179606
 31
0.0
  0
ARC
  5
2B15F
330
17
100
AcDbEntity
  8
0
100
AcDbCircle
 10
1012.372361490722
 20
2388.410015179606
 30
0.0
 40
1.853999999999999
100
AcDbArc
 50
0.0
 51
90.0
  0
LINE
  5
2B160
330
17
100
AcDbEntity
  8
0
100
AcDbLine
 10
1020.15916149072
 20
2378.769215179606
 30
0.0
 11
1024.237961490723
 21
2378.769215179608
 31
0.0
  0
LINE
  5
2B161
330
17
100
AcDbEntity
  8
0
100
AcDbLine
 10
1020.15916149072
 20
2371.724015179606
 30
0.0
 11
1016.080361490721
 21
2371.724015179606
 31
0.0
  0
ARC
  5
2B162
330
17
100
AcDbEntity
  8
0
100
AcDbCircle
 10
1012.372361490722
 20
2373.578015179606
 30
0.0
 40
1.853999999999999
100
AcDbArc
 50
270.0
 51
0.0
  0
LINE
  5
2B163
330
17
100
AcDbEntity
  8
0
100
AcDbLine
 10
1014.226361490721
 20
2373.578015179606
 30
0.0
 11
1014.226361490721
 21
2388.410015179606
 31
0.0
  0
LINE
  5
2B164
330
17
100
AcDbEntity
  8
0
100
AcDbLine
 10
1020.15916149072
 20
2371.724015179606
 30
0.0
 11
1020.15916149072
 21
2378.769215179606
 31
0.0
  0
ARC
  5
2B165
330
17
100
AcDbEntity
  8
0
100
AcDbCircle
 10
1024.237961490723
 20
2377.656815179606
 30
0.0
 40
1.112399999999999
100
AcDbArc
 50
0.0
 51
90.0
  0
LINE
  5
2B166
330
17
100
AcDbEntity
  8
0
100
AcDbLine
 10
1029.799961490721
 20
2390.264015179606
 30
0.0
 11
1024.60876149072
 21
2390.264015179606
 31
0.0
  0
LINE
  5
2B167
330
17
100
AcDbEntity
  8
0
100
AcDbLine
 10
956.7523614907228
 20
2403.242015179607
 30
0.0
 11
960.8311614907227
 21
2403.242015179607
 31
0.0
  0
LINE
  5
2B168
330
17
100
AcDbEntity
  8
0
100
AcDbLine
 10
965.6515614907233
 20
2403.242015179607
 30
0.0
 11
969.7303614907221
 21
2403.242015179607
 31
0.0
  0
LINE
  5
2B169
330
17
100
AcDbEntity
  8
0
100
AcDbLine
 10
1016.080361490721
 20
2403.242015179607
 30
0.0
 11
1020.15916149072
 21
2403.242015179607
 31
0.0
  0
HATCH
  5
2B16A
330
17
100
AcDbEntity
  8
0
100
AcDbHatch
 10
0.0
 20
0.0
 30
0.0
210
0.0
220
0.0
230
1.0
  2
SOLID
 70
     1
 71
     0
 91
        8
 92
        7
 72
     1
 73
     1
 93
       14
 10
969.7303614907221
 20
2403.242015179607
 42
0.0
 10
965.6515614907233
 20
2403.242015179607
 42
0.0
 10
965.6515614907233
 20
2385.072815179607
 42
0.0
 10
961.9435614907208
 20
2385.072815179607
 42
-0.4142135623726161
 10
960.8311614907227
 20
2386.185215179607
 42
0.0
 10
960.8311614907227
 20
2403.242015179607
 42
0.0
 10
956.7523614907228
 20
2403.242015179607
 42
0.0
 10
956.7523614907228
 20
2382.848015179606
 42
0.4142135623730232
 10
958.6063614907246
 20
2380.994015179608
 42
0.0
 10
965.6515614907233
 20
2380.994015179608
 42
0.0
 10
965.6515614907233
 20
2362.454015179606
 42
0.0
 10
966.5610350921445
 20
2363.611527035963
 42
0.168047931855629
 10
969.7303614907221
 20
2372.775056294204
 42
0.0
 10
969.7303614907221
 20
2372.836415179607
 42
0.0
 97
        0
 92
        7
 72
     1
 73
     1
 93
       12
 10
975.6631614907211
 20
2390.264015179606
 42
0.0
 10
971.5843614907219
 20
2390.264015179606
 42
0.0
 10
971.5843614907219
 20
2373.578015179606
 42
0.4142135623730232
 10
973.4383614907226
 20
2371.724015179606
 42
0.0
 10
982.7083614907216
 20
2371.724015179606
 42
0.4142135623729873
 10
984.5623614907211
 20
2373.578015179607
 42
0.0
 10
984.5623614907211
 20
2390.264015179606
 42
0.0
 10
980.4835614907213
 20
2390.264015179606
 42
0.0
 10
980.4835614907213
 20
2376.915215179606
 42
-0.4142135623730951
 10
979.371161490723
 20
2375.802815179605
 42
0.0
 10
976.775561490723
 20
2375.802815179605
 42
-0.414213562373574
 10
975.6631614907211
 20
2376.915215179606
 42
0.0
 97
        0
 92
        7
 72
     1
 73
     1
 93
       12
 10
999.3943614907232
 20
2388.410015179606
 42
0.4142135623730232
 10
997.5403614907238
 20
2390.264015179606
 42
0.0
 10
988.2703614907233
 20
2390.264015179606
 42
0.4142135623735621
 10
986.4163614907203
 20
2388.410015179606
 42
0.0
 10
986.4163614907203
 20
2371.724015179606
 42
0.0
 10
990.4951614907229
 20
2371.724015179606
 42
0.0
 10
990.4951614907229
 20
2385.072815179607
 42
-0.4142135623730951
 10
991.6075614907247
 20
2386.185215179607
 42
0.0
 10
994.203161490722
 20
2386.185215179607
 42
-0.4142135623726161
 10
995.3155614907203
 20
2385.072815179607
 42
0.0
 10
995.3155614907203
 20
2371.724015179606
 42
0.0
 10
999.3943614907232
 20
2371.724015179606
 42
0.0
 97
        0
 92
        7
 72
     1
 73
     1
 93
        8
 10
1014.226361490721
 20
2388.410015179606
 42
0.4142135623730232
 10
1012.372361490722
 20
2390.264015179606
 42
0.0
 10
1003.102361490721
 20
2390.264015179606
 42
0.4142135623729873
 10
1001.248361490722
 20
2388.410015179606
 42
0.0
 10
1001.248361490722
 20
2373.578015179606
 42
0.4142135623730232
 10
1003.102361490723
 20
2371.724015179606
 42
0.0
 10
1012.372361490722
 20
2371.724015179606
 42
0.4142135623729873
 10
1014.226361490721
 20
2373.578015179607
 42
0.0
 97
        0
 92
       22
 72
     1
 73
     1
 93
        8
 10
1006.43956149072
 20
2386.185215179607
 42
0.0
 10
1009.03516149072
 20
2386.185215179607
 42
-0.414213562373574
 10
1010.147561490722
 20
2385.072815179607
 42
0.0
 10
1010.147561490722
 20
2376.915215179606
 42
-0.4142135623730951
 10
1009.035161490724
 20
2375.802815179605
 42
0.0
 10
1006.43956149072
 20
2375.802815179605
 42
-0.4142135623726161
 10
1005.327161490722
 20
2376.915215179606
 42
0.0
 10
1005.327161490722
 20
2385.072815179607
 42
-0.4142135623726161
 97
        0
 92
        7
 72
     1
 73
     1
 93
       15
 10
1020.15916149072
 20
2403.242015179607
 42
0.0
 10
1016.080361490721
 20
2403.242015179607
 42
0.0
 10
1016.080361490721
 20
2371.724015179606
 42
0.0
 10
1020.15916149072
 20
2371.724015179606
 42
0.0
 10
1020.15916149072
 20
2378.769215179606
 42
0.0
 10
1024.237961490723
 20
2378.769215179608
 42
-0.4142135623727359
 10
1025.350361490721
 20
2377.656815179606
 42
0.0
 10
1025.350361490723
 20
2371.724015179606
 42
0.0
 10
1029.429161490722
 20
2371.724015179606
 42
0.0
 10
1029.429161490721
 20
2380.994015179608
 42
0.4142135623730232
 10
1027.575161490721
 20
2382.848015179606
 42
0.0
 10
1025.350361490721
 20
2382.848015179606
 42
0.0
 10
1029.799961490721
 20
2390.264015179606
 42
0.0
 10
1024.60876149072
 20
2390.264015179606
 42
0.0
 10
1020.15916149072
 20
2382.848015179606
 42
0.0
 97
        0
 92
        7
 72
     1
 73
     1
 93
       12
 10
1044.261161490722
 20
2388.410015179606
 42
0.4142135623730232
 10
1042.407161490723
 20
2390.264015179606
 42
0.0
 10
1031.28316149072
 20
2390.264015179606
 42
0.0
 10
1031.28316149072
 20
2386.185215179607
 42
0.0
 10
1040.182361490723
 20
2386.185215179607
 42
0.0
 10
1040.182361490723
 20
2382.848015179606
 42
0.0
 10
1033.137161490722
 20
2382.848015179606
 42
0.4142135623735621
 10
1031.28316149072
 20
2380.994015179608
 42
0.0
 10
1031.28316149072
 20
2373.578015179606
 42
0.4142135623730232
 10
1033.137161490721
 20
2371.724015179606
 42
0.0
 10
1042.407161490723
 20
2371.724015179606
 42
0.4142135623729873
 10
1044.261161490722
 20
2373.578015179607
 42
0.0
 97
        0
 92
       22
 72
     1
 73
     1
 93
        6
 10
1040.182361490723
 20
2378.769215179608
 42
0.0
 10
1040.182361490723
 20
2375.802815179605
 42
0.0
 10
1036.474361490721
 20
2375.802815179605
 42
-0.4142135623726161
 10
1035.361961490723
 20
2376.915215179606
 42
0.0
 10
1035.361961490723
 20
2377.656815179606
 42
-0.4142135623730951
 10
1036.474361490725
 20
2378.769215179608
 42
0.0
 97
        0
 75
     0
 76
     1
 47
0.1735308709791136
 98
        8
 10
967.306125032824
 20
2387.859492537196
 10
974.0749776802774
 20
2386.991851346245
 10
988.480505420029
 20
2387.338919200034
 10
1002.88603315978
 20
2388.206560390986
 10
1002.88603315978
 20
2388.206560390986
 10
1018.506512322311
 20
2390.636006923988
 10
1037.598183810823
 20
2387.512453126928
 10
1037.598183810823
 20
2387.512453126928
450
        0
451
        0
460
0.0
461
0.0
452
        0
462
0.0
453
        0
470

  0
LINE
  5
2B16B
330
17
100
AcDbEntity
  8
0
100
AcDbLine
 10
932.1819718982821
 20
1601.068766801522
 30
0.0
 11
932.1819718982821
 21
1424.352862053501
 31
0.0
  0
LINE
  5
2B16C
330
17
100
AcDbEntity
  8
0
100
AcDbLine
 10
921.1819718982786
 20
1429.956037943145
 30
0.0
 11
921.1819718982786
 21
1606.671942691165
 31
0.0
  0
LINE
  5
2B16D
330
17
100
AcDbEntity
  8
HID
100
AcDbLine
 10
1241.231971898284
 20
3821.605726667717
 30
0.0
 11
1121.231971898282
 21
3821.605726667717
 31
0.0
  0
ARC
  5
2B16E
330
17
100
AcDbEntity
  8
0
100
AcDbCircle
 10
1181.231971898282
 20
3691.205726667716
 30
0.0
 40
3.0
100
AcDbArc
 50
0.0
 51
180.0
  0
ARC
  5
2B16F
330
17
100
AcDbEntity
  8
0
100
AcDbCircle
 10
1181.231971898282
 20
3601.205726667716
 30
0.0
 40
3.0
100
AcDbArc
 50
180.0
 51
0.0
  0
LINE
  5
2B170
330
17
100
AcDbEntity
  8
0
100
AcDbLine
 10
1241.231971898282
 20
3588.205726667716
 30
0.0
 11
1121.231971898282
 21
3588.205726667716
 31
0.0
  0
LINE
  5
2B171
330
17
100
AcDbEntity
  8
0
100
AcDbLine
 10
1121.231971898282
 20
3733.205726667716
 30
0.0
 11
1241.231971898282
 21
3733.205726667716
 31
0.0
  0
LINE
  5
2B172
330
17
100
AcDbEntity
  8
HID
100
AcDbLine
 10
1121.231971898282
 20
3733.205726667716
 30
0.0
 11
1121.231971898282
 21
3821.605726667717
 31
0.0
  0
LINE
  5
2B173
330
17
100
AcDbEntity
  8
0
100
AcDbLine
 10
1121.231971898282
 20
3733.205726667716
 30
0.0
 11
1121.231971898282
 21
3588.205726667716
 31
0.0
  0
LINE
  5
2B174
330
17
100
AcDbEntity
  8
0
100
AcDbLine
 10
1133.231971898282
 20
3711.205726667716
 30
0.0
 11
1133.231971898282
 21
3621.205726667716
 31
0.0
  0
LINE
  5
2B175
330
17
100
AcDbEntity
  8
0
100
AcDbLine
 10
1139.231971898282
 20
3711.205726667716
 30
0.0
 11
1139.231971898282
 21
3621.205726667716
 31
0.0
  0
LINE
  5
2B176
330
17
100
AcDbEntity
  8
0
100
AcDbLine
 10
1178.231971898282
 20
3691.205726667716
 30
0.0
 11
1178.231971898282
 21
3601.205726667716
 31
0.0
  0
ARC
  5
2B177
330
17
100
AcDbEntity
  8
0
100
AcDbCircle
 10
1136.231971898282
 20
3621.205726667716
 30
0.0
 40
3.0
100
AcDbArc
 50
180.0
 51
0.0
  0
ARC
  5
2B178
330
17
100
AcDbEntity
  8
0
100
AcDbCircle
 10
1136.231971898282
 20
3711.205726667716
 30
0.0
 40
3.0
100
AcDbArc
 50
0.0
 51
180.0
  0
LINE
  5
2B179
330
17
100
AcDbEntity
  8
HID
100
AcDbLine
 10
1241.231971898284
 20
3821.605726667717
 30
0.0
 11
1241.231971898284
 21
3733.205726667716
 31
0.0
  0
LINE
  5
2B17A
330
17
100
AcDbEntity
  8
0
100
AcDbLine
 10
1241.231971898282
 20
3733.205726667716
 30
0.0
 11
1241.231971898282
 21
3588.205726667716
 31
0.0
  0
LINE
  5
2B17B
330
17
100
AcDbEntity
  8
0
100
AcDbLine
 10
1223.231971898282
 20
3711.205726667716
 30
0.0
 11
1223.231971898282
 21
3621.205726667716
 31
0.0
  0
LINE
  5
2B17C
330
17
100
AcDbEntity
  8
0
100
AcDbLine
 10
1229.231971898282
 20
3711.205726667716
 30
0.0
 11
1229.231971898282
 21
3621.205726667716
 31
0.0
  0
LINE
  5
2B17D
330
17
100
AcDbEntity
  8
0
100
AcDbLine
 10
1184.231971898282
 20
3691.205726667716
 30
0.0
 11
1184.231971898282
 21
3601.205726667716
 31
0.0
  0
ARC
  5
2B17E
330
17
100
AcDbEntity
  8
0
100
AcDbCircle
 10
1226.231971898283
 20
3621.205726667716
 30
0.0
 40
3.0
100
AcDbArc
 50
180.0
 51
0.0
  0
ARC
  5
2B17F
330
17
100
AcDbEntity
  8
0
100
AcDbCircle
 10
1226.231971898283
 20
3711.205726667716
 30
0.0
 40
3.0
100
AcDbArc
 50
0.0
 51
180.0
  0
LINE
  5
2B19F
330
17
100
AcDbEntity
  8
0
100
AcDbLine
 10
1457.231971898283
 20
3729.605726667716
 30
0.0
 11
1457.231971898283
 21
3233.605726667716
 31
0.0
  0
LINE
  5
2B1A0
330
17
100
AcDbEntity
  8
0
100
AcDbLine
 10
905.2319718982831
 20
3233.605726667716
 30
0.0
 11
905.7819718982825
 21
3233.605726667716
 31
0.0
  0
LINE
  5
2B1A1
330
17
100
AcDbEntity
  8
0
100
AcDbLine
 10
907.8319718982831
 20
3231.605726667716
 30
0.0
 11
1454.631971898282
 21
3231.605726667716
 31
0.0
  0
LINE
  5
2B1A2
330
17
100
AcDbEntity
  8
0
100
AcDbLine
 10
1456.681971898282
 20
3233.605726667716
 30
0.0
 11
1457.231971898283
 21
3233.605726667716
 31
0.0
  0
LINE
  5
2B1A3
330
17
100
AcDbEntity
  8
0
100
AcDbLine
 10
905.2319718982831
 20
3729.605726667716
 30
0.0
 11
905.7819718982825
 21
3729.605726667716
 31
0.0
  0
LINE
  5
2B1A4
330
17
100
AcDbEntity
  8
0
100
AcDbLine
 10
907.8319718982831
 20
3731.605726667716
 30
0.0
 11
1121.231971898282
 21
3731.605726667716
 31
0.0
  0
LINE
  5
2B1A5
330
17
100
AcDbEntity
  8
0
100
AcDbLine
 10
1241.231971898282
 20
3731.605726667716
 30
0.0
 11
1454.631971898282
 21
3731.605726667716
 31
0.0
  0
LINE
  5
2B1A6
330
17
100
AcDbEntity
  8
0
100
AcDbLine
 10
1456.681971898282
 20
3729.605726667716
 30
0.0
 11
1457.231971898283
 21
3729.605726667716
 31
0.0
  0
LINE
  5
2B1A7
330
17
100
AcDbEntity
  8
0
100
AcDbLine
 10
905.2319718982809
 20
3729.605726667716
 30
0.0
 11
905.2319718982809
 21
3233.605726667716
 31
0.0
  0
ARC
  5
2B1A8
330
17
100
AcDbEntity
  8
0
100
AcDbCircle
 10
1454.631971898282
 20
3233.655726667715
 30
0.0
 40
2.05
100
AcDbArc
 50
270.0
 51
0.0
  0
ARC
  5
2B1A9
330
17
100
AcDbEntity
  8
0
100
AcDbCircle
 10
907.8319718982831
 20
3233.655726667715
 30
0.0
 40
2.05
100
AcDbArc
 50
180.0
 51
270.0
  0
ARC
  5
2B1AA
330
17
100
AcDbEntity
  8
0
100
AcDbCircle
 10
1454.631971898282
 20
3729.555726667717
 30
0.0
 40
2.05
100
AcDbArc
 50
0.0
 51
90.0
  0
ARC
  5
2B1AB
330
17
100
AcDbEntity
  8
0
100
AcDbCircle
 10
907.8319718982831
 20
3729.555726667717
 30
0.0
 40
2.05
100
AcDbArc
 50
90.0
 51
180.0
  0
LEADER
  5
2B1AD
330
17
100
AcDbEntity
  8
DIM
100
AcDbLeader
  3
STANDARD
 73
     0
 75
     1
 40
42.5
 41
192.6666666666668
 76
     3
 10
1010.346308060512
 20
1972.744015179676
 30
0.0
 10
530.4167794352371
 20
2298.807389252363
 30
0.0
 10
496.4167794352371
 20
2298.807389252363
 30
0.0
340
2B1AE
1001
ACAD
1000
DSTYLE
1002
{
1070
    41
1040
2.0
1070
   147
1040
1.0
1070
    77
1070
     1
1070
    43
1040
10.0
1070
    73
1070
     0
1070
    74
1070
     0
1070
   172
1070
     1
1070
   179
1070
     1
1070
   271
1070
     1
1070
   272
1070
     1
1070
   341
1005
4A
1070
   342
1005
0
1002
}
  0
MTEXT
  5
2B1AE
102
{ACAD_REACTORS
330
2B1AD
102
}
330
17
100
AcDbEntity
  8
DIM
100
AcDbMText
 10
479.4167794352371
 20
2315.807389252363
 30
0.0
 40
42.5
 41
539.5
 46
0.0
 71
     9
 72
     1
  1
操作カバー
 73
     1
 44
1.0
  0
LINE
  5
2B1AF
330
17
100
AcDbEntity
  8
0
100
AcDbLine
 10
1430.281971898271
 20
2206.94361164721
 30
0.0
 11
1430.281971898271
 21
2095.305132156772
 31
0.0
  0
LINE
  5
2B1B0
330
17
100
AcDbEntity
  8
0
100
AcDbLine
 10
1441.281971898272
 20
2091.020446030905
 30
0.0
 11
1441.281971898272
 21
2202.658925521343
 31
0.0
  0
LINE
  5
2B656
330
17
100
AcDbEntity
  8
CEN
100
AcDbLine
 10
2734.846557750038
 20
3750.996107352323
 30
0.0
 11
2734.846557750036
 21
3191.732086393612
 31
0.0
  0
LINE
  5
2B658
330
17
100
AcDbEntity
  8
0
100
AcDbLine
 10
3014.846557750038
 20
3729.605726667716
 30
0.0
 11
3014.846557750038
 21
3233.605726667716
 31
0.0
  0
LINE
  5
2B65B
330
17
100
AcDbEntity
  8
0
100
AcDbLine
 10
2461.446557750038
 20
3227.605726667716
 30
0.0
 11
3008.246557750038
 21
3227.605726667716
 31
0.0
  0
LINE
  5
2B65D
330
17
100
AcDbEntity
  8
0
100
AcDbLine
 10
2454.846557750036
 20
3729.605726667716
 30
0.0
 11
2455.396557750035
 21
3729.605726667716
 31
0.0
  0
LINE
  5
2B65F
330
17
100
AcDbEntity
  8
0
100
AcDbLine
 10
2461.446557750038
 20
3735.605726667716
 30
0.0
 11
3008.246557750038
 21
3735.605726667716
 31
0.0
  0
LINE
  5
2B660
330
17
100
AcDbEntity
  8
0
100
AcDbLine
 10
3014.296557750038
 20
3729.555726667717
 30
0.0
 11
3014.846557750039
 21
3729.555726667717
 31
0.0
  0
LINE
  5
2B662
330
17
100
AcDbEntity
  8
0
100
AcDbLine
 10
2454.846557750036
 20
3729.605726667716
 30
0.0
 11
2454.846557750036
 21
3233.605726667716
 31
0.0
  0
CIRCLE
  5
2B663
330
17
100
AcDbEntity
  8
Defpoints
100
AcDbCircle
 10
2689.846557750036
 20
3711.605726667716
 30
0.0
 40
2.0
  0
CIRCLE
  5
2B664
330
17
100
AcDbEntity
  8
Defpoints
100
AcDbCircle
 10
2779.846557750036
 20
3711.605726667716
 30
0.0
 40
2.0
  0
CIRCLE
  5
2B665
330
17
100
AcDbEntity
  8
Defpoints
100
AcDbCircle
 10
2734.846557750036
 20
3691.605726667716
 30
0.0
 40
2.0
  0
ARC
  5
2B667
330
17
100
AcDbEntity
  8
0
100
AcDbCircle
 10
3008.246557750038
 20
3233.655726667715
 30
0.0
 40
6.049999999999998
100
AcDbArc
 50
270.0
 51
0.0
  0
ARC
  5
2B669
330
17
100
AcDbEntity
  8
0
100
AcDbCircle
 10
2461.446557750038
 20
3233.655726667715
 30
0.0
 40
6.049999999999998
100
AcDbArc
 50
180.0
 51
270.0
  0
ARC
  5
2B66B
330
17
100
AcDbEntity
  8
0
100
AcDbCircle
 10
3008.246557750038
 20
3729.555726667717
 30
0.0
 40
6.049999999999998
100
AcDbArc
 50
0.0
 51
90.0
  0
ARC
  5
2B66D
330
17
100
AcDbEntity
  8
0
100
AcDbCircle
 10
2461.446557750038
 20
3729.555726667717
 30
0.0
 40
6.049999999999998
100
AcDbArc
 50
90.0
 51
180.0
  0
CIRCLE
  5
2B66E
330
17
100
AcDbEntity
  8
0
100
AcDbCircle
 10
2491.346557750036
 20
3275.655726667822
 30
0.0
 40
12.5
  0
CIRCLE
  5
2B66F
330
17
100
AcDbEntity
  8
0
100
AcDbCircle
 10
2587.84655775004
 20
3275.655726667822
 30
0.0
 40
29.5
  0
CIRCLE
  5
2B670
330
17
100
AcDbEntity
  8
0
100
AcDbCircle
 10
2640.846557750036
 20
3275.655726667822
 30
0.0
 40
12.5
  0
CIRCLE
  5
2B671
330
17
100
AcDbEntity
  8
0
100
AcDbCircle
 10
2531.346557750036
 20
3275.655726667822
 30
0.0
 40
16.0
  0
CIRCLE
  5
2B672
330
17
100
AcDbEntity
  8
0
100
AcDbCircle
 10
2924.846557750036
 20
3275.655726667822
 30
0.0
 40
29.5
  0
LINE
  5
2B673
330
17
100
AcDbEntity
  8
0
100
AcDbLine
 10
3007.546557750037
 20
3321.955726667824
 30
0.0
 11
2462.146557750036
 21
3321.955726667824
 31
0.0
  0
LINE
  5
2B674
330
17
100
AcDbEntity
  8
HID
100
AcDbLine
 10
2606.11491359322
 20
3583.440637969708
 30
0.0
 11
2531.11491359322
 21
3583.440637969708
 31
0.0
  0
LINE
  5
2B675
330
17
100
AcDbEntity
  8
HID
100
AcDbLine
 10
2580.61491359322
 20
3678.440637969708
 30
0.0
 11
2606.017912237083
 21
3678.440637969708
 31
0.0
  0
ARC
  5
2B676
330
17
100
AcDbEntity
  8
HID
100
AcDbCircle
 10
2568.61491359322
 20
3658.440637969708
 30
0.0
 40
7.0
100
AcDbArc
 50
180.0
 51
0.0
  0
LINE
  5
2B677
330
17
100
AcDbEntity
  8
HID
100
AcDbLine
 10
2561.61491359322
 20
3673.440637969708
 30
0.0
 11
2556.61491359322
 21
3678.440637969708
 31
0.0
  0
LINE
  5
2B678
330
17
100
AcDbEntity
  8
HID
100
AcDbLine
 10
2561.61491359322
 20
3658.440637969708
 30
0.0
 11
2561.61491359322
 21
3673.440637969708
 31
0.0
  0
LINE
  5
2B679
330
17
100
AcDbEntity
  8
HID
100
AcDbLine
 10
2531.11491359322
 20
3583.440637969708
 30
0.0
 11
2531.11491359322
 21
3678.440637969708
 31
0.0
  0
LINE
  5
2B67A
330
17
100
AcDbEntity
  8
HID
100
AcDbLine
 10
2575.61491359322
 20
3673.440637969708
 30
0.0
 11
2580.61491359322
 21
3678.440637969708
 31
0.0
  0
LINE
  5
2B67B
330
17
100
AcDbEntity
  8
HID
100
AcDbLine
 10
2575.61491359322
 20
3658.440637969708
 30
0.0
 11
2575.61491359322
 21
3673.440637969708
 31
0.0
  0
LINE
  5
2B67C
330
17
100
AcDbEntity
  8
HID
100
AcDbLine
 10
2531.11491359322
 20
3678.440637969708
 30
0.0
 11
2606.11491359322
 21
3678.440637969708
 31
0.0
  0
LINE
  5
2B67D
330
17
100
AcDbEntity
  8
HID
100
AcDbLine
 10
2606.11491359322
 20
3583.440637969708
 30
0.0
 11
2606.11491359322
 21
3678.440637969708
 31
0.0
  0
LINE
  5
2B67E
330
17
100
AcDbEntity
  8
HID
100
AcDbLine
 10
2546.756782369441
 20
3297.176892167556
 30
0.0
 11
2498.547711642894
 21
3354.630225401431
 31
0.0
  0
LINE
  5
2B67F
330
17
100
AcDbEntity
  8
HID
100
AcDbLine
 10
2571.321933739135
 20
3415.695048321726
 30
0.0
 11
2619.468653195836
 21
3358.316022437692
 31
0.0
  0
ARC
  5
2B680
330
17
100
AcDbEntity
  8
HID
100
AcDbCircle
 10
2580.105580240043
 20
3374.112629511041
 30
0.0
 40
7.0
100
AcDbArc
 50
130.0000000000672
 51
310.0000000000672
  0
LINE
  5
2B681
330
17
100
AcDbEntity
  8
HID
100
AcDbLine
 10
2587.096733619007
 20
3389.116754758179
 30
0.0
 11
2587.71301778616
 21
3396.160915022207
 31
0.0
  0
LINE
  5
2B682
330
17
100
AcDbEntity
  8
HID
100
AcDbLine
 10
2575.606066972231
 20
3379.474940612869
 30
0.0
 11
2587.096733619007
 21
3389.116754758179
 31
0.0
  0
LINE
  5
2B683
330
17
100
AcDbEntity
  8
HID
100
AcDbLine
 10
2498.547711642894
 20
3354.630225401431
 30
0.0
 11
2571.321933739135
 21
3415.695048321726
 31
0.0
  0
LINE
  5
2B684
330
17
100
AcDbEntity
  8
HID
100
AcDbLine
 10
2596.095760154629
 20
3378.392132554523
 30
0.0
 11
2603.139920418657
 21
3377.775848387368
 31
0.0
  0
LINE
  5
2B685
330
17
100
AcDbEntity
  8
HID
100
AcDbLine
 10
2584.605093507854
 20
3368.750318409213
 30
0.0
 11
2596.095760154629
 21
3378.392132554523
 31
0.0
  0
LINE
  5
2B686
330
17
100
AcDbEntity
  8
HID
100
AcDbLine
 10
2603.139920418657
 20
3377.775848387368
 30
0.0
 11
2619.531004465682
 21
3358.24171508785
 31
0.0
  0
LINE
  5
2B687
330
17
100
AcDbEntity
  8
HID
100
AcDbLine
 10
2546.756782369441
 20
3297.176892167556
 30
0.0
 11
2619.531004465682
 21
3358.24171508785
 31
0.0
  0
CIRCLE
  5
2B688
330
17
100
AcDbEntity
  8
HID
100
AcDbCircle
 10
2568.61491359322
 20
3608.440637969708
 30
0.0
 40
8.5
  0
CIRCLE
  5
2B689
330
17
100
AcDbEntity
  8
HID
100
AcDbCircle
 10
2541.803358084126
 20
3341.973249026676
 30
0.0
 40
8.5
  0
LINE
  5
2B68A
330
17
100
AcDbEntity
  8
HID
100
AcDbLine
 10
2863.578201906854
 20
3583.440637969708
 30
0.0
 11
2938.578201906854
 21
3583.440637969708
 31
0.0
  0
LINE
  5
2B68B
330
17
100
AcDbEntity
  8
HID
100
AcDbLine
 10
2889.078201906854
 20
3678.440637969708
 30
0.0
 11
2863.675203262991
 21
3678.440637969708
 31
0.0
  0
ARC
  5
2B68C
330
17
100
AcDbEntity
  8
HID
100
AcDbCircle
 10
2901.078201906854
 20
3658.440637969708
 30
0.0
 40
6.999999999999998
100
AcDbArc
 50
180.0
 51
0.0
  0
LINE
  5
2B68D
330
17
100
AcDbEntity
  8
HID
100
AcDbLine
 10
2908.078201906854
 20
3673.440637969708
 30
0.0
 11
2913.078201906854
 21
3678.440637969708
 31
0.0
  0
LINE
  5
2B68E
330
17
100
AcDbEntity
  8
HID
100
AcDbLine
 10
2908.078201906854
 20
3658.440637969708
 30
0.0
 11
2908.078201906854
 21
3673.440637969708
 31
0.0
  0
LINE
  5
2B68F
330
17
100
AcDbEntity
  8
HID
100
AcDbLine
 10
2938.578201906854
 20
3583.440637969708
 30
0.0
 11
2938.578201906854
 21
3678.440637969708
 31
0.0
  0
LINE
  5
2B690
330
17
100
AcDbEntity
  8
HID
100
AcDbLine
 10
2894.078201906854
 20
3673.440637969708
 30
0.0
 11
2889.078201906854
 21
3678.440637969708
 31
0.0
  0
LINE
  5
2B691
330
17
100
AcDbEntity
  8
HID
100
AcDbLine
 10
2894.078201906854
 20
3658.440637969708
 30
0.0
 11
2894.078201906854
 21
3673.440637969708
 31
0.0
  0
LINE
  5
2B692
330
17
100
AcDbEntity
  8
HID
100
AcDbLine
 10
2938.578201906854
 20
3678.440637969708
 30
0.0
 11
2863.578201906854
 21
3678.440637969708
 31
0.0
  0
LINE
  5
2B693
330
17
100
AcDbEntity
  8
HID
100
AcDbLine
 10
2863.578201906854
 20
3583.440637969708
 30
0.0
 11
2863.578201906854
 21
3678.440637969708
 31
0.0
  0
LINE
  5
2B694
330
17
100
AcDbEntity
  8
HID
100
AcDbLine
 10
2922.936333130633
 20
3297.176892167556
 30
0.0
 11
2971.14540385718
 21
3354.630225401431
 31
0.0
  0
LINE
  5
2B695
330
17
100
AcDbEntity
  8
HID
100
AcDbLine
 10
2898.371181760939
 20
3415.695048321726
 30
0.0
 11
2850.224462304238
 21
3358.316022437692
 31
0.0
  0
ARC
  5
2B696
330
17
100
AcDbEntity
  8
HID
100
AcDbCircle
 10
2889.587535260031
 20
3374.112629511041
 30
0.0
 40
6.999999999999998
100
AcDbArc
 50
230.0000000000518
 51
50.00000000005182
  0
LINE
  5
2B697
330
17
100
AcDbEntity
  8
HID
100
AcDbLine
 10
2882.596381881068
 20
3389.116754758179
 30
0.0
 11
2881.980097713914
 21
3396.160915022207
 31
0.0
  0
LINE
  5
2B698
330
17
100
AcDbEntity
  8
HID
100
AcDbLine
 10
2894.087048527843
 20
3379.474940612869
 30
0.0
 11
2882.596381881068
 21
3389.116754758179
 31
0.0
  0
LINE
  5
2B699
330
17
100
AcDbEntity
  8
HID
100
AcDbLine
 10
2971.14540385718
 20
3354.630225401431
 30
0.0
 11
2898.371181760939
 21
3415.695048321726
 31
0.0
  0
LINE
  5
2B69A
330
17
100
AcDbEntity
  8
HID
100
AcDbLine
 10
2873.597355345445
 20
3378.392132554523
 30
0.0
 11
2866.553195081417
 21
3377.775848387368
 31
0.0
  0
LINE
  5
2B69B
330
17
100
AcDbEntity
  8
HID
100
AcDbLine
 10
2885.088021992221
 20
3368.750318409213
 30
0.0
 11
2873.597355345445
 21
3378.392132554523
 31
0.0
  0
LINE
  5
2B69C
330
17
100
AcDbEntity
  8
HID
100
AcDbLine
 10
2866.553195081417
 20
3377.775848387368
 30
0.0
 11
2850.162111034392
 21
3358.24171508785
 31
0.0
  0
LINE
  5
2B69D
330
17
100
AcDbEntity
  8
HID
100
AcDbLine
 10
2922.936333130633
 20
3297.176892167556
 30
0.0
 11
2850.162111034392
 21
3358.24171508785
 31
0.0
  0
CIRCLE
  5
2B69E
330
17
100
AcDbEntity
  8
HID
100
AcDbCircle
 10
2901.078201906854
 20
3608.440637969708
 30
0.0
 40
8.499999999999996
  0
CIRCLE
  5
2B69F
330
17
100
AcDbEntity
  8
HID
100
AcDbCircle
 10
2927.889757415948
 20
3341.973249026676
 30
0.0
 40
8.499999999999996
  0
LINE
  5
2B6A0
330
17
100
AcDbEntity
  8
CEN
100
AcDbLine
 10
2924.846557750036
 20
3315.155726667819
 30
0.0
 11
2924.846557750036
 21
3236.155726667819
 31
0.0
  0
LINE
  5
2B6A1
330
17
100
AcDbEntity
  8
CEN
100
AcDbLine
 10
2854.846557750036
 20
3305.685726667861
 30
0.0
 11
2854.846557750036
 21
3260.685726667861
 31
0.0
  0
LINE
  5
2B6A2
330
17
100
AcDbEntity
  8
CEN
100
AcDbLine
 10
2877.346557750051
 20
3283.185726667846
 30
0.0
 11
2832.346557750051
 21
3283.185726667846
 31
0.0
  0
CIRCLE
  5
2B6A3
330
17
100
AcDbEntity
  8
0
100
AcDbCircle
 10
2854.846557750036
 20
3283.185726667846
 30
0.0
 40
16.0
  0
LINE
  5
2B6A4
330
17
100
AcDbEntity
  8
CEN
100
AcDbLine
 10
2587.84655775004
 20
3315.155726667832
 30
0.0
 11
2587.84655775004
 21
3236.155726667833
 31
0.0
  0
LINE
  5
2B6A5
330
17
100
AcDbEntity
  8
CEN
100
AcDbLine
 10
2964.346557750036
 20
3275.655726667819
 30
0.0
 11
2468.846557750072
 21
3275.655726667853
 31
0.0
  0
LINE
  5
2B6A6
330
17
100
AcDbEntity
  8
CEN
100
AcDbLine
 10
2531.346557750036
 20
3298.155726667844
 30
0.0
 11
2531.346557750036
 21
3253.155726667844
 31
0.0
  0
LINE
  5
2B6A7
330
17
100
AcDbEntity
  8
CEN
100
AcDbLine
 10
2491.346557750036
 20
3298.155726667815
 30
0.0
 11
2491.346557750036
 21
3253.155726667815
 31
0.0
  0
LINE
  5
2B6A8
330
17
100
AcDbEntity
  8
CEN
100
AcDbLine
 10
2640.846557750036
 20
3298.155726667815
 30
0.0
 11
2640.846557750036
 21
3253.155726667815
 31
0.0
  0
DIMENSION
  5
2B6A9
330
17
100
AcDbEntity
  8
DIM
100
AcDbDimension
  2
*D16
 10
2854.846557750036
 20
3051.057262486491
 30
0.0
 11
2794.846557750036
 21
3051.057262486491
 31
0.0
 70
   160
 71
     5
 42
120.0
 73
     0
 74
     0
 75
     0
  3
STANDARD
100
AcDbAlignedDimension
 13
2734.846557750036
 23
3191.732086393612
 33
0.0
 14
2854.846557750036
 24
3260.685726667861
 34
0.0
100
AcDbRotatedDimension
1001
ACAD
1000
DSTYLE
1002
{
1070
   343
1005
29FEA
1070
   173
1070
     1
1070
   344
1005
4A
1070
    41
1040
3.0
1070
    42
1040
2.0
1070
    43
1040
10.0
1070
    44
1040
2.0
1070
    45
1040
1.0
1070
    73
1070
     0
1070
    74
1070
     0
1070
    77
1070
     1
1070
    78
1070
     8
1070
    79
1070
     2
1070
   140
1040
2.5
1070
   147
1040
0.9999999999999996
1070
   172
1070
     1
1070
   271
1070
     1
1070
   272
1070
     1
1070
   341
1005
4A
1070
   342
1005
0
1002
}
  0
DIMENSION
  5
2B6AA
330
17
100
AcDbEntity
  8
DIM
100
AcDbDimension
  2
*D17
 10
2734.846557750036
 20
2801.138493849
 30
0.0
 11
2829.846557750036
 21
2839.388493849
 31
0.0
 70
    32
 71
     5
 42
190.0
 73
     0
 74
     0
 75
     0
  3
STANDARD
100
AcDbAlignedDimension
 13
2924.846557750036
 23
3236.155726667819
 33
0.0
 14
2734.846557750036
 24
3191.418825738151
 34
0.0
100
AcDbRotatedDimension
1001
ACAD
1000
DSTYLE
1002
{
1070
    41
1040
3.0
1070
    42
1040
2.0
1070
    43
1040
10.0
1070
    44
1040
2.0
1070
    45
1040
1.0
1070
    73
1070
     0
1070
    74
1070
     0
1070
    77
1070
     1
1070
    78
1070
     8
1070
    79
1070
     2
1070
   140
1040
2.5
1070
   147
1040
0.9999999999999996
1070
   172
1070
     1
1070
   271
1070
     1
1070
   272
1070
     1
1070
   341
1005
4A
1070
   342
1005
4A
1002
}
  0
DIMENSION
  5
2B6AB
330
17
100
AcDbEntity
  8
DIM
100
AcDbDimension
  2
*D18
 10
2640.846557750036
 20
3051.057262486491
 30
0.0
 11
2687.846557750036
 21
3051.057262486491
 31
0.0
 70
   160
 71
     5
 42
94.0
 73
     0
 74
     0
 75
     0
  3
STANDARD
100
AcDbAlignedDimension
 13
2734.846557750036
 23
3191.418825738151
 33
0.0
 14
2640.846557750036
 24
3253.155726667815
 34
0.0
100
AcDbRotatedDimension
1001
ACAD
1000
DSTYLE
1002
{
1070
    41
1040
3.0
1070
    42
1040
2.0
1070
    43
1040
10.0
1070
    44
1040
2.0
1070
    45
1040
1.0
1070
    73
1070
     0
1070
    74
1070
     0
1070
    77
1070
     1
1070
    78
1070
     8
1070
    79
1070
     2
1070
   140
1040
2.5
1070
   147
1040
0.9999999999999996
1070
   172
1070
     1
1070
   271
1070
     1
1070
   272
1070
     1
1070
   341
1005
4A
1070
   342
1005
4A
1002
}
  0
DIMENSION
  5
2B6AC
330
17
100
AcDbEntity
  8
DIM
100
AcDbDimension
  2
*D19
 10
2587.84655775004
 20
2941.338831315489
 30
0.0
 11
2661.346557750038
 21
2979.588831315489
 31
0.0
 70
    32
 71
     5
 42
146.9999999999963
 73
     0
 74
     0
 75
     0
  3
STANDARD
100
AcDbAlignedDimension
 13
2734.846557750036
 23
3191.732086393612
 33
0.0
 14
2587.84655775004
 24
3236.155726667833
 34
0.0
100
AcDbRotatedDimension
1001
ACAD
1000
DSTYLE
1002
{
1070
    41
1040
3.0
1070
    42
1040
2.0
1070
    43
1040
10.0
1070
    44
1040
2.0
1070
    45
1040
1.0
1070
    73
1070
     0
1070
    74
1070
     0
1070
    77
1070
     1
1070
    78
1070
     8
1070
    79
1070
     2
1070
   140
1040
2.5
1070
   147
1040
0.9999999999999996
1070
   172
1070
     1
1070
   271
1070
     1
1070
   272
1070
     1
1070
   341
1005
4A
1070
   342
1005
4A
1002
}
  0
DIMENSION
  5
2B6AD
330
17
100
AcDbEntity
  8
DIM
100
AcDbDimension
  2
*D20
 10
2531.346557750036
 20
2801.138493849
 30
0.0
 11
2633.096557750036
 21
2839.388493849
 31
0.0
 70
    32
 71
     5
 42
203.5
 73
     0
 74
     0
 75
     0
  3
STANDARD
100
AcDbAlignedDimension
 13
2734.846557750036
 23
3191.418825738151
 33
0.0
 14
2531.346557750036
 24
3253.155726667844
 34
0.0
100
AcDbRotatedDimension
1001
ACAD
1000
DSTYLE
1002
{
1070
    41
1040
3.0
1070
    42
1040
2.0
1070
    43
1040
10.0
1070
    44
1040
2.0
1070
    73
1070
     0
1070
    74
1070
     0
1070
    77
1070
     1
1070
    78
1070
     8
1070
    79
1070
     2
1070
   140
1040
2.5
1070
   147
1040
0.9999999999999996
1070
   172
1070
     1
1070
   179
1070
     8
1070
   271
1070
     8
1070
   272
1070
     8
1070
   341
1005
4A
1070
   342
1005
4A
1002
}
  0
DIMENSION
  5
2B6AE
330
17
100
AcDbEntity
  8
DIM
100
AcDbDimension
  2
*D21
 10
2491.346557750036
 20
2663.29565198984
 30
0.0
 11
2613.096557750036
 21
2701.54565198984
 31
0.0
 70
    32
 71
     5
 42
243.5
 73
     0
 74
     0
 75
     0
  3
STANDARD
100
AcDbAlignedDimension
 13
2734.846557750036
 23
3191.418825738151
 33
0.0
 14
2491.346557750036
 24
3253.155726667815
 34
0.0
100
AcDbRotatedDimension
1001
ACAD
1000
DSTYLE
1002
{
1070
    41
1040
3.0
1070
    42
1040
2.0
1070
    43
1040
10.0
1070
    44
1040
2.0
1070
    73
1070
     0
1070
    74
1070
     0
1070
    77
1070
     1
1070
    78
1070
     8
1070
    79
1070
     2
1070
   140
1040
2.5
1070
   147
1040
0.9999999999999996
1070
   172
1070
     1
1070
   179
1070
     8
1070
   271
1070
     8
1070
   272
1070
     8
1070
   341
1005
4A
1070
   342
1005
4A
1002
}
  0
DIMENSION
  5
2B6AF
330
17
100
AcDbEntity
  8
DIM
100
AcDbDimension
  2
*D22
 10
2927.889757415948
 20
4003.960829835215
 30
0.0
 11
2734.846557750037
 21
4042.210829835215
 31
0.0
 70
    32
 71
     5
 42
386.0863993318217
 73
     0
 74
     0
 75
     0
  3
STANDARD
100
AcDbAlignedDimension
 13
2541.803358084126
 23
3341.973249026676
 33
0.0
 14
2927.889757415948
 24
3341.973249026676
 34
0.0
100
AcDbRotatedDimension
1001
ACAD
1000
DSTYLE
1002
{
1070
    41
1040
3.0
1070
    42
1040
2.0
1070
    43
1040
10.0
1070
    44
1040
2.0
1070
    45
1040
1.0
1070
    73
1070
     0
1070
    74
1070
     0
1070
    77
1070
     1
1070
    78
1070
     8
1070
    79
1070
     2
1070
   140
1040
2.5
1070
   147
1040
0.9999999999999996
1070
   172
1070
     1
1070
   271
1070
     1
1070
   272
1070
     1
1070
   341
1005
4A
1070
   342
1005
4A
1002
}
  0
DIMENSION
  5
2B6B0
330
17
100
AcDbEntity
  8
DIM
100
AcDbDimension
  2
*D23
 10
2176.844115605776
 20
3658.440637969708
 30
0.0
 11
2138.594115605776
 21
3500.206943498192
 31
0.0
 70
    32
 71
     5
 42
316.4673889430324
 73
     0
 74
     0
 75
     0
  3
STANDARD
100
AcDbAlignedDimension
 13
2541.803358084126
 23
3341.973249026676
 33
0.0
 14
2568.61491359322
 24
3658.440637969708
 34
0.0
 50
90.0
100
AcDbRotatedDimension
1001
ACAD
1000
DSTYLE
1002
{
1070
    41
1040
3.0
1070
    42
1040
2.0
1070
    43
1040
10.0
1070
    44
1040
2.0
1070
    45
1040
1.0
1070
    73
1070
     0
1070
    74
1070
     0
1070
    77
1070
     1
1070
    78
1070
     8
1070
    79
1070
     2
1070
   140
1040
2.5
1070
   147
1040
0.9999999999999996
1070
   172
1070
     1
1070
   271
1070
     1
1070
   272
1070
     1
1070
   341
1005
4A
1070
   342
1005
4A
1002
}
  0
DIMENSION
  5
2B6B1
330
17
100
AcDbEntity
  8
DIM
100
AcDbDimension
  2
*D24
 10
2176.844115605776
 20
3735.605726667716
 30
0.0
 11
2138.594115605777
 21
3882.129536191526
 31
0.0
 70
    32
 71
     5
 42
77.16508869800782
 73
     0
 74
     0
 75
     0
  3
STANDARD
100
AcDbAlignedDimension
 13
2568.61491359322
 23
3658.440637969708
 33
0.0
 14
2461.446557750038
 24
3735.605726667716
 34
0.0
 50
90.0
100
AcDbRotatedDimension
1001
ACAD
1000
DSTYLE
1002
{
1070
    41
1040
3.0
1070
    42
1040
2.0
1070
    43
1040
10.0
1070
    44
1040
2.0
1070
    45
1040
1.0
1070
    73
1070
     0
1070
    74
1070
     0
1070
    77
1070
     1
1070
    78
1070
     8
1070
    79
1070
     2
1070
   140
1040
2.5
1070
   147
1040
0.9999999999999996
1070
   172
1070
     1
1070
   271
1070
     1
1070
   272
1070
     1
1070
   341
1005
4A
1070
   342
1005
4A
1002
}
  0
DIMENSION
  5
2B6B2
330
17
100
AcDbEntity
  8
DIM
100
AcDbDimension
  2
*D25
 10
3252.379591773551
 20
3275.655726667818
 30
0.0
 11
3214.129591773551
 21
3505.630726667768
 31
0.0
 70
    32
 71
     5
 42
459.949999999897
 73
     0
 74
     0
 75
     0
  3
STANDARD
100
AcDbAlignedDimension
 13
3008.246557750038
 23
3735.605726667716
 33
0.0
 14
2964.346557750036
 24
3275.655726667819
 34
0.0
 50
90.0
100
AcDbRotatedDimension
1001
ACAD
1000
DSTYLE
1002
{
1070
    41
1040
3.0
1070
    42
1040
2.0
1070
    43
1040
10.0
1070
    44
1040
2.0
1070
    45
1040
1.0
1070
    73
1070
     0
1070
    74
1070
     0
1070
    77
1070
     1
1070
    78
1070
     8
1070
    79
1070
     2
1070
   140
1040
2.5
1070
   147
1040
0.9999999999999996
1070
   172
1070
     1
1070
   271
1070
     1
1070
   272
1070
     1
1070
   341
1005
4A
1070
   342
1005
4A
1002
}
  0
DIMENSION
  5
2B6B3
330
17
100
AcDbEntity
  8
DIM
100
AcDbDimension
  2
*D26
 10
3124.486450662889
 20
3735.605726667715
 30
0.0
 11
3086.236450662888
 21
3509.395726667781
 31
0.0
 70
    32
 71
     5
 42
452.41999999987
 73
     0
 74
     0
 75
     0
  3
STANDARD
100
AcDbAlignedDimension
 13
2838.846557750036
 23
3283.185726667846
 33
0.0
 14
3008.246557750038
 24
3735.605726667716
 34
0.0
 50
90.0
100
AcDbRotatedDimension
1001
ACAD
1000
DSTYLE
1002
{
1070
    41
1040
3.0
1070
    42
1040
2.0
1070
    43
1040
10.0
1070
    44
1040
2.0
1070
    45
1040
1.0
1070
    73
1070
     0
1070
    74
1070
     0
1070
    77
1070
     1
1070
    78
1070
     8
1070
    79
1070
     2
1070
   140
1040
2.5
1070
   147
1040
0.9999999999999996
1070
   172
1070
     1
1070
   271
1070
     1
1070
   272
1070
     1
1070
   341
1005
4A
1070
   342
1005
4A
1002
}
  0
DIMENSION
  5
2B6B4
330
17
100
AcDbEntity
  8
DIM
100
AcDbDimension
  2
*D27
 10
2901.078201906854
 20
3899.294163168548
 30
0.0
 11
2734.846557750037
 21
3937.544163168548
 31
0.0
 70
    32
 71
     5
 42
332.4632883136346
 73
     0
 74
     0
 75
     0
  3
STANDARD
100
AcDbAlignedDimension
 13
2568.61491359322
 23
3658.440637969708
 33
0.0
 14
2901.078201906854
 24
3658.440637969708
 34
0.0
100
AcDbRotatedDimension
1001
ACAD
1000
DSTYLE
1002
{
1070
    41
1040
3.0
1070
    42
1040
2.0
1070
    43
1040
10.0
1070
    44
1040
2.0
1070
    45
1040
1.0
1070
    73
1070
     0
1070
    74
1070
     0
1070
    77
1070
     1
1070
    78
1070
     8
1070
    79
1070
     2
1070
   140
1040
2.5
1070
   147
1040
0.9999999999999996
1070
   172
1070
     1
1070
   271
1070
     1
1070
   272
1070
     1
1070
   341
1005
4A
1070
   342
1005
4A
1002
}
  0
DIMENSION
  5
2B6B5
330
17
100
AcDbEntity
  8
DIM
100
AcDbDimension
  2
*D28
 10
2176.844115605777
 20
3227.605726667714
 30
0.0
 11
2176.844115605776
 21
3030.062488572477
 31
0.0
 70
   160
  1
（<>）
 71
     5
 42
114.3675223589616
 73
     0
 74
     0
 75
     0
  3
STANDARD
100
AcDbAlignedDimension
 13
2541.803358084126
 23
3341.973249026676
 33
0.0
 14
2461.446557750038
 24
3227.605726667714
 34
0.0
 50
90.0
100
AcDbRotatedDimension
1001
ACAD
1000
DSTYLE
1002
{
1070
    41
1040
3.0
1070
    42
1040
2.0
1070
    43
1040
10.0
1070
    44
1040
2.0
1070
    45
1040
1.0
1070
    73
1070
     0
1070
    74
1070
     0
1070
    77
1070
     1
1070
    78
1070
     8
1070
    79
1070
     2
1070
   140
1040
2.5
1070
   147
1040
0.9999999999999996
1070
   172
1070
     1
1070
   271
1070
     1
1070
   272
1070
     1
1070
   341
1005
4A
1070
   342
1005
4A
1002
}
  0
DIMENSION
  5
2B6B6
330
17
100
AcDbEntity
  8
DIM
100
AcDbDimension
  2
*D29
 10
2454.846557750036
 20
2663.29565198984
 30
0.0
 11
2259.913224416703
 21
2701.54565198984
 31
0.0
 70
    32
  1
（<>）
 71
     5
 42
36.5
 73
     0
 74
     0
 75
     0
  3
STANDARD
100
AcDbAlignedDimension
 13
2491.346557750036
 23
3253.155726667815
 33
0.0
 14
2454.846557750036
 24
3233.605726667716
 34
0.0
100
AcDbRotatedDimension
1001
ACAD
1000
DSTYLE
1002
{
1070
    41
1040
3.0
1070
    42
1040
2.0
1070
    43
1040
10.0
1070
    44
1040
2.0
1070
    73
1070
     0
1070
    74
1070
     0
1070
    77
1070
     1
1070
    78
1070
     8
1070
    79
1070
     2
1070
   140
1040
2.5
1070
   147
1040
0.9999999999999996
1070
   172
1070
     1
1070
   179
1070
     8
1070
   271
1070
     8
1070
   272
1070
     8
1070
   341
1005
4A
1070
   342
1005
4A
1002
}
  0
DIMENSION
  5
2B6B7
330
17
100
AcDbEntity
  8
DIM
100
AcDbDimension
  2
*D30
 10
3014.846557750038
 20
2801.138493849
 30
0.0
 11
3185.494176797657
 21
2839.388493849
 31
0.0
 70
    32
  1
（<>）
 71
     5
 42
90.00000000000182
 73
     0
 74
     0
 75
     0
  3
STANDARD
100
AcDbAlignedDimension
 13
2924.846557750036
 23
3236.155726667819
 33
0.0
 14
3014.846557750038
 24
3233.605726667716
 34
0.0
100
AcDbRotatedDimension
1001
ACAD
1000
DSTYLE
1002
{
1070
    41
1040
3.0
1070
    42
1040
2.0
1070
    43
1040
10.0
1070
    44
1040
2.0
1070
    45
1040
1.0
1070
    73
1070
     0
1070
    74
1070
     0
1070
    77
1070
     1
1070
    78
1070
     8
1070
    79
1070
     2
1070
   140
1040
2.5
1070
   147
1040
0.9999999999999996
1070
   172
1070
     1
1070
   271
1070
     1
1070
   272
1070
     1
1070
   341
1005
4A
1070
   342
1005
4A
1002
}
  0
LEADER
  5
2B6B8
330
17
100
AcDbEntity
  8
DIM
100
AcDbLeader
  3
STANDARD
 76
     2
 10
2481.507691747609
 20
3267.945557033743
 30
0.0
 10
2308.104175441993
 20
3076.607886090777
 30
0.0
1001
SSE_BALOON
1005
2B6B9
1001
ACAD
1000
DSTYLE
1002
{
1070
    41
1040
3.0
1070
    42
1040
2.0
1070
    43
1040
10.0
1070
    44
1040
2.0
1070
    73
1070
     0
1070
    74
1070
     0
1070
    77
1070
     1
1070
    78
1070
     8
1070
    79
1070
     2
1070
   140
1040
3.2
1070
   147
1040
0.9999999999999996
1070
   172
1070
     1
1070
   179
1070
     8
1070
   271
1070
     8
1070
   272
1070
     8
1070
   341
1005
4A
1070
   342
1005
4A
1002
}
  0
INSERT
  5
2B6B9
330
17
100
AcDbEntity
  8
DIM
100
AcDbBlockReference
 66
     1
  2
SSE_BALOON1
 10
2279.452339595558
 20
3044.992751312108
 30
0.0
 41
42.66666666666651
 42
42.66666666666674
 43
42.66666666666666
1001
SSE_BALOON
1005
2B6B8
  0
ATTRIB
  5
2B6BA
330
2B6B9
100
AcDbEntity
  8
DIMTEXT
100
AcDbText
 10
2274.372974516193
 20
3023.659417978775
 30
0.0
 40
42.66666666666666
  1
1
 72
     4
 11
2279.452339595558
 21
3044.992751312108
 31
0.0
100
AcDbAttribute
  2
BAL_NUM
 70
     0
280
     0
  0
SEQEND
  5
2B6BB
330
2B6B9
100
AcDbEntity
  8
DIM
  0
LEADER
  5
2B6BC
330
17
100
AcDbEntity
  8
DIM
100
AcDbLeader
  3
STANDARD
 76
     2
 10
2521.264886982909
 20
3263.231560114557
 30
0.0
 10
2411.474651703685
 20
3081.511711261598
 30
0.0
1001
SSE_BALOON
1005
2B6BD
1001
ACAD
1000
DSTYLE
1002
{
1070
    41
1040
3.0
1070
    42
1040
2.0
1070
    43
1040
10.0
1070
    44
1040
2.0
1070
    73
1070
     0
1070
    74
1070
     0
1070
    77
1070
     1
1070
    78
1070
     8
1070
    79
1070
     2
1070
   140
1040
3.2
1070
   147
1040
0.9999999999999996
1070
   172
1070
     1
1070
   179
1070
     8
1070
   271
1070
     8
1070
   272
1070
     8
1070
   341
1005
4A
1070
   342
1005
4A
1002
}
  0
INSERT
  5
2B6BD
330
17
100
AcDbEntity
  8
DIM
100
AcDbBlockReference
 66
     1
  2
SSE_BALOON1
 10
2389.410880297782
 20
3044.992751312108
 30
0.0
 41
42.66666666666651
 42
42.66666666666674
 43
42.66666666666666
1001
SSE_BALOON
1005
2B6BC
  0
ATTRIB
  5
2B6BE
330
2B6BD
100
AcDbEntity
  8
DIMTEXT
100
AcDbText
 10
2375.188658075559
 20
3023.659417978775
 30
0.0
 40
42.66666666666666
  1
2
 72
     4
 11
2389.410880297782
 21
3044.992751312108
 31
0.0
100
AcDbAttribute
  2
BAL_NUM
 70
     0
280
     0
  0
SEQEND
  5
2B6BF
330
2B6BD
100
AcDbEntity
  8
DIM
  0
LEADER
  5
2B6C4
330
17
100
AcDbEntity
  8
DIM
100
AcDbLeader
  3
STANDARD
 76
     2
 10
2944.950178023243
 20
3254.066505933604
 30
0.0
 10
3110.560697809895
 20
3076.217838927699
 30
0.0
1001
SSE_BALOON
1005
2B6C5
1001
ACAD
1000
DSTYLE
1002
{
1070
    41
1040
3.0
1070
    42
1040
2.0
1070
    43
1040
10.0
1070
    44
1040
2.0
1070
    73
1070
     0
1070
    74
1070
     0
1070
    77
1070
     1
1070
    78
1070
     8
1070
    79
1070
     2
1070
   140
1040
3.2
1070
   147
1040
0.9999999999999996
1070
   172
1070
     1
1070
   179
1070
     8
1070
   271
1070
     8
1070
   272
1070
     8
1070
   341
1005
4A
1070
   342
1005
4A
1002
}
  0
INSERT
  5
2B6C5
330
17
100
AcDbEntity
  8
DIM
100
AcDbBlockReference
 66
     1
  2
SSE_BALOON1
 10
3139.637120351933
 20
3044.992751312108
 30
0.0
 41
42.66666666666651
 42
42.66666666666674
 43
42.66666666666666
1001
SSE_BALOON
1005
2B6C4
  0
ATTRIB
  5
2B6C6
330
2B6C5
100
AcDbEntity
  8
DIMTEXT
100
AcDbText
 10
3124.399025113837
 20
3023.659417978775
 30
0.0
 40
42.66666666666666
  1
4
 72
     4
 11
3139.637120351933
 21
3044.992751312108
 31
0.0
100
AcDbAttribute
  2
BAL_NUM
 70
     0
280
     0
  0
SEQEND
  5
2B6C7
330
2B6C5
100
AcDbEntity
  8
DIM
  0
LEADER
  5
2B6C8
330
17
100
AcDbEntity
  8
DIM
100
AcDbLeader
  3
STANDARD
 76
     2
 10
2592.846461773446
 20
3304.728926693906
 30
0.0
 10
2623.281724812227
 20
3481.702421791028
 30
0.0
1001
SSE_BALOON
1005
2B6C9
1001
ACAD
1000
DSTYLE
1002
{
1070
    41
1040
3.0
1070
    42
1040
2.0
1070
    43
1040
10.0
1070
    44
1040
2.0
1070
    73
1070
     0
1070
    74
1070
     0
1070
    77
1070
     1
1070
    78
1070
     8
1070
    79
1070
     2
1070
   140
1040
3.2
1070
   147
1040
0.9999999999999996
1070
   172
1070
     1
1070
   179
1070
     8
1070
   271
1070
     8
1070
   272
1070
     8
1070
   341
1005
4A
1070
   342
1005
4A
1002
}
  0
INSERT
  5
2B6C9
330
17
100
AcDbEntity
  8
DIM
100
AcDbBlockReference
 66
     1
  2
SSE_BALOON1
 10
2630.513224416707
 20
3523.751795840053
 30
0.0
 41
42.66666666666651
 42
42.66666666666674
 43
42.66666666666666
1001
SSE_BALOON
1005
2B6C8
  0
ATTRIB
  5
2B6CA
330
2B6C9
100
AcDbEntity
  8
DIMTEXT
100
AcDbText
 10
2616.291002194484
 20
3502.41846250672
 30
0.0
 40
42.66666666666666
  1
5
 72
     4
 11
2630.513224416707
 21
3523.751795840053
 31
0.0
100
AcDbAttribute
  2
BAL_NUM
 70
     0
280
     0
  0
SEQEND
  5
2B6CB
330
2B6C9
100
AcDbEntity
  8
DIM
  0
LEADER
  5
2B6CC
330
17
100
AcDbEntity
  8
DIM
100
AcDbLeader
  3
STANDARD
 76
     2
 10
2850.724123560699
 20
3298.645530559053
 30
0.0
 10
2838.299035879761
 20
3481.183631075625
 30
0.0
1001
SSE_BALOON
1005
2B6CD
1001
ACAD
1000
DSTYLE
1002
{
1070
    41
1040
3.0
1070
    42
1040
2.0
1070
    43
1040
10.0
1070
    44
1040
2.0
1070
    73
1070
     0
1070
    74
1070
     0
1070
    77
1070
     1
1070
    78
1070
     8
1070
    79
1070
     2
1070
   140
1040
3.2
1070
   147
1040
0.9999999999999996
1070
   172
1070
     1
1070
   179
1070
     8
1070
   271
1070
     8
1070
   272
1070
     8
1070
   341
1005
4A
1070
   342
1005
4A
1002
}
  0
INSERT
  5
2B6CD
330
17
100
AcDbEntity
  8
DIM
100
AcDbBlockReference
 66
     1
  2
SSE_BALOON1
 10
2835.401486392187
 20
3523.751795840053
 30
0.0
 41
42.66666666666651
 42
42.66666666666674
 43
42.66666666666666
1001
SSE_BALOON
1005
2B6CC
  0
ATTRIB
  5
2B6CE
330
2B6CD
100
AcDbEntity
  8
DIMTEXT
100
AcDbText
 10
2822.195137185838
 20
3502.41846250672
 30
0.0
 40
42.66666666666666
  1
6
 72
     4
 11
2835.401486392187
 21
3523.751795840053
 31
0.0
100
AcDbAttribute
  2
BAL_NUM
 70
     0
280
     0
  0
SEQEND
  5
2B6CF
330
2B6CD
100
AcDbEntity
  8
DIM
  0
LEADER
  5
2B6D0
330
17
100
AcDbEntity
  8
DIM
100
AcDbLeader
  3
STANDARD
 73
     0
 75
     1
 40
128.0
 41
498.4685714285715
 76
     3
 10
2541.803358084126
 20
3341.973249026676
 30
0.0
 10
2375.30439690752
 20
4074.381990111565
 30
0.0
 10
2324.30439690752
 20
4074.381990111565
 30
0.0
340
2B6D1
1001
ACAD
1000
DSTYLE
1002
{
1070
    41
1040
3.0
1070
    42
1040
2.0
1070
    43
1040
10.0
1070
    44
1040
2.0
1070
    73
1070
     0
1070
    74
1070
     0
1070
    77
1070
     1
1070
    78
1070
     8
1070
    79
1070
     2
1070
   140
1040
3.2
1070
   147
1040
0.9999999999999996
1070
   172
1070
     1
1070
   179
1070
     8
1070
   271
1070
     8
1070
   272
1070
     8
1070
   341
1005
5132
1070
   342
1005
4A
1002
}
  0
MTEXT
  5
2B6D1
102
{ACAD_REACTORS
330
2B6D0
102
}
330
17
100
AcDbEntity
  8
DIM
100
AcDbMText
 10
2307.30439690752
 20
4091.381990111565
 30
0.0
 40
48.0
 41
552.3479173041246
 46
0.0
 71
     9
 72
     1
  1
4-M12アンカーボルト\P（穴φ17）
 73
     1
 44
1.0
  0
DIMENSION
  5
2B6D4
330
17
100
AcDbEntity
  8
DIM
100
AcDbDimension
  2
*D31
 10
3252.379591773551
 20
3227.605726667715
 30
0.0
 11
3214.129591773551
 21
3056.958107620097
 31
0.0
 70
    32
  1
（48）
 71
     5
 42
48.05000000010295
 73
     0
 74
     0
 75
     0
  3
STANDARD
100
AcDbAlignedDimension
 13
2964.346557750036
 23
3275.655726667819
 33
0.0
 14
3008.246557750038
 24
3227.605726667716
 34
0.0
 50
90.0
100
AcDbRotatedDimension
1001
ACAD
1000
DSTYLE
1002
{
1070
    41
1040
3.0
1070
    42
1040
2.0
1070
    43
1040
10.0
1070
    44
1040
2.0
1070
    45
1040
1.0
1070
    73
1070
     0
1070
    74
1070
     0
1070
    77
1070
     1
1070
    78
1070
     8
1070
    79
1070
     2
1070
   140
1040
2.5
1070
   147
1040
0.9999999999999996
1070
   172
1070
     1
1070
   271
1070
     1
1070
   272
1070
     1
1070
   341
1005
4A
1070
   342
1005
4A
1002
}
  0
DIMENSION
  5
2B6D5
330
17
100
AcDbEntity
  8
DIM
100
AcDbDimension
  2
*D32
 10
2894.078201906854
 20
3794.627496501882
 30
0.0
 11
2749.982963811616
 21
3832.877496501882
 31
0.0
 70
    32
 71
     5
 42
14.0
 73
     0
 74
     0
 75
     0
  3
STANDARD
100
AcDbAlignedDimension
 13
2908.078201906854
 23
3673.440637969708
 33
0.0
 14
2894.078201906854
 24
3673.440637969708
 34
0.0
100
AcDbRotatedDimension
1001
ACAD
1000
DSTYLE
1002
{
1070
    41
1040
3.0
1070
    42
1040
2.0
1070
    43
1040
10.0
1070
    44
1040
2.0
1070
    45
1040
1.0
1070
    73
1070
     0
1070
    74
1070
     0
1070
    77
1070
     1
1070
    78
1070
     8
1070
    79
1070
     2
1070
   140
1040
2.5
1070
   147
1040
0.9999999999999996
1070
   172
1070
     1
1070
   271
1070
     1
1070
   272
1070
     1
1070
   341
1005
4A
1070
   342
1005
4A
1002
}
  0
TEXT
  5
2C1F3
330
17
100
AcDbEntity
  8
DIM
100
AcDbText
 10
2407.842082411101
 20
2466.576139604026
 30
0.0
 40
48.0
  1
基礎ボルトおよび配管位置図（上空図）
 41
0.8
 72
     1
 11
2807.202082411101
 21
2466.576139604026
 31
0.0
100
AcDbText
  0
LINE
  5
2C1F4
330
17
100
AcDbEntity
  8
DIM
100
AcDbLine
 10
2394.13945250443
 20
2456.576139604026
 30
0.0
 11
3226.306463049487
 21
2456.576139604026
 31
0.0
  0
LINE
  5
2C247
330
17
100
AcDbEntity
  8
WAKU
100
AcDbLine
 10
2359.459270417815
 20
1303.271200632821
 30
0.0
 11
3159.459270417816
 21
1303.271200632819
 31
0.0
  0
LINE
  5
2C248
330
17
100
AcDbEntity
  8
WAKU
100
AcDbLine
 10
2359.459270417815
 20
1383.271200632821
 30
0.0
 11
3159.459270417816
 21
1383.271200632821
 31
0.0
  0
TEXT
  5
2C249
330
17
100
AcDbEntity
  8
DIMTEXT
100
AcDbText
 10
2669.164176636007
 20
1799.27120063282
 30
0.0
 40
48.0
  1
名      称
 41
0.8
 72
     1
 11
2779.244176636007
 21
1823.27120063282
 31
0.0
100
AcDbText
 73
     2
  0
LINE
  5
2C24A
330
17
100
AcDbEntity
  8
WAKU
100
AcDbLine
 10
2359.459270417815
 20
1783.271200632819
 30
0.0
 11
3159.459270417817
 21
1783.271200632819
 31
0.0
  0
LINE
  5
2C24B
330
17
100
AcDbEntity
  8
WAKU
100
AcDbLine
 10
2359.459270417815
 20
1543.271200632819
 30
0.0
 11
3159.459270417816
 21
1543.271200632819
 31
0.0
  0
LINE
  5
2C24C
330
17
100
AcDbEntity
  8
WAKU
100
AcDbLine
 10
2359.459270417815
 20
1703.271200632818
 30
0.0
 11
3159.459270417817
 21
1703.271200632818
 31
0.0
  0
LINE
  5
2C24D
330
17
100
AcDbEntity
  8
WAKU
100
AcDbLine
 10
2359.459270417815
 20
1463.27120063282
 30
0.0
 11
3159.459270417816
 21
1463.27120063282
 31
0.0
  0
LINE
  5
2C24E
330
17
100
AcDbEntity
  8
WAKU
100
AcDbLine
 10
3159.459270417817
 20
1863.27120063282
 30
0.0
 11
2359.459270417815
 21
1863.27120063282
 31
0.0
  0
TEXT
  5
2C24F
330
17
100
AcDbEntity
  8
DIMTEXT
100
AcDbText
 10
2410.452871927055
 20
1398.358205408632
 30
0.0
 40
48.0
  1
5
 41
0.8
 72
     1
 11
2423.252871927056
 21
1422.358205408632
 31
0.0
100
AcDbText
 73
     2
  0
LINE
  5
2C250
330
17
100
AcDbEntity
  8
WAKU
100
AcDbLine
 10
2359.459270417815
 20
1863.27120063282
 30
0.0
 11
2359.459270417815
 21
1303.271200632821
 31
0.0
  0
LINE
  5
2C251
330
17
100
AcDbEntity
  8
WAKU
100
AcDbLine
 10
2484.549754660514
 20
1863.271200632818
 30
0.0
 11
2484.549754660514
 21
1303.27120063282
 31
0.0
  0
TEXT
  5
2C252
330
17
100
AcDbEntity
  8
DIMTEXT
100
AcDbText
 10
2418.681443355627
 20
1718.358205408632
 30
0.0
 40
48.0
  1
1
 41
0.8
 72
     1
 11
2423.252871927056
 21
1742.358205408632
 31
0.0
100
AcDbText
 73
     2
  0
TEXT
  5
2C253
330
17
100
AcDbEntity
  8
DIMTEXT
100
AcDbText
 10
2410.452871927055
 20
1558.358205408632
 30
0.0
 40
48.0
  1
3
 41
0.8
 72
     1
 11
2423.252871927056
 21
1582.358205408632
 31
0.0
100
AcDbText
 73
     2
  0
TEXT
  5
2C254
330
17
100
AcDbEntity
  8
DIMTEXT
100
AcDbText
 10
2409.53858621277
 20
1478.358205408632
 30
0.0
 40
48.0
  1
4
 41
0.8
 72
     1
 11
2423.252871927056
 21
1502.358205408632
 31
0.0
100
AcDbText
 73
     2
  0
TEXT
  5
2C255
330
17
100
AcDbEntity
  8
DIMTEXT
100
AcDbText
 10
2410.452871927055
 20
1638.358205408631
 30
0.0
 40
48.0
  1
2
 41
0.8
 72
     1
 11
2423.252871927056
 21
1662.358205408631
 31
0.0
100
AcDbText
 73
     2
  0
TEXT
  5
2C256
330
17
100
AcDbEntity
  8
DIMTEXT
100
AcDbText
 10
2382.292871927055
 20
1799.271200632818
 30
0.0
 40
48.0
  1
番号
 41
0.8
 72
     1
 11
2423.252871927056
 21
1823.271200632818
 31
0.0
100
AcDbText
 73
     2
  0
LINE
  5
2C257
330
17
100
AcDbEntity
  8
WAKU
100
AcDbLine
 10
3159.459270417817
 20
1863.271200632819
 30
0.0
 11
3159.459270417817
 21
1303.271200632819
 31
0.0
  0
TEXT
  5
2C258
330
17
100
AcDbEntity
  8
DIMTEXT
100
AcDbText
 10
2509.448892747179
 20
1719.271200632819
 30
0.0
 40
48.0
  1
リモコンケーブル引込口
 41
0.8
 11
2509.448892747179
 21
1743.271200632819
 31
0.0
100
AcDbText
 73
     2
  0
TEXT
  5
2C259
330
17
100
AcDbEntity
  8
DIMTEXT
100
AcDbText
 10
2509.448892747179
 20
1639.271200632819
 30
0.0
 40
48.0
  1
200V電源引込口
 41
0.8
 11
2509.448892747179
 21
1663.271200632819
 31
0.0
100
AcDbText
 73
     2
  0
TEXT
  5
2C25A
330
17
100
AcDbEntity
  8
DIMTEXT
100
AcDbText
 10
2509.448892747179
 20
1479.271200632819
 30
0.0
 40
48.0
  1
給湯配管口
 41
0.8
 11
2509.448892747179
 21
1503.271200632819
 31
0.0
100
AcDbText
 73
     2
  0
TEXT
  5
2C25B
330
17
100
AcDbEntity
  8
DIMTEXT
100
AcDbText
 10
2509.448892747179
 20
1399.271200632819
 30
0.0
 40
48.0
  1
給水配管口
 41
0.8
 11
2509.448892747179
 21
1423.271200632819
 31
0.0
100
AcDbText
 73
     2
  0
TEXT
  5
2C25C
330
17
100
AcDbEntity
  8
DIMTEXT
100
AcDbText
 10
2509.448892747179
 20
1319.271200632819
 30
0.0
 40
48.0
  1
排水栓配管口
 41
0.8
 11
2509.448892747179
 21
1343.271200632819
 31
0.0
100
AcDbText
 73
     2
  0
LINE
  5
2C260
330
17
100
AcDbEntity
  8
WAKU
100
AcDbLine
 10
2285.441927431141
 20
4858.969263665041
 30
0.0
 11
3285.441927431142
 21
4858.96926366504
 31
0.0
  0
TEXT
  5
2C312
330
17
100
AcDbEntity
  8
DIM
370
    18
100
AcDbText
 10
2187.415635764318
 20
596.4266285993519
 30
0.0
 40
51.2
  1
GL
 41
0.8
100
AcDbText
  0
LEADER
  5
2C331
330
17
100
AcDbEntity
  8
DIM
100
AcDbLeader
  3
STANDARD
 76
     2
 10
2645.810298521372
 20
3288.155726667822
 30
0.0
 10
2711.623491062019
 20
3483.321981539198
 30
0.0
1001
SSE_BALOON
1005
2B6C9
1001
ACAD
1000
DSTYLE
1002
{
1070
    41
1040
3.0
1070
    42
1040
2.0
1070
    43
1040
10.0
1070
    44
1040
2.0
1070
    73
1070
     0
1070
    74
1070
     0
1070
    77
1070
     1
1070
    78
1070
     8
1070
    79
1070
     2
1070
   140
1040
3.2
1070
   147
1040
0.9999999999999996
1070
   172
1070
     1
1070
   179
1070
     8
1070
   271
1070
     8
1070
   272
1070
     8
1070
   341
1005
4A
1070
   342
1005
4A
1002
}
  0
INSERT
  5
2C332
330
17
100
AcDbEntity
  8
DIM
100
AcDbBlockReference
 66
     1
  2
SSE_BALOON1
 10
2725.257073131411
 20
3523.751795840053
 30
0.0
 41
42.66666666666651
 42
42.66666666666674
 43
42.66666666666666
1001
SSE_BALOON
1005
2B6C8
  0
ATTRIB
  5
2C333
330
2C332
100
AcDbEntity
  8
DIMTEXT
100
AcDbText
 10
2711.034850909189
 20
3502.41846250672
 30
0.0
 40
42.66666666666666
  1
3
 72
     4
 11
2725.257073131411
 21
3523.751795840053
 31
0.0
100
AcDbAttribute
  2
BAL_NUM
 70
     0
280
     0
  0
SEQEND
  5
2C334
330
2C332
100
AcDbEntity
  8
DIM
  0
TEXT
  5
2C335
330
17
100
AcDbEntity
  8
DIMTEXT
100
AcDbText
 10
2411.367157641342
 20
1318.358205408633
 30
0.0
 40
48.0
  1
6
 41
0.8
 72
     1
 11
2423.252871927056
 21
1342.358205408633
 31
0.0
100
AcDbText
 73
     2
  0
LINE
  5
2C336
330
17
100
AcDbEntity
  8
WAKU
100
AcDbLine
 10
2359.459270417815
 20
1623.271200632818
 30
0.0
 11
3159.459270417816
 21
1623.271200632818
 31
0.0
  0
TEXT
  5
2C337
330
17
100
AcDbEntity
  8
DIMTEXT
100
AcDbText
 10
2509.448892747179
 20
1559.271200632818
 30
0.0
 40
48.0
  1
100V／200V補助電源引込口
 41
0.8
 11
2509.448892747179
 21
1583.271200632818
 31
0.0
100
AcDbText
 73
     2
  0
LINE
  5
2C346
330
17
100
AcDbEntity
  8
0
100
AcDbLine
 10
1092.731971898282
 20
1960.744015179676
 30
0.0
 11
1092.731971898284
 21
1864.744015179677
 31
0.0
  0
LINE
  5
2C347
330
17
100
AcDbEntity
  8
0
100
AcDbLine
 10
1084.231971898282
 20
1959.904015179676
 30
0.0
 11
1084.231971898282
 21
1865.584015179676
 31
0.0
  0
LINE
  5
2C348
330
17
100
AcDbEntity
  8
0
100
AcDbLine
 10
946.2319718982824
 20
1959.904015179676
 30
0.0
 11
946.2319718982824
 21
1865.584015179676
 31
0.0
  0
LINE
  5
2C349
330
17
100
AcDbEntity
  8
0
100
AcDbLine
 10
937.7319718982823
 20
1960.744015179676
 30
0.0
 11
937.7319718982823
 21
1864.744015179677
 31
0.0
  0
LINE
  5
2C34A
330
17
100
AcDbEntity
  8
0
100
AcDbLine
 10
949.7319718982824
 20
1852.744015179677
 30
0.0
 11
1080.731971898282
 21
1852.744015179677
 31
0.0
  0
LINE
  5
2C34B
330
17
100
AcDbEntity
  8
0
100
AcDbLine
 10
1081.392725503389
 20
1862.744015179677
 30
0.0
 11
949.0712182931735
 21
1862.744015179677
 31
0.0
  0
ARC
  5
2C34C
330
17
100
AcDbEntity
  8
0
100
AcDbCircle
 10
949.0712182931735
 20
1865.584015179676
 30
0.0
 40
2.839246394892143
100
AcDbArc
 50
180.0
 51
270.0
  0
ARC
  5
2C34D
330
17
100
AcDbEntity
  8
0
100
AcDbCircle
 10
949.7319718982824
 20
1864.744015179677
 30
0.0
 40
12.0
100
AcDbArc
 50
180.0
 51
270.0
  0
ARC
  5
2C34E
330
17
100
AcDbEntity
  8
0
100
AcDbCircle
 10
1081.392725503389
 20
1865.584015179676
 30
0.0
 40
2.839246394892143
100
AcDbArc
 50
270.0
 51
0.0
  0
CIRCLE
  5
2C34F
330
17
100
AcDbEntity
  8
0
100
AcDbCircle
 10
1077.481971898282
 20
1912.787968673847
 30
0.0
 40
6.0
  0
ARC
  5
2C350
330
17
100
AcDbEntity
  8
0
100
AcDbCircle
 10
1080.731971898282
 20
1864.744015179677
 30
0.0
 40
12.0
100
AcDbArc
 50
270.0
 51
0.0
  0
LINE
  5
2C351
330
17
100
AcDbEntity
  8
0
100
AcDbLine
 10
949.7319718982824
 20
1972.744015179676
 30
0.0
 11
1080.731971898282
 21
1972.744015179676
 31
0.0
  0
LINE
  5
2C352
330
17
100
AcDbEntity
  8
0
100
AcDbLine
 10
1081.392725503389
 20
1962.744015179676
 30
0.0
 11
949.0712182931735
 21
1962.744015179676
 31
0.0
  0
ARC
  5
2C353
330
17
100
AcDbEntity
  8
0
100
AcDbCircle
 10
949.0712182931735
 20
1959.904015179676
 30
0.0
 40
2.839246394892143
100
AcDbArc
 50
90.0
 51
180.0
  0
ARC
  5
2C354
330
17
100
AcDbEntity
  8
0
100
AcDbCircle
 10
949.7319718982824
 20
1960.744015179676
 30
0.0
 40
12.0
100
AcDbArc
 50
90.0
 51
180.0
  0
ARC
  5
2C355
330
17
100
AcDbEntity
  8
0
100
AcDbCircle
 10
1081.392725503389
 20
1959.904015179676
 30
0.0
 40
2.839246394892143
100
AcDbArc
 50
0.0
 51
90.0
  0
ARC
  5
2C356
330
17
100
AcDbEntity
  8
0
100
AcDbCircle
 10
1080.731971898282
 20
1960.744015179676
 30
0.0
 40
12.0
100
AcDbArc
 50
0.0
 51
90.0
  0
LINE
  5
2C359
330
17
100
AcDbEntity
  8
0
100
AcDbLine
 10
972.7342911248364
 20
1948.740835008982
 30
0.0
 11
1004.734291124036
 21
1948.740835008982
 31
0.0
  0
LINE
  5
2C35A
330
17
100
AcDbEntity
  8
0
100
AcDbLine
 10
1004.734291124036
 20
1948.740835008982
 30
0.0
 11
1004.734291124036
 21
1878.740835010732
 31
0.0
  0
LINE
  5
2C35B
330
17
100
AcDbEntity
  8
0
100
AcDbLine
 10
1004.734291124036
 20
1878.740835010732
 30
0.0
 11
972.7342911248364
 21
1878.740835010732
 31
0.0
  0
LINE
  5
2C35C
330
17
100
AcDbEntity
  8
0
100
AcDbLine
 10
972.7342911248364
 20
1878.740835010732
 30
0.0
 11
972.7342911248364
 21
1948.740835008982
 31
0.0
  0
LINE
  5
2C35D
330
17
100
AcDbEntity
  8
0
100
AcDbLine
 10
1389.731971898282
 20
2423.744015179678
 30
0.0
 11
1389.731971898284
 21
2327.744015179678
 31
0.0
  0
LINE
  5
2C35E
330
17
100
AcDbEntity
  8
0
100
AcDbLine
 10
1381.231971898282
 20
2422.904015179678
 30
0.0
 11
1381.231971898282
 21
2328.584015179679
 31
0.0
  0
LINE
  5
2C35F
330
17
100
AcDbEntity
  8
0
100
AcDbLine
 10
1243.231971898282
 20
2422.904015179678
 30
0.0
 11
1243.231971898282
 21
2328.584015179679
 31
0.0
  0
LINE
  5
2C360
330
17
100
AcDbEntity
  8
0
100
AcDbLine
 10
1234.731971898282
 20
2423.744015179678
 30
0.0
 11
1234.731971898282
 21
2327.744015179678
 31
0.0
  0
LINE
  5
2C361
330
17
100
AcDbEntity
  8
0
100
AcDbLine
 10
1246.731971898282
 20
2315.744015179678
 30
0.0
 11
1377.731971898282
 21
2315.744015179678
 31
0.0
  0
LINE
  5
2C362
330
17
100
AcDbEntity
  8
0
100
AcDbLine
 10
1378.392725503389
 20
2325.744015179678
 30
0.0
 11
1246.071218293173
 21
2325.744015179678
 31
0.0
  0
ARC
  5
2C363
330
17
100
AcDbEntity
  8
0
100
AcDbCircle
 10
1246.071218293173
 20
2328.584015179679
 30
0.0
 40
2.839246394892143
100
AcDbArc
 50
180.0
 51
270.0
  0
ARC
  5
2C364
330
17
100
AcDbEntity
  8
0
100
AcDbCircle
 10
1246.731971898282
 20
2327.744015179678
 30
0.0
 40
12.0
100
AcDbArc
 50
180.0
 51
270.0
  0
ARC
  5
2C365
330
17
100
AcDbEntity
  8
0
100
AcDbCircle
 10
1378.392725503389
 20
2328.584015179679
 30
0.0
 40
2.839246394892143
100
AcDbArc
 50
270.0
 51
0.0
  0
CIRCLE
  5
2C366
330
17
100
AcDbEntity
  8
0
100
AcDbCircle
 10
1374.481971898282
 20
2375.787968673849
 30
0.0
 40
6.0
  0
ARC
  5
2C367
330
17
100
AcDbEntity
  8
0
100
AcDbCircle
 10
1377.731971898282
 20
2327.744015179678
 30
0.0
 40
12.0
100
AcDbArc
 50
270.0
 51
0.0
  0
LINE
  5
2C368
330
17
100
AcDbEntity
  8
0
100
AcDbLine
 10
1246.731971898282
 20
2435.744015179678
 30
0.0
 11
1377.731971898282
 21
2435.744015179678
 31
0.0
  0
LINE
  5
2C369
330
17
100
AcDbEntity
  8
0
100
AcDbLine
 10
1378.392725503389
 20
2425.744015179678
 30
0.0
 11
1246.071218293173
 21
2425.744015179678
 31
0.0
  0
ARC
  5
2C36A
330
17
100
AcDbEntity
  8
0
100
AcDbCircle
 10
1246.071218293173
 20
2422.904015179678
 30
0.0
 40
2.839246394892143
100
AcDbArc
 50
90.0
 51
180.0
  0
ARC
  5
2C36B
330
17
100
AcDbEntity
  8
0
100
AcDbCircle
 10
1246.731971898282
 20
2423.744015179678
 30
0.0
 40
12.0
100
AcDbArc
 50
90.0
 51
180.0
  0
ARC
  5
2C36C
330
17
100
AcDbEntity
  8
0
100
AcDbCircle
 10
1378.392725503389
 20
2422.904015179678
 30
0.0
 40
2.839246394892143
100
AcDbArc
 50
0.0
 51
90.0
  0
ARC
  5
2C36D
330
17
100
AcDbEntity
  8
0
100
AcDbCircle
 10
1377.731971898282
 20
2423.744015179678
 30
0.0
 40
12.0
100
AcDbArc
 50
0.0
 51
90.0
  0
TEXT
  5
2C446
330
17
100
AcDbEntity
  8
DIM
100
AcDbText
 10
217.8709650533499
 20
4770.412816095373
 30
0.0
 40
96.0
  1
『電気温水器
 41
0.8
100
AcDbText
  0
LINE
  5
2C8ED
330
17
100
AcDbEntity
  8
0
100
AcDbLine
 10
2454.846557750038
 20
3233.605726667716
 30
0.0
 11
2455.396557750037
 21
3233.605726667716
 31
0.0
  0
LINE
  5
2C8EE
330
17
100
AcDbEntity
  8
0
100
AcDbLine
 10
3014.296557750037
 20
3233.605726667716
 30
0.0
 11
3014.846557750038
 21
3233.605726667716
 31
0.0
  0
INSERT
  5
2CA0D
330
17
100
AcDbEntity
  8
Defpoints
100
AcDbBlockReference
  2
waku0
 10
0.0
 20
0.0
 30
0.0
 41
3570.0
 42
5049.0
 43
3570.0
  0
TEXT
  5
2CD70
330
17
100
AcDbEntity
  8
DIM
100
AcDbText
 10
2868.963635574789
 20
155.7417855595699
 30
0.0
 40
66.03660537500275
  1
E34-000384
 41
0.8
100
AcDbText
  0
LWPOLYLINE
  5
2CD97
330
17
100
AcDbEntity
  8
0
100
AcDbPolyline
 90
        4
 70
     1
 43
0.0
 10
107.7098773807502
 20
4915.845978532737
 10
3482.189333586318
 20
4915.845978532737
 10
3482.189333586318
 20
119.1368236109677
 10
107.7098773807502
 20
119.1368236109677
  0
LINE
  5
2CEBF
330
17
100
AcDbEntity
  8
0
100
AcDbLine
 10
728.3544322741481
 20
571.7440151796791
 30
0.0
 11
2033.860095937284
 21
571.7440151796796
 31
0.0
  0
ENDSEC
  0
SECTION
  2
OBJECTS
  0
DICTIONARY
  5
C
330
0
100
AcDbDictionary
281
     1
  3
ACAD_COLOR
350
2AC71
  3
ACAD_GROUP
350
D
  3
ACAD_LAYOUT
350
34
  3
ACAD_MATERIAL
350
2AC47
  3
ACAD_MLEADERSTYLE
350
2AC96
  3
ACAD_MLINESTYLE
350
1A
  3
ACAD_PLOTSETTINGS
350
35
  3
ACAD_PLOTSTYLENAME
350
32
  3
ACAD_SCALELIST
350
2AC74
  3
ACAD_TABLESTYLE
350
2AC72
  3
ACAD_VISUALSTYLE
350
2AC60
  3
AcadDim
350
1D621
  3
ACDB_RECOMPOSE_DATA
350
2ACAE
  3
AcDbVariableDictionary
350
44
  0
DICTIONARY
  5
299D4
330
2
100
AcDbDictionary
280
     1
281
     1
  3
ACAD_LAYERSTATES
360
299D5
  0
DICTIONARY
  5
2AC9A
330
E
100
AcDbDictionary
280
     1
281
     1
  3
ADSK_XREC_LAYER_RECONCILED
360
2AC9B
  0
DICTIONARY
  5
2AC9C
330
21
100
AcDbDictionary
280
     1
281
     1
  3
ADSK_XREC_LAYER_RECONCILED
360
2AC9D
  0
DICTIONARY
  5
2AC9E
330
22
100
AcDbDictionary
280
     1
281
     1
  3
ADSK_XREC_LAYER_RECONCILED
360
2AC9F
  0
DICTIONARY
  5
2ACA0
330
23
100
AcDbDictionary
280
     1
281
     1
  3
ADSK_XREC_LAYER_RECONCILED
360
2ACA1
  0
DICTIONARY
  5
2ACA2
330
24
100
AcDbDictionary
280
     1
281
     1
  3
ADSK_XREC_LAYER_RECONCILED
360
2ACA3
  0
DICTIONARY
  5
2ACA4
330
27
100
AcDbDictionary
280
     1
281
     1
  3
ADSK_XREC_LAYER_RECONCILED
360
2ACA5
  0
DICTIONARY
  5
2C357
330
17
100
AcDbDictionary
280
     1
281
     1
  3
ACAD_SORTENTS
360
2C358
  0
DICTIONARY
  5
2CF24
330
2AF89
100
AcDbDictionary
280
     1
281
     1
  3
ACAD_MTEXT_2008_RT
360
2CF25
  0
DICTIONARY
  5
2AC71
102
{ACAD_REACTORS
330
C
102
}
330
C
100
AcDbDictionary
281
     1
  0
DICTIONARY
  5
D
102
{ACAD_REACTORS
330
C
102
}
330
C
100
AcDbDictionary
281
     1
  3
*A1
350
3917
  3
*A10
350
14C46
  3
*A2
350
14C48
  3
*A3
350
14DF1
  3
*A4
350
14DF3
  3
*A5
350
14E80
  3
*A6
350
14E82
  3
*A7
350
17876
  3
*A8
350
3E2F
  3
*A9
350
14154
  0
DICTIONARY
  5
34
102
{ACAD_REACTORS
330
C
102
}
330
C
100
AcDbDictionary
281
     1
  3
Model
350
36
  3
ﾚｲｱｳﾄ1
350
37
  0
DICTIONARY
  5
2AC47
102
{ACAD_REACTORS
330
C
102
}
330
C
100
AcDbDictionary
281
     1
  3
ByBlock
350
2AC50
  3
ByLayer
350
2AC48
  3
Global
350
2AC58
  0
DICTIONARY
  5
2AC96
102
{ACAD_REACTORS
330
C
102
}
330
C
100
AcDbDictionary
281
     1
  3
Standard
350
2AC97
  0
DICTIONARY
  5
1A
102
{ACAD_REACTORS
330
C
102
}
330
C
100
AcDbDictionary
281
     1
  3
STANDARD
350
1B
  0
DICTIONARY
  5
35
102
{ACAD_REACTORS
330
C
102
}
330
C
100
AcDbDictionary
281
     1
  0
ACDBDICTIONARYWDFLT
  5
32
102
{ACAD_REACTORS
330
C
102
}
330
C
100
AcDbDictionary
281
     1
  3
Normal
350
33
100
AcDbDictionaryWithDefault
340
33
  0
DICTIONARY
  5
2AC74
102
{ACAD_REACTORS
330
C
102
}
330
C
100
AcDbDictionary
281
     1
  3
A0
350
2AC75
  3
A1
350
2AC76
  3
A2
350
2AC77
  3
A3
350
2AC78
  3
A4
350
2AC79
  3
A5
350
2AC7A
  3
A6
350
2AC7B
  3
A7
350
2AC7C
  3
A8
350
2AC7D
  3
A9
350
2AC7E
  3
B0
350
2AC7F
  3
B1
350
2AC80
  3
B2
350
2AC81
  3
B3
350
2AC82
  3
B4
350
2AC83
  3
B5
350
2AC84
  3
B6
350
2AC85
  3
B7
350
2AC86
  3
B8
350
2AC87
  3
B9
350
2AC88
  3
C0
350
2AC89
  3
C1
350
2AC8A
  3
C2
350
2AC8B
  3
C3
350
2AC8C
  3
C4
350
2AC8D
  3
C5
350
2AC8E
  3
C6
350
2AC8F
  3
C7
350
2AC90
  3
C8
350
2AC91
  3
C9
350
2AC92
  3
D0
350
2AC93
  3
D1
350
2AC94
  3
D2
350
2AC95
  0
DICTIONARY
  5
2AC72
102
{ACAD_REACTORS
330
C
102
}
330
C
100
AcDbDictionary
281
     1
  3
Standard
350
2AC73
  0
DICTIONARY
  5
2AC60
102
{ACAD_REACTORS
330
C
102
}
330
C
100
AcDbDictionary
281
     1
  3
2dWireframe
350
2AC66
  3
3D Hidden
350
2AC68
  3
3dWireframe
350
2AC67
  3
Basic
350
2AC65
  3
Brighten
350
2AC6C
  3
ColorChange
350
2AC70
  3
Conceptual
350
2AC69
  3
Dim
350
2AC6B
  3
Facepattern
350
2AC6F
  3
Flat
350
2AC61
  3
FlatWithEdges
350
2AC62
  3
Gouraud
350
2AC63
  3
GouraudWithEdges
350
2AC64
  3
Linepattern
350
2AC6E
  3
Realistic
350
2AC6A
  3
Thicken
350
2AC6D
  0
XRECORD
  5
1D621
102
{ACAD_REACTORS
330
C
102
}
330
C
100
AcDbXrecord
280
     1
 90
   990106
  3

 60
     0
 61
     0
 62
     4
 63
     4
 64
     1
 65
     0
 66
     0
 67
     2
 68
     1
 69
     0
 70
     0
 71
     0
 72
     0
 40
300.0
170
     0
340
0
  0
XRECORD
  5
2ACAE
102
{ACAD_REACTORS
330
C
102
}
330
C
100
AcDbXrecord
280
     1
 90
        1
330
2AC73
330
2AF89
  0
DICTIONARY
  5
44
102
{ACAD_REACTORS
330
C
102
}
330
C
100
AcDbDictionary
281
     1
  3
CANNOSCALE
350
2ACB2
  3
CMLEADERSTYLE
350
2ACB0
  3
CTABLESTYLE
350
2ACAF
  3
DIMASSOC
350
45
  3
LIGHTINGUNITS
350
2ACB3
  3
MSLTSCALE
350
2ACB1
  3
SORTENTS
350
6F8C
  0
DICTIONARY
  5
299D5
102
{ACAD_REACTORS
330
299D4
102
}
330
299D4
100
AcDbDictionary
281
     1
  0
XRECORD
  5
2AC9B
102
{ACAD_REACTORS
330
2AC9A
102
}
330
2AC9A
100
AcDbXrecord
280
     1
290
     1
  0
XRECORD
  5
2AC9D
102
{ACAD_REACTORS
330
2AC9C
102
}
330
2AC9C
100
AcDbXrecord
280
     1
290
     1
  0
XRECORD
  5
2AC9F
102
{ACAD_REACTORS
330
2AC9E
102
}
330
2AC9E
100
AcDbXrecord
280
     1
290
     1
  0
XRECORD
  5
2ACA1
102
{ACAD_REACTORS
330
2ACA0
102
}
330
2ACA0
100
AcDbXrecord
280
     1
290
     1
  0
XRECORD
  5
2ACA3
102
{ACAD_REACTORS
330
2ACA2
102
}
330
2ACA2
100
AcDbXrecord
280
     1
290
     1
  0
XRECORD
  5
2ACA5
102
{ACAD_REACTORS
330
2ACA4
102
}
330
2ACA4
100
AcDbXrecord
280
     1
290
     1
  0
SORTENTSTABLE
  5
2C358
102
{ACAD_REACTORS
330
2C357
102
}
330
2C357
100
AcDbSortentsTable
330
17
331
29A2A
  5
29A2A
331
2B03C
  5
2B03C
331
2B07B
  5
2B07B
331
2AFC6
  5
2AFC6
331
2AF8F
  5
2AF8F
331
2B005
  5
2B005
331
2B044
  5
2B044
331
2B083
  5
2B083
331
2AF97
  5
2AF97
331
2AFCE
  5
2AFCE
331
2B00D
  5
2B00D
331
2B04C
  5
2B04C
331
2B08B
  5
2B08B
331
2B0B0
  5
2B0B0
331
2AF9F
  5
2AF9F
331
2AFD6
  5
2AFD6
331
2B015
  5
2B015
331
2B12E
  5
2B150
331
2B0F7
  5
2B0F7
331
2B054
  5
2B054
331
2B0B8
  5
2B0B8
331
2B16D
  5
2B18F
331
2AFDE
  5
2AFDE
331
2B682
  5
2B6A8
331
2B0FF
  5
2B0FF
331
2B0C0
  5
2B0C0
331
2B136
  5
2B158
331
2B175
  5
2B197
331
2B68A
  5
2B6B0
331
2B6C9
  5
2C331
331
1549A
  5
1549A
331
2B6D1
  5
2C337
331
2B17D
  5
2B19F
331
2B0C8
  5
2B0C8
331
2B107
  5
2B107
331
2B13E
  5
2B160
331
2B65B
  5
2B681
331
2B692
  5
2B6B8
331
2B146
  5
2B168
331
2B69A
  5
2B6CC
331
2C337
  5
2C36D
331
2C347
  5
2B124
331
2C248
  5
2C34D
331
2C34F
  5
2B12C
331
25323
  5
25323
331
2B05C
  5
2B05C
331
2AFE6
  5
2AFE6
331
2B01D
  5
2B01D
331
2AFA7
  5
2AFA7
331
2B064
  5
2B064
331
2AFEE
  5
2AFEE
331
2B025
  5
2B025
331
2AFAF
  5
2AFAF
331
2B0D0
  5
2B0D0
331
2B06C
  5
2B06C
331
2B091
  5
2B091
331
2AFF6
  5
2AFF6
331
2B02D
  5
2B02D
331
2AF80
  5
2AF80
331
2AFB7
  5
2AFB7
331
29A23
  5
29A23
331
2B14E
  5
2B170
331
2B0D8
  5
2B0D8
331
2B035
  5
2B035
331
2B074
  5
2B074
331
2B099
  5
2B099
331
2B10F
  5
2B10F
331
2B663
  5
2B689
331
2AFBF
  5
2AFBF
331
2AFFE
  5
2AFFE
331
2B6A2
  5
2C1F3
331
2B156
  5
2B178
331
2B1A5
  5
2B66D
331
2B0E0
  5
2B0E0
331
2B117
  5
2B139
331
2B0A1
  5
2B0A1
331
2B66B
  5
2B691
331
2B6AA
  5
2C24D
331
2B673
  5
2B699
331
2B15E
  5
2B180
331
2B0E8
  5
2B0E8
331
2B0A9
  5
2B0A9
331
2B11F
  5
2B141
331
2B1AD
  5
2B678
331
2B6B2
  5
2C255
331
2C250
  5
2C355
331
2B127
  5
2B149
331
2B166
  5
2B188
331
2B67B
  5
2B6A1
331
2C258
  5
2C35F
331
2C260
  5
2C367
331
2C35F
  5
2B114
331
2C367
  5
2B11C
331
2AF88
  5
2AF88
331
29A2B
  5
29A2B
331
2B03D
  5
2B03D
331
2B07C
  5
2B07C
331
2AFC7
  5
2AFC7
331
2AF90
  5
2AF90
331
2B006
  5
2B006
331
2B045
  5
2B045
331
2B084
  5
2B084
331
2AFCF
  5
2AFCF
331
2AF98
  5
2AF98
331
2B00E
  5
2B00E
331
2B0F0
  5
2B0F0
331
2B04D
  5
2B04D
331
2B08C
  5
2B08C
331
2B0B1
  5
2B0B1
331
2AFD7
  5
2AFD7
331
2B016
  5
2B016
331
2B12F
  5
2B151
331
2B0F8
  5
2B0F8
331
2B055
  5
2B055
331
2B0B9
  5
2B0B9
331
2B16E
  5
2B190
331
2AFDF
  5
2AFDF
331
2B683
  5
2B6A9
331
2B176
  5
2B198
331
2B137
  5
2B159
331
2B100
  5
2B100
331
2B0C1
  5
2B0C1
331
2B68B
  5
2B6B1
331
2B0C9
  5
2B0C9
331
2B13F
  5
2B161
331
2B17E
  5
2B1A0
331
2B693
  5
2B6B9
331
2B147
  5
2B169
331
2B69B
  5
2B6CD
331
2C348
  5
2B125
331
2C249
  5
2C34E
331
2AFA0
  5
2AFA0
331
2B05D
  5
2B05D
331
2AFE7
  5
2AFE7
331
2AFA8
  5
2AFA8
331
2B01E
  5
2B01E
331
2B065
  5
2B065
331
2AFEF
  5
2AFEF
331
2AFB0
  5
2AFB0
331
2B026
  5
2B026
331
2B0D1
  5
2B0D1
331
2B108
  5
2B108
331
2B06D
  5
2B06D
331
2B092
  5
2B092
331
2AFB8
  5
2AFB8
331
2AFF7
  5
2AFF7
331
2B02E
  5
2B02E
331
29A24
  5
29A24
331
2B14F
  5
2B171
331
2B0D9
  5
2B0D9
331
2B036
  5
2B036
331
2B075
  5
2B075
331
2B09A
  5
2B09A
331
2B664
  5
2B68A
331
2AFFF
  5
2AFFF
331
2B6A3
  5
2C1F4
331
2B157
  5
2B179
331
2B1A6
  5
2B66E
331
2B0E1
  5
2B0E1
331
2B118
  5
2B13A
331
2B0A2
  5
2B0A2
331
2B6AB
  5
2C24E
331
2B674
  5
2B69A
331
2B120
  5
2B142
331
2B0E9
  5
2B0E9
331
2B0AA
  5
2B0AA
331
2B15F
  5
2B181
331
2B1AE
  5
2B679
331
2B6B3
  5
2C256
331
2C251
  5
2C356
331
2C350
  5
2B12D
331
2B167
  5
2B189
331
2B67C
  5
2B6A2
331
2C259
  5
2C360
331
2C360
  5
2B115
331
2C368
  5
2B11D
331
2AF89
  5
2AF89
331
2AFC0
  5
2AFC0
331
29A2C
  5
29A2C
331
2B03E
  5
2B03E
331
2B07D
  5
2B07D
331
2AF91
  5
2AF91
331
2AFC8
  5
2AFC8
331
2B007
  5
2B007
331
2B046
  5
2B046
331
2B085
  5
2B085
331
2B00F
  5
2B00F
331
2AF99
  5
2AF99
331
2AFD0
  5
2AFD0
331
2B128
  5
2B14A
331
2B0F1
  5
2B0F1
331
2B04E
  5
2B04E
331
2B08D
  5
2B08D
331
2B0B2
  5
2B0B2
331
2AFD8
  5
2AFD8
331
2B017
  5
2B017
331
2B16F
  5
2B191
331
2B130
  5
2B152
331
2B0F9
  5
2B0F9
331
2B0BA
  5
2B0BA
331
2B684
  5
2B6AA
331
2B056
  5
2B056
331
2B177
  5
2B199
331
2B138
  5
2B15A
331
2B101
  5
2B101
331
2B0C2
  5
2B0C2
331
2B68C
  5
2B6B2
331
2B0CA
  5
2B0CA
331
2B140
  5
2B162
331
2B17F
  5
2B1A1
331
2B65D
  5
2B683
331
2B694
  5
2B6BC
331
2C331
  5
2C369
331
2B69C
  5
2B6D0
331
2C349
  5
2B126
331
2C24A
  5
2C34F
331
2AFE0
  5
2AFE0
331
2AFA1
  5
2AFA1
331
2AFE8
  5
2AFE8
331
2AFA9
  5
2AFA9
331
2B01F
  5
2B01F
331
2B05E
  5
2B05E
331
2AFF0
  5
2AFF0
331
2AFB1
  5
2AFB1
331
2B027
  5
2B027
331
2B066
  5
2B066
331
2B148
  5
2B16A
331
2B0D2
  5
2B0D2
331
2B109
  5
2B109
331
2B093
  5
2B093
331
2AF82
  5
2AF82
331
2AFB9
  5
2AFB9
331
2AFF8
  5
2AFF8
331
2B02F
  5
2B02F
331
29A25
  5
29A25
331
2B06E
  5
2B06E
331
2B665
  5
2B68B
331
2B0DA
  5
2B0DA
331
2B150
  5
2B172
331
2B09B
  5
2B09B
331
2B19F
  5
2B667
331
2B6A4
  5
2C247
331
2B037
  5
2B037
331
2B076
  5
2B076
331
2B66D
  5
2B693
331
2B158
  5
2B17A
331
2B0E2
  5
2B0E2
331
2B119
  5
2B13B
331
2B0A3
  5
2B0A3
331
2B1A7
  5
2B66F
331
2B6AC
  5
2C24F
331
2B121
  5
2B143
331
2B0AB
  5
2B0AB
331
2B0EA
  5
2B0EA
331
2B160
  5
2B182
331
2B1AF
  5
2B67A
331
2B675
  5
2B69B
331
2B6B4
  5
2C257
331
2C252
  5
2C359
331
2C351
  5
2B12E
331
2B6BC
  5
2C25D
331
2B67D
  5
2B6A3
331
2C25A
  5
2C361
331
2C359
  5
2B674
331
2C361
  5
2B116
331
2C312
  5
2C368
331
2C369
  5
2B11E
331
2AF8A
  5
2AF8A
331
2AFC1
  5
2AFC1
331
2B000
  5
2B000
331
29A2D
  5
29A2D
331
2B008
  5
2B008
331
2AF92
  5
2AF92
331
2AFC9
  5
2AFC9
331
2B03F
  5
2B03F
331
2B07E
  5
2B07E
331
2B010
  5
2B010
331
2AF9A
  5
2AF9A
331
2AFD1
  5
2AFD1
331
2B047
  5
2B047
331
2B086
  5
2B086
331
2B129
  5
2B14B
331
2B0F2
  5
2B0F2
331
2B0B3
  5
2B0B3
331
2B168
  5
2B18A
331
2B08E
  5
2B08E
331
2AFD9
  5
2AFD9
331
2A245
  5
2A245
331
2B04F
  5
2B04F
331
2B6C4
  5
2C25F
331
2B170
  5
2B192
331
2B0FA
  5
2B0FA
331
2B0BB
  5
2B0BB
331
2B131
  5
2B153
331
2B685
  5
2B6AB
331
2B057
  5
2B057
331
2B6CC
  5
2C332
331
2B656
  5
2B67C
331
2B178
  5
2B19A
331
2B139
  5
2B15B
331
2B0C3
  5
2B0C3
331
2B102
  5
2B102
331
2B68D
  5
2B6B3
331
2B6D4
  5
2C348
331
2B0CB
  5
2B0CB
331
2B141
  5
2B163
331
2B695
  5
2B6BD
331
2C332
  5
2C36A
331
2B69D
  5
2B6D1
331
2C1F3
  5
2C34A
331
2C34A
  5
2B127
331
2C24B
  5
2C350
331
2AFE1
  5
2AFE1
331
2AFA2
  5
2AFA2
331
2B018
  5
2B018
331
2AFE9
  5
2AFE9
331
2AFAA
  5
2AFAA
331
2B020
  5
2B020
331
2B05F
  5
2B05F
331
2AFF1
  5
2AFF1
331
2AFB2
  5
2AFB2
331
2B028
  5
2B028
331
2B067
  5
2B067
331
2B149
  5
2B16B
331
2B0D3
  5
2B0D3
331
2B094
  5
2B094
331
2B10A
  5
2B10A
331
2AFBA
  5
2AFBA
331
2AF83
  5
2AF83
331
2AFF9
  5
2AFF9
331
29A26
  5
29A26
331
2B030
  5
2B030
331
2B06F
  5
2B06F
331
2B151
  5
2B173
331
2B1A0
  5
2B668
331
2B0DB
  5
2B0DB
331
2B112
  5
2B134
331
2B09C
  5
2B09C
331
2B6A5
  5
2C248
331
2B077
  5
2B077
331
2B66E
  5
2B694
331
2B159
  5
2B17B
331
2B0E3
  5
2B0E3
331
2B11A
  5
2B13C
331
2B0A4
  5
2B0A4
331
2B1A8
  5
2B670
331
2B6AD
  5
2C250
331
2B1B0
  5
2B67B
331
2B122
  5
2B144
331
2B0EB
  5
2B0EB
331
2B0AC
  5
2B0AC
331
2B161
  5
2B183
331
2B676
  5
2B69C
331
2B6B5
  5
2C258
331
2C253
  5
2C35A
331
2C352
  5
2B12F
331
2B6BD
  5
2C25E
331
2B67E
  5
2B6A4
331
2C25B
  5
2C362
331
2C35A
  5
2B675
331
2C362
  5
2B117
331
2C36A
  5
2B11F
331
2AFC2
  5
2AFC2
331
2AF8B
  5
2AF8B
331
2B001
  5
2B001
331
29A2E
  5
29A2E
331
2B038
  5
2B038
331
2B07F
  5
2B07F
331
2AFCA
  5
2AFCA
331
2AF93
  5
2AF93
331
2B009
  5
2B009
331
2B040
  5
2B040
331
2B087
  5
2B087
331
2AF9B
  5
2AF9B
331
2AFD2
  5
2AFD2
331
2B011
  5
2B011
331
2B048
  5
2B048
331
2B12A
  5
2B14C
331
2B0F3
  5
2B0F3
331
2B0B4
  5
2B0B4
331
2B169
  5
2B18B
331
2AFDA
  5
2AFDA
331
2A246
  5
2A246
331
2B050
  5
2B050
331
2B08F
  5
2B08F
331
2B6C5
  5
2C260
331
2B0FB
  5
2B0FB
331
2B0BC
  5
2B0BC
331
2B132
  5
2B154
331
2B171
  5
2B193
331
2B686
  5
2B6AC
331
2B6CD
  5
2C335
331
2B179
  5
2B19B
331
2B13A
  5
2B15C
331
2B0C4
  5
2B0C4
331
2B103
  5
2B103
331
2B68E
  5
2B6B4
331
2B6D5
  5
2C349
331
2B65F
  5
2B685
331
2B696
  5
2B6C4
331
2B0CC
  5
2B0CC
331
2B142
  5
2B164
331
2B69E
  5
2B6D2
331
2C1F4
  5
2C34B
331
2C34B
  5
2B128
331
2C24C
  5
2C351
331
2AFE2
  5
2AFE2
331
2B019
  5
2B019
331
2AFA3
  5
2AFA3
331
2B058
  5
2B058
331
2AFEA
  5
2AFEA
331
2B021
  5
2B021
331
2AFAB
  5
2AFAB
331
2B060
  5
2B060
331
2AFF2
  5
2AFF2
331
2AF7C
  5
2AF7C
331
2AFB3
  5
2AFB3
331
2B029
  5
2B029
331
29A1F
  5
29A1F
331
2B068
  5
2B068
331
2B14A
  5
2B16C
331
2B0D4
  5
2B0D4
331
2AFBB
  5
2AFBB
331
2AF84
  5
2AF84
331
2AFFA
  5
2AFFA
331
2B031
  5
2B031
331
2B070
  5
2B070
331
2B095
  5
2B095
331
2B10B
  5
2B10B
331
2B6A6
  5
2C249
331
2B152
  5
2B174
331
2B1A1
  5
2B669
331
2B0DC
  5
2B0DC
331
2B113
  5
2B135
331
2B09D
  5
2B09D
331
2B667
  5
2B68D
331
2B6AE
  5
2C251
331
2B66F
  5
2B695
331
2B15A
  5
2B17C
331
2B0E4
  5
2B0E4
331
2B11B
  5
2B13D
331
2B0A5
  5
2B0A5
331
2B1A9
  5
2B671
331
2B6B6
  5
2C259
331
2B123
  5
2B145
331
2B0EC
  5
2B0EC
331
2B0AD
  5
2B0AD
331
2B162
  5
2B184
331
2B677
  5
2B69D
331
2B67F
  5
2B6A5
331
2C254
  5
2C35B
331
2C353
  5
2B130
331
2C25C
  5
2C363
331
2C35B
  5
2B676
331
2C363
  5
2B118
331
2C36B
  5
2B120
331
2AFC3
  5
2AFC3
331
2AF8C
  5
2AF8C
331
2B002
  5
2B002
331
29A2F
  5
29A2F
331
2B039
  5
2B039
331
2B078
  5
2B078
331
2B00A
  5
2B00A
331
2AF94
  5
2AF94
331
2AFCB
  5
2AFCB
331
2B041
  5
2B041
331
2B080
  5
2B080
331
2B012
  5
2B012
331
2AF9C
  5
2AF9C
331
2AFD3
  5
2AFD3
331
2B049
  5
2B049
331
2B088
  5
2B088
331
2B12B
  5
2B14D
331
2B0F4
  5
2B0F4
331
2AFDB
  5
2AFDB
331
2A247
  5
2A247
331
2B051
  5
2B051
331
2B0B5
  5
2B0B5
331
2B16A
  5
2B18C
331
2B687
  5
2B6AD
331
2B172
  5
2B194
331
15497
  5
15497
331
2B0BD
  5
2B0BD
331
2B0FC
  5
2B0FC
331
2B133
  5
2B155
331
2B68F
  5
2B6B5
331
2B13B
  5
2B15D
331
2B0C5
  5
2B0C5
331
2B104
  5
2B104
331
2B17A
  5
2B19C
331
2B658
  5
2B67E
331
2B697
  5
2B6C5
331
2B0CD
  5
2B0CD
331
2B143
  5
2B165
331
2B69F
  5
2B6D3
331
2C34C
  5
2B129
331
2C24D
  5
2C352
331
2AFE3
  5
2AFE3
331
2AFA4
  5
2AFA4
331
2B01A
  5
2B01A
331
2B059
  5
2B059
331
2AFEB
  5
2AFEB
331
2AFAC
  5
2AFAC
331
2B022
  5
2B022
331
2B061
  5
2B061
331
2AFF3
  5
2AFF3
331
2AF7D
  5
2AF7D
331
2AFB4
  5
2AFB4
331
2B02A
  5
2B02A
331
29A20
  5
29A20
331
2B069
  5
2B069
331
2B14B
  5
2B16D
331
2B0D5
  5
2B0D5
331
2AFBC
  5
2AFBC
331
2AF85
  5
2AF85
331
2AFFB
  5
2AFFB
331
2B032
  5
2B032
331
2B071
  5
2B071
331
2B096
  5
2B096
331
2B10C
  5
2B10C
331
2B660
  5
2B686
331
2B6A7
  5
2C24A
331
2B153
  5
2B175
331
2B1A2
  5
2B66A
331
2B0DD
  5
2B0DD
331
2B114
  5
2B136
331
2B09E
  5
2B09E
331
2B6AF
  5
2C252
331
2B15B
  5
2B17D
331
2B0E5
  5
2B0E5
331
2B0A6
  5
2B0A6
331
2B11C
  5
2B13E
331
2B1AA
  5
2B672
331
2B670
  5
2B696
331
2B678
  5
2B69E
331
2B6B7
  5
2C25A
331
2B124
  5
2B146
331
2B0AE
  5
2B0AE
331
2B0ED
  5
2B0ED
331
2B163
  5
2B185
331
2C255
  5
2C35C
331
2C354
  5
2B131
331
2C35C
  5
2B677
331
2C364
  5
2B119
331
2C36C
  5
2B121
331
29A28
  5
29A28
331
2AFC4
  5
2AFC4
331
2AF8D
  5
2AF8D
331
2B003
  5
2B003
331
2B03A
  5
2B03A
331
2B079
  5
2B079
331
2AF95
  5
2AF95
331
2AFCC
  5
2AFCC
331
2B00B
  5
2B00B
331
2B042
  5
2B042
331
2B081
  5
2B081
331
2AF9D
  5
2AF9D
331
2AFD4
  5
2AFD4
331
2B013
  5
2B013
331
2B04A
  5
2B04A
331
2B089
  5
2B089
331
2B680
  5
2B6A6
331
2B12C
  5
2B14E
331
2B052
  5
2B052
331
2B0B6
  5
2B0B6
331
2B0F5
  5
2B0F5
331
2B16B
  5
2B18D
331
2AFDC
  5
2AFDC
331
2B688
  5
2B6AE
331
2B0FD
  5
2B0FD
331
2B0BE
  5
2B0BE
331
2B134
  5
2B156
331
2B173
  5
2B195
331
2B690
  5
2B6B6
331
2B17B
  5
2B19D
331
2B0C6
  5
2B0C6
331
2B105
  5
2B105
331
2B13C
  5
2B15E
331
2B0CE
  5
2B0CE
331
2B144
  5
2B166
331
2B698
  5
2B6C8
331
2C335
  5
2C36B
331
2C34D
  5
2B12A
331
2C24E
  5
2C353
331
2A248
  5
2A248
331
2B05A
  5
2B05A
331
2AFE4
  5
2AFE4
331
2B01B
  5
2B01B
331
2AFA5
  5
2AFA5
331
2B062
  5
2B062
331
2AFEC
  5
2AFEC
331
2B023
  5
2B023
331
2AFAD
  5
2AFAD
331
2B06A
  5
2B06A
331
2AFF4
  5
2AFF4
331
2AF7E
  5
2AF7E
331
2AFB5
  5
2AFB5
331
2B02B
  5
2B02B
331
2B14C
  5
2B16E
331
2B0D6
  5
2B0D6
331
2B033
  5
2B033
331
2B072
  5
2B072
331
2B097
  5
2B097
331
2B10D
  5
2B10D
331
2AFBD
  5
2AFBD
331
2AF86
  5
2AF86
331
2AFFC
  5
2AFFC
331
2B6A0
  5
2B6D4
331
2B154
  5
2B176
331
2B1A3
  5
2B66B
331
2B0DE
  5
2B0DE
331
2B09F
  5
2B09F
331
2B115
  5
2B137
331
2B669
  5
2B68F
331
2B6A8
  5
2C24B
331
2B15C
  5
2B17E
331
2B0E6
  5
2B0E6
331
2B0A7
  5
2B0A7
331
2B11D
  5
2B13F
331
2B1AB
  5
2B673
331
2B671
  5
2B697
331
2B6B0
  5
2C253
331
2B125
  5
2B147
331
2B0AF
  5
2B0AF
331
2B0EE
  5
2B0EE
331
2B164
  5
2B186
331
2B679
  5
2B69F
331
2B6B8
  5
2C25B
331
2C256
  5
2C35D
331
2C355
  5
2B132
331
2C35D
  5
2B112
331
2C365
  5
2B11A
331
2C36D
  5
2B122
331
29A29
  5
29A29
331
2B03B
  5
2B03B
331
2B07A
  5
2B07A
331
2AFC5
  5
2AFC5
331
2AF8E
  5
2AF8E
331
2B004
  5
2B004
331
2B043
  5
2B043
331
2B082
  5
2B082
331
2B00C
  5
2B00C
331
2AF96
  5
2AF96
331
2AFCD
  5
2AFCD
331
2B04B
  5
2B04B
331
2B08A
  5
2B08A
331
2B014
  5
2B014
331
2AF9E
  5
2AF9E
331
2AFD5
  5
2AFD5
331
2B12D
  5
2B14F
331
2B053
  5
2B053
331
2B0B7
  5
2B0B7
331
2B0F6
  5
2B0F6
331
2B16C
  5
2B18E
331
2AFDD
  5
2AFDD
331
2B681
  5
2B6A7
331
2B174
  5
2B196
331
2B0BF
  5
2B0BF
331
2B0FE
  5
2B0FE
331
2B135
  5
2B157
331
2B689
  5
2B6AF
331
2B6C8
  5
2C312
331
2B6D0
  5
2C336
331
2B13D
  5
2B15F
331
2B0C7
  5
2B0C7
331
2B106
  5
2B106
331
2B17C
  5
2B19E
331
2B691
  5
2B6B7
331
2B0CF
  5
2B0CF
331
2B145
  5
2B167
331
2B699
  5
2B6C9
331
2C336
  5
2C36C
331
2C346
  5
2B123
331
2C247
  5
2C34C
331
2C34E
  5
2B12B
331
2C24F
  5
2C354
331
2B05B
  5
2B05B
331
2AFE5
  5
2AFE5
331
2AFA6
  5
2AFA6
331
2B01C
  5
2B01C
331
2B063
  5
2B063
331
2AFED
  5
2AFED
331
2AFAE
  5
2AFAE
331
2B024
  5
2B024
331
2B06B
  5
2B06B
331
2B090
  5
2B090
331
2AFF5
  5
2AFF5
331
29A22
  5
29A22
331
2AF7F
  5
2AF7F
331
2AFB6
  5
2AFB6
331
2B02C
  5
2B02C
331
2B14D
  5
2B16F
331
2B0D7
  5
2B0D7
331
2B10E
  5
2B10E
331
2B034
  5
2B034
331
2B073
  5
2B073
331
2B098
  5
2B098
331
2B662
  5
2B688
331
2AFBE
  5
2AFBE
331
2AF87
  5
2AF87
331
2AFFD
  5
2AFFD
331
2B6A1
  5
2B6D5
331
2B155
  5
2B177
331
2B1A4
  5
2B66C
331
2B0DF
  5
2B0DF
331
2B116
  5
2B138
331
2B0A0
  5
2B0A0
331
2B6A9
  5
2C24C
331
2B15D
  5
2B17F
331
2B0A8
  5
2B0A8
331
2B0E7
  5
2B0E7
331
2B11E
  5
2B140
331
2B672
  5
2B698
331
2B6B1
  5
2C254
331
2B126
  5
2B148
331
2B0EF
  5
2B0EF
331
2B165
  5
2B187
331
2B67A
  5
2B6A0
331
2B6B9
  5
2C25C
331
2C257
  5
2C35E
331
2C356
  5
2B133
331
2C35E
  5
2B113
331
2C366
  5
2B11B
  0
XRECORD
  5
2CF25
102
{ACAD_REACTORS
330
2CF24
102
}
330
2CF24
100
AcDbXrecord
280
     1
 40
6207437.0
  1
\pxql;排水栓　Rc3／4\P（膨張水・排水兼用）
  0
GROUP
  5
3917
102
{ACAD_REACTORS
330
D
102
}
330
D
100
AcDbGroup
300
SSE_Dim15
 70
     1
 71
     1
  0
GROUP
  5
14C46
102
{ACAD_REACTORS
330
D
102
}
330
D
100
AcDbGroup
300

 70
     1
 71
     1
  0
GROUP
  5
14C48
102
{ACAD_REACTORS
330
D
102
}
330
D
100
AcDbGroup
300

 70
     1
 71
     1
  0
GROUP
  5
14DF1
102
{ACAD_REACTORS
330
D
102
}
330
D
100
AcDbGroup
300

 70
     1
 71
     1
  0
GROUP
  5
14DF3
102
{ACAD_REACTORS
330
D
102
}
330
D
100
AcDbGroup
300

 70
     1
 71
     1
  0
GROUP
  5
14E80
102
{ACAD_REACTORS
330
D
102
}
330
D
100
AcDbGroup
300

 70
     1
 71
     1
  0
GROUP
  5
14E82
102
{ACAD_REACTORS
330
D
102
}
330
D
100
AcDbGroup
300

 70
     1
 71
     1
  0
GROUP
  5
17876
102
{ACAD_REACTORS
330
D
102
}
330
D
100
AcDbGroup
300

 70
     1
 71
     1
  0
GROUP
  5
3E2F
102
{ACAD_REACTORS
330
D
102
}
330
D
100
AcDbGroup
300

 70
     1
 71
     1
  0
GROUP
  5
14154
102
{ACAD_REACTORS
330
D
102
}
330
D
100
AcDbGroup
300

 70
     1
 71
     1
  0
LAYOUT
  5
36
102
{ACAD_REACTORS
330
34
102
}
330
34
100
AcDbPlotSettings
  1

  2
Docu3050② - 技術開発部 熱利用技術G（裏A4）.pc3
  4
A4
  6

 40
0.0
 41
0.0
 42
1.015670776367187
 43
1.010650634765625
 44
210.0156707763672
 45
297.0106506347656
 46
-0.0000000000000003
 47
0.2071428571428567
 48
-2900.383222191407
 49
729.8266724397672
140
-2112.932819492423
141
2710.869268569561
142
1.0
143
17.08133971291866
 70
 11956
 72
     1
 73
     0
 74
     2
  7
monochrome.ctb
 75
     0
147
0.0585434173669468
 76
     0
 77
     2
 78
   300
148
0.0
149
0.0
100
AcDbLayout
  1
Model
 70
     1
 71
     0
 10
0.0
 20
0.0
 11
12.0
 21
9.0
 12
0.0
 22
0.0
 32
0.0
 14
0.0
 24
0.0
 34
0.0
 15
0.0
 25
0.0
 35
0.0
146
0.0
 13
0.0
 23
0.0
 33
0.0
 16
1.0
 26
0.0
 36
0.0
 17
0.0
 27
1.0
 37
0.0
 76
     0
330
17
331
2AC42
1001
ACAD_PSEXT
1000
Docu3050② - 技術開発部 熱利用技術G（裏A4）.pc3
1000
FX DocuPrint 3050
1000
192.168.3.90
1000

1070
     0
  0
LAYOUT
  5
37
102
{ACAD_REACTORS
330
34
102
}
330
34
100
AcDbPlotSettings
  1

  2
EPSON LP-8300C
  4

  6

 40
0.0
 41
0.0
 42
0.0
 43
0.0
 44
0.0
 45
0.0
 46
0.0
 47
0.0
 48
0.0
 49
0.0
140
0.0
141
0.0
142
1.0
143
1.0
 70
   688
 72
     0
 73
     0
 74
     5
  7
monochrome.ctb
 75
    16
147
1.0
 76
     0
 77
     2
 78
   300
148
0.0
149
0.0
100
AcDbLayout
  1
ﾚｲｱｳﾄ1
 70
     0
 71
     1
 10
0.0
 20
0.0
 11
12.0
 21
9.0
 12
0.0
 22
0.0
 32
0.0
 14
1.000000000000000E+20
 24
1.000000000000000E+20
 34
1.000000000000000E+20
 15
-1.000000000000000E+20
 25
-1.000000000000000E+20
 35
-1.000000000000000E+20
146
0.0
 13
0.0
 23
0.0
 33
0.0
 16
1.0
 26
0.0
 36
0.0
 17
0.0
 27
1.0
 37
0.0
 76
     0
330
14
  0
MATERIAL
  5
2AC50
102
{ACAD_XDICTIONARY
360
2AC51
102
}
102
{ACAD_REACTORS
330
2AC47
102
}
330
2AC47
100
AcDbMaterial
  1
ByBlock
 72
     0
 43
0.0208333333333333
 43
0.0
 43
0.0
 43
0.0
 43
0.0
 43
0.0208333333333333
 43
0.0
 43
0.0
 43
0.0
 43
0.0
 43
1.0
 43
0.0
 43
0.0
 43
0.0
 43
0.0
 43
1.0
 77
     0
 47
0.0208333333333333
 47
0.0
 47
0.0
 47
0.0
 47
0.0
 47
0.0208333333333333
 47
0.0
 47
0.0
 47
0.0
 47
0.0
 47
1.0
 47
0.0
 47
0.0
 47
0.0
 47
0.0
 47
1.0
171
     0
 49
0.0208333333333333
 49
0.0
 49
0.0
 49
0.0
 49
0.0
 49
0.0208333333333333
 49
0.0
 49
0.0
 49
0.0
 49
0.0
 49
1.0
 49
0.0
 49
0.0
 49
0.0
 49
0.0
 49
1.0
175
     0
142
0.0208333333333333
142
0.0
142
0.0
142
0.0
142
0.0
142
0.0208333333333333
142
0.0
142
0.0
142
0.0
142
0.0
142
1.0
142
0.0
142
0.0
142
0.0
142
0.0
142
1.0
179
     0
144
0.0208333333333333
144
0.0
144
0.0
144
0.0
144
0.0
144
0.0208333333333333
144
0.0
144
0.0
144
0.0
144
0.0
144
1.0
144
0.0
144
0.0
144
0.0
144
0.0
144
1.0
147
0.0208333333333333
147
0.0
147
0.0
147
0.0
147
0.0
147
0.0208333333333333
147
0.0
147
0.0
147
0.0
147
0.0
147
1.0
147
0.0
147
0.0
147
0.0
147
0.0
147
1.0
  0
MATERIAL
  5
2AC48
102
{ACAD_XDICTIONARY
360
2AC49
102
}
102
{ACAD_REACTORS
330
2AC47
102
}
330
2AC47
100
AcDbMaterial
  1
ByLayer
 72
     0
 43
0.0208333333333333
 43
0.0
 43
0.0
 43
0.0
 43
0.0
 43
0.0208333333333333
 43
0.0
 43
0.0
 43
0.0
 43
0.0
 43
1.0
 43
0.0
 43
0.0
 43
0.0
 43
0.0
 43
1.0
 77
     0
 47
0.0208333333333333
 47
0.0
 47
0.0
 47
0.0
 47
0.0
 47
0.0208333333333333
 47
0.0
 47
0.0
 47
0.0
 47
0.0
 47
1.0
 47
0.0
 47
0.0
 47
0.0
 47
0.0
 47
1.0
171
     0
 49
0.0208333333333333
 49
0.0
 49
0.0
 49
0.0
 49
0.0
 49
0.0208333333333333
 49
0.0
 49
0.0
 49
0.0
 49
0.0
 49
1.0
 49
0.0
 49
0.0
 49
0.0
 49
0.0
 49
1.0
175
     0
142
0.0208333333333333
142
0.0
142
0.0
142
0.0
142
0.0
142
0.0208333333333333
142
0.0
142
0.0
142
0.0
142
0.0
142
1.0
142
0.0
142
0.0
142
0.0
142
0.0
142
1.0
179
     0
144
0.0208333333333333
144
0.0
144
0.0
144
0.0
144
0.0
144
0.0208333333333333
144
0.0
144
0.0
144
0.0
144
0.0
144
1.0
144
0.0
144
0.0
144
0.0
144
0.0
144
1.0
147
0.0208333333333333
147
0.0
147
0.0
147
0.0
147
0.0
147
0.0208333333333333
147
0.0
147
0.0
147
0.0
147
0.0
147
1.0
147
0.0
147
0.0
147
0.0
147
0.0
147
1.0
  0
MATERIAL
  5
2AC58
102
{ACAD_XDICTIONARY
360
2AC59
102
}
102
{ACAD_REACTORS
330
2AC47
102
}
330
2AC47
100
AcDbMaterial
  1
Global
 72
     0
 43
0.0208333333333333
 43
0.0
 43
0.0
 43
0.0
 43
0.0
 43
0.0208333333333333
 43
0.0
 43
0.0
 43
0.0
 43
0.0
 43
1.0
 43
0.0
 43
0.0
 43
0.0
 43
0.0
 43
1.0
 77
     0
 47
0.0208333333333333
 47
0.0
 47
0.0
 47
0.0
 47
0.0
 47
0.0208333333333333
 47
0.0
 47
0.0
 47
0.0
 47
0.0
 47
1.0
 47
0.0
 47
0.0
 47
0.0
 47
0.0
 47
1.0
171
     0
 49
0.0208333333333333
 49
0.0
 49
0.0
 49
0.0
 49
0.0
 49
0.0208333333333333
 49
0.0
 49
0.0
 49
0.0
 49
0.0
 49
1.0
 49
0.0
 49
0.0
 49
0.0
 49
0.0
 49
1.0
175
     0
142
0.0208333333333333
142
0.0
142
0.0
142
0.0
142
0.0
142
0.0208333333333333
142
0.0
142
0.0
142
0.0
142
0.0
142
1.0
142
0.0
142
0.0
142
0.0
142
0.0
142
1.0
179
     0
144
0.0208333333333333
144
0.0
144
0.0
144
0.0
144
0.0
144
0.0208333333333333
144
0.0
144
0.0
144
0.0
144
0.0
144
1.0
144
0.0
144
0.0
144
0.0
144
0.0
144
1.0
147
0.0208333333333333
147
0.0
147
0.0
147
0.0
147
0.0
147
0.0208333333333333
147
0.0
147
0.0
147
0.0
147
0.0
147
1.0
147
0.0
147
0.0
147
0.0
147
0.0
147
1.0
  0
MLEADERSTYLE
  5
2AC97
102
{ACAD_REACTORS
330
2AC96
102
}
330
2AC96
100
AcDbMLeaderStyle
170
     2
171
     1
172
     0
 90
        2
 40
0.0
 41
0.0
173
     1
 91
-1056964608
340
11
 92
       -2
290
     1
 42
2.0
291
     1
 43
0.36
  3
Standard
 44
4.0
300

342
F
174
     1
178
     6
175
     1
176
     0
 93
-1056964608
 45
4.0
292
     0
297
     0
 46
4.0
 94
-1056964608
 47
1.0
 49
1.0
140
1.0
293
     1
141
0.0
294
     1
177
     0
142
1.0
295
     0
296
     0
143
0.125
1001
ACAD_MLEADERVER
1070
     2
  0
MLINESTYLE
  5
1B
102
{ACAD_REACTORS
330
1A
102
}
330
1A
100
AcDbMlineStyle
  2
STANDARD
 70
     0
  3

 62
   256
 51
90.0
 52
90.0
 71
     2
 49
0.5
 62
   256
  6
BYLAYER
 49
-0.5
 62
   256
  6
BYLAYER
  0
ACDBPLACEHOLDER
  5
33
102
{ACAD_REACTORS
330
32
102
}
330
32
  0
SCALE
  5
2AC75
102
{ACAD_REACTORS
330
2AC74
102
}
330
2AC74
100
AcDbScale
 70
     0
300
1:1
140
1.0
141
1.0
290
     1
  0
SCALE
  5
2AC76
102
{ACAD_REACTORS
330
2AC74
102
}
330
2AC74
100
AcDbScale
 70
     0
300
1:2
140
1.0
141
2.0
290
     0
  0
SCALE
  5
2AC77
102
{ACAD_REACTORS
330
2AC74
102
}
330
2AC74
100
AcDbScale
 70
     0
300
1:4
140
1.0
141
4.0
290
     0
  0
SCALE
  5
2AC78
102
{ACAD_REACTORS
330
2AC74
102
}
330
2AC74
100
AcDbScale
 70
     0
300
1:5
140
1.0
141
5.0
290
     0
  0
SCALE
  5
2AC79
102
{ACAD_REACTORS
330
2AC74
102
}
330
2AC74
100
AcDbScale
 70
     0
300
1:8
140
1.0
141
8.0
290
     0
  0
SCALE
  5
2AC7A
102
{ACAD_REACTORS
330
2AC74
102
}
330
2AC74
100
AcDbScale
 70
     0
300
1:10
140
1.0
141
10.0
290
     0
  0
SCALE
  5
2AC7B
102
{ACAD_REACTORS
330
2AC74
102
}
330
2AC74
100
AcDbScale
 70
     0
300
1:16
140
1.0
141
16.0
290
     0
  0
SCALE
  5
2AC7C
102
{ACAD_REACTORS
330
2AC74
102
}
330
2AC74
100
AcDbScale
 70
     0
300
1:20
140
1.0
141
20.0
290
     0
  0
SCALE
  5
2AC7D
102
{ACAD_REACTORS
330
2AC74
102
}
330
2AC74
100
AcDbScale
 70
     0
300
1:30
140
1.0
141
30.0
290
     0
  0
SCALE
  5
2AC7E
102
{ACAD_REACTORS
330
2AC74
102
}
330
2AC74
100
AcDbScale
 70
     0
300
1:40
140
1.0
141
40.0
290
     0
  0
SCALE
  5
2AC7F
102
{ACAD_REACTORS
330
2AC74
102
}
330
2AC74
100
AcDbScale
 70
     0
300
1:50
140
1.0
141
50.0
290
     0
  0
SCALE
  5
2AC80
102
{ACAD_REACTORS
330
2AC74
102
}
330
2AC74
100
AcDbScale
 70
     0
300
1:100
140
1.0
141
100.0
290
     0
  0
SCALE
  5
2AC81
102
{ACAD_REACTORS
330
2AC74
102
}
330
2AC74
100
AcDbScale
 70
     0
300
2:1
140
2.0
141
1.0
290
     0
  0
SCALE
  5
2AC82
102
{ACAD_REACTORS
330
2AC74
102
}
330
2AC74
100
AcDbScale
 70
     0
300
4:1
140
4.0
141
1.0
290
     0
  0
SCALE
  5
2AC83
102
{ACAD_REACTORS
330
2AC74
102
}
330
2AC74
100
AcDbScale
 70
     0
300
8:1
140
8.0
141
1.0
290
     0
  0
SCALE
  5
2AC84
102
{ACAD_REACTORS
330
2AC74
102
}
330
2AC74
100
AcDbScale
 70
     0
300
10:1
140
10.0
141
1.0
290
     0
  0
SCALE
  5
2AC85
102
{ACAD_REACTORS
330
2AC74
102
}
330
2AC74
100
AcDbScale
 70
     0
300
100:1
140
100.0
141
1.0
290
     0
  0
SCALE
  5
2AC86
102
{ACAD_REACTORS
330
2AC74
102
}
330
2AC74
100
AcDbScale
 70
     0
300
1/128" = 1'-0"
140
0.0078125
141
12.0
290
     0
  0
SCALE
  5
2AC87
102
{ACAD_REACTORS
330
2AC74
102
}
330
2AC74
100
AcDbScale
 70
     0
300
1/64" = 1'-0"
140
0.015625
141
12.0
290
     0
  0
SCALE
  5
2AC88
102
{ACAD_REACTORS
330
2AC74
102
}
330
2AC74
100
AcDbScale
 70
     0
300
1/32" = 1'-0"
140
0.03125
141
12.0
290
     0
  0
SCALE
  5
2AC89
102
{ACAD_REACTORS
330
2AC74
102
}
330
2AC74
100
AcDbScale
 70
     0
300
1/16" = 1'-0"
140
0.0625
141
12.0
290
     0
  0
SCALE
  5
2AC8A
102
{ACAD_REACTORS
330
2AC74
102
}
330
2AC74
100
AcDbScale
 70
     0
300
3/32" = 1'-0"
140
0.09375
141
12.0
290
     0
  0
SCALE
  5
2AC8B
102
{ACAD_REACTORS
330
2AC74
102
}
330
2AC74
100
AcDbScale
 70
     0
300
1/8" = 1'-0"
140
0.125
141
12.0
290
     0
  0
SCALE
  5
2AC8C
102
{ACAD_REACTORS
330
2AC74
102
}
330
2AC74
100
AcDbScale
 70
     0
300
3/16" = 1'-0"
140
0.1875
141
12.0
290
     0
  0
SCALE
  5
2AC8D
102
{ACAD_REACTORS
330
2AC74
102
}
330
2AC74
100
AcDbScale
 70
     0
300
1/4" = 1'-0"
140
0.25
141
12.0
290
     0
  0
SCALE
  5
2AC8E
102
{ACAD_REACTORS
330
2AC74
102
}
330
2AC74
100
AcDbScale
 70
     0
300
3/8" = 1'-0"
140
0.375
141
12.0
290
     0
  0
SCALE
  5
2AC8F
102
{ACAD_REACTORS
330
2AC74
102
}
330
2AC74
100
AcDbScale
 70
     0
300
1/2" = 1'-0"
140
0.5
141
12.0
290
     0
  0
SCALE
  5
2AC90
102
{ACAD_REACTORS
330
2AC74
102
}
330
2AC74
100
AcDbScale
 70
     0
300
3/4" = 1'-0"
140
0.75
141
12.0
290
     0
  0
SCALE
  5
2AC91
102
{ACAD_REACTORS
330
2AC74
102
}
330
2AC74
100
AcDbScale
 70
     0
300
1" = 1'-0"
140
1.0
141
12.0
290
     0
  0
SCALE
  5
2AC92
102
{ACAD_REACTORS
330
2AC74
102
}
330
2AC74
100
AcDbScale
 70
     0
300
1-1/2" = 1'-0"
140
1.5
141
12.0
290
     0
  0
SCALE
  5
2AC93
102
{ACAD_REACTORS
330
2AC74
102
}
330
2AC74
100
AcDbScale
 70
     0
300
3" = 1'-0"
140
3.0
141
12.0
290
     0
  0
SCALE
  5
2AC94
102
{ACAD_REACTORS
330
2AC74
102
}
330
2AC74
100
AcDbScale
 70
     0
300
6" = 1'-0"
140
6.0
141
12.0
290
     0
  0
SCALE
  5
2AC95
102
{ACAD_REACTORS
330
2AC74
102
}
330
2AC74
100
AcDbScale
 70
     0
300
1'-0" = 1'-0"
140
12.0
141
12.0
290
     0
  0
TABLESTYLE
  5
2AC73
102
{ACAD_XDICTIONARY
360
2ACAC
102
}
102
{ACAD_REACTORS
330
2AC72
102
}
330
2AC72
100
AcDbTableStyle
  3
Standard
 70
     0
 71
     0
 40
1.5
 41
1.5
280
     0
281
     0
  7
STANDARD
140
4.5
170
     2
 62
     0
 63
     7
283
     0
 90
      512
 91
        0
  1

274
    -2
284
     1
 64
     0
275
    -2
285
     1
 65
     0
276
    -2
286
     1
 66
     0
277
    -2
287
     1
 67
     0
278
    -2
288
     1
 68
     0
279
    -2
289
     1
 69
     0
  7
STANDARD
140
6.0
170
     5
 62
     0
 63
     7
283
     0
 90
      512
 91
        0
  1

274
    -2
284
     1
 64
     0
275
    -2
285
     1
 65
     0
276
    -2
286
     1
 66
     0
277
    -2
287
     1
 67
     0
278
    -2
288
     1
 68
     0
279
    -2
289
     1
 69
     0
  7
STANDARD
140
4.5
170
     5
 62
     0
 63
     7
283
     0
 90
      512
 91
        0
  1

274
    -2
284
     1
 64
     0
275
    -2
285
     1
 65
     0
276
    -2
286
     1
 66
     0
277
    -2
287
     1
 67
     0
278
    -2
288
     1
 68
     0
279
    -2
289
     1
 69
     0
  0
VISUALSTYLE
  5
2AC66
102
{ACAD_REACTORS
330
2AC60
102
}
330
2AC60
100
AcDbVisualStyle
  2
2dWireframe
 70
     4
 71
     0
 72
     2
 73
     0
 90
        0
 40
-0.6
 41
-30.0
 62
     5
 63
     7
421
 16777215
 74
     1
 91
        4
 64
     7
 65
   257
 75
     1
175
     1
 42
1.0
 92
        0
 66
   257
 43
1.0
 76
     1
 77
     6
 78
     2
 67
     7
 79
     5
170
     0
171
     0
290
     0
174
     0
 93
        1
 44
0.0
173
     0
291
     0
 45
0.0
  0
VISUALSTYLE
  5
2AC68
102
{ACAD_REACTORS
330
2AC60
102
}
330
2AC60
100
AcDbVisualStyle
  2
3D Hidden
 70
     6
 71
     1
 72
     2
 73
     2
 90
        0
 40
-0.6
 41
-30.0
 62
     5
 63
     7
421
 16777215
 74
     2
 91
        2
 64
     7
 65
   257
 75
     2
175
     1
 42
40.0
 92
        0
 66
   257
 43
1.0
 76
     1
 77
     6
 78
     2
 67
     7
 79
     3
170
     0
171
     0
290
     0
174
     0
 93
        1
 44
0.0
173
     0
291
     0
 45
0.0
  0
VISUALSTYLE
  5
2AC67
102
{ACAD_REACTORS
330
2AC60
102
}
330
2AC60
100
AcDbVisualStyle
  2
3dWireframe
 70
     5
 71
     0
 72
     2
 73
     0
 90
        0
 40
-0.6
 41
-30.0
 62
     5
 63
     7
421
 16777215
 74
     1
 91
        4
 64
     7
 65
   257
 75
     1
175
     1
 42
1.0
 92
        0
 66
   257
 43
1.0
 76
     1
 77
     6
 78
     2
 67
     7
 79
     5
170
     0
171
     0
290
     0
174
     0
 93
        1
 44
0.0
173
     0
291
     0
 45
0.0
  0
VISUALSTYLE
  5
2AC65
102
{ACAD_REACTORS
330
2AC60
102
}
330
2AC60
100
AcDbVisualStyle
  2
Basic
 70
     7
 71
     1
 72
     0
 73
     1
 90
        0
 40
-0.6
 41
-30.0
 62
     5
 63
     7
421
 16777215
 74
     0
 91
        4
 64
     7
 65
   257
 75
     1
175
     1
 42
1.0
 92
        8
 66
     7
 43
1.0
 76
     1
 77
     6
 78
     2
 67
     7
 79
     5
170
     0
171
     0
290
     0
174
     0
 93
        1
 44
0.0
173
     0
291
     1
 45
0.0
  0
VISUALSTYLE
  5
2AC6C
102
{ACAD_REACTORS
330
2AC60
102
}
330
2AC60
100
AcDbVisualStyle
  2
Brighten
 70
    12
 71
     2
 72
     2
 73
     0
 90
        0
 40
-0.6
 41
-30.0
 62
     5
 63
     7
421
 16777215
 74
     1
 91
        4
 64
     7
 65
   257
 75
     1
175
     1
 42
1.0
 92
        8
 66
     7
 43
1.0
 76
     1
 77
     6
 78
     2
 67
     7
 79
     5
170
     0
171
     0
290
     0
174
     0
 93
        1
 44
50.0
173
     0
291
     1
 45
0.0
  0
VISUALSTYLE
  5
2AC70
102
{ACAD_REACTORS
330
2AC60
102
}
330
2AC60
100
AcDbVisualStyle
  2
ColorChange
 70
    16
 71
     2
 72
     2
 73
     3
 90
        0
 40
-0.6
 41
-30.0
 62
     5
 63
     8
421
  8421504
 74
     1
 91
        4
 64
     7
 65
   257
 75
     1
175
     1
 42
1.0
 92
        8
 66
     8
424
  8421504
 43
1.0
 76
     1
 77
     6
 78
     2
 67
     7
 79
     5
170
     0
171
     0
290
     0
174
     0
 93
        1
 44
0.0
173
     0
291
     1
 45
0.0
  0
VISUALSTYLE
  5
2AC69
102
{ACAD_REACTORS
330
2AC60
102
}
330
2AC60
100
AcDbVisualStyle
  2
Conceptual
 70
     9
 71
     3
 72
     2
 73
     0
 90
        0
 40
-0.6
 41
-30.0
 62
     5
 63
     7
421
 16777215
 74
     2
 91
        2
 64
     7
 65
   257
 75
     1
175
     1
 42
40.0
 92
        8
 66
     7
 43
1.0
 76
     1
 77
     6
 78
     2
 67
     7
 79
     3
170
     0
171
     0
290
     0
174
     0
 93
        1
 44
0.0
173
     0
291
     0
 45
0.0
  0
VISUALSTYLE
  5
2AC6B
102
{ACAD_REACTORS
330
2AC60
102
}
330
2AC60
100
AcDbVisualStyle
  2
Dim
 70
    11
 71
     2
 72
     2
 73
     0
 90
        0
 40
-0.6
 41
-30.0
 62
     5
 63
     7
421
 16777215
 74
     1
 91
        4
 64
     7
 65
   257
 75
     1
175
     1
 42
1.0
 92
        8
 66
     7
 43
1.0
 76
     1
 77
     6
 78
     2
 67
     7
 79
     5
170
     0
171
     0
290
     0
174
     0
 93
        1
 44
-50.0
173
     0
291
     1
 45
0.0
  0
VISUALSTYLE
  5
2AC6F
102
{ACAD_REACTORS
330
2AC60
102
}
330
2AC60
100
AcDbVisualStyle
  2
Facepattern
 70
    15
 71
     2
 72
     2
 73
     0
 90
        0
 40
-0.6
 41
-30.0
 62
     5
 63
     7
421
 16777215
 74
     1
 91
        4
 64
     7
 65
   257
 75
     1
175
     1
 42
1.0
 92
        8
 66
     7
 43
1.0
 76
     1
 77
     6
 78
     2
 67
     7
 79
     5
170
     0
171
     0
290
     0
174
     0
 93
        1
 44
0.0
173
     0
291
     1
 45
0.0
  0
VISUALSTYLE
  5
2AC61
102
{ACAD_REACTORS
330
2AC60
102
}
330
2AC60
100
AcDbVisualStyle
  2
Flat
 70
     0
 71
     2
 72
     1
 73
     1
 90
        2
 40
-0.6
 41
30.0
 62
     5
 63
     7
421
 16777215
 74
     0
 91
        4
 64
     7
 65
   257
 75
     1
175
     1
 42
1.0
 92
        8
 66
     7
 43
1.0
 76
     1
 77
     6
 78
     2
 67
     7
 79
     5
170
     0
171
     0
290
     0
174
     0
 93
       13
 44
0.0
173
     0
291
     1
 45
0.0
  0
VISUALSTYLE
  5
2AC62
102
{ACAD_REACTORS
330
2AC60
102
}
330
2AC60
100
AcDbVisualStyle
  2
FlatWithEdges
 70
     1
 71
     2
 72
     1
 73
     1
 90
        2
 40
-0.6
 41
30.0
 62
     5
 63
     7
421
 16777215
 74
     1
 91
        4
 64
     7
 65
   257
 75
     1
175
     1
 42
1.0
 92
        0
 66
   257
 43
1.0
 76
     1
 77
     6
 78
     2
 67
     7
 79
     5
170
     0
171
     0
290
     0
174
     0
 93
       13
 44
0.0
173
     0
291
     1
 45
0.0
  0
VISUALSTYLE
  5
2AC63
102
{ACAD_REACTORS
330
2AC60
102
}
330
2AC60
100
AcDbVisualStyle
  2
Gouraud
 70
     2
 71
     2
 72
     2
 73
     1
 90
        2
 40
-0.6
 41
30.0
 62
     5
 63
     7
421
 16777215
 74
     0
 91
        4
 64
     7
 65
   257
 75
     1
175
     1
 42
1.0
 92
        0
 66
     7
 43
1.0
 76
     1
 77
     6
 78
     2
 67
     7
 79
     5
170
     0
171
     0
290
     0
174
     0
 93
       13
 44
0.0
173
     0
291
     1
 45
0.0
  0
VISUALSTYLE
  5
2AC64
102
{ACAD_REACTORS
330
2AC60
102
}
330
2AC60
100
AcDbVisualStyle
  2
GouraudWithEdges
 70
     3
 71
     2
 72
     2
 73
     1
 90
        2
 40
-0.6
 41
30.0
 62
     5
 63
     7
421
 16777215
 74
     1
 91
        4
 64
     7
 65
   257
 75
     1
175
     1
 42
1.0
 92
        0
 66
   257
 43
1.0
 76
     1
 77
     6
 78
     2
 67
     7
 79
     5
170
     0
171
     0
290
     0
174
     0
 93
       13
 44
0.0
173
     0
291
     1
 45
0.0
  0
VISUALSTYLE
  5
2AC6E
102
{ACAD_REACTORS
330
2AC60
102
}
330
2AC60
100
AcDbVisualStyle
  2
Linepattern
 70
    14
 71
     2
 72
     2
 73
     0
 90
        0
 40
-0.6
 41
-30.0
 62
     5
 63
     7
421
 16777215
 74
     1
 91
        4
 64
     7
 65
   257
 75
     7
175
     7
 42
1.0
 92
        8
 66
     7
 43
1.0
 76
     1
 77
     6
 78
     2
 67
     7
 79
     5
170
     0
171
     0
290
     0
174
     0
 93
        1
 44
0.0
173
     0
291
     1
 45
0.0
  0
VISUALSTYLE
  5
2AC6A
102
{ACAD_REACTORS
330
2AC60
102
}
330
2AC60
100
AcDbVisualStyle
  2
Realistic
 70
     8
 71
     2
 72
     2
 73
     0
 90
        0
 40
-0.6
 41
-30.0
 62
     5
 63
     7
421
 16777215
 74
     1
 91
        0
 64
     7
 65
   257
 75
     1
175
     1
 42
1.0
 92
        8
 66
     8
424
  7895160
 43
1.0
 76
     1
 77
     6
 78
     2
 67
     7
 79
     5
170
     0
171
     0
290
     0
174
     0
 93
       13
 44
0.0
173
     0
291
     0
 45
0.0
  0
VISUALSTYLE
  5
2AC6D
102
{ACAD_REACTORS
330
2AC60
102
}
330
2AC60
100
AcDbVisualStyle
  2
Thicken
 70
    13
 71
     2
 72
     2
 73
     0
 90
        0
 40
-0.6
 41
-30.0
 62
     5
 63
     7
421
 16777215
 74
     1
 91
        4
 64
     7
 65
   257
 75
     1
175
     1
 42
1.0
 92
       12
 66
     7
 43
1.0
 76
     1
 77
     6
 78
     2
 67
     7
 79
     5
170
     0
171
     0
290
     0
174
     0
 93
        1
 44
0.0
173
     0
291
     1
 45
0.0
  0
DICTIONARYVAR
  5
2ACB2
102
{ACAD_REACTORS
330
44
102
}
330
44
100
DictionaryVariables
280
     0
  1
1:1
  0
DICTIONARYVAR
  5
2ACB0
102
{ACAD_REACTORS
330
44
102
}
330
44
100
DictionaryVariables
280
     0
  1
STANDARD
  0
DICTIONARYVAR
  5
2ACAF
102
{ACAD_REACTORS
330
44
102
}
330
44
100
DictionaryVariables
280
     0
  1
STANDARD
  0
DICTIONARYVAR
  5
45
102
{ACAD_REACTORS
330
44
102
}
330
44
100
DictionaryVariables
280
     0
  1
1
  0
DICTIONARYVAR
  5
2ACB3
102
{ACAD_REACTORS
330
44
102
}
330
44
100
DictionaryVariables
280
     0
  1
0
  0
DICTIONARYVAR
  5
2ACB1
102
{ACAD_REACTORS
330
44
102
}
330
44
100
DictionaryVariables
280
     0
  1
0
  0
DICTIONARYVAR
  5
6F8C
102
{ACAD_REACTORS
330
44
102
}
330
44
100
DictionaryVariables
280
     0
  1
96
  0
DICTIONARY
  5
2AC51
330
2AC50
100
AcDbDictionary
280
     1
281
     1
  3
BUMPTILE
360
2AC53
  3
DIFFUSETILE
360
2AC52
  3
OPACITYTILE
360
2AC56
  3
REFLECTIONTILE
360
2AC55
  3
REFRACTIONTILE
360
2AC57
  3
SPECULARTILE
360
2AC54
  0
DICTIONARY
  5
2AC49
330
2AC48
100
AcDbDictionary
280
     1
281
     1
  3
BUMPTILE
360
2AC4B
  3
DIFFUSETILE
360
2AC4A
  3
OPACITYTILE
360
2AC4E
  3
REFLECTIONTILE
360
2AC4D
  3
REFRACTIONTILE
360
2AC4F
  3
SPECULARTILE
360
2AC4C
  0
DICTIONARY
  5
2AC59
330
2AC58
100
AcDbDictionary
280
     1
281
     1
  3
BUMPTILE
360
2AC5B
  3
DIFFUSETILE
360
2AC5A
  3
OPACITYTILE
360
2AC5E
  3
REFLECTIONTILE
360
2AC5D
  3
REFRACTIONTILE
360
2AC5F
  3
SPECULARTILE
360
2AC5C
  0
DICTIONARY
  5
2ACAC
330
2AC73
100
AcDbDictionary
280
     1
281
     1
  3
ACAD_ROUNDTRIP_2008_TABLESTYLE_CELLSTYLEMAP
360
2CF23
  0
XRECORD
  5
2AC53
102
{ACAD_REACTORS
330
2AC51
102
}
330
2AC51
100
AcDbXrecord
280
     1
270
     1
271
     1
  0
XRECORD
  5
2AC52
102
{ACAD_REACTORS
330
2AC51
102
}
330
2AC51
100
AcDbXrecord
280
     1
270
     1
271
     1
  0
XRECORD
  5
2AC56
102
{ACAD_REACTORS
330
2AC51
102
}
330
2AC51
100
AcDbXrecord
280
     1
270
     1
271
     1
  0
XRECORD
  5
2AC55
102
{ACAD_REACTORS
330
2AC51
102
}
330
2AC51
100
AcDbXrecord
280
     1
270
     1
271
     1
  0
XRECORD
  5
2AC57
102
{ACAD_REACTORS
330
2AC51
102
}
330
2AC51
100
AcDbXrecord
280
     1
270
     1
271
     1
  0
XRECORD
  5
2AC54
102
{ACAD_REACTORS
330
2AC51
102
}
330
2AC51
100
AcDbXrecord
280
     1
270
     1
271
     1
  0
XRECORD
  5
2AC4B
102
{ACAD_REACTORS
330
2AC49
102
}
330
2AC49
100
AcDbXrecord
280
     1
270
     1
271
     1
  0
XRECORD
  5
2AC4A
102
{ACAD_REACTORS
330
2AC49
102
}
330
2AC49
100
AcDbXrecord
280
     1
270
     1
271
     1
  0
XRECORD
  5
2AC4E
102
{ACAD_REACTORS
330
2AC49
102
}
330
2AC49
100
AcDbXrecord
280
     1
270
     1
271
     1
  0
XRECORD
  5
2AC4D
102
{ACAD_REACTORS
330
2AC49
102
}
330
2AC49
100
AcDbXrecord
280
     1
270
     1
271
     1
  0
XRECORD
  5
2AC4F
102
{ACAD_REACTORS
330
2AC49
102
}
330
2AC49
100
AcDbXrecord
280
     1
270
     1
271
     1
  0
XRECORD
  5
2AC4C
102
{ACAD_REACTORS
330
2AC49
102
}
330
2AC49
100
AcDbXrecord
280
     1
270
     1
271
     1
  0
XRECORD
  5
2AC5B
102
{ACAD_REACTORS
330
2AC59
102
}
330
2AC59
100
AcDbXrecord
280
     1
270
     1
271
     1
  0
XRECORD
  5
2AC5A
102
{ACAD_REACTORS
330
2AC59
102
}
330
2AC59
100
AcDbXrecord
280
     1
270
     1
271
     1
  0
XRECORD
  5
2AC5E
102
{ACAD_REACTORS
330
2AC59
102
}
330
2AC59
100
AcDbXrecord
280
     1
270
     1
271
     1
  0
XRECORD
  5
2AC5D
102
{ACAD_REACTORS
330
2AC59
102
}
330
2AC59
100
AcDbXrecord
280
     1
270
     1
271
     1
  0
XRECORD
  5
2AC5F
102
{ACAD_REACTORS
330
2AC59
102
}
330
2AC59
100
AcDbXrecord
280
     1
270
     1
271
     1
  0
XRECORD
  5
2AC5C
102
{ACAD_REACTORS
330
2AC59
102
}
330
2AC59
100
AcDbXrecord
280
     1
270
     1
271
     1
  0
CELLSTYLEMAP
  5
2CF23
102
{ACAD_REACTORS
330
2ACAC
102
}
330
2ACAC
100
AcDbCellStyleMap
 90
        3
300
CELLSTYLE
  1
TABLEFORMAT_BEGIN
 90
        5
170
     1
 91
        0
 92
    32768
 62
   257
 93
        1
300
CONTENTFORMAT
  1
CONTENTFORMAT_BEGIN
 90
        0
 91
        0
 92
      512
 93
        0
300

 40
0.0
140
1.0
 94
        5
 62
     0
340
F
144
6.0
309
CONTENTFORMAT_END
171
     1
301
MARGIN
  1
CELLMARGIN_BEGIN
 40
1.5
 40
1.5
 40
1.5
 40
1.5
 40
4.5
 40
4.5
309
CELLMARGIN_END
 94
        6
 95
        1
302
GRIDFORMAT
  1
GRIDFORMAT_BEGIN
 90
        0
 91
        1
 62
     0
 92
       -2
340
0
 93
        0
 40
1.125
309
GRIDFORMAT_END
 95
        2
302
GRIDFORMAT
  1
GRIDFORMAT_BEGIN
 90
        0
 91
        1
 62
     0
 92
       -2
340
0
 93
        0
 40
1.125
309
GRIDFORMAT_END
 95
        4
302
GRIDFORMAT
  1
GRIDFORMAT_BEGIN
 90
        0
 91
        1
 62
     0
 92
       -2
340
0
 93
        0
 40
1.125
309
GRIDFORMAT_END
 95
        8
302
GRIDFORMAT
  1
GRIDFORMAT_BEGIN
 90
        0
 91
        1
 62
     0
 92
       -2
340
0
 93
        0
 40
1.125
309
GRIDFORMAT_END
 95
       16
302
GRIDFORMAT
  1
GRIDFORMAT_BEGIN
 90
        0
 91
        1
 62
     0
 92
       -2
340
0
 93
        0
 40
1.125
309
GRIDFORMAT_END
 95
       32
302
GRIDFORMAT
  1
GRIDFORMAT_BEGIN
 90
        0
 91
        1
 62
     0
 92
       -2
340
0
 93
        0
 40
1.125
309
GRIDFORMAT_END
309
TABLEFORMAT_END
  1
CELLSTYLE_BEGIN
 90
        1
 91
        1
300
_TITLE
309
CELLSTYLE_END
300
CELLSTYLE
  1
TABLEFORMAT_BEGIN
 90
        5
170
     1
 91
        0
 92
        0
 62
   257
 93
        1
300
CONTENTFORMAT
  1
CONTENTFORMAT_BEGIN
 90
        0
 91
        0
 92
      512
 93
        0
300

 40
0.0
140
1.0
 94
        5
 62
     0
340
F
144
4.5
309
CONTENTFORMAT_END
171
     1
301
MARGIN
  1
CELLMARGIN_BEGIN
 40
1.5
 40
1.5
 40
1.5
 40
1.5
 40
4.5
 40
4.5
309
CELLMARGIN_END
 94
        6
 95
        1
302
GRIDFORMAT
  1
GRIDFORMAT_BEGIN
 90
        0
 91
        1
 62
     0
 92
       -2
340
0
 93
        0
 40
1.125
309
GRIDFORMAT_END
 95
        2
302
GRIDFORMAT
  1
GRIDFORMAT_BEGIN
 90
        0
 91
        1
 62
     0
 92
       -2
340
0
 93
        0
 40
1.125
309
GRIDFORMAT_END
 95
        4
302
GRIDFORMAT
  1
GRIDFORMAT_BEGIN
 90
        0
 91
        1
 62
     0
 92
       -2
340
0
 93
        0
 40
1.125
309
GRIDFORMAT_END
 95
        8
302
GRIDFORMAT
  1
GRIDFORMAT_BEGIN
 90
        0
 91
        1
 62
     0
 92
       -2
340
0
 93
        0
 40
1.125
309
GRIDFORMAT_END
 95
       16
302
GRIDFORMAT
  1
GRIDFORMAT_BEGIN
 90
        0
 91
        1
 62
     0
 92
       -2
340
0
 93
        0
 40
1.125
309
GRIDFORMAT_END
 95
       32
302
GRIDFORMAT
  1
GRIDFORMAT_BEGIN
 90
        0
 91
        1
 62
     0
 92
       -2
340
0
 93
        0
 40
1.125
309
GRIDFORMAT_END
309
TABLEFORMAT_END
  1
CELLSTYLE_BEGIN
 90
        2
 91
        1
300
_HEADER
309
CELLSTYLE_END
300
CELLSTYLE
  1
TABLEFORMAT_BEGIN
 90
        5
170
     1
 91
        0
 92
        0
 62
   257
 93
        1
300
CONTENTFORMAT
  1
CONTENTFORMAT_BEGIN
 90
        0
 91
        0
 92
      512
 93
        0
300

 40
0.0
140
1.0
 94
        2
 62
     0
340
F
144
4.5
309
CONTENTFORMAT_END
171
     1
301
MARGIN
  1
CELLMARGIN_BEGIN
 40
1.5
 40
1.5
 40
1.5
 40
1.5
 40
4.5
 40
4.5
309
CELLMARGIN_END
 94
        6
 95
        1
302
GRIDFORMAT
  1
GRIDFORMAT_BEGIN
 90
        0
 91
        1
 62
     0
 92
       -2
340
0
 93
        0
 40
1.125
309
GRIDFORMAT_END
 95
        2
302
GRIDFORMAT
  1
GRIDFORMAT_BEGIN
 90
        0
 91
        1
 62
     0
 92
       -2
340
0
 93
        0
 40
1.125
309
GRIDFORMAT_END
 95
        4
302
GRIDFORMAT
  1
GRIDFORMAT_BEGIN
 90
        0
 91
        1
 62
     0
 92
       -2
340
0
 93
        0
 40
1.125
309
GRIDFORMAT_END
 95
        8
302
GRIDFORMAT
  1
GRIDFORMAT_BEGIN
 90
        0
 91
        1
 62
     0
 92
       -2
340
0
 93
        0
 40
1.125
309
GRIDFORMAT_END
 95
       16
302
GRIDFORMAT
  1
GRIDFORMAT_BEGIN
 90
        0
 91
        1
 62
     0
 92
       -2
340
0
 93
        0
 40
1.125
309
GRIDFORMAT_END
 95
       32
302
GRIDFORMAT
  1
GRIDFORMAT_BEGIN
 90
        0
 91
        1
 62
     0
 92
       -2
340
0
 93
        0
 40
1.125
309
GRIDFORMAT_END
309
TABLEFORMAT_END
  1
CELLSTYLE_BEGIN
 90
        3
 91
        2
300
_DATA
309
CELLSTYLE_END
  0
ENDSEC
  0
EOF
