  0
SECTION
  2
HEADER
  9
$ACADVER
  1
AC1015
  9
$ACADMAINTVER
 70
    13
  9
$DWGCODEPAGE
  3
ANSI_932
  9
$INSBASE
 10
0.0
 20
0.0
 30
0.0
  9
$EXTMIN
 10
-0.1555893041602712
 20
-0.1359454380993359
 30
-0.0015258207003612
  9
$EXTMAX
 10
3150.379207470156
 20
4455.135966183311
 30
0.0000000349246008
  9
$LIMMIN
 10
0.0
 20
0.0
  9
$LIMMAX
 10
3150.0
 20
4455.0
  9
$ORTHOMODE
 70
     1
  9
$REGENMODE
 70
     1
  9
$FILLMODE
 70
     1
  9
$QTEXTMODE
 70
     0
  9
$MIRRTEXT
 70
     0
  9
$LTSCALE
 40
15.0
  9
$ATTMODE
 70
     1
  9
$TEXTSIZE
 40
16.0
  9
$TRACEWID
 40
0.05
  9
$TEXTSTYLE
  7
STANDARD
  9
$CLAYER
  8
ZUKEI
  9
$CELTYPE
  6
BYLAYER
  9
$CECOLOR
 62
     7
  9
$CELTSCALE
 40
1.0
  9
$DISPSILH
 70
     0
  9
$DIMSCALE
 40
15.0
  9
$DIMASZ
 40
3.0
  9
$DIMEXO
 40
2.0
  9
$DIMDLI
 40
10.0
  9
$DIMRND
 40
0.0
  9
$DIMDLE
 40
0.0
  9
$DIMEXE
 40
2.0
  9
$DIMTP
 40
0.0
  9
$DIMTM
 40
0.0
  9
$DIMTXT
 40
3.2
  9
$DIMCEN
 40
0.09
  9
$DIMTSZ
 40
0.0
  9
$DIMTOL
 70
     0
  9
$DIMLIM
 70
     0
  9
$DIMTIH
 70
     0
  9
$DIMTOH
 70
     0
  9
$DIMSE1
 70
     0
  9
$DIMSE2
 70
     0
  9
$DIMTAD
 70
     1
  9
$DIMZIN
 70
     8
  9
$DIMBLK
  1
Open30
  9
$DIMASO
 70
     1
  9
$DIMSHO
 70
     0
  9
$DIMPOST
  1

  9
$DIMAPOST
  1

  9
$DIMALT
 70
     0
  9
$DIMALTD
 70
     2
  9
$DIMALTF
 40
25.4
  9
$DIMLFAC
 40
1.0
  9
$DIMTOFL
 70
     1
  9
$DIMTVP
 40
0.0
  9
$DIMTIX
 70
     0
  9
$DIMSOXD
 70
     0
  9
$DIMSAH
 70
     0
  9
$DIMBLK1
  1

  9
$DIMBLK2
  1

  9
$DIMSTYLE
  2
STANDARD
  9
$DIMCLRD
 70
     0
  9
$DIMCLRE
 70
     0
  9
$DIMCLRT
 70
     0
  9
$DIMTFAC
 40
1.0
  9
$DIMGAP
 40
0.9999999999999996
  9
$DIMJUST
 70
     0
  9
$DIMSD1
 70
     0
  9
$DIMSD2
 70
     0
  9
$DIMTOLJ
 70
     1
  9
$DIMTZIN
 70
     0
  9
$DIMALTZ
 70
     0
  9
$DIMALTTZ
 70
     0
  9
$DIMUPT
 70
     0
  9
$DIMDEC
 70
     2
  9
$DIMTDEC
 70
     2
  9
$DIMALTU
 70
     2
  9
$DIMALTTD
 70
     2
  9
$DIMTXSTY
  7
STANDARD
  9
$DIMAUNIT
 70
     0
  9
$DIMADEC
 70
     4
  9
$DIMALTRND
 40
0.0
  9
$DIMAZIN
 70
     2
  9
$DIMDSEP
 70
    46
  9
$DIMATFIT
 70
     3
  9
$DIMFRAC
 70
     0
  9
$DIMLDRBLK
  1
Open30
  9
$DIMLUNIT
 70
     2
  9
$DIMLWD
 70
    -2
  9
$DIMLWE
 70
    -2
  9
$DIMTMOVE
 70
     0
  9
$LUNITS
 70
     2
  9
$LUPREC
 70
     2
  9
$SKETCHINC
 40
0.1
  9
$FILLETRAD
 40
20.0
  9
$AUNITS
 70
     0
  9
$AUPREC
 70
     2
  9
$MENU
  1
dash
  9
$ELEVATION
 40
0.0
  9
$PELEVATION
 40
0.0
  9
$THICKNESS
 40
0.0
  9
$LIMCHECK
 70
     0
  9
$CHAMFERA
 40
0.0
  9
$CHAMFERB
 40
0.0
  9
$CHAMFERC
 40
0.0
  9
$CHAMFERD
 40
0.0
  9
$SKPOLY
 70
     0
  9
$TDCREATE
 40
2453136.600744351
  9
$TDUCREATE
 40
2453136.225744351
  9
$TDUPDATE
 40
2454497.593359907
  9
$TDUUPDATE
 40
2454497.218359907
  9
$TDINDWG
 40
6.9611267014
  9
$TDUSRTIMER
 40
6.9611248843
  9
$USRTIMER
 70
     1
  9
$ANGBASE
 50
0.0
  9
$ANGDIR
 70
     0
  9
$PDMODE
 70
    35
  9
$PDSIZE
 40
1.0
  9
$PLINEWID
 40
0.0
  9
$SPLFRAME
 70
     0
  9
$SPLINETYPE
 70
     6
  9
$SPLINESEGS
 70
     8
  9
$HANDSEED
  5
2DBAA
  9
$SURFTAB1
 70
     6
  9
$SURFTAB2
 70
     6
  9
$SURFTYPE
 70
     6
  9
$SURFU
 70
     6
  9
$SURFV
 70
     6
  9
$UCSBASE
  2

  9
$UCSNAME
  2

  9
$UCSORG
 10
0.0
 20
0.0
 30
0.0
  9
$UCSXDIR
 10
1.0
 20
0.0
 30
0.0
  9
$UCSYDIR
 10
0.0
 20
1.0
 30
0.0
  9
$UCSORTHOREF
  2

  9
$UCSORTHOVIEW
 70
     0
  9
$UCSORGTOP
 10
0.0
 20
0.0
 30
0.0
  9
$UCSORGBOTTOM
 10
0.0
 20
0.0
 30
0.0
  9
$UCSORGLEFT
 10
0.0
 20
0.0
 30
0.0
  9
$UCSORGRIGHT
 10
0.0
 20
0.0
 30
0.0
  9
$UCSORGFRONT
 10
0.0
 20
0.0
 30
0.0
  9
$UCSORGBACK
 10
0.0
 20
0.0
 30
0.0
  9
$PUCSBASE
  2

  9
$PUCSNAME
  2

  9
$PUCSORG
 10
0.0
 20
0.0
 30
0.0
  9
$PUCSXDIR
 10
1.0
 20
0.0
 30
0.0
  9
$PUCSYDIR
 10
0.0
 20
1.0
 30
0.0
  9
$PUCSORTHOREF
  2

  9
$PUCSORTHOVIEW
 70
     0
  9
$PUCSORGTOP
 10
0.0
 20
0.0
 30
0.0
  9
$PUCSORGBOTTOM
 10
0.0
 20
0.0
 30
0.0
  9
$PUCSORGLEFT
 10
0.0
 20
0.0
 30
0.0
  9
$PUCSORGRIGHT
 10
0.0
 20
0.0
 30
0.0
  9
$PUCSORGFRONT
 10
0.0
 20
0.0
 30
0.0
  9
$PUCSORGBACK
 10
0.0
 20
0.0
 30
0.0
  9
$USERI1
 70
     0
  9
$USERI2
 70
     0
  9
$USERI3
 70
     0
  9
$USERI4
 70
     0
  9
$USERI5
 70
     0
  9
$USERR1
 40
0.0
  9
$USERR2
 40
3.2
  9
$USERR3
 40
0.0
  9
$USERR4
 40
0.0
  9
$USERR5
 40
0.0
  9
$WORLDVIEW
 70
     1
  9
$SHADEDGE
 70
     3
  9
$SHADEDIF
 70
    70
  9
$TILEMODE
 70
     1
  9
$MAXACTVP
 70
    48
  9
$PINSBASE
 10
0.0
 20
0.0
 30
0.0
  9
$PLIMCHECK
 70
     0
  9
$PEXTMIN
 10
1.000000000000000E+20
 20
1.000000000000000E+20
 30
1.000000000000000E+20
  9
$PEXTMAX
 10
-1.000000000000000E+20
 20
-1.000000000000000E+20
 30
-1.000000000000000E+20
  9
$PLIMMIN
 10
0.0
 20
0.0
  9
$PLIMMAX
 10
12.0
 20
9.0
  9
$UNITMODE
 70
     0
  9
$VISRETAIN
 70
     0
  9
$PLINEGEN
 70
     0
  9
$PSLTSCALE
 70
     0
  9
$TREEDEPTH
 70
  3020
  9
$CMLSTYLE
  2
STANDARD
  9
$CMLJUST
 70
     0
  9
$CMLSCALE
 40
1.0
  9
$PROXYGRAPHICS
 70
     1
  9
$MEASUREMENT
 70
     1
  9
$CELWEIGHT
370
    -1
  9
$ENDCAPS
280
     0
  9
$JOINSTYLE
280
     0
  9
$LWDISPLAY
290
     0
  9
$INSUNITS
 70
     0
  9
$HYPERLINKBASE
  1

  9
$STYLESHEET
  1
MONOCHROME.CTB
  9
$XEDIT
290
     1
  9
$CEPSNTYPE
380
     0
  9
$PSTYLEMODE
290
     1
  9
$FINGERPRINTGUID
  2
{F2A97C53-EF7E-49C1-956A-0F2CE1E6DF2C}
  9
$VERSIONGUID
  2
{13A5E08A-6AFA-4627-83A3-9EEB0B76EDA6}
  9
$EXTNAMES
290
     1
  9
$PSVPSCALE
 40
0.0
  9
$OLESTARTUP
290
     0
  0
ENDSEC
  0
SECTION
  2
CLASSES
  0
CLASS
  1
ACDBDICTIONARYWDFLT
  2
AcDbDictionaryWithDefault
  3
AutoCAD 2000
 90
        0
280
     0
281
     0
  0
CLASS
  1
ACDBPLACEHOLDER
  2
AcDbPlaceHolder
  3
AutoCAD 2000
 90
        0
280
     0
281
     0
  0
CLASS
  1
LAYOUT
  2
AcDbLayout
  3
AutoCAD 2000
 90
        0
280
     0
281
     0
  0
CLASS
  1
DICTIONARYVAR
  2
AcDbDictionaryVar
  3
AutoCAD 2000
 90
        0
280
     0
281
     0
  0
ENDSEC
  0
SECTION
  2
TABLES
  0
TABLE
  2
VPORT
  5
8
330
0
100
AcDbSymbolTable
 70
     3
  0
VPORT
  5
2DBA9
330
8
100
AcDbSymbolTableRecord
100
AcDbViewportTableRecord
  2
*Active
 70
     0
 10
0.0
 20
0.0
 11
1.0
 21
1.0
 12
1575.111809082998
 22
2227.500010372605
 13
0.0
 23
0.0
 14
1.0
 24
1.0
 15
0.0
 25
0.0
 16
0.0
 26
0.0
 36
1.0
 17
0.0
 27
0.0
 37
0.0
 40
4490.306815251461
 41
1.58005249343832
 42
50.0
 43
0.0
 44
0.0
 50
0.0
 51
0.0
 71
     0
 72
  2000
 73
     1
 74
     3
 75
     0
 76
     0
 77
     0
 78
     0
281
     0
 65
     1
110
0.0
120
0.0
130
0.0
111
1.0
121
0.0
131
0.0
112
0.0
122
1.0
132
0.0
 79
     0
146
0.0
  0
ENDTAB
  0
TABLE
  2
LTYPE
  5
5
330
0
100
AcDbSymbolTable
 70
     4
  0
LTYPE
  5
11
330
5
100
AcDbSymbolTableRecord
100
AcDbLinetypeTableRecord
  2
BYBLOCK
 70
     0
  3

 72
    65
 73
     0
 40
0.0
  0
LTYPE
  5
12
330
5
100
AcDbSymbolTableRecord
100
AcDbLinetypeTableRecord
  2
BYLAYER
 70
     0
  3

 72
    65
 73
     0
 40
0.0
  0
LTYPE
  5
13
330
5
100
AcDbSymbolTableRecord
100
AcDbLinetypeTableRecord
  2
CONTINUOUS
 70
     0
  3
Solid line
 72
    65
 73
     0
 40
0.0
  0
LTYPE
  5
1D
330
5
100
AcDbSymbolTableRecord
100
AcDbLinetypeTableRecord
  2
CENTER
 70
     0
  3
____ _ ____ _ ____ _ ____ _ ____ _ ____ _ ____
 72
    65
 73
     4
 40
12.0
 49
9.0
 74
     0
 49
-1.0
 74
     0
 49
1.0
 74
     0
 49
-1.0
 74
     0
  0
LTYPE
  5
1A042
330
5
100
AcDbSymbolTableRecord
100
AcDbLinetypeTableRecord
  2
HASEN2
 70
     0
  3
A,2,-1 __  __  __  __  __  __  __  __
 72
    65
 73
     2
 40
3.0
 49
2.0
 74
     0
 49
-1.0
 74
     0
  0
LTYPE
  5
2CF81
330
5
100
AcDbSymbolTableRecord
100
AcDbLinetypeTableRecord
  2
ITTEN1
 70
     0
  3
A,15,-2,2,-2 __________  __  __________  __  __
 72
    65
 73
     4
 40
21.0
 49
15.0
 74
     0
 49
-2.0
 74
     0
 49
2.0
 74
     0
 49
-2.0
 74
     0
  0
ENDTAB
  0
TABLE
  2
LAYER
  5
2
102
{ACAD_XDICTIONARY
360
2C31C
102
}
330
0
100
AcDbSymbolTable
 70
    11
  0
LAYER
  5
E
330
2
100
AcDbSymbolTableRecord
100
AcDbLayerTableRecord
  2
0
 70
     0
 62
     3
  6
CONTINUOUS
370
    25
390
33
  0
LAYER
  5
21
330
2
100
AcDbSymbolTableRecord
100
AcDbLayerTableRecord
  2
CEN
 70
     0
 62
     4
  6
CENTER
370
    18
390
33
  0
LAYER
  5
23
330
2
100
AcDbSymbolTableRecord
100
AcDbLayerTableRecord
  2
DIM
 70
     0
 62
     7
  6
CONTINUOUS
370
    18
390
33
  0
LAYER
  5
24
330
2
100
AcDbSymbolTableRecord
100
AcDbLayerTableRecord
  2
WAKU
 70
     0
 62
     3
  6
CONTINUOUS
370
    25
390
33
  0
LAYER
  5
25
330
2
100
AcDbSymbolTableRecord
100
AcDbLayerTableRecord
  2
HOJO
 70
     0
 62
     5
  6
CONTINUOUS
370
    18
390
33
  0
LAYER
  5
27
330
2
100
AcDbSymbolTableRecord
100
AcDbLayerTableRecord
  2
DIMTEXT
 70
     0
 62
     7
  6
CONTINUOUS
370
    18
390
33
  0
LAYER
  5
42A
330
2
100
AcDbSymbolTableRecord
100
AcDbLayerTableRecord
  2
Defpoints
 70
     0
 62
     7
  6
CONTINUOUS
290
     0
370
    -3
390
33
  0
LAYER
  5
1FD1
330
2
100
AcDbSymbolTableRecord
100
AcDbLayerTableRecord
  2
ZUKEI
 70
     0
 62
     2
  6
CONTINUOUS
370
    -3
390
33
  0
LAYER
  5
1A043
330
2
100
AcDbSymbolTableRecord
100
AcDbLayerTableRecord
  2
DASH
 70
     0
 62
     3
  6
HASEN2
370
    -3
390
33
  0
LAYER
  5
2CF82
330
2
100
AcDbSymbolTableRecord
100
AcDbLayerTableRecord
  2
BORDER
 70
     0
 62
     5
  6
CONTINUOUS
370
    -3
390
33
  0
LAYER
  5
2CF83
330
2
100
AcDbSymbolTableRecord
100
AcDbLayerTableRecord
  2
MCEN
 70
     0
 62
     4
  6
ITTEN1
370
    -3
390
33
  0
ENDTAB
  0
TABLE
  2
STYLE
  5
3
330
0
100
AcDbSymbolTable
 70
     1
  0
STYLE
  5
F
330
3
100
AcDbSymbolTableRecord
100
AcDbTextStyleTableRecord
  2
STANDARD
 70
     0
 40
0.0
 41
0.8
 50
0.0
 71
     0
 42
16.0
  3
sse
  4
bigfont
  0
ENDTAB
  0
TABLE
  2
VIEW
  5
6
330
0
100
AcDbSymbolTable
 70
     0
  0
ENDTAB
  0
TABLE
  2
UCS
  5
7
330
0
100
AcDbSymbolTable
 70
     0
  0
ENDTAB
  0
TABLE
  2
APPID
  5
9
330
0
100
AcDbSymbolTable
 70
    12
  0
APPID
  5
10
330
9
100
AcDbSymbolTableRecord
100
AcDbRegAppTableRecord
  2
ACAD
 70
     0
  0
APPID
  5
91
330
9
100
AcDbSymbolTableRecord
100
AcDbRegAppTableRecord
  2
SSE
 70
     0
  0
APPID
  5
92
330
9
100
AcDbSymbolTableRecord
100
AcDbRegAppTableRecord
  2
SSE_DIMTEXT
 70
     0
  0
APPID
  5
6B32
330
9
100
AcDbSymbolTableRecord
100
AcDbRegAppTableRecord
  2
GENIUS_GENODEF_13
 70
     0
  0
APPID
  5
6B33
330
9
100
AcDbSymbolTableRecord
100
AcDbRegAppTableRecord
  2
GENIUS_GENOBJ-N-CEN_13
 70
     0
  0
APPID
  5
6B34
330
9
100
AcDbSymbolTableRecord
100
AcDbRegAppTableRecord
  2
GENIUS_GENOBJ-N-FIL_13
 70
     0
  0
APPID
  5
B60B
330
9
100
AcDbSymbolTableRecord
100
AcDbRegAppTableRecord
  2
SSE_BALOON
 70
     0
  0
APPID
  5
1414F
330
9
100
AcDbSymbolTableRecord
100
AcDbRegAppTableRecord
  2
TYP
 70
     0
  0
APPID
  5
14150
330
9
100
AcDbSymbolTableRecord
100
AcDbRegAppTableRecord
  2
BNO
 70
     0
  0
APPID
  5
14151
330
9
100
AcDbSymbolTableRecord
100
AcDbRegAppTableRecord
  2
BLN
 70
     0
  0
APPID
  5
14152
330
9
100
AcDbSymbolTableRecord
100
AcDbRegAppTableRecord
  2
ETC
 70
     0
  0
APPID
  5
14153
330
9
100
AcDbSymbolTableRecord
100
AcDbRegAppTableRecord
  2
DEF
 70
     0
  0
ENDTAB
  0
TABLE
  2
DIMSTYLE
  5
A
330
0
100
AcDbSymbolTable
 70
     2
100
AcDbDimStyleTable
 71
     1
340
2C
  0
DIMSTYLE
105
2C
102
{ACAD_REACTORS
330
2D10E
330
2D10F
330
2D111
330
2D116
330
2D121
330
2D13A
330
2D13B
330
2D13C
330
2D1AC
330
2D1B3
330
2D4B5
330
2D4B6
330
2D4E1
330
2D51B
330
2D51C
330
2D91E
330
2D9BF
102
}
330
A
100
AcDbSymbolTableRecord
100
AcDbDimStyleTableRecord
  2
STANDARD
 70
     0
 40
15.0
340
F
  0
DIMSTYLE
105
2DAC9
330
A
100
AcDbSymbolTableRecord
100
AcDbDimStyleTableRecord
  2
ISO-25
 70
     0
 41
2.5
 42
0.625
 43
3.75
 44
1.25
 73
     0
 74
     0
 77
     1
 78
     8
140
2.5
141
2.5
143
0.03937007874016
147
0.625
171
     3
172
     1
271
     2
272
     2
274
     3
283
     0
284
     8
340
F
  0
ENDTAB
  0
TABLE
  2
BLOCK_RECORD
  5
1
330
0
100
AcDbSymbolTable
 70
    26
  0
BLOCK_RECORD
  5
17
330
1
100
AcDbSymbolTableRecord
100
AcDbBlockTableRecord
  2
*MODEL_SPACE
340
36
  0
BLOCK_RECORD
  5
14
330
1
100
AcDbSymbolTableRecord
100
AcDbBlockTableRecord
  2
*PAPER_SPACE
340
37
  0
BLOCK_RECORD
  5
4A
330
1
100
AcDbSymbolTableRecord
100
AcDbBlockTableRecord
  2
_Open30
340
0
102
{BLKREFS
331
2D82C
331
2D82D
331
2D83E
331
2D83F
331
2D8F0
331
2D8F1
331
2D8F9
331
2D8FA
331
2D902
331
2D903
331
2D90D
331
2D90E
331
2D981
331
2D982
331
2D98C
331
2D98D
331
2D9C5
331
2D9C6
331
2D9E0
331
2D9E1
331
2DA0A
331
2DA0B
331
2DA17
331
2DA18
331
2DA48
331
2DA49
331
2DA5D
331
2DA5E
331
2DA66
331
2DA67
331
2DA6F
331
2DA70
331
2DA7A
331
2DA7B
102
}
  0
BLOCK_RECORD
  5
2C2
330
1
100
AcDbSymbolTableRecord
100
AcDbBlockTableRecord
  2
dimstat
340
0
102
{BLKREFS
331
1549A
102
}
  0
BLOCK_RECORD
  5
2CD
330
1
100
AcDbSymbolTableRecord
100
AcDbBlockTableRecord
  2
dimstat2
340
0
102
{BLKREFS
331
15497
102
}
  0
BLOCK_RECORD
  5
5132
330
1
100
AcDbSymbolTableRecord
100
AcDbBlockTableRecord
  2
_DotSmall
340
0
  0
BLOCK_RECORD
  5
192FE
330
1
100
AcDbSymbolTableRecord
100
AcDbBlockTableRecord
  2
waku0
340
0
102
{BLKREFS
331
2B9C7
102
}
  0
BLOCK_RECORD
  5
2CF18
330
1
100
AcDbSymbolTableRecord
100
AcDbBlockTableRecord
  2
A$C1B640438
340
0
102
{BLKREFS
331
2D1CF
102
}
  0
BLOCK_RECORD
  5
2D294
330
1
100
AcDbSymbolTableRecord
100
AcDbBlockTableRecord
  2
*D6
340
0
  0
BLOCK_RECORD
  5
2D2A2
330
1
100
AcDbSymbolTableRecord
100
AcDbBlockTableRecord
  2
*D7
340
0
  0
BLOCK_RECORD
  5
2D2BC
330
1
100
AcDbSymbolTableRecord
100
AcDbBlockTableRecord
  2
*D8
340
0
  0
BLOCK_RECORD
  5
2D2C8
330
1
100
AcDbSymbolTableRecord
100
AcDbBlockTableRecord
  2
*D9
340
0
  0
BLOCK_RECORD
  5
2D2D4
330
1
100
AcDbSymbolTableRecord
100
AcDbBlockTableRecord
  2
*D10
340
0
  0
BLOCK_RECORD
  5
2D2E2
330
1
100
AcDbSymbolTableRecord
100
AcDbBlockTableRecord
  2
*D11
340
0
  0
BLOCK_RECORD
  5
2D2EE
330
1
100
AcDbSymbolTableRecord
100
AcDbBlockTableRecord
  2
*D12
340
0
  0
BLOCK_RECORD
  5
2D2FA
330
1
100
AcDbSymbolTableRecord
100
AcDbBlockTableRecord
  2
*D13
340
0
  0
BLOCK_RECORD
  5
2D308
330
1
100
AcDbSymbolTableRecord
100
AcDbBlockTableRecord
  2
*D14
340
0
  0
BLOCK_RECORD
  5
2D316
330
1
100
AcDbSymbolTableRecord
100
AcDbBlockTableRecord
  2
*D15
340
0
  0
BLOCK_RECORD
  5
2D591
330
1
100
AcDbSymbolTableRecord
100
AcDbBlockTableRecord
  2
*D16
340
0
  0
BLOCK_RECORD
  5
2D59D
330
1
100
AcDbSymbolTableRecord
100
AcDbBlockTableRecord
  2
*D17
340
0
  0
BLOCK_RECORD
  5
2D5A9
330
1
100
AcDbSymbolTableRecord
100
AcDbBlockTableRecord
  2
*D18
340
0
  0
BLOCK_RECORD
  5
2D5B5
330
1
100
AcDbSymbolTableRecord
100
AcDbBlockTableRecord
  2
*D19
340
0
  0
BLOCK_RECORD
  5
2D5C3
330
1
100
AcDbSymbolTableRecord
100
AcDbBlockTableRecord
  2
*D20
340
0
  0
BLOCK_RECORD
  5
2D91F
330
1
100
AcDbSymbolTableRecord
100
AcDbBlockTableRecord
  2
*D21
340
0
  0
BLOCK_RECORD
  5
2D9C0
330
1
100
AcDbSymbolTableRecord
100
AcDbBlockTableRecord
  2
*D22
340
0
  0
BLOCK_RECORD
  5
2DAC6
330
1
100
AcDbSymbolTableRecord
100
AcDbBlockTableRecord
  2
_None
340
0
  0
BLOCK_RECORD
  5
2DACA
330
1
100
AcDbSymbolTableRecord
100
AcDbBlockTableRecord
  2
SSE_BALOON1
340
0
102
{BLKREFS
331
2DACF
331
2DAD4
331
2DAD9
102
}
  0
BLOCK_RECORD
  5
2DAEB
330
1
100
AcDbSymbolTableRecord
100
AcDbBlockTableRecord
  2
A$C2FFA2AF1
340
0
102
{BLKREFS
331
2DB38
102
}
  0
ENDTAB
  0
ENDSEC
  0
SECTION
  2
BLOCKS
  0
BLOCK
  5
2A
330
17
100
AcDbEntity
  8
0
100
AcDbBlockBegin
  2
*MODEL_SPACE
 70
     0
 10
0.0
 20
0.0
 30
0.0
  3
*MODEL_SPACE
  1

  0
ENDBLK
  5
2B
330
17
100
AcDbEntity
  8
0
100
AcDbBlockEnd
  0
BLOCK
  5
28
330
14
100
AcDbEntity
 67
     1
  8
0
100
AcDbBlockBegin
  2
*PAPER_SPACE
 70
     0
 10
0.0
 20
0.0
 30
0.0
  3
*PAPER_SPACE
  1

  0
ENDBLK
  5
29
330
14
100
AcDbEntity
 67
     1
  8
0
100
AcDbBlockEnd
  0
BLOCK
  5
4E
330
4A
100
AcDbEntity
  8
0
100
AcDbBlockBegin
  2
_Open30
 70
     0
 10
0.0
 20
0.0
 30
0.0
  3
_Open30
  1

  0
LINE
  5
4B
330
4A
100
AcDbEntity
  8
0
  6
ByBlock
 62
     0
370
    -2
100
AcDbLine
 10
-1.0
 20
0.26794919
 30
0.0
 11
0.0
 21
0.0
 31
0.0
  0
LINE
  5
4C
330
4A
100
AcDbEntity
  8
0
  6
ByBlock
 62
     0
370
    -2
100
AcDbLine
 10
0.0
 20
0.0
 30
0.0
 11
-1.0
 21
-0.26794919
 31
0.0
  0
LINE
  5
4D
330
4A
100
AcDbEntity
  8
0
  6
ByBlock
 62
     0
370
    -2
100
AcDbLine
 10
0.0
 20
0.0
 30
0.0
 11
-1.0
 21
0.0
 31
0.0
  0
ENDBLK
  5
4F
330
4A
100
AcDbEntity
  8
0
100
AcDbBlockEnd
  0
BLOCK
  5
2C6
330
2C2
100
AcDbEntity
  8
0
100
AcDbBlockBegin
  2
dimstat
 70
     2
 10
0.0
 20
0.0
 30
0.0
  3
dimstat
  1

  0
ATTDEF
  5
2C3
330
2C2
100
AcDbEntity
  8
0
100
AcDbText
 10
0.0
 20
1.0
 30
0.0
 40
1.0
  1

 41
0.7
 51
15.0
100
AcDbAttributeDefinition
  3

  2
DIMEXT
 70
     1
  0
ATTDEF
  5
2C4
330
2C2
100
AcDbEntity
  8
0
100
AcDbText
 10
0.0
 20
0.0
 30
0.0
 40
1.0
  1

 41
0.7
 51
15.0
100
AcDbAttributeDefinition
  3

  2
DIMBAL
 70
     1
  0
ATTDEF
  5
2C5
330
2C2
100
AcDbEntity
  8
0
100
AcDbText
 10
1.50719045723035
 20
-0.911649989012119
 30
0.0
 40
1.0
  1

 41
0.7
 51
15.0
 72
     1
 11
1.50719045723035
 21
-0.911649989012119
 31
0.0
100
AcDbAttributeDefinition
  3

  2
SYMSCL
 70
     1
  0
ENDBLK
  5
2C7
330
2C2
100
AcDbEntity
  8
0
100
AcDbBlockEnd
  0
BLOCK
  5
2CF
330
2CD
100
AcDbEntity
  8
0
100
AcDbBlockBegin
  2
dimstat2
 70
     2
 10
0.0
 20
0.0
 30
0.0
  3
dimstat2
  1

  0
ATTDEF
  5
2CE
330
2CD
100
AcDbEntity
  8
0
100
AcDbText
 10
0.0
 20
0.0
 30
0.0
 40
1.0
  1

 41
0.7
100
AcDbAttributeDefinition
  3

  2
DIMSIZ
 70
     1
  0
ENDBLK
  5
2D0
330
2CD
100
AcDbEntity
  8
0
100
AcDbBlockEnd
  0
BLOCK
  5
5134
330
5132
100
AcDbEntity
  8
0
100
AcDbBlockBegin
  2
_DotSmall
 70
     0
 10
0.0
 20
0.0
 30
0.0
  3
_DotSmall
  1

  0
LWPOLYLINE
  5
5133
330
5132
100
AcDbEntity
  8
0
  6
ByBlock
 62
     0
100
AcDbPolyline
 90
        2
 70
     1
 43
0.5
 10
-0.0625
 20
0.0
 42
1.0
 10
0.0625
 20
0.0
 42
1.0
  0
ENDBLK
  5
5135
330
5132
100
AcDbEntity
  8
0
100
AcDbBlockEnd
  0
BLOCK
  5
19303
330
192FE
100
AcDbEntity
  8
0
100
AcDbBlockBegin
  2
waku0
 70
     0
 10
0.0
 20
0.0
 30
0.0
  3
waku0
  1

  0
LINE
  5
192FF
330
192FE
100
AcDbEntity
  8
0
100
AcDbLine
 10
0.0
 20
1.0
 30
0.0
 11
0.0
 21
0.0
 31
0.0
  0
LINE
  5
19300
330
192FE
100
AcDbEntity
  8
0
100
AcDbLine
 10
1.0
 20
1.0
 30
0.0
 11
0.0
 21
1.0
 31
0.0
  0
LINE
  5
19301
330
192FE
100
AcDbEntity
  8
0
100
AcDbLine
 10
1.0
 20
0.0
 30
0.0
 11
1.0
 21
1.0
 31
0.0
  0
LINE
  5
19302
330
192FE
100
AcDbEntity
  8
0
100
AcDbLine
 10
0.0
 20
0.0
 30
0.0
 11
1.0
 21
0.0
 31
0.0
  0
ENDBLK
  5
19304
330
192FE
100
AcDbEntity
  8
0
100
AcDbBlockEnd
  0
BLOCK
  5
2CF7F
330
2CF18
100
AcDbEntity
  8
0
100
AcDbBlockBegin
  2
A$C1B640438
 70
     0
 10
0.0
 20
0.0
 30
0.0
  3
A$C1B640438
  1

  0
HATCH
  5
2CF19
330
2CF18
100
AcDbEntity
  8
0
100
AcDbHatch
 10
0.0
 20
0.0
 30
0.0
210
0.0
220
0.0
230
1.0
  2
ANSI31
 70
     0
 71
     1
 91
        1
 92
        1
 93
       12
 72
     2
 10
35.258798206346
 20
27.1660019669107
 40
1.853999999999998
 50
90.0
 51
180.0
 73
     1
 72
     1
 10
33.40479820634618
 20
27.1660019669107
 11
33.40479820634618
 21
10.48000196691055
 72
     1
 10
33.40479820634618
 20
10.48000196691055
 11
37.48359820634596
 21
10.48000196691055
 72
     1
 10
37.48359820634596
 20
10.48000196691055
 11
37.48359820634596
 21
23.82880196691075
 72
     2
 10
38.59599820634594
 20
23.82880196691075
 40
1.112399999999998
 50
180.0
 51
270.0
 73
     0
 72
     1
 10
38.59599820634594
 20
24.94120196691074
 11
41.19159820634604
 21
24.94120196691074
 72
     2
 10
41.19159820634604
 20
23.82880196691075
 40
1.112399999999998
 50
270.0
 51
360.0
 73
     0
 72
     1
 10
42.30399820634602
 20
23.82880196691075
 11
42.30399820634602
 21
10.48000196691055
 72
     1
 10
42.30399820634602
 20
10.48000196691055
 11
46.38279820634578
 21
10.48000196691055
 72
     1
 10
46.38279820634578
 20
10.48000196691055
 11
46.38279820634578
 21
27.1660019669107
 72
     2
 10
44.52879820634598
 20
27.1660019669107
 40
1.853999999999998
 50
0.0
 51
90.0
 73
     1
 72
     1
 10
44.52879820634598
 20
29.02000196691051
 11
35.258798206346
 21
29.02000196691051
 97
       12
330
2CF73
330
2CF23
330
2CF48
330
2CF4A
330
2CF25
330
2CF75
330
2CF26
330
2CF4D
330
2CF4C
330
2CF2A
330
2CF76
330
2CF6C
 75
     0
 76
     1
 52
0.0
 41
0.05
 77
     0
 78
     1
 53
45.0
 43
-51.08092790994942
 44
-182.3909795257899
 45
-0.1122532015133644
 46
0.1122532015133644
 79
     0
 98
        1
 10
-51.08092790994942
 20
-182.3909795257899
  0
HATCH
  5
2CF1A
330
2CF18
100
AcDbEntity
  8
0
100
AcDbHatch
 10
0.0
 20
0.0
 30
0.0
210
0.0
220
0.0
230
1.0
  2
ANSI31
 70
     0
 71
     0
 91
        2
 92
        1
 93
       14
 72
     1
 10
3.740798206345969
 20
41.9980019669101
 11
7.819598206346197
 21
41.9980019669101
 72
     1
 10
7.819598206346197
 20
41.9980019669101
 11
7.819598206346197
 21
24.94120196690983
 72
     2
 10
8.931998206346179
 20
24.94120196691074
 40
1.112399999999998
 50
180.0
 51
270.0
 73
     1
 72
     1
 10
8.931998206346179
 20
23.8288019669103
 11
12.63999820634626
 21
23.8288019669103
 72
     1
 10
12.63999820634579
 20
23.82880196691075
 11
12.63999820634579
 21
41.99800196691103
 72
     1
 10
12.63999820634579
 20
41.9980019669101
 11
16.71879820634603
 21
41.9980019669101
 72
     1
 10
16.71879820634603
 20
41.9980019669101
 11
16.71879820634603
 21
11.59240196691007
 72
     1
 10
16.71879820634603
 20
11.59240196691053
 11
16.71879820634603
 21
11.53104308150977
 72
     2
 10
1.886798206346155
 20
11.53104308150977
 40
14.832
 50
360.0
 51
398.1572265873694
 73
     0
 72
     1
 10
13.54947180776025
 20
2.367513823255649
 11
12.63999820634626
 21
1.210001966910567
 72
     1
 10
12.63999820634579
 20
1.210001966910567
 11
12.63999820634579
 21
19.75000196691053
 72
     1
 10
12.63999820634579
 20
19.75000196691053
 11
5.594798206345783
 21
19.75000196691053
 72
     2
 10
5.594798206346236
 20
21.60400196691033
 40
1.853999999999998
 50
90.0
 51
180.0
 73
     0
 72
     1
 10
3.740798206345969
 20
21.60400196691033
 11
3.740798206345969
 21
41.9980019669101
 97
        0
 92
       48
 93
        1
 72
     1
 10
16.71879820634603
 20
11.59240196691053
 11
16.71879820634603
 21
11.53104308150977
 97
        0
 75
     0
 76
     1
 52
0.0
 41
0.05
 77
     0
 78
     1
 53
45.0
 43
-51.08092790994942
 44
-182.3909795257899
 45
-0.1122532015133644
 46
0.1122532015133644
 79
     0
 98
        1
 10
-51.08092790994942
 20
-182.3909795257899
  0
LINE
  5
2CF1B
330
2CF18
100
AcDbEntity
  8
0
100
AcDbLine
 10
3.740798206345969
 20
41.9980019669101
 30
0.0
 11
3.740798206345969
 21
21.60400196691033
 31
0.0
  0
ARC
  5
2CF1C
330
2CF18
100
AcDbEntity
  8
0
100
AcDbCircle
 10
8.931998206346179
 20
24.94120196691074
 30
0.0
 40
1.112399999999998
100
AcDbArc
 50
180.0
 51
270.0
  0
HATCH
  5
2CF1D
330
2CF18
100
AcDbEntity
  8
0
100
AcDbHatch
 10
0.0
 20
0.0
 30
0.0
210
0.0
220
0.0
230
1.0
  2
ANSI31
 70
     0
 71
     1
 91
        1
 92
        1
 93
       12
 72
     1
 10
18.57279820634585
 20
29.02000196691051
 11
22.65159820634607
 21
29.02000196691051
 72
     1
 10
22.65159820634607
 20
29.02000196691051
 11
22.65159820634607
 21
15.67120196691029
 72
     2
 10
23.76399820634606
 20
15.67120196691029
 40
1.112399999999998
 50
180.0
 51
270.0
 73
     1
 72
     1
 10
23.76399820634606
 20
14.55880196691031
 11
26.35959820634615
 21
14.55880196691031
 72
     2
 10
26.35959820634615
 20
15.67120196691029
 40
1.112399999999998
 50
270.0
 51
360.0
 73
     1
 72
     1
 10
27.47199820634614
 20
15.67120196691029
 11
27.47199820634614
 21
29.02000196691051
 72
     1
 10
27.47199820634614
 20
29.02000196691051
 11
31.55079820634592
 21
29.02000196691051
 72
     1
 10
31.55079820634592
 20
29.02000196691051
 11
31.55079820634592
 21
12.33400196691036
 72
     2
 10
29.6967982063461
 20
12.33400196691036
 40
1.853999999999998
 50
360.0
 51
450.0
 73
     0
 72
     1
 10
29.6967982063461
 20
10.48000196691055
 11
20.42679820634611
 21
10.48000196691009
 72
     2
 10
20.42679820634611
 20
12.33400196691036
 40
1.853999999999998
 50
90.0
 51
180.0
 73
     0
 72
     1
 10
18.57279820634585
 20
12.33400196691036
 11
18.57279820634585
 21
29.02000196691051
 97
       12
330
2CF71
330
2CF21
330
2CF46
330
2CF47
330
2CF44
330
2CF24
330
2CF72
330
2CF22
330
2CF49
330
2CF43
330
2CF45
330
2CF20
 75
     0
 76
     1
 52
0.0
 41
0.05
 77
     0
 78
     1
 53
45.0
 43
-51.08092790994942
 44
-182.3909795257899
 45
-0.1122532015133644
 46
0.1122532015133644
 79
     0
 98
        1
 10
-51.08092790994942
 20
-182.3909795257899
  0
LINE
  5
2CF1E
330
2CF18
100
AcDbEntity
  8
0
100
AcDbLine
 10
16.71879820634603
 20
41.9980019669101
 30
0.0
 11
16.71879820634603
 21
11.59240196691053
 31
0.0
  0
LINE
  5
2CF1F
330
2CF18
100
AcDbEntity
  8
0
100
AcDbLine
 10
12.63999820634579
 20
41.9980019669101
 30
0.0
 11
12.63999820634579
 21
23.82880196691075
 31
0.0
  0
LINE
  5
2CF20
102
{ACAD_REACTORS
330
2CF1D
102
}
330
2CF18
100
AcDbEntity
  8
0
100
AcDbLine
 10
18.57279820634585
 20
29.02000196691051
 30
0.0
 11
18.57279820634585
 21
12.33400196691036
 31
0.0
  0
LINE
  5
2CF21
102
{ACAD_REACTORS
330
2CF1D
102
}
330
2CF18
100
AcDbEntity
  8
0
100
AcDbLine
 10
22.65159820634607
 20
29.02000196691051
 30
0.0
 11
22.65159820634607
 21
15.67120196691029
 31
0.0
  0
LINE
  5
2CF22
102
{ACAD_REACTORS
330
2CF1D
102
}
330
2CF18
100
AcDbEntity
  8
0
100
AcDbLine
 10
31.55079820634592
 20
29.02000196691051
 30
0.0
 11
31.55079820634592
 21
12.33400196691036
 31
0.0
  0
LINE
  5
2CF23
102
{ACAD_REACTORS
330
2CF19
102
}
330
2CF18
100
AcDbEntity
  8
0
100
AcDbLine
 10
33.40479820634618
 20
10.48000196691055
 30
0.0
 11
33.40479820634618
 21
27.1660019669107
 31
0.0
  0
LINE
  5
2CF24
102
{ACAD_REACTORS
330
2CF1D
102
}
330
2CF18
100
AcDbEntity
  8
0
100
AcDbLine
 10
27.47199820634614
 20
29.02000196691051
 30
0.0
 11
27.47199820634614
 21
15.67120196691029
 31
0.0
  0
ARC
  5
2CF25
102
{ACAD_REACTORS
330
2CF19
102
}
330
2CF18
100
AcDbEntity
  8
0
100
AcDbCircle
 10
38.59599820634594
 20
23.82880196691075
 30
0.0
 40
1.112399999999998
100
AcDbArc
 50
90.0
 51
180.0
  0
ARC
  5
2CF26
102
{ACAD_REACTORS
330
2CF19
102
}
330
2CF18
100
AcDbEntity
  8
0
100
AcDbCircle
 10
41.19159820634604
 20
23.82880196691075
 30
0.0
 40
1.112399999999998
100
AcDbArc
 50
0.0
 51
90.0
  0
HATCH
  5
2CF27
330
2CF18
100
AcDbEntity
  8
0
100
AcDbHatch
 10
0.0
 20
0.0
 30
0.0
210
0.0
220
0.0
230
1.0
  2
ANSI31
 70
     0
 71
     1
 91
        1
 92
        1
 93
       15
 72
     1
 10
76.78839820634585
 20
29.02000196691051
 11
71.59719820634609
 21
29.02000196691051
 72
     1
 10
71.59719820634609
 20
29.02000196691051
 11
67.14759820634572
 21
21.60400196691033
 72
     1
 10
67.14759820634572
 20
21.60400196691033
 11
67.14759820634572
 21
41.9980019669101
 72
     1
 10
67.14759820634572
 20
41.9980019669101
 11
63.06879820634595
 21
41.9980019669101
 72
     1
 10
63.06879820634595
 20
41.9980019669101
 11
63.06879820634595
 21
10.48000196691055
 72
     1
 10
63.06879820634595
 20
10.48000196691055
 11
67.14759820634572
 21
10.48000196691055
 72
     1
 10
67.14759820634572
 20
10.48000196691055
 11
67.14759820634572
 21
17.52520196691056
 72
     1
 10
67.14759820634572
 20
17.52520196691056
 11
71.22639820634595
 21
17.52520196691056
 72
     2
 10
71.22639820634595
 20
16.41280196691059
 40
1.112399999999998
 50
270.0
 51
360.0
 73
     0
 72
     1
 10
72.33879820634593
 20
16.41280196691059
 11
72.33879820634593
 21
10.48000196691055
 72
     1
 10
72.33879820634593
 20
10.48000196691055
 11
76.41759820634615
 21
10.48000196691055
 72
     1
 10
76.41759820634615
 20
10.48000196691055
 11
76.41759820634615
 21
19.75000196691053
 72
     2
 10
74.56359820634588
 20
19.75000196691053
 40
1.853999999999998
 50
0.0
 51
90.0
 73
     1
 72
     1
 10
74.56359820634588
 20
21.60400196691079
 11
72.33879820634593
 21
21.60400196691033
 72
     1
 10
72.33879820634593
 20
21.60400196691033
 11
76.78839820634585
 21
29.02000196691051
 97
       15
330
2CF79
330
2CF30
330
2CF2F
330
2CF7B
330
2CF2E
330
2CF57
330
2CF58
330
2CF56
330
2CF5B
330
2CF5C
330
2CF5A
330
2CF59
330
2CF54
330
2CF5D
330
2CF28
 75
     0
 76
     1
 52
0.0
 41
0.05
 77
     0
 78
     1
 53
45.0
 43
-51.08092790994942
 44
-182.3909795257899
 45
-0.1122532015133644
 46
0.1122532015133644
 79
     0
 98
        1
 10
-51.08092790994942
 20
-182.3909795257899
  0
LINE
  5
2CF28
102
{ACAD_REACTORS
330
2CF27
102
}
330
2CF18
100
AcDbEntity
  8
0
100
AcDbLine
 10
76.78839820634585
 20
29.02000196691051
 30
0.0
 11
72.33879820634593
 21
21.60400196691033
 31
0.0
  0
HATCH
  5
2CF29
330
2CF18
100
AcDbEntity
  8
0
100
AcDbHatch
 10
0.0
 20
0.0
 30
0.0
210
0.0
220
0.0
230
1.0
  2
ANSI31
 70
     0
 71
     1
 91
        2
 92
        1
 93
        8
 72
     1
 10
59.36079820634586
 20
29.02000196691051
 11
50.09079820634588
 21
29.02000196691051
 72
     2
 10
50.09079820634588
 20
27.1660019669107
 40
1.853999999999998
 50
90.0
 51
180.0
 73
     1
 72
     1
 10
48.23679820634605
 20
27.1660019669107
 11
48.23679820634605
 21
12.33400196691036
 72
     2
 10
50.09079820634588
 20
12.33400196691036
 40
1.853999999999998
 50
180.0
 51
270.0
 73
     1
 72
     1
 10
50.09079820634588
 20
10.48000196691055
 11
59.36079820634586
 21
10.48000196691055
 72
     2
 10
59.36079820634586
 20
12.33400196691036
 40
1.853999999999998
 50
270.0
 51
360.0
 73
     1
 72
     1
 10
61.21479820634613
 20
12.33400196691036
 11
61.21479820634613
 21
27.1660019669107
 72
     2
 10
59.36079820634586
 20
27.1660019669107
 40
1.853999999999998
 50
0.0
 51
90.0
 73
     1
 97
        8
330
2CF74
330
2CF77
330
2CF2B
330
2CF4E
330
2CF4B
330
2CF55
330
2CF31
330
2CF7A
 92
       16
 93
        8
 72
     2
 10
56.02359820634593
 20
23.82880196691075
 40
1.112399999999998
 50
0.0
 51
90.0
 73
     1
 72
     1
 10
56.02359820634593
 20
24.94120196691074
 11
53.42799820634581
 21
24.94120196691074
 72
     2
 10
53.42799820634581
 20
23.82880196691075
 40
1.112399999999998
 50
90.0
 51
180.0
 73
     1
 72
     1
 10
52.31559820634584
 20
23.82880196691075
 11
52.31559820634584
 21
15.67120196691029
 72
     2
 10
53.42799820634581
 20
15.67120196691029
 40
1.112399999999998
 50
180.0
 51
270.0
 73
     1
 72
     1
 10
53.42799820634581
 20
14.55880196691031
 11
56.02359820634593
 21
14.55880196691031
 72
     2
 10
56.02359820634593
 20
15.67120196691029
 40
1.112399999999998
 50
270.0
 51
360.0
 73
     1
 72
     1
 10
57.1359982063459
 20
15.67120196691029
 11
57.1359982063459
 21
23.82880196691075
 97
        8
330
2CF2D
330
2CF78
330
2CF2C
330
2CF4F
330
2CF52
330
2CF51
330
2CF53
330
2CF50
 75
     0
 76
     1
 52
0.0
 41
0.05
 77
     0
 78
     1
 53
45.0
 43
-51.08092790994942
 44
-182.3909795257899
 45
-0.1122532015133644
 46
0.1122532015133644
 79
     0
 98
        1
 10
-51.08092790994942
 20
-182.3909795257899
  0
LINE
  5
2CF2A
102
{ACAD_REACTORS
330
2CF19
102
}
330
2CF18
100
AcDbEntity
  8
0
100
AcDbLine
 10
46.38279820634578
 20
10.48000196691055
 30
0.0
 11
46.38279820634578
 21
27.1660019669107
 31
0.0
  0
LINE
  5
2CF2B
102
{ACAD_REACTORS
330
2CF29
102
}
330
2CF18
100
AcDbEntity
  8
0
100
AcDbLine
 10
48.23679820634605
 20
12.33400196691036
 30
0.0
 11
48.23679820634605
 21
27.1660019669107
 31
0.0
  0
ARC
  5
2CF2C
102
{ACAD_REACTORS
330
2CF29
102
}
330
2CF18
100
AcDbEntity
  8
0
100
AcDbCircle
 10
53.42799820634581
 20
23.82880196691075
 30
0.0
 40
1.112399999999998
100
AcDbArc
 50
90.0
 51
180.0
  0
ARC
  5
2CF2D
102
{ACAD_REACTORS
330
2CF29
102
}
330
2CF18
100
AcDbEntity
  8
0
100
AcDbCircle
 10
56.02359820634593
 20
23.82880196691075
 30
0.0
 40
1.112399999999998
100
AcDbArc
 50
0.0
 51
90.0
  0
LINE
  5
2CF2E
102
{ACAD_REACTORS
330
2CF27
102
}
330
2CF18
100
AcDbEntity
  8
0
100
AcDbLine
 10
63.06879820634595
 20
10.48000196691055
 30
0.0
 11
63.06879820634595
 21
41.9980019669101
 31
0.0
  0
LINE
  5
2CF2F
102
{ACAD_REACTORS
330
2CF27
102
}
330
2CF18
100
AcDbEntity
  8
0
100
AcDbLine
 10
67.14759820634572
 20
21.60400196691033
 30
0.0
 11
67.14759820634572
 21
41.9980019669101
 31
0.0
  0
LINE
  5
2CF30
102
{ACAD_REACTORS
330
2CF27
102
}
330
2CF18
100
AcDbEntity
  8
0
100
AcDbLine
 10
71.59719820634609
 20
29.02000196691051
 30
0.0
 11
67.14759820634572
 21
21.60400196691033
 31
0.0
  0
LINE
  5
2CF31
102
{ACAD_REACTORS
330
2CF29
102
}
330
2CF18
100
AcDbEntity
  8
0
100
AcDbLine
 10
61.21479820634613
 20
12.33400196691036
 30
0.0
 11
61.21479820634613
 21
27.1660019669107
 31
0.0
  0
LINE
  5
2CF32
330
2CF18
100
AcDbEntity
  8
0
100
AcDbLine
 10
94.99999820634592
 20
2.00000196691053
 30
0.0
 11
94.99999820634592
 21
42.00000196691052
 31
0.0
  0
HATCH
  5
2CF33
330
2CF18
100
AcDbEntity
  8
0
100
AcDbHatch
 10
0.0
 20
0.0
 30
0.0
210
0.0
220
0.0
230
1.0
  2
ANSI31
 70
     0
 71
     1
 91
        2
 92
        1
 93
       12
 72
     1
 10
89.39559820634622
 20
29.02000196691051
 11
78.27159820634597
 21
29.02000196691051
 72
     1
 10
78.27159820634597
 20
29.02000196691051
 11
78.27159820634597
 21
24.94120196691074
 72
     1
 10
78.27159820634597
 20
24.94120196691074
 11
87.17079820634578
 21
24.94120196691074
 72
     1
 10
87.17079820634578
 20
24.94120196691074
 11
87.17079820634578
 21
21.60400196691079
 72
     1
 10
87.17079820634578
 20
21.60400196691079
 11
80.12559820634578
 21
21.60400196691033
 72
     2
 10
80.12559820634578
 20
19.75000196691053
 40
1.853999999999998
 50
90.0
 51
180.0
 73
     1
 72
     1
 10
78.27159820634597
 20
19.75000196691053
 11
78.27159820634597
 21
12.33400196691036
 72
     2
 10
80.12559820634578
 20
12.33400196691036
 40
1.853999999999998
 50
180.0
 51
270.0
 73
     1
 72
     1
 10
80.12559820634578
 20
10.48000196691055
 11
89.39559820634622
 21
10.48000196691055
 72
     2
 10
89.39559820634622
 20
12.33400196691036
 40
1.853999999999998
 50
270.0
 51
360.0
 73
     1
 72
     1
 10
91.24959820634604
 20
12.33400196691036
 11
91.24959820634604
 21
27.1660019669107
 72
     2
 10
89.39559820634622
 20
27.1660019669107
 40
1.853999999999998
 50
0.0
 51
90.0
 73
     1
 97
       12
330
2CF6A
330
2CF7C
330
2CF6B
330
2CF35
330
2CF61
330
2CF39
330
2CF5E
330
2CF38
330
2CF60
330
2CF68
330
2CF34
330
2CF7D
 92
       16
 93
        6
 72
     2
 10
83.46279820634572
 20
16.41280196691059
 40
1.112399999999998
 50
90.0
 51
180.0
 73
     1
 72
     1
 10
82.35039820634574
 20
16.41280196691059
 11
82.35039820634574
 21
15.67120196691029
 72
     2
 10
83.46279820634572
 20
15.67120196691029
 40
1.112399999999998
 50
180.0
 51
270.0
 73
     1
 72
     1
 10
83.46279820634572
 20
14.55880196691031
 11
87.17079820634578
 21
14.55880196691031
 72
     1
 10
87.17079820634578
 20
14.55880196691031
 11
87.17079820634578
 21
17.52520196691056
 72
     1
 10
87.17079820634578
 20
17.52520196691056
 11
83.46279820634572
 21
17.52520196691056
 97
        6
330
2CF64
330
2CF66
330
2CF65
330
2CF62
330
2CF67
330
2CF63
 75
     0
 76
     1
 52
0.0
 41
0.05
 77
     0
 78
     1
 53
45.0
 43
-51.08092790994942
 44
-182.3909795257899
 45
-0.1122532015133644
 46
0.1122532015133644
 79
     0
 98
        1
 10
-51.08092790994942
 20
-182.3909795257899
  0
LINE
  5
2CF34
102
{ACAD_REACTORS
330
2CF33
102
}
330
2CF18
100
AcDbEntity
  8
0
100
AcDbLine
 10
91.24959820634604
 20
27.1660019669107
 30
0.0
 11
91.24959820634604
 21
12.33400196691036
 31
0.0
  0
LINE
  5
2CF35
102
{ACAD_REACTORS
330
2CF33
102
}
330
2CF18
100
AcDbEntity
  8
0
100
AcDbLine
 10
87.17079820634578
 20
24.94120196691074
 30
0.0
 11
87.17079820634578
 21
21.60400196691079
 31
0.0
  0
LINE
  5
2CF36
330
2CF18
100
AcDbEntity
  8
0
100
AcDbLine
 10
-0.0000017936540644
 20
42.00000196691052
 30
0.0
 11
-0.0000017936540644
 21
2.00000196691053
 31
0.0
  0
LINE
  5
2CF37
330
2CF18
100
AcDbEntity
  8
0
100
AcDbLine
 10
1.999998206345934
 20
0.0000019669105313
 30
0.0
 11
92.99999820634594
 21
0.0000019669105313
 31
0.0
  0
ARC
  5
2CF38
102
{ACAD_REACTORS
330
2CF33
102
}
330
2CF18
100
AcDbEntity
  8
0
100
AcDbCircle
 10
80.12559820634578
 20
12.33400196691036
 30
0.0
 40
1.853999999999998
100
AcDbArc
 50
180.0
 51
270.0
  0
ARC
  5
2CF39
102
{ACAD_REACTORS
330
2CF33
102
}
330
2CF18
100
AcDbEntity
  8
0
100
AcDbCircle
 10
80.12559820634578
 20
19.75000196691053
 30
0.0
 40
1.853999999999998
100
AcDbArc
 50
90.0
 51
180.0
  0
ARC
  5
2CF3A
330
2CF18
100
AcDbEntity
  8
0
100
AcDbCircle
 10
1.886798206346155
 20
11.53104308150977
 30
0.0
 40
14.832
100
AcDbArc
 50
321.8427734126485
 51
0.0
  0
LINE
  5
2CF3B
330
2CF18
100
AcDbEntity
  8
0
100
AcDbLine
 10
5.594798206346236
 20
19.75000196691053
 30
0.0
 11
12.63999820634579
 21
19.75000196691053
 31
0.0
  0
LINE
  5
2CF3C
330
2CF18
100
AcDbEntity
  8
0
100
AcDbLine
 10
8.931998206346179
 20
23.8288019669103
 30
0.0
 11
12.63999820634579
 21
23.82880196691075
 31
0.0
  0
ARC
  5
2CF3D
330
2CF18
100
AcDbEntity
  8
0
100
AcDbCircle
 10
5.594798206346236
 20
21.60400196691033
 30
0.0
 40
1.853999999999998
100
AcDbArc
 50
180.0
 51
270.0
  0
LINE
  5
2CF3E
330
2CF18
100
AcDbEntity
  8
0
100
AcDbLine
 10
12.63999820634579
 20
19.75000196691053
 30
0.0
 11
12.63999820634579
 21
1.210001966910567
 31
0.0
  0
LINE
  5
2CF3F
330
2CF18
100
AcDbEntity
  8
0
100
AcDbLine
 10
13.54947180776025
 20
2.367513823255649
 30
0.0
 11
12.63999820634579
 21
1.210001966910567
 31
0.0
  0
LINE
  5
2CF40
330
2CF18
100
AcDbEntity
  8
0
100
AcDbLine
 10
16.71879820634603
 20
11.59240196691053
 30
0.0
 11
16.71879820634603
 21
11.53104308150977
 31
0.0
  0
LINE
  5
2CF41
330
2CF18
100
AcDbEntity
  8
0
100
AcDbLine
 10
16.71879820634603
 20
11.59240196691053
 30
0.0
 11
16.71879820634603
 21
11.53104308150977
 31
0.0
  0
ARC
  5
2CF42
330
2CF18
100
AcDbEntity
  8
0
100
AcDbCircle
 10
1.999998206345934
 20
2.00000196691053
 30
0.0
 40
2.0
100
AcDbArc
 50
180.0
 51
270.0
  0
LINE
  5
2CF43
102
{ACAD_REACTORS
330
2CF1D
102
}
330
2CF18
100
AcDbEntity
  8
0
100
AcDbLine
 10
20.42679820634611
 20
10.48000196691009
 30
0.0
 11
29.6967982063461
 21
10.48000196691055
 31
0.0
  0
ARC
  5
2CF44
102
{ACAD_REACTORS
330
2CF1D
102
}
330
2CF18
100
AcDbEntity
  8
0
100
AcDbCircle
 10
26.35959820634615
 20
15.67120196691029
 30
0.0
 40
1.112399999999998
100
AcDbArc
 50
270.0
 51
0.0
  0
ARC
  5
2CF45
102
{ACAD_REACTORS
330
2CF1D
102
}
330
2CF18
100
AcDbEntity
  8
0
100
AcDbCircle
 10
20.42679820634611
 20
12.33400196691036
 30
0.0
 40
1.853999999999998
100
AcDbArc
 50
180.0
 51
270.0
  0
ARC
  5
2CF46
102
{ACAD_REACTORS
330
2CF1D
102
}
330
2CF18
100
AcDbEntity
  8
0
100
AcDbCircle
 10
23.76399820634606
 20
15.67120196691029
 30
0.0
 40
1.112399999999998
100
AcDbArc
 50
180.0
 51
270.0
  0
LINE
  5
2CF47
102
{ACAD_REACTORS
330
2CF1D
102
}
330
2CF18
100
AcDbEntity
  8
0
100
AcDbLine
 10
23.76399820634606
 20
14.55880196691031
 30
0.0
 11
26.35959820634615
 21
14.55880196691031
 31
0.0
  0
LINE
  5
2CF48
102
{ACAD_REACTORS
330
2CF19
102
}
330
2CF18
100
AcDbEntity
  8
0
100
AcDbLine
 10
33.40479820634618
 20
10.48000196691055
 30
0.0
 11
37.48359820634596
 21
10.48000196691055
 31
0.0
  0
ARC
  5
2CF49
102
{ACAD_REACTORS
330
2CF1D
102
}
330
2CF18
100
AcDbEntity
  8
0
100
AcDbCircle
 10
29.6967982063461
 20
12.33400196691036
 30
0.0
 40
1.853999999999998
100
AcDbArc
 50
270.0
 51
0.0
  0
LINE
  5
2CF4A
102
{ACAD_REACTORS
330
2CF19
102
}
330
2CF18
100
AcDbEntity
  8
0
100
AcDbLine
 10
37.48359820634596
 20
10.48000196691055
 30
0.0
 11
37.48359820634596
 21
23.82880196691075
 31
0.0
  0
LINE
  5
2CF4B
102
{ACAD_REACTORS
330
2CF29
102
}
330
2CF18
100
AcDbEntity
  8
0
100
AcDbLine
 10
59.36079820634586
 20
10.48000196691055
 30
0.0
 11
50.09079820634588
 21
10.48000196691055
 31
0.0
  0
LINE
  5
2CF4C
102
{ACAD_REACTORS
330
2CF19
102
}
330
2CF18
100
AcDbEntity
  8
0
100
AcDbLine
 10
42.30399820634602
 20
10.48000196691055
 30
0.0
 11
46.38279820634578
 21
10.48000196691055
 31
0.0
  0
LINE
  5
2CF4D
102
{ACAD_REACTORS
330
2CF19
102
}
330
2CF18
100
AcDbEntity
  8
0
100
AcDbLine
 10
42.30399820634602
 20
10.48000196691055
 30
0.0
 11
42.30399820634602
 21
23.82880196691075
 31
0.0
  0
ARC
  5
2CF4E
102
{ACAD_REACTORS
330
2CF29
102
}
330
2CF18
100
AcDbEntity
  8
0
100
AcDbCircle
 10
50.09079820634588
 20
12.33400196691036
 30
0.0
 40
1.853999999999998
100
AcDbArc
 50
180.0
 51
270.0
  0
LINE
  5
2CF4F
102
{ACAD_REACTORS
330
2CF29
102
}
330
2CF18
100
AcDbEntity
  8
0
100
AcDbLine
 10
52.31559820634584
 20
15.67120196691029
 30
0.0
 11
52.31559820634584
 21
23.82880196691075
 31
0.0
  0
LINE
  5
2CF50
102
{ACAD_REACTORS
330
2CF29
102
}
330
2CF18
100
AcDbEntity
  8
0
100
AcDbLine
 10
57.1359982063459
 20
15.67120196691029
 30
0.0
 11
57.1359982063459
 21
23.82880196691075
 31
0.0
  0
LINE
  5
2CF51
102
{ACAD_REACTORS
330
2CF29
102
}
330
2CF18
100
AcDbEntity
  8
0
100
AcDbLine
 10
56.02359820634593
 20
14.55880196691031
 30
0.0
 11
53.42799820634581
 21
14.55880196691031
 31
0.0
  0
ARC
  5
2CF52
102
{ACAD_REACTORS
330
2CF29
102
}
330
2CF18
100
AcDbEntity
  8
0
100
AcDbCircle
 10
53.42799820634581
 20
15.67120196691029
 30
0.0
 40
1.112399999999998
100
AcDbArc
 50
180.0
 51
270.0
  0
ARC
  5
2CF53
102
{ACAD_REACTORS
330
2CF29
102
}
330
2CF18
100
AcDbEntity
  8
0
100
AcDbCircle
 10
56.02359820634593
 20
15.67120196691029
 30
0.0
 40
1.112399999999998
100
AcDbArc
 50
270.0
 51
0.0
  0
ARC
  5
2CF54
102
{ACAD_REACTORS
330
2CF27
102
}
330
2CF18
100
AcDbEntity
  8
0
100
AcDbCircle
 10
74.56359820634588
 20
19.75000196691053
 30
0.0
 40
1.853999999999998
100
AcDbArc
 50
0.0
 51
90.0
  0
ARC
  5
2CF55
102
{ACAD_REACTORS
330
2CF29
102
}
330
2CF18
100
AcDbEntity
  8
0
100
AcDbCircle
 10
59.36079820634586
 20
12.33400196691036
 30
0.0
 40
1.853999999999998
100
AcDbArc
 50
270.0
 51
0.0
  0
LINE
  5
2CF56
102
{ACAD_REACTORS
330
2CF27
102
}
330
2CF18
100
AcDbEntity
  8
0
100
AcDbLine
 10
67.14759820634572
 20
17.52520196691056
 30
0.0
 11
71.22639820634595
 21
17.52520196691056
 31
0.0
  0
LINE
  5
2CF57
102
{ACAD_REACTORS
330
2CF27
102
}
330
2CF18
100
AcDbEntity
  8
0
100
AcDbLine
 10
67.14759820634572
 20
10.48000196691055
 30
0.0
 11
63.06879820634595
 21
10.48000196691055
 31
0.0
  0
LINE
  5
2CF58
102
{ACAD_REACTORS
330
2CF27
102
}
330
2CF18
100
AcDbEntity
  8
0
100
AcDbLine
 10
67.14759820634572
 20
10.48000196691055
 30
0.0
 11
67.14759820634572
 21
17.52520196691056
 31
0.0
  0
LINE
  5
2CF59
102
{ACAD_REACTORS
330
2CF27
102
}
330
2CF18
100
AcDbEntity
  8
0
100
AcDbLine
 10
76.41759820634615
 20
19.75000196691053
 30
0.0
 11
76.41759820634615
 21
10.48000196691055
 31
0.0
  0
LINE
  5
2CF5A
102
{ACAD_REACTORS
330
2CF27
102
}
330
2CF18
100
AcDbEntity
  8
0
100
AcDbLine
 10
76.41759820634615
 20
10.48000196691055
 30
0.0
 11
72.33879820634593
 21
10.48000196691055
 31
0.0
  0
ARC
  5
2CF5B
102
{ACAD_REACTORS
330
2CF27
102
}
330
2CF18
100
AcDbEntity
  8
0
100
AcDbCircle
 10
71.22639820634595
 20
16.41280196691059
 30
0.0
 40
1.112399999999998
100
AcDbArc
 50
0.0
 51
90.0
  0
LINE
  5
2CF5C
102
{ACAD_REACTORS
330
2CF27
102
}
330
2CF18
100
AcDbEntity
  8
0
100
AcDbLine
 10
72.33879820634593
 20
16.41280196691059
 30
0.0
 11
72.33879820634593
 21
10.48000196691055
 31
0.0
  0
LINE
  5
2CF5D
102
{ACAD_REACTORS
330
2CF27
102
}
330
2CF18
100
AcDbEntity
  8
0
100
AcDbLine
 10
72.33879820634593
 20
21.60400196691033
 30
0.0
 11
74.56359820634588
 21
21.60400196691079
 31
0.0
  0
LINE
  5
2CF5E
102
{ACAD_REACTORS
330
2CF33
102
}
330
2CF18
100
AcDbEntity
  8
0
100
AcDbLine
 10
78.27159820634597
 20
19.75000196691053
 30
0.0
 11
78.27159820634597
 21
12.33400196691036
 31
0.0
  0
ARC
  5
2CF5F
330
2CF18
100
AcDbEntity
  8
0
100
AcDbCircle
 10
92.99999820634594
 20
2.00000196691053
 30
0.0
 40
2.0
100
AcDbArc
 50
270.0
 51
0.0
  0
LINE
  5
2CF60
102
{ACAD_REACTORS
330
2CF33
102
}
330
2CF18
100
AcDbEntity
  8
0
100
AcDbLine
 10
89.39559820634622
 20
10.48000196691055
 30
0.0
 11
80.12559820634578
 21
10.48000196691055
 31
0.0
  0
LINE
  5
2CF61
102
{ACAD_REACTORS
330
2CF33
102
}
330
2CF18
100
AcDbEntity
  8
0
100
AcDbLine
 10
80.12559820634578
 20
21.60400196691033
 30
0.0
 11
87.17079820634578
 21
21.60400196691079
 31
0.0
  0
LINE
  5
2CF62
102
{ACAD_REACTORS
330
2CF33
102
}
330
2CF18
100
AcDbEntity
  8
0
100
AcDbLine
 10
87.17079820634578
 20
14.55880196691031
 30
0.0
 11
83.46279820634572
 21
14.55880196691031
 31
0.0
  0
LINE
  5
2CF63
102
{ACAD_REACTORS
330
2CF33
102
}
330
2CF18
100
AcDbEntity
  8
0
100
AcDbLine
 10
83.46279820634572
 20
17.52520196691056
 30
0.0
 11
87.17079820634578
 21
17.52520196691056
 31
0.0
  0
ARC
  5
2CF64
102
{ACAD_REACTORS
330
2CF33
102
}
330
2CF18
100
AcDbEntity
  8
0
100
AcDbCircle
 10
83.46279820634572
 20
16.41280196691059
 30
0.0
 40
1.112399999999998
100
AcDbArc
 50
90.0
 51
180.0
  0
ARC
  5
2CF65
102
{ACAD_REACTORS
330
2CF33
102
}
330
2CF18
100
AcDbEntity
  8
0
100
AcDbCircle
 10
83.46279820634572
 20
15.67120196691029
 30
0.0
 40
1.112399999999998
100
AcDbArc
 50
180.0
 51
270.0
  0
LINE
  5
2CF66
102
{ACAD_REACTORS
330
2CF33
102
}
330
2CF18
100
AcDbEntity
  8
0
100
AcDbLine
 10
82.35039820634574
 20
16.41280196691059
 30
0.0
 11
82.35039820634574
 21
15.67120196691029
 31
0.0
  0
LINE
  5
2CF67
102
{ACAD_REACTORS
330
2CF33
102
}
330
2CF18
100
AcDbEntity
  8
0
100
AcDbLine
 10
87.17079820634578
 20
17.52520196691056
 30
0.0
 11
87.17079820634578
 21
14.55880196691031
 31
0.0
  0
ARC
  5
2CF68
102
{ACAD_REACTORS
330
2CF33
102
}
330
2CF18
100
AcDbEntity
  8
0
100
AcDbCircle
 10
89.39559820634622
 20
12.33400196691036
 30
0.0
 40
1.853999999999998
100
AcDbArc
 50
270.0
 51
0.0
  0
LINE
  5
2CF69
330
2CF18
100
AcDbEntity
  8
0
100
AcDbLine
 10
92.99999820634594
 20
44.00000196691053
 30
0.0
 11
1.999998206345934
 21
44.00000196691053
 31
0.0
  0
LINE
  5
2CF6A
102
{ACAD_REACTORS
330
2CF33
102
}
330
2CF18
100
AcDbEntity
  8
0
100
AcDbLine
 10
89.39559820634622
 20
29.02000196691051
 30
0.0
 11
78.27159820634597
 21
29.02000196691051
 31
0.0
  0
LINE
  5
2CF6B
102
{ACAD_REACTORS
330
2CF33
102
}
330
2CF18
100
AcDbEntity
  8
0
100
AcDbLine
 10
87.17079820634578
 20
24.94120196691074
 30
0.0
 11
78.27159820634597
 21
24.94120196691074
 31
0.0
  0
LINE
  5
2CF6C
102
{ACAD_REACTORS
330
2CF19
102
}
330
2CF18
100
AcDbEntity
  8
0
100
AcDbLine
 10
35.258798206346
 20
29.02000196691051
 30
0.0
 11
44.52879820634598
 21
29.02000196691051
 31
0.0
  0
LINE
  5
2CF6D
330
2CF18
100
AcDbEntity
  8
0
100
AcDbLine
 10
7.819598206346197
 20
41.9980019669101
 30
0.0
 11
7.819598206346197
 21
24.94120196691074
 31
0.0
  0
LINE
  5
2CF6E
330
2CF18
100
AcDbEntity
  8
0
100
AcDbLine
 10
3.740798206345969
 20
41.9980019669101
 30
0.0
 11
7.819598206346197
 21
41.9980019669101
 31
0.0
  0
LINE
  5
2CF6F
330
2CF18
100
AcDbEntity
  8
0
100
AcDbLine
 10
12.63999820634579
 20
41.9980019669101
 30
0.0
 11
16.71879820634603
 21
41.9980019669101
 31
0.0
  0
ARC
  5
2CF70
330
2CF18
100
AcDbEntity
  8
0
100
AcDbCircle
 10
1.999998206345934
 20
42.00000196691052
 30
0.0
 40
2.0
100
AcDbArc
 50
90.0
 51
180.0
  0
LINE
  5
2CF71
102
{ACAD_REACTORS
330
2CF1D
102
}
330
2CF18
100
AcDbEntity
  8
0
100
AcDbLine
 10
18.57279820634585
 20
29.02000196691051
 30
0.0
 11
22.65159820634607
 21
29.02000196691051
 31
0.0
  0
LINE
  5
2CF72
102
{ACAD_REACTORS
330
2CF1D
102
}
330
2CF18
100
AcDbEntity
  8
0
100
AcDbLine
 10
27.47199820634614
 20
29.02000196691051
 30
0.0
 11
31.55079820634592
 21
29.02000196691051
 31
0.0
  0
ARC
  5
2CF73
102
{ACAD_REACTORS
330
2CF19
102
}
330
2CF18
100
AcDbEntity
  8
0
100
AcDbCircle
 10
35.258798206346
 20
27.1660019669107
 30
0.0
 40
1.853999999999998
100
AcDbArc
 50
90.0
 51
180.0
  0
LINE
  5
2CF74
102
{ACAD_REACTORS
330
2CF29
102
}
330
2CF18
100
AcDbEntity
  8
0
100
AcDbLine
 10
59.36079820634586
 20
29.02000196691051
 30
0.0
 11
50.09079820634588
 21
29.02000196691051
 31
0.0
  0
LINE
  5
2CF75
102
{ACAD_REACTORS
330
2CF19
102
}
330
2CF18
100
AcDbEntity
  8
0
100
AcDbLine
 10
38.59599820634594
 20
24.94120196691074
 30
0.0
 11
41.19159820634604
 21
24.94120196691074
 31
0.0
  0
ARC
  5
2CF76
102
{ACAD_REACTORS
330
2CF19
102
}
330
2CF18
100
AcDbEntity
  8
0
100
AcDbCircle
 10
44.52879820634598
 20
27.1660019669107
 30
0.0
 40
1.853999999999998
100
AcDbArc
 50
0.0
 51
90.0
  0
ARC
  5
2CF77
102
{ACAD_REACTORS
330
2CF29
102
}
330
2CF18
100
AcDbEntity
  8
0
100
AcDbCircle
 10
50.09079820634588
 20
27.1660019669107
 30
0.0
 40
1.853999999999998
100
AcDbArc
 50
90.0
 51
180.0
  0
LINE
  5
2CF78
102
{ACAD_REACTORS
330
2CF29
102
}
330
2CF18
100
AcDbEntity
  8
0
100
AcDbLine
 10
56.02359820634593
 20
24.94120196691074
 30
0.0
 11
53.42799820634581
 21
24.94120196691074
 31
0.0
  0
LINE
  5
2CF79
102
{ACAD_REACTORS
330
2CF27
102
}
330
2CF18
100
AcDbEntity
  8
0
100
AcDbLine
 10
76.78839820634585
 20
29.02000196691051
 30
0.0
 11
71.59719820634609
 21
29.02000196691051
 31
0.0
  0
ARC
  5
2CF7A
102
{ACAD_REACTORS
330
2CF29
102
}
330
2CF18
100
AcDbEntity
  8
0
100
AcDbCircle
 10
59.36079820634586
 20
27.1660019669107
 30
0.0
 40
1.853999999999998
100
AcDbArc
 50
0.0
 51
90.0
  0
LINE
  5
2CF7B
102
{ACAD_REACTORS
330
2CF27
102
}
330
2CF18
100
AcDbEntity
  8
0
100
AcDbLine
 10
63.06879820634595
 20
41.9980019669101
 30
0.0
 11
67.14759820634572
 21
41.9980019669101
 31
0.0
  0
LINE
  5
2CF7C
102
{ACAD_REACTORS
330
2CF33
102
}
330
2CF18
100
AcDbEntity
  8
0
100
AcDbLine
 10
78.27159820634597
 20
29.02000196691051
 30
0.0
 11
78.27159820634597
 21
24.94120196691074
 31
0.0
  0
ARC
  5
2CF7D
102
{ACAD_REACTORS
330
2CF33
102
}
330
2CF18
100
AcDbEntity
  8
0
100
AcDbCircle
 10
89.39559820634622
 20
27.1660019669107
 30
0.0
 40
1.853999999999998
100
AcDbArc
 50
0.0
 51
90.0
  0
ARC
  5
2CF7E
330
2CF18
100
AcDbEntity
  8
0
100
AcDbCircle
 10
92.99999820634594
 20
42.00000196691052
 30
0.0
 40
2.0
100
AcDbArc
 50
0.0
 51
90.0
  0
ENDBLK
  5
2CF80
330
2CF18
100
AcDbEntity
  8
0
100
AcDbBlockEnd
  0
BLOCK
  5
2D2A0
330
2D294
100
AcDbEntity
  8
0
100
AcDbBlockBegin
  2
*D6
 70
     1
 10
0.0
 20
0.0
 30
0.0
  3
*D6
  1

  0
LINE
  5
2D8FF
330
2D294
100
AcDbEntity
  8
DIM
 62
     0
370
    -2
100
AcDbLine
 10
985.1455509891687
 20
2626.373639567107
 30
0.0
 11
985.1455509891684
 21
2530.388900469647
 31
0.0
  0
LINE
  5
2D900
330
2D294
100
AcDbEntity
  8
DIM
 62
     0
370
    -2
100
AcDbLine
 10
1293.87638732971
 20
2757.042556213648
 30
0.0
 11
1367.337254189717
 21
2669.495304218151
 31
0.0
  0
ARC
  5
2D901
330
2D294
100
AcDbEntity
  8
DIM
 62
     0
370
    -2
100
AcDbCircle
 10
985.1455509891676
 20
3124.973639567106
 30
0.0
 40
564.5847390974583
100
AcDbArc
 50
274.5679467914591
 51
305.432053208541
  0
INSERT
  5
2D902
330
2D294
100
AcDbEntity
  8
DIM
 62
     0
370
    -2
100
AcDbBlockReference
  2
_Open30
 10
985.1455509891684
 20
2560.388900469647
 30
0.0
 41
45.0
 42
45.0
 43
45.0
 50
182.2839733957295
  0
INSERT
  5
2D903
330
2D294
100
AcDbEntity
  8
DIM
 62
     0
370
    -2
100
AcDbBlockReference
  2
_Open30
 10
1348.053625899122
 20
2692.47663751172
 30
0.0
 41
45.0
 42
45.0
 43
45.0
 50
37.71602660427054
  0
MTEXT
  5
2D904
330
2D294
100
AcDbEntity
  8
DIM
 62
     0
370
    18
100
AcDbMText
 10
1164.906118785065
 20
2631.085538639537
 30
0.0
 40
48.0
 41
0.0
 71
     5
 72
     1
  1
\A1;40°
 11
0.9396926207859076
 21
0.3420201433256709
 31
0.0
 73
     1
 44
1.0
  0
POINT
  5
2D905
330
2D294
100
AcDbEntity
  8
Defpoints
 62
     0
100
AcDbPoint
 10
1115.347752204022
 20
2575.607355180676
 30
0.0
  0
POINT
  5
2D906
330
2D294
100
AcDbEntity
  8
Defpoints
 62
     0
100
AcDbPoint
 10
985.1455509891668
 20
3554.9736395671
 30
0.0
  0
POINT
  5
2D907
330
2D294
100
AcDbEntity
  8
Defpoints
 62
     0
100
AcDbPoint
 10
1097.398476851404
 20
2991.195811891574
 30
0.0
  0
POINT
  5
2D908
330
2D294
100
AcDbEntity
  8
Defpoints
 62
     0
100
AcDbPoint
 10
1274.592759039115
 20
2780.023889507218
 30
0.0
  0
POINT
  5
2D909
330
2D294
100
AcDbEntity
  8
Defpoints
 62
     0
100
AcDbPoint
 10
985.1455509891687
 20
2656.373639567107
 30
0.0
  0
ENDBLK
  5
2D2A1
330
2D294
100
AcDbEntity
  8
0
100
AcDbBlockEnd
  0
BLOCK
  5
2D2AE
330
2D2A2
100
AcDbEntity
  8
0
100
AcDbBlockBegin
  2
*D7
 70
     1
 10
0.0
 20
0.0
 30
0.0
  3
*D7
  1

  0
LINE
  5
2D90A
330
2D2A2
100
AcDbEntity
  8
DIM
 62
     0
370
    -2
100
AcDbLine
 10
688.3503893508787
 20
2769.734425666984
 30
0.0
 11
604.8063054191599
 21
2669.491995112569
 31
0.0
  0
LINE
  5
2D90B
330
2D2A2
100
AcDbEntity
  8
DIM
 62
     0
370
    -2
100
AcDbLine
 10
985.1455509891684
 20
2626.373639567107
 30
0.0
 11
985.1455509891692
 21
2531.779147153728
 31
0.0
  0
ARC
  5
2D90C
330
2D2A2
100
AcDbEntity
  8
DIM
 62
     0
370
    -2
100
AcDbCircle
 10
985.1455509891676
 20
3125.851423774572
 30
0.0
 40
564.0722766208432
100
AcDbArc
 50
234.7635848562362
 51
265.4279010035156
  0
INSERT
  5
2D90D
330
2D2A2
100
AcDbEntity
  8
DIM
 62
     0
370
    -2
100
AcDbBlockReference
  2
_Open30
 10
624.0130211945579
 20
2692.537646961087
 30
0.0
 41
45.0
 42
45.0
 43
45.0
 50
142.4775353579939
  0
INSERT
  5
2D90E
330
2D2A2
100
AcDbEntity
  8
DIM
 62
     0
370
    -2
100
AcDbBlockReference
  2
_Open30
 10
985.1455509891687
 20
2561.779147153729
 30
0.0
 41
45.0
 42
45.0
 43
45.0
 50
357.7139505017579
  0
MTEXT
  5
2D90F
330
2D2A2
100
AcDbEntity
  8
DIM
 62
     0
370
    18
100
AcDbMText
 10
806.3850028526049
 20
2632.145476771995
 30
0.0
 40
48.0
 41
0.0
 71
     5
 72
     1
  1
\A1;40°
 11
0.9402628342518333
 21
-0.340449412578006
 31
0.0
 73
     1
 44
1.0
  0
POINT
  5
2D910
330
2D2A2
100
AcDbEntity
  8
Defpoints
 62
     0
100
AcDbPoint
 10
733.1140983541919
 20
2621.215237859486
 30
0.0
  0
POINT
  5
2D911
330
2D2A2
100
AcDbEntity
  8
Defpoints
 62
     0
100
AcDbPoint
 10
707.5571051262768
 20
2792.780077515501
 30
0.0
  0
POINT
  5
2D912
330
2D2A2
100
AcDbEntity
  8
Defpoints
 62
     0
100
AcDbPoint
 10
985.1455509891664
 20
3554.9736395671
 30
0.0
  0
POINT
  5
2D913
330
2D2A2
100
AcDbEntity
  8
Defpoints
 62
     0
100
AcDbPoint
 10
985.1455509891684
 20
2656.373639567107
 30
0.0
  0
POINT
  5
2D914
330
2D2A2
100
AcDbEntity
  8
Defpoints
 62
     0
100
AcDbPoint
 10
877.0584555335416
 20
2996.16045524478
 30
0.0
  0
ENDBLK
  5
2D2AF
330
2D2A2
100
AcDbEntity
  8
0
100
AcDbBlockEnd
  0
BLOCK
  5
2D2C6
330
2D2BC
100
AcDbEntity
  8
0
100
AcDbBlockBegin
  2
*D8
 70
     1
 10
0.0
 20
0.0
 30
0.0
  3
*D8
  1

  0
LINE
  5
2D8F6
330
2D2BC
100
AcDbEntity
  8
DIM
 62
     0
370
    -2
100
AcDbLine
 10
1027.65527974429
 20
3531.973639567103
 30
0.0
 11
1613.46565748925
 21
3531.973639567103
 31
0.0
  0
LINE
  5
2D8F7
330
2D2BC
100
AcDbEntity
  8
DIM
 62
     0
370
    -2
100
AcDbLine
 10
1015.145550989168
 20
2677.434695419222
 30
0.0
 11
1613.465657489249
 21
2677.434695419222
 31
0.0
  0
LINE
  5
2D8F8
330
2D2BC
100
AcDbEntity
  8
DIM
 62
     0
370
    -2
100
AcDbLine
 10
1583.46565748925
 20
3486.973639567104
 30
0.0
 11
1583.465657489249
 21
2722.434695419222
 31
0.0
  0
INSERT
  5
2D8F9
330
2D2BC
100
AcDbEntity
  8
DIM
 62
     0
370
    -2
100
AcDbBlockReference
  2
_Open30
 10
1583.46565748925
 20
3531.973639567103
 30
0.0
 41
45.0
 42
45.0
 43
45.0
 50
90.0
  0
INSERT
  5
2D8FA
330
2D2BC
100
AcDbEntity
  8
DIM
 62
     0
370
    -2
100
AcDbBlockReference
  2
_Open30
 10
1583.465657489249
 20
2677.434695419222
 30
0.0
 41
45.0
 42
45.0
 43
45.0
 50
270.0
  0
MTEXT
  5
2D8FB
330
2D2BC
100
AcDbEntity
  8
DIM
 62
     0
370
    18
100
AcDbMText
 10
1544.465657489249
 20
3104.704167493164
 30
0.0
 40
48.0
 41
0.0
 71
     5
 72
     1
  1
\A1;（855）
 11
0.0000000000000001
 21
1.0
 31
0.0
 73
     1
 44
1.0
  0
POINT
  5
2D8FC
330
2D2BC
100
AcDbEntity
  8
Defpoints
 62
     0
100
AcDbPoint
 10
997.65527974429
 20
3531.973639567103
 30
0.0
  0
POINT
  5
2D8FD
330
2D2BC
100
AcDbEntity
  8
Defpoints
 62
     0
100
AcDbPoint
 10
985.1455509891684
 20
2677.434695419222
 30
0.0
  0
POINT
  5
2D8FE
330
2D2BC
100
AcDbEntity
  8
Defpoints
 62
     0
100
AcDbPoint
 10
1583.465657489249
 20
2677.434695419222
 30
0.0
  0
ENDBLK
  5
2D2C7
330
2D2BC
100
AcDbEntity
  8
0
100
AcDbBlockEnd
  0
BLOCK
  5
2D2D2
330
2D2C8
100
AcDbEntity
  8
0
100
AcDbBlockBegin
  2
*D9
 70
     1
 10
0.0
 20
0.0
 30
0.0
  3
*D9
  1

  0
LINE
  5
2D8ED
330
2D2C8
100
AcDbEntity
  8
DIM
 62
     0
370
    -2
100
AcDbLine
 10
1406.245550989166
 20
3124.973639567102
 30
0.0
 11
1502.245550989166
 21
3124.973639567102
 31
0.0
  0
LINE
  5
2D8EE
330
2D2C8
100
AcDbEntity
  8
DIM
 62
     0
370
    -2
100
AcDbLine
 10
1015.145550989162
 20
2677.434695419222
 30
0.0
 11
1502.245550989166
 21
2677.434695419222
 31
0.0
  0
LINE
  5
2D8EF
330
2D2C8
100
AcDbEntity
  8
DIM
 62
     0
370
    -2
100
AcDbLine
 10
1472.245550989166
 20
3079.973639567102
 30
0.0
 11
1472.245550989166
 21
2722.434695419222
 31
0.0
  0
INSERT
  5
2D8F0
330
2D2C8
100
AcDbEntity
  8
DIM
 62
     0
370
    -2
100
AcDbBlockReference
  2
_Open30
 10
1472.245550989166
 20
3124.973639567102
 30
0.0
 41
45.0
 42
45.0
 43
45.0
 50
90.0
  0
INSERT
  5
2D8F1
330
2D2C8
100
AcDbEntity
  8
DIM
 62
     0
370
    -2
100
AcDbBlockReference
  2
_Open30
 10
1472.245550989166
 20
2677.434695419222
 30
0.0
 41
45.0
 42
45.0
 43
45.0
 50
270.0
  0
MTEXT
  5
2D8F2
330
2D2C8
100
AcDbEntity
  8
DIM
 62
     0
370
    18
100
AcDbMText
 10
1433.245550989165
 20
2901.204167493163
 30
0.0
 40
48.0
 41
0.0
 71
     5
 72
     1
  1
\A1;448
 11
0.0000000000000001
 21
1.0
 31
0.0
 73
     1
 44
1.0
  0
POINT
  5
2D8F3
330
2D2C8
100
AcDbEntity
  8
Defpoints
 62
     0
100
AcDbPoint
 10
1376.245550989166
 20
3124.973639567102
 30
0.0
  0
POINT
  5
2D8F4
330
2D2C8
100
AcDbEntity
  8
Defpoints
 62
     0
100
AcDbPoint
 10
985.1455509891627
 20
2677.434695419222
 30
0.0
  0
POINT
  5
2D8F5
330
2D2C8
100
AcDbEntity
  8
Defpoints
 62
     0
100
AcDbPoint
 10
1472.245550989166
 20
2677.434695419222
 30
0.0
  0
ENDBLK
  5
2D2D3
330
2D2C8
100
AcDbEntity
  8
0
100
AcDbBlockEnd
  0
BLOCK
  5
2D2E0
330
2D2D4
100
AcDbEntity
  8
0
100
AcDbBlockBegin
  2
*D10
 70
     1
 10
0.0
 20
0.0
 30
0.0
  3
*D10
  1

  0
LINE
  5
2DA43
330
2D2D4
100
AcDbEntity
  8
DIM
 62
     0
370
    -2
100
AcDbLine
 10
583.2866596643316
 20
287.5519904754836
 30
0.0
 11
535.2866596643316
 21
287.5519904754836
 31
0.0
  0
LINE
  5
2DA44
330
2D2D4
100
AcDbEntity
  8
DIM
 62
     0
370
    -2
100
AcDbLine
 10
705.9446517087954
 20
380.8519904754837
 30
0.0
 11
535.2866596643317
 21
380.8519904754837
 31
0.0
  0
LINE
  5
2DA45
330
2D2D4
100
AcDbEntity
  8
DIM
 62
     0
370
    -2
100
AcDbLine
 10
565.2866596643316
 20
242.5519904754835
 30
0.0
 11
565.2866596643316
 21
197.5519904754835
 31
0.0
  0
LINE
  5
2DA46
330
2D2D4
100
AcDbEntity
  8
DIM
 62
     0
370
    -2
100
AcDbLine
 10
565.2866596643317
 20
425.8519904754836
 30
0.0
 11
565.2866596643317
 21
470.8519904754838
 31
0.0
  0
LINE
  5
2DA47
330
2D2D4
100
AcDbEntity
  8
DIM
 62
     0
370
    -2
100
AcDbLine
 10
565.2866596643316
 20
287.5519904754836
 30
0.0
 11
565.2866596643317
 21
380.8519904754837
 31
0.0
  0
INSERT
  5
2DA48
330
2D2D4
100
AcDbEntity
  8
DIM
 62
     0
370
    -2
100
AcDbBlockReference
  2
_Open30
 10
565.2866596643316
 20
287.5519904754836
 30
0.0
 41
45.0
 42
45.0
 43
45.0
 50
90.0
  0
INSERT
  5
2DA49
330
2D2D4
100
AcDbEntity
  8
DIM
 62
     0
370
    -2
100
AcDbBlockReference
  2
_Open30
 10
565.2866596643317
 20
380.8519904754837
 30
0.0
 41
45.0
 42
45.0
 43
45.0
 50
270.0
  0
MTEXT
  5
2DA4A
330
2D2D4
100
AcDbEntity
  8
DIM
 62
     0
370
    18
100
AcDbMText
 10
526.2866596643316
 20
334.2019904754838
 30
0.0
 40
48.0
 41
0.0
 71
     5
 72
     1
  1
\A1;90
 11
0.0000000000000001
 21
1.0
 31
0.0
 73
     1
 44
1.0
  0
POINT
  5
2DA4B
330
2D2D4
100
AcDbEntity
  8
Defpoints
 62
     0
100
AcDbPoint
 10
613.2866596643316
 20
287.5519904754836
 30
0.0
  0
POINT
  5
2DA4C
330
2D2D4
100
AcDbEntity
  8
Defpoints
 62
     0
100
AcDbPoint
 10
735.9446517087953
 20
380.8519904754837
 30
0.0
  0
POINT
  5
2DA4D
330
2D2D4
100
AcDbEntity
  8
Defpoints
 62
     0
100
AcDbPoint
 10
565.2866596643317
 20
380.8519904754837
 30
0.0
  0
ENDBLK
  5
2D2E1
330
2D2D4
100
AcDbEntity
  8
0
100
AcDbBlockEnd
  0
BLOCK
  5
2D2EC
330
2D2E2
100
AcDbEntity
  8
0
100
AcDbBlockBegin
  2
*D11
 70
     1
 10
0.0
 20
0.0
 30
0.0
  3
*D11
  1

  0
LINE
  5
2DA63
330
2D2E2
100
AcDbEntity
  8
DIM
 62
     0
370
    -2
100
AcDbLine
 10
1028.745550989166
 20
2269.551990475481
 30
0.0
 11
1728.528057586674
 21
2269.551990475481
 31
0.0
  0
LINE
  5
2DA64
330
2D2E2
100
AcDbEntity
  8
DIM
 62
     0
370
    -2
100
AcDbLine
 10
1015.145550989166
 20
287.551990475484
 30
0.0
 11
1728.528057586673
 21
287.5519904754838
 31
0.0
  0
LINE
  5
2DA65
330
2D2E2
100
AcDbEntity
  8
DIM
 62
     0
370
    -2
100
AcDbLine
 10
1698.528057586674
 20
2224.551990475482
 30
0.0
 11
1698.528057586673
 21
332.5519904754838
 31
0.0
  0
INSERT
  5
2DA66
330
2D2E2
100
AcDbEntity
  8
DIM
 62
     0
370
    -2
100
AcDbBlockReference
  2
_Open30
 10
1698.528057586674
 20
2269.551990475481
 30
0.0
 41
45.0
 42
45.0
 43
45.0
 50
90.0
  0
INSERT
  5
2DA67
330
2D2E2
100
AcDbEntity
  8
DIM
 62
     0
370
    -2
100
AcDbBlockReference
  2
_Open30
 10
1698.528057586673
 20
287.5519904754838
 30
0.0
 41
45.0
 42
45.0
 43
45.0
 50
270.0
  0
MTEXT
  5
2DA68
330
2D2E2
100
AcDbEntity
  8
DIM
 62
     0
370
    18
100
AcDbMText
 10
1659.528057586673
 20
1278.551990475484
 30
0.0
 40
48.0
 41
0.0
 71
     5
 72
     1
  1
\A1;1982
 11
0.0000000000000001
 21
1.0
 31
0.0
 73
     1
 44
1.0
  0
POINT
  5
2DA69
330
2D2E2
100
AcDbEntity
  8
Defpoints
 62
     0
100
AcDbPoint
 10
998.7455509891679
 20
2269.551990475481
 30
0.0
  0
POINT
  5
2DA6A
330
2D2E2
100
AcDbEntity
  8
Defpoints
 62
     0
100
AcDbPoint
 10
985.1455509891666
 20
287.551990475484
 30
0.0
  0
POINT
  5
2DA6B
330
2D2E2
100
AcDbEntity
  8
Defpoints
 62
     0
100
AcDbPoint
 10
1698.528057586673
 20
287.5519904754838
 30
0.0
  0
ENDBLK
  5
2D2ED
330
2D2E2
100
AcDbEntity
  8
0
100
AcDbBlockEnd
  0
BLOCK
  5
2D2F8
330
2D2EE
100
AcDbEntity
  8
0
100
AcDbBlockBegin
  2
*D12
 70
     1
 10
0.0
 20
0.0
 30
0.0
  3
*D12
  1

  0
LINE
  5
2DA6C
330
2D2EE
100
AcDbEntity
  8
DIM
 62
     0
370
    -2
100
AcDbLine
 10
1377.645550989164
 20
2209.551990475484
 30
0.0
 11
1613.46565748925
 21
2209.551990475484
 31
0.0
  0
LINE
  5
2DA6D
330
2D2EE
100
AcDbEntity
  8
DIM
 62
     0
370
    -2
100
AcDbLine
 10
1375.245550989049
 20
327.5519904754844
 30
0.0
 11
1613.465657489249
 21
327.5519904754842
 31
0.0
  0
LINE
  5
2DA6E
330
2D2EE
100
AcDbEntity
  8
DIM
 62
     0
370
    -2
100
AcDbLine
 10
1583.46565748925
 20
2164.551990475481
 30
0.0
 11
1583.465657489249
 21
372.5519904754842
 31
0.0
  0
INSERT
  5
2DA6F
330
2D2EE
100
AcDbEntity
  8
DIM
 62
     0
370
    -2
100
AcDbBlockReference
  2
_Open30
 10
1583.46565748925
 20
2209.551990475484
 30
0.0
 41
45.0
 42
45.0
 43
45.0
 50
90.0
  0
INSERT
  5
2DA70
330
2D2EE
100
AcDbEntity
  8
DIM
 62
     0
370
    -2
100
AcDbBlockReference
  2
_Open30
 10
1583.465657489249
 20
327.5519904754842
 30
0.0
 41
45.0
 42
45.0
 43
45.0
 50
270.0
  0
MTEXT
  5
2DA71
330
2D2EE
100
AcDbEntity
  8
DIM
 62
     0
370
    18
100
AcDbMText
 10
1544.465657489249
 20
1268.551990475484
 30
0.0
 40
48.0
 41
0.0
 71
     5
 72
     1
  1
\A1;1882
 11
0.0000000000000001
 21
1.0
 31
0.0
 73
     1
 44
1.0
  0
POINT
  5
2DA72
330
2D2EE
100
AcDbEntity
  8
Defpoints
 62
     0
100
AcDbPoint
 10
1347.645550989164
 20
2209.551990475484
 30
0.0
  0
POINT
  5
2DA73
330
2D2EE
100
AcDbEntity
  8
Defpoints
 62
     0
100
AcDbPoint
 10
1345.245550989049
 20
327.5519904754844
 30
0.0
  0
POINT
  5
2DA74
330
2D2EE
100
AcDbEntity
  8
Defpoints
 62
     0
100
AcDbPoint
 10
1583.465657489249
 20
327.5519904754842
 30
0.0
  0
ENDBLK
  5
2D2F9
330
2D2EE
100
AcDbEntity
  8
0
100
AcDbBlockEnd
  0
BLOCK
  5
2D306
330
2D2FA
100
AcDbEntity
  8
0
100
AcDbBlockBegin
  2
*D13
 70
     1
 10
0.0
 20
0.0
 30
0.0
  3
*D13
  1

  0
LINE
  5
2DA12
330
2D2FA
100
AcDbEntity
  8
DIM
 62
     0
370
    -2
100
AcDbLine
 10
1375.245550989049
 20
327.5519904754844
 30
0.0
 11
1613.465657489249
 21
327.5519904754842
 31
0.0
  0
LINE
  5
2DA13
330
2D2FA
100
AcDbEntity
  8
DIM
 62
     0
370
    -2
100
AcDbLine
 10
1350.695518579372
 20
287.5519904754832
 30
0.0
 11
1613.465657489249
 21
287.551990475483
 31
0.0
  0
LINE
  5
2DA14
330
2D2FA
100
AcDbEntity
  8
DIM
 62
     0
370
    -2
100
AcDbLine
 10
1583.465657489249
 20
372.5519904754842
 30
0.0
 11
1583.465657489249
 21
417.5519904754843
 31
0.0
  0
LINE
  5
2DA15
330
2D2FA
100
AcDbEntity
  8
DIM
 62
     0
370
    -2
100
AcDbLine
 10
1583.465657489249
 20
242.5519904754831
 30
0.0
 11
1583.465657489249
 21
105.3805619040545
 31
0.0
  0
LINE
  5
2DA16
330
2D2FA
100
AcDbEntity
  8
DIM
 62
     0
370
    -2
100
AcDbLine
 10
1583.465657489249
 20
327.5519904754842
 30
0.0
 11
1583.465657489249
 21
287.551990475483
 31
0.0
  0
INSERT
  5
2DA17
330
2D2FA
100
AcDbEntity
  8
DIM
 62
     0
370
    -2
100
AcDbBlockReference
  2
_Open30
 10
1583.465657489249
 20
327.5519904754842
 30
0.0
 41
45.0
 42
45.0
 43
45.0
 50
270.0
  0
INSERT
  5
2DA18
330
2D2FA
100
AcDbEntity
  8
DIM
 62
     0
370
    -2
100
AcDbBlockReference
  2
_Open30
 10
1583.465657489249
 20
287.551990475483
 30
0.0
 41
45.0
 42
45.0
 43
45.0
 50
90.0
  0
MTEXT
  5
2DA19
330
2D2FA
100
AcDbEntity
  8
DIM
 62
     0
370
    18
100
AcDbMText
 10
1544.465657489249
 20
151.466276189769
 30
0.0
 40
48.0
 41
0.0
 71
     5
 72
     1
  1
\A1;40
 11
0.0000000000000001
 21
1.0
 31
0.0
 73
     1
 44
1.0
  0
POINT
  5
2DA1A
330
2D2FA
100
AcDbEntity
  8
Defpoints
 62
     0
100
AcDbPoint
 10
1345.245550989049
 20
327.5519904754844
 30
0.0
  0
POINT
  5
2DA1B
330
2D2FA
100
AcDbEntity
  8
Defpoints
 62
     0
100
AcDbPoint
 10
1320.695518579372
 20
287.5519904754832
 30
0.0
  0
POINT
  5
2DA1C
330
2D2FA
100
AcDbEntity
  8
Defpoints
 62
     0
100
AcDbPoint
 10
1583.465657489249
 20
287.551990475483
 30
0.0
  0
ENDBLK
  5
2D307
330
2D2FA
100
AcDbEntity
  8
0
100
AcDbBlockEnd
  0
BLOCK
  5
2D314
330
2D308
100
AcDbEntity
  8
0
100
AcDbBlockBegin
  2
*D14
 70
     1
 10
0.0
 20
0.0
 30
0.0
  3
*D14
  1

  0
LINE
  5
2DA75
330
2D308
100
AcDbEntity
  8
DIM
 62
     0
370
    -2
100
AcDbLine
 10
1377.645550989164
 20
2209.551990475484
 30
0.0
 11
1613.465657489249
 21
2209.551990475484
 31
0.0
  0
LINE
  5
2DA76
330
2D308
100
AcDbEntity
  8
DIM
 62
     0
370
    -2
100
AcDbLine
 10
1028.745550989166
 20
2269.551990475481
 30
0.0
 11
1613.465657489249
 21
2269.551990475481
 31
0.0
  0
LINE
  5
2DA77
330
2D308
100
AcDbEntity
  8
DIM
 62
     0
370
    -2
100
AcDbLine
 10
1583.465657489249
 20
2164.551990475481
 30
0.0
 11
1583.465657489249
 21
2119.551990475482
 31
0.0
  0
LINE
  5
2DA78
330
2D308
100
AcDbEntity
  8
DIM
 62
     0
370
    -2
100
AcDbLine
 10
1583.465657489249
 20
2314.551990475483
 30
0.0
 11
1583.465657489249
 21
2451.723419046911
 31
0.0
  0
LINE
  5
2DA79
330
2D308
100
AcDbEntity
  8
DIM
 62
     0
370
    -2
100
AcDbLine
 10
1583.465657489249
 20
2209.551990475484
 30
0.0
 11
1583.465657489249
 21
2269.551990475481
 31
0.0
  0
INSERT
  5
2DA7A
330
2D308
100
AcDbEntity
  8
DIM
 62
     0
370
    -2
100
AcDbBlockReference
  2
_Open30
 10
1583.465657489249
 20
2209.551990475484
 30
0.0
 41
45.0
 42
45.0
 43
45.0
 50
90.0
  0
INSERT
  5
2DA7B
330
2D308
100
AcDbEntity
  8
DIM
 62
     0
370
    -2
100
AcDbBlockReference
  2
_Open30
 10
1583.465657489249
 20
2269.551990475481
 30
0.0
 41
45.0
 42
45.0
 43
45.0
 50
270.0
  0
MTEXT
  5
2DA7C
330
2D308
100
AcDbEntity
  8
DIM
 62
     0
370
    18
100
AcDbMText
 10
1544.465657489249
 20
2405.637704761198
 30
0.0
 40
48.0
 41
0.0
 71
     5
 72
     1
  1
\A1;60
 11
0.0000000000000001
 21
1.0
 31
0.0
 73
     1
 44
1.0
  0
POINT
  5
2DA7D
330
2D308
100
AcDbEntity
  8
Defpoints
 62
     0
100
AcDbPoint
 10
1347.645550989164
 20
2209.551990475484
 30
0.0
  0
POINT
  5
2DA7E
330
2D308
100
AcDbEntity
  8
Defpoints
 62
     0
100
AcDbPoint
 10
998.7455509891676
 20
2269.551990475481
 30
0.0
  0
POINT
  5
2DA7F
330
2D308
100
AcDbEntity
  8
Defpoints
 62
     0
100
AcDbPoint
 10
1583.465657489249
 20
2269.551990475481
 30
0.0
  0
ENDBLK
  5
2D315
330
2D308
100
AcDbEntity
  8
0
100
AcDbBlockEnd
  0
BLOCK
  5
2D320
330
2D316
100
AcDbEntity
  8
0
100
AcDbBlockBegin
  2
*D15
 70
     1
 10
0.0
 20
0.0
 30
0.0
  3
*D15
  1

  0
LINE
  5
2DA5A
330
2D316
100
AcDbEntity
  8
DIM
 62
     0
370
    -2
100
AcDbLine
 10
617.6455509891662
 20
2234.551990475484
 30
0.0
 11
617.6455509891662
 21
2396.551990475483
 31
0.0
  0
LINE
  5
2DA5B
330
2D316
100
AcDbEntity
  8
DIM
 62
     0
370
    -2
100
AcDbLine
 10
1352.645550989163
 20
2234.551990475484
 30
0.0
 11
1352.645550989163
 21
2396.551990475483
 31
0.0
  0
LINE
  5
2DA5C
330
2D316
100
AcDbEntity
  8
DIM
 62
     0
370
    -2
100
AcDbLine
 10
662.6455509891663
 20
2366.551990475484
 30
0.0
 11
1307.645550989164
 21
2366.551990475484
 31
0.0
  0
INSERT
  5
2DA5D
330
2D316
100
AcDbEntity
  8
DIM
 62
     0
370
    -2
100
AcDbBlockReference
  2
_Open30
 10
617.6455509891662
 20
2366.551990475484
 30
0.0
 41
45.0
 42
45.0
 43
45.0
 50
180.0
  0
INSERT
  5
2DA5E
330
2D316
100
AcDbEntity
  8
DIM
 62
     0
370
    -2
100
AcDbBlockReference
  2
_Open30
 10
1352.645550989163
 20
2366.551990475484
 30
0.0
 41
45.0
 42
45.0
 43
45.0
  0
MTEXT
  5
2DA5F
330
2D316
100
AcDbEntity
  8
DIM
 62
     0
370
    18
100
AcDbMText
 10
985.1455509891655
 20
2405.551990475482
 30
0.0
 40
48.0
 41
0.0
 71
     5
 72
     1
  1
\A1;φ735（直径）
 73
     1
 44
1.0
  0
POINT
  5
2DA60
330
2D316
100
AcDbEntity
  8
Defpoints
 62
     0
100
AcDbPoint
 10
617.6455509891662
 20
2204.551990475482
 30
0.0
  0
POINT
  5
2DA61
330
2D316
100
AcDbEntity
  8
Defpoints
 62
     0
100
AcDbPoint
 10
1352.645550989163
 20
2204.551990475482
 30
0.0
  0
POINT
  5
2DA62
330
2D316
100
AcDbEntity
  8
Defpoints
 62
     0
100
AcDbPoint
 10
1352.645550989163
 20
2366.551990475484
 30
0.0
  0
ENDBLK
  5
2D321
330
2D316
100
AcDbEntity
  8
0
100
AcDbBlockEnd
  0
BLOCK
  5
2D59B
330
2D591
100
AcDbEntity
  8
0
100
AcDbBlockBegin
  2
*D16
 70
     1
 10
0.0
 20
0.0
 30
0.0
  3
*D16
  1

  0
ARC
  5
2D83D
330
2D591
100
AcDbEntity
  8
DIM
 62
     0
370
    -2
100
AcDbCircle
 10
2421.928370516559
 20
2978.399429852529
 30
0.0
 40
150.8396731832274
100
AcDbArc
 50
347.157080511618
 51
72.84291948838165
  0
INSERT
  5
2D83E
330
2D591
100
AcDbEntity
  8
DIM
 62
     0
370
    -2
100
AcDbBlockReference
  2
_Open30
 10
2552.559359391779
 20
2902.979593260915
 30
0.0
 41
45.0
 42
45.0
 43
45.0
 50
248.5785402558088
  0
INSERT
  5
2D83F
330
2D591
100
AcDbEntity
  8
DIM
 62
     0
370
    -2
100
AcDbBlockReference
  2
_Open30
 10
2421.928370516562
 20
3129.239103035757
 30
0.0
 41
45.0
 42
45.0
 43
45.0
 50
171.4214597441908
  0
MTEXT
  5
2D840
330
2D591
100
AcDbEntity
  8
DIM
 62
     0
370
    18
100
AcDbMText
 10
2586.334350139372
 20
3073.319266444143
 30
0.0
 40
48.0
 41
0.0
 71
     5
 72
     1
  1
\A1;120°
 11
0.4999999999999973
 21
-0.8660254037844403
 31
0.0
 73
     1
 44
1.0
  0
POINT
  5
2D841
330
2D591
100
AcDbEntity
  8
Defpoints
 62
     0
100
AcDbPoint
 10
2570.476450129232
 20
3004.592464220671
 30
0.0
  0
POINT
  5
2D842
330
2D591
100
AcDbEntity
  8
Defpoints
 62
     0
100
AcDbPoint
 10
2747.370656857166
 20
2790.505238228091
 30
0.0
  0
POINT
  5
2D843
330
2D591
100
AcDbEntity
  8
Defpoints
 62
     0
100
AcDbPoint
 10
2421.928370516559
 20
2496.366833618837
 30
0.0
  0
POINT
  5
2D844
330
2D591
100
AcDbEntity
  8
Defpoints
 62
     0
100
AcDbPoint
 10
2421.928370516562
 20
3378.399429852524
 30
0.0
  0
POINT
  5
2D845
330
2D591
100
AcDbEntity
  8
Defpoints
 62
     0
100
AcDbPoint
 10
2421.928370516559
 20
2978.399429852529
 30
0.0
  0
ENDBLK
  5
2D59C
330
2D591
100
AcDbEntity
  8
0
100
AcDbBlockEnd
  0
BLOCK
  5
2D5A7
330
2D59D
100
AcDbEntity
  8
0
100
AcDbBlockBegin
  2
*D17
 70
     1
 10
0.0
 20
0.0
 30
0.0
  3
*D17
  1

  0
ARC
  5
2D82B
330
2D59D
100
AcDbEntity
  8
DIM
 62
     0
370
    -2
100
AcDbCircle
 10
2421.928370516559
 20
2978.399429852528
 30
0.0
 40
150.8396731832253
100
AcDbArc
 50
107.1570805116184
 51
192.8429194883815
  0
INSERT
  5
2D82C
330
2D59D
100
AcDbEntity
  8
DIM
 62
     0
370
    -2
100
AcDbBlockReference
  2
_Open30
 10
2421.928370516559
 20
3129.239103035754
 30
0.0
 41
45.0
 42
45.0
 43
45.0
 50
8.578540255809285
  0
INSERT
  5
2D82D
330
2D59D
100
AcDbEntity
  8
DIM
 62
     0
370
    -2
100
AcDbBlockReference
  2
_Open30
 10
2291.297381641346
 20
2902.979593260915
 30
0.0
 41
45.0
 42
45.0
 43
45.0
 50
291.4214597441908
  0
MTEXT
  5
2D82E
330
2D59D
100
AcDbEntity
  8
DIM
 62
     0
370
    18
100
AcDbMText
 10
2257.52239089375
 20
3073.319266444141
 30
0.0
 40
48.0
 41
0.0
 71
     5
 72
     1
  1
\A1;120°
 11
0.4999999999999984
 21
0.8660254037844396
 31
0.0
 73
     1
 44
1.0
  0
POINT
  5
2D82F
330
2D59D
100
AcDbEntity
  8
Defpoints
 62
     0
100
AcDbPoint
 10
2324.970497545217
 20
3093.949323296421
 30
0.0
  0
POINT
  5
2D830
330
2D59D
100
AcDbEntity
  8
Defpoints
 62
     0
100
AcDbPoint
 10
2096.486084175954
 20
2790.50523822809
 30
0.0
  0
POINT
  5
2D831
330
2D59D
100
AcDbEntity
  8
Defpoints
 62
     0
100
AcDbPoint
 10
2421.928370516559
 20
2496.366833618836
 30
0.0
  0
POINT
  5
2D832
330
2D59D
100
AcDbEntity
  8
Defpoints
 62
     0
100
AcDbPoint
 10
2421.928370516559
 20
3378.399429852523
 30
0.0
  0
POINT
  5
2D833
330
2D59D
100
AcDbEntity
  8
Defpoints
 62
     0
100
AcDbPoint
 10
2421.928370516559
 20
2978.399429852528
 30
0.0
  0
ENDBLK
  5
2D5A8
330
2D59D
100
AcDbEntity
  8
0
100
AcDbBlockEnd
  0
BLOCK
  5
2D5B3
330
2D5A9
100
AcDbEntity
  8
0
100
AcDbBlockBegin
  2
*D18
 70
     1
 10
0.0
 20
0.0
 30
0.0
  3
*D18
  1

  0
LINE
  5
2D9DD
330
2D5A9
100
AcDbEntity
  8
DIM
 62
     0
370
    -2
100
AcDbLine
 10
2082.446412233052
 20
2812.399429852524
 30
0.0
 11
2082.446412233052
 21
3624.543785904835
 31
0.0
  0
LINE
  5
2D9DE
330
2D5A9
100
AcDbEntity
  8
DIM
 62
     0
370
    -2
100
AcDbLine
 10
2761.410328800052
 20
2812.399429852514
 30
0.0
 11
2761.410328800052
 21
3624.543785904835
 31
0.0
  0
LINE
  5
2D9DF
330
2D5A9
100
AcDbEntity
  8
DIM
 62
     0
370
    -2
100
AcDbLine
 10
2127.446412233052
 20
3594.543785904836
 30
0.0
 11
2716.410328800052
 21
3594.543785904836
 31
0.0
  0
INSERT
  5
2D9E0
330
2D5A9
100
AcDbEntity
  8
DIM
 62
     0
370
    -2
100
AcDbBlockReference
  2
_Open30
 10
2082.446412233052
 20
3594.543785904836
 30
0.0
 41
45.0
 42
45.0
 43
45.0
 50
180.0
  0
INSERT
  5
2D9E1
330
2D5A9
100
AcDbEntity
  8
DIM
 62
     0
370
    -2
100
AcDbBlockReference
  2
_Open30
 10
2761.410328800052
 20
3594.543785904836
 30
0.0
 41
45.0
 42
45.0
 43
45.0
  0
MTEXT
  5
2D9E2
330
2D5A9
100
AcDbEntity
  8
DIM
 62
     0
370
    18
100
AcDbMText
 10
2421.928370516559
 20
3633.543785904835
 30
0.0
 40
48.0
 41
0.0
 71
     5
 72
     1
  1
\A1;679
 73
     1
 44
1.0
  0
POINT
  5
2D9E3
330
2D5A9
100
AcDbEntity
  8
Defpoints
 62
     0
100
AcDbPoint
 10
2082.446412233052
 20
2782.399429852524
 30
0.0
  0
POINT
  5
2D9E4
330
2D5A9
100
AcDbEntity
  8
Defpoints
 62
     0
100
AcDbPoint
 10
2761.410328800052
 20
2782.399429852514
 30
0.0
  0
POINT
  5
2D9E5
330
2D5A9
100
AcDbEntity
  8
Defpoints
 62
     0
100
AcDbPoint
 10
2761.410328800052
 20
3594.543785904836
 30
0.0
  0
ENDBLK
  5
2D5B4
330
2D5A9
100
AcDbEntity
  8
0
100
AcDbBlockEnd
  0
BLOCK
  5
2D5C1
330
2D5B5
100
AcDbEntity
  8
0
100
AcDbBlockBegin
  2
*D19
 70
     1
 10
0.0
 20
0.0
 30
0.0
  3
*D19
  1

  0
LINE
  5
2D987
330
2D5B5
100
AcDbEntity
  8
DIM
 62
     0
370
    -2
100
AcDbLine
 10
2451.928370516537
 20
3370.399429852523
 30
0.0
 11
2937.928370516555
 21
3370.399429852523
 31
0.0
  0
LINE
  5
2D988
330
2D5B5
100
AcDbEntity
  8
DIM
 62
     0
370
    -2
100
AcDbLine
 10
2464.438099271661
 20
3385.399429852523
 30
0.0
 11
2937.928370516555
 21
3385.399429852523
 31
0.0
  0
LINE
  5
2D989
330
2D5B5
100
AcDbEntity
  8
DIM
 62
     0
370
    -2
100
AcDbLine
 10
2907.928370516556
 20
3325.399429852523
 30
0.0
 11
2907.928370516556
 21
3280.399429852523
 31
0.0
  0
LINE
  5
2D98A
330
2D5B5
100
AcDbEntity
  8
DIM
 62
     0
370
    -2
100
AcDbLine
 10
2907.928370516556
 20
3430.399429852523
 30
0.0
 11
2907.928370516556
 21
3560.256572709666
 31
0.0
  0
LINE
  5
2D98B
330
2D5B5
100
AcDbEntity
  8
DIM
 62
     0
370
    -2
100
AcDbLine
 10
2907.928370516556
 20
3370.399429852523
 30
0.0
 11
2907.928370516556
 21
3385.399429852523
 31
0.0
  0
INSERT
  5
2D98C
330
2D5B5
100
AcDbEntity
  8
DIM
 62
     0
370
    -2
100
AcDbBlockReference
  2
_Open30
 10
2907.928370516556
 20
3370.399429852523
 30
0.0
 41
45.0
 42
45.0
 43
45.0
 50
90.0
  0
INSERT
  5
2D98D
330
2D5B5
100
AcDbEntity
  8
DIM
 62
     0
370
    -2
100
AcDbBlockReference
  2
_Open30
 10
2907.928370516556
 20
3385.399429852523
 30
0.0
 41
45.0
 42
45.0
 43
45.0
 50
270.0
  0
MTEXT
  5
2D98E
330
2D5B5
100
AcDbEntity
  8
DIM
 62
     0
370
    18
100
AcDbMText
 10
2868.928370516556
 20
3517.828001281095
 30
0.0
 40
48.0
 41
0.0
 71
     5
 72
     1
  1
\A1;15
 11
0.0000000000000001
 21
1.0
 31
0.0
 73
     1
 44
1.0
  0
POINT
  5
2D98F
330
2D5B5
100
AcDbEntity
  8
Defpoints
 62
     0
100
AcDbPoint
 10
2421.928370516537
 20
3370.399429852523
 30
0.0
  0
POINT
  5
2D990
330
2D5B5
100
AcDbEntity
  8
Defpoints
 62
     0
100
AcDbPoint
 10
2434.438099271662
 20
3385.399429852523
 30
0.0
  0
POINT
  5
2D991
330
2D5B5
100
AcDbEntity
  8
Defpoints
 62
     0
100
AcDbPoint
 10
2907.928370516556
 20
3385.399429852523
 30
0.0
  0
ENDBLK
  5
2D5C2
330
2D5B5
100
AcDbEntity
  8
0
100
AcDbBlockEnd
  0
BLOCK
  5
2D5CD
330
2D5C3
100
AcDbEntity
  8
0
100
AcDbBlockBegin
  2
*D20
 70
     1
 10
0.0
 20
0.0
 30
0.0
  3
*D20
  1

  0
LINE
  5
2D97E
330
2D5C3
100
AcDbEntity
  8
DIM
 62
     0
370
    -2
100
AcDbLine
 10
2451.928370516537
 20
3370.399429852523
 30
0.0
 11
2937.928370516555
 21
3370.399429852523
 31
0.0
  0
LINE
  5
2D97F
330
2D5C3
100
AcDbEntity
  8
DIM
 62
     0
370
    -2
100
AcDbLine
 10
2791.41032880006
 20
2782.399429852528
 30
0.0
 11
2937.928370516555
 21
2782.399429852528
 31
0.0
  0
LINE
  5
2D980
330
2D5C3
100
AcDbEntity
  8
DIM
 62
     0
370
    -2
100
AcDbLine
 10
2907.928370516556
 20
3325.399429852523
 30
0.0
 11
2907.928370516556
 21
2827.399429852528
 31
0.0
  0
INSERT
  5
2D981
330
2D5C3
100
AcDbEntity
  8
DIM
 62
     0
370
    -2
100
AcDbBlockReference
  2
_Open30
 10
2907.928370516556
 20
3370.399429852523
 30
0.0
 41
45.0
 42
45.0
 43
45.0
 50
90.0
  0
INSERT
  5
2D982
330
2D5C3
100
AcDbEntity
  8
DIM
 62
     0
370
    -2
100
AcDbBlockReference
  2
_Open30
 10
2907.928370516556
 20
2782.399429852528
 30
0.0
 41
45.0
 42
45.0
 43
45.0
 50
270.0
  0
MTEXT
  5
2D983
330
2D5C3
100
AcDbEntity
  8
DIM
 62
     0
370
    18
100
AcDbMText
 10
2868.928370516556
 20
3076.399429852525
 30
0.0
 40
48.0
 41
0.0
 71
     5
 72
     1
  1
\A1;588
 11
0.0000000000000001
 21
1.0
 31
0.0
 73
     1
 44
1.0
  0
POINT
  5
2D984
330
2D5C3
100
AcDbEntity
  8
Defpoints
 62
     0
100
AcDbPoint
 10
2421.928370516537
 20
3370.399429852523
 30
0.0
  0
POINT
  5
2D985
330
2D5C3
100
AcDbEntity
  8
Defpoints
 62
     0
100
AcDbPoint
 10
2761.41032880006
 20
2782.399429852528
 30
0.0
  0
POINT
  5
2D986
330
2D5C3
100
AcDbEntity
  8
Defpoints
 62
     0
100
AcDbPoint
 10
2907.928370516556
 20
2782.399429852528
 30
0.0
  0
ENDBLK
  5
2D5CE
330
2D5C3
100
AcDbEntity
  8
0
100
AcDbBlockEnd
  0
BLOCK
  5
2D929
330
2D91F
100
AcDbEntity
  8
0
 62
     7
100
AcDbBlockBegin
  2
*D21
 70
     1
 10
0.0
 20
0.0
 30
0.0
  3
*D21
  1

  0
LINE
  5
2DA07
330
2D91F
100
AcDbEntity
  8
DIM
 62
     0
370
    -2
100
AcDbLine
 10
962.1180942245535
 20
3144.20216616052
 30
0.0
 11
907.8644737332981
 21
3189.50535335436
 31
0.0
  0
LINE
  5
2DA08
330
2D91F
100
AcDbEntity
  8
DIM
 62
     0
370
    -2
100
AcDbLine
 10
688.437053969926
 20
2816.450671986499
 30
0.0
 11
634.1834334786708
 21
2861.753859180341
 31
0.0
  0
LINE
  5
2DA09
330
2D91F
100
AcDbEntity
  8
DIM
 62
     0
370
    -2
100
AcDbLine
 10
902.0491406077834
 20
3135.73564161402
 30
0.0
 11
686.053680133414
 21
2877.066517733843
 31
0.0
  0
INSERT
  5
2DA0A
330
2D91F
100
AcDbEntity
  8
DIM
 62
     0
370
    -2
100
AcDbBlockReference
  2
_Open30
 10
930.8919304979122
 20
3170.27682676094
 30
0.0
 41
45.0
 42
45.0
 43
45.0
 50
50.13723869629345
  0
INSERT
  5
2DA0B
330
2D91F
100
AcDbEntity
  8
DIM
 62
     0
370
    -2
100
AcDbBlockReference
  2
_Open30
 10
657.2108902432852
 20
2842.525332586922
 30
0.0
 41
45.0
 42
45.0
 43
45.0
 50
230.1372386962933
  0
MTEXT
  5
2DA0C
330
2D91F
100
AcDbEntity
  8
DIM
 62
     0
100
AcDbMText
 10
764.1157165766009
 20
3031.398164245377
 30
0.0
 40
48.0
 41
0.0
 71
     5
 72
     1
  1
\A1;425
 11
0.6409508864473083
 21
0.7675818921538013
 31
0.0
 73
     1
 44
1.0
  0
POINT
  5
2DA0D
330
2D91F
100
AcDbEntity
  8
Defpoints
 62
     0
100
AcDbPoint
 10
985.1455509891676
 20
3124.973639567099
 30
0.0
  0
POINT
  5
2DA0E
330
2D91F
100
AcDbEntity
  8
Defpoints
 62
     0
100
AcDbPoint
 10
711.4645107345402
 20
2797.222145393081
 30
0.0
  0
POINT
  5
2DA0F
330
2D91F
100
AcDbEntity
  8
Defpoints
 62
     0
100
AcDbPoint
 10
657.2108902432852
 20
2842.525332586922
 30
0.0
  0
ENDBLK
  5
2D92A
330
2D91F
100
AcDbEntity
  8
0
 62
     7
100
AcDbBlockEnd
  0
BLOCK
  5
2D9C9
330
2D9C0
100
AcDbEntity
  8
0
 62
     7
100
AcDbBlockBegin
  2
*D22
 70
     1
 10
0.0
 20
0.0
 30
0.0
  3
*D22
  1

  0
LINE
  5
2D9C1
330
2D9C0
100
AcDbEntity
  8
DIM
 62
     0
370
    -2
100
AcDbLine
 10
2704.488055214179
 20
3560.78745260257
 30
0.0
 11
2612.68359550189
 21
3371.567897713429
 31
0.0
  0
LINE
  5
2D9C2
330
2D9C0
100
AcDbEntity
  8
DIM
 62
     0
370
    -2
100
AcDbLine
 10
2231.17314548166
 20
2585.230961963008
 30
0.0
 11
2211.530158924554
 21
2544.744506460984
 31
0.0
  0
MTEXT
  5
2D9C3
330
2D9C0
100
AcDbEntity
  8
DIM
 62
     0
100
AcDbMText
 10
2633.3190572015
 20
3503.444824591837
 30
0.0
 40
48.0
 41
0.0
 71
     5
 72
     1
  1
\A1;\U+2205784
 11
0.4365108123801269
 21
0.8996990111560874
 31
0.0
 73
     1
 44
1.0
  0
LINE
  5
2D9C4
330
2D9C0
100
AcDbEntity
  8
DIM
 62
     0
370
    -2
100
AcDbLine
 10
2250.816132038766
 20
2625.717417465033
 30
0.0
 11
2593.040608944785
 21
3331.081442211405
 31
0.0
  0
INSERT
  5
2D9C5
330
2D9C0
100
AcDbEntity
  8
DIM
 62
     0
370
    -2
100
AcDbBlockReference
  2
_Open30
 10
2250.816132038766
 20
2625.717417465033
 30
0.0
 41
45.0
 42
45.0
 43
45.0
 50
64.11853175819491
  0
INSERT
  5
2D9C6
330
2D9C0
100
AcDbEntity
  8
DIM
 62
     0
370
    -2
100
AcDbBlockReference
  2
_Open30
 10
2593.040608944785
 20
3331.081442211405
 30
0.0
 41
45.0
 42
45.0
 43
45.0
 50
244.1185317581946
  0
POINT
  5
2D9C7
330
2D9C0
100
AcDbEntity
  8
Defpoints
 62
     0
100
AcDbPoint
 10
2593.040608944785
 20
3331.081442211405
 30
0.0
  0
POINT
  5
2D9C8
330
2D9C0
100
AcDbEntity
  8
Defpoints
 62
     0
100
AcDbPoint
 10
2250.816132038766
 20
2625.717417465033
 30
0.0
  0
ENDBLK
  5
2D9CA
330
2D9C0
100
AcDbEntity
  8
0
 62
     7
100
AcDbBlockEnd
  0
BLOCK
  5
2DAC7
330
2DAC6
100
AcDbEntity
  8
0
100
AcDbBlockBegin
  2
_None
 70
     0
 10
0.0
 20
0.0
 30
0.0
  3
_None
  1

  0
ENDBLK
  5
2DAC8
330
2DAC6
100
AcDbEntity
  8
0
100
AcDbBlockEnd
  0
BLOCK
  5
2DACD
330
2DACA
100
AcDbEntity
  8
0
 62
     7
100
AcDbBlockBegin
  2
SSE_BALOON1
 70
     2
 10
0.0
 20
0.0
 30
0.0
  3
SSE_BALOON1
  1

  0
CIRCLE
  5
2DACB
330
2DACA
100
AcDbEntity
  8
0
  6
ByBlock
 62
     0
370
    -2
100
AcDbCircle
 10
0.0
 20
0.0
 30
0.0
 40
1.0
  0
ATTDEF
  5
2DACC
330
2DACA
100
AcDbEntity
  8
DIMTEXT
100
AcDbText
 10
0.0
 20
0.0
 30
0.0
 40
1.0
  1

 72
     4
 11
0.0
 21
0.0
 31
0.0
100
AcDbAttributeDefinition
  3
番号
  2
BAL_NUM
 70
     0
  0
ENDBLK
  5
2DACE
330
2DACA
100
AcDbEntity
  8
0
 62
     7
100
AcDbBlockEnd
  0
BLOCK
  5
2DB36
330
2DAEB
100
AcDbEntity
  8
0
 62
     7
100
AcDbBlockBegin
  2
A$C2FFA2AF1
 70
     0
 10
0.0
 20
0.0
 30
0.0
  3
A$C2FFA2AF1
  1

  0
LINE
  5
2DAEC
330
2DAEB
100
AcDbEntity
  8
WAKU
 62
     7
370
    25
100
AcDbLine
 10
0.0000049294658311
 20
575.1000018428088
 30
0.0
 11
1838.700004929464
 21
575.1000018428088
 31
0.0
  0
LINE
  5
2DAED
330
2DAEB
100
AcDbEntity
  8
WAKU
 62
     7
370
    25
100
AcDbLine
 10
1838.700004929466
 20
445.5000018428086
 30
0.0
 11
299.7000049294674
 21
445.5000018428086
 31
0.0
  0
LINE
  5
2DAEE
330
2DAEB
100
AcDbEntity
  8
WAKU
 62
     7
370
    25
100
AcDbLine
 10
1838.700004929466
 20
510.3000018428097
 30
0.0
 11
299.7000049294665
 21
510.3000018428079
 31
0.0
  0
LINE
  5
2DAEF
330
2DAEB
100
AcDbEntity
  8
WAKU
 62
     7
370
    25
100
AcDbLine
 10
1838.700004929466
 20
575.1000018428088
 30
0.0
 11
299.7000049294665
 21
575.1000018428088
 31
0.0
  0
LINE
  5
2DAF0
330
2DAEB
100
AcDbEntity
  8
WAKU
 62
     7
370
    25
100
AcDbLine
 10
1838.700004929466
 20
380.7000018428075
 30
0.0
 11
299.7000049294665
 21
380.7000018428075
 31
0.0
  0
LINE
  5
2DAF1
330
2DAEB
100
AcDbEntity
  8
WAKU
 62
     7
370
    25
100
AcDbLine
 10
1838.700004929466
 20
190.350001842808
 30
0.0
 11
299.7000049294655
 21
190.3500018428071
 31
0.0
  0
LINE
  5
2DAF2
330
2DAEB
100
AcDbEntity
  8
WAKU
 62
     7
370
    25
100
AcDbLine
 10
299.7000049294665
 20
121.5000018428086
 30
0.0
 11
1838.700004929466
 21
121.5000018428086
 31
0.0
  0
LINE
  5
2DAF3
330
2DAEB
100
AcDbEntity
  8
WAKU
 62
     7
370
    25
100
AcDbLine
 10
1838.700004929466
 20
251.100001842808
 30
0.0
 11
299.7000049294665
 21
251.1000018428088
 31
0.0
  0
LINE
  5
2DAF4
330
2DAEB
100
AcDbEntity
  8
WAKU
 62
     7
370
    25
100
AcDbLine
 10
1838.700004929466
 20
311.8500018428089
 30
0.0
 11
299.7000049294655
 21
311.8500018428089
 31
0.0
  0
LINE
  5
2DAF5
330
2DAEB
100
AcDbEntity
  8
WAKU
 62
     7
370
    25
100
AcDbLine
 10
299.7000049294665
 20
60.7500018428086
 30
0.0
 11
1838.700004929466
 21
60.7500018428086
 31
0.0
  0
LINE
  5
2DAF6
330
2DAEB
100
AcDbEntity
  8
WAKU
 62
     7
370
    25
100
AcDbLine
 10
0.0000049294667406
 20
0.000001842806796
 30
0.0
 11
1838.700004929466
 21
0.0000018428077055
 31
0.0
  0
LINE
  5
2DAF7
330
2DAEB
100
AcDbEntity
  8
WAKU
 62
     7
370
    25
100
AcDbLine
 10
1838.700004929464
 20
769.5000018428086
 30
0.0
 11
137.7000049294655
 21
769.5000018428068
 31
0.0
  0
LINE
  5
2DAF8
330
2DAEB
100
AcDbEntity
  8
WAKU
 62
     7
370
    25
100
AcDbLine
 10
299.7000049294646
 20
639.9000018428083
 30
0.0
 11
1838.700004929464
 21
639.900001842809
 31
0.0
  0
LINE
  5
2DAF9
330
2DAEB
100
AcDbEntity
  8
WAKU
 62
     7
370
    25
100
AcDbLine
 10
299.7000049294646
 20
704.7000018428093
 30
0.0
 11
1838.700004929466
 21
704.7000018428084
 31
0.0
  0
LINE
  5
2DAFA
330
2DAEB
100
AcDbEntity
  8
WAKU
 62
     7
370
    25
100
AcDbLine
 10
1838.700004929465
 20
834.3000018428096
 30
0.0
 11
0.0000049294658311
 21
834.3000018428078
 31
0.0
  0
LINE
  5
2DAFB
330
2DAEB
100
AcDbEntity
  8
WAKU
 62
     7
370
    25
100
AcDbLine
 10
0.0000049294658311
 20
769.5000018428077
 30
0.0
 11
1838.700004929466
 21
769.5000018428086
 31
0.0
  0
LINE
  5
2DAFC
330
2DAEB
100
AcDbEntity
  8
WAKU
 62
     7
370
    25
100
AcDbLine
 10
299.7000049294646
 20
769.5000018428077
 30
0.0
 11
299.7000049294655
 21
0.000001842806796
 31
0.0
  0
LINE
  5
2DAFD
330
2DAEB
100
AcDbEntity
  8
WAKU
 62
     7
370
    25
100
AcDbLine
 10
0.0000049294658311
 20
834.3000018428078
 30
0.0
 11
0.0000049294667406
 21
0.000001842806796
 31
0.0
  0
TEXT
  5
2DAFE
330
2DAEB
100
AcDbEntity
  8
DIMTEXT
 62
     7
370
    18
100
AcDbText
 10
80.5325192151805
 20
260.0053406244206
 30
0.0
 40
38.88
  1
（mm）
 41
0.8
 72
     1
 11
149.8500049294662
 21
279.4453406244206
 31
0.0
100
AcDbText
 73
     2
  0
TEXT
  5
2DAFF
330
2DAEB
100
AcDbEntity
  8
DIMTEXT
 62
     7
370
    18
100
AcDbText
 10
116.6724049294661
 20
328.8553406244191
 30
0.0
 40
38.88
  1
寸法
 41
0.8
 72
     1
 11
149.8500049294662
 21
348.2953406244191
 31
0.0
100
AcDbText
 73
     2
  0
TEXT
  5
2DB00
330
2DAEB
100
AcDbEntity
  8
DIMTEXT
 62
     7
370
    18
100
AcDbText
 10
326.8928620723254
 20
8.910001842808977
 30
0.0
 40
38.88
  1
J（直径）
 41
0.8
 72
     1
 11
400.9500049294683
 21
28.35000184280898
 31
0.0
100
AcDbText
 73
     2
  0
TEXT
  5
2DB01
330
2DAEB
100
AcDbEntity
  8
DIMTEXT
 62
     7
370
    18
100
AcDbText
 10
390.5820049294683
 20
69.66000184281078
 30
0.0
 40
38.88
  1
H
 41
0.8
 72
     1
 11
400.9500049294683
 21
89.10000184281079
 31
0.0
100
AcDbText
 73
     2
  0
TEXT
  5
2DB02
330
2DAEB
100
AcDbEntity
  8
DIMTEXT
 62
     7
370
    18
100
AcDbText
 10
323.1900049294683
 20
328.8600018428096
 30
0.0
 40
38.88
  1
D（直径）
 41
0.8
 72
     1
 11
400.9500049294683
 21
348.3000018428096
 31
0.0
100
AcDbText
 73
     2
  0
TEXT
  5
2DB03
330
2DAEB
100
AcDbEntity
  8
DIMTEXT
 62
     7
370
    18
100
AcDbText
 10
389.8414335008968
 20
134.46000184281
 30
0.0
 40
38.88
  1
G
 41
0.8
 72
     1
 11
400.9500049294683
 21
153.90000184281
 31
0.0
100
AcDbText
 73
     2
  0
TEXT
  5
2DB04
330
2DAEB
100
AcDbEntity
  8
DIMTEXT
 62
     7
370
    18
100
AcDbText
 10
391.3225763580397
 20
264.0600018428086
 30
0.0
 40
38.88
  1
E
 41
0.8
 72
     1
 11
400.9500049294683
 21
283.5000018428086
 31
0.0
100
AcDbText
 73
     2
  0
TEXT
  5
2DB05
330
2DAEB
100
AcDbEntity
  8
DIMTEXT
 62
     7
370
    18
100
AcDbText
 10
391.3225763580397
 20
199.2600018428092
 30
0.0
 40
38.88
  1
F
 41
0.8
 72
     1
 11
400.9500049294683
 21
218.7000018428093
 31
0.0
100
AcDbText
 73
     2
  0
TEXT
  5
2DB06
330
2DAEB
100
AcDbEntity
  8
DIMTEXT
 62
     7
370
    18
100
AcDbText
 10
389.8414335008968
 20
393.6600018428089
 30
0.0
 40
38.88
  1
C
 41
0.8
 72
     1
 11
400.9500049294683
 21
413.1000018428089
 31
0.0
100
AcDbText
 73
     2
  0
TEXT
  5
2DB07
330
2DAEB
100
AcDbEntity
  8
DIMTEXT
 62
     7
370
    18
100
AcDbText
 10
390.5820049294683
 20
458.4600018428082
 30
0.0
 40
38.88
  1
B
 41
0.8
 72
     1
 11
400.9500049294683
 21
477.9000018428082
 31
0.0
100
AcDbText
 73
     2
  0
TEXT
  5
2DB08
330
2DAEB
100
AcDbEntity
  8
DIMTEXT
 62
     7
370
    18
100
AcDbText
 10
118.2414906437518
 20
782.4600018428082
 30
0.0
 40
38.88
  1
タンク容量（L）
 41
0.8
 72
     1
 11
251.1000049294661
 21
801.9000018428082
 31
0.0
100
AcDbText
 73
     2
  0
TEXT
  5
2DB09
330
2DAEB
100
AcDbEntity
  8
DIMTEXT
 62
     7
370
    18
100
AcDbText
 10
99.75338435933217
 20
612.4344099984864
 30
0.0
 40
38.88
  1
（kg）
 41
0.8
 72
     1
 11
151.2971557879035
 21
631.8744099984865
 31
0.0
100
AcDbText
 73
     2
  0
TEXT
  5
2DB0A
330
2DAEB
100
AcDbEntity
  8
DIMTEXT
 62
     7
370
    18
100
AcDbText
 10
120.4869566676334
 20
693.4344099984864
 30
0.0
 40
38.88
  1
質量
 41
0.8
 72
     1
 11
153.6645566676334
 21
712.8744099984865
 31
0.0
100
AcDbText
 73
     2
  0
TEXT
  5
2DB0B
330
2DAEB
100
AcDbEntity
  8
DIMTEXT
 62
     7
370
    18
100
AcDbText
 10
389.1008620723254
 20
523.2600018428074
 30
0.0
 40
38.88
  1
A
 41
0.8
 72
     1
 11
400.9500049294683
 21
542.7000018428075
 31
0.0
100
AcDbText
 73
     2
  0
TEXT
  5
2DB0C
330
2DAEB
100
AcDbEntity
  8
DIMTEXT
 62
     7
370
    18
100
AcDbText
 10
349.1100049294664
 20
588.0600018428084
 30
0.0
 40
38.88
  1
満水時
 41
0.8
 72
     1
 11
400.9500049294665
 21
607.5000018428085
 31
0.0
100
AcDbText
 73
     2
  0
TEXT
  5
2DB0D
330
2DAEB
100
AcDbEntity
  8
DIMTEXT
 62
     7
370
    18
100
AcDbText
 10
349.1100049294664
 20
652.8600018428078
 30
0.0
 40
38.88
  1
本　体
 41
0.8
 72
     1
 11
400.9500049294665
 21
672.3000018428079
 31
0.0
100
AcDbText
 73
     2
  0
TEXT
  5
2DB0E
330
2DAEB
100
AcDbEntity
  8
DIMTEXT
 62
     7
370
    18
100
AcDbText
 10
349.1100049294664
 20
717.660001842807
 30
0.0
 40
38.88
  1
品　番
 41
0.8
 72
     1
 11
400.9500049294665
 21
737.100001842807
 31
0.0
100
AcDbText
 73
     2
  0
TEXT
  5
2DB0F
330
2DAEB
100
AcDbEntity
  8
DIMTEXT
 62
     7
370
    18
100
AcDbText
 10
1556.704290643754
 20
264.060001842808
 30
0.0
 40
38.88
  1
1,882
 41
0.8
 72
     1
 11
1615.950004929469
 21
283.5000018428081
 31
0.0
100
AcDbText
 73
     2
  0
TEXT
  5
2DB10
330
2DAEB
100
AcDbEntity
  8
DIMTEXT
 62
     7
370
    18
100
AcDbText
 10
1556.704290643754
 20
199.2600018428078
 30
0.0
 40
38.88
  1
1,982
 41
0.8
 72
     1
 11
1615.950004929469
 21
218.7000018428078
 31
0.0
100
AcDbText
 73
     2
  0
TEXT
  5
2DB11
330
2DAEB
100
AcDbEntity
  8
DIMTEXT
 62
     7
370
    18
100
AcDbText
 10
1575.218576358038
 20
588.0600018428099
 30
0.0
 40
38.88
  1
624
 41
0.8
 72
     1
 11
1615.950004929467
 21
607.50000184281
 31
0.0
100
AcDbText
 73
     2
  0
TEXT
  5
2DB12
330
2DAEB
100
AcDbEntity
  8
DIMTEXT
 62
     7
370
    18
100
AcDbText
 10
1590.030004929467
 20
652.8600018428083
 30
0.0
 40
38.88
  1
74
 41
0.8
 72
     1
 11
1615.950004929467
 21
672.3000018428083
 31
0.0
100
AcDbText
 73
     2
  0
TEXT
  5
2DB13
330
2DAEB
100
AcDbEntity
  8
DIMTEXT
 62
     7
370
    18
100
AcDbText
 10
1575.95914778661
 20
782.4600018428077
 30
0.0
 40
38.88
  1
550
 41
0.8
 72
     1
 11
1615.950004929467
 21
801.9000018428078
 31
0.0
100
AcDbText
 73
     2
  0
TEXT
  5
2DB14
330
2DAEB
100
AcDbEntity
  8
DIMTEXT
 62
     7
370
    18
100
AcDbText
 10
1445.618576358036
 20
717.6600018428094
 30
0.0
 40
38.88
  1
UM855BB-H27
 41
0.8
 72
     1
 11
1615.950004929465
 21
737.1000018428094
 31
0.0
100
AcDbText
 73
     2
  0
TEXT
  5
2DB15
330
2DAEB
100
AcDbEntity
  8
DIMTEXT
 62
     7
370
    18
100
AcDbText
 10
1000.859147786608
 20
717.6600018428084
 30
0.0
 40
38.88
  1
UM846BB-H26
 41
0.8
 72
     1
 11
1170.450004929466
 21
737.1000018428085
 31
0.0
100
AcDbText
 73
     2
  0
LINE
  5
2DB16
330
2DAEB
100
AcDbEntity
  8
WAKU
 62
     7
370
    25
100
AcDbLine
 10
502.2000049294674
 20
834.3000018428096
 30
0.0
 11
502.2000049294674
 21
315.9000018428081
 31
0.0
  0
LINE
  5
2DB17
330
2DAEB
100
AcDbEntity
  8
WAKU
 62
     7
370
    25
100
AcDbLine
 10
947.7000049294675
 20
834.3000018428096
 30
0.0
 11
947.7000049294691
 21
315.9000018428081
 31
0.0
  0
LINE
  5
2DB18
330
2DAEB
100
AcDbEntity
  8
WAKU
 62
     7
370
    25
100
AcDbLine
 10
502.2000049294665
 20
777.6000018428072
 30
0.0
 11
502.2000049294684
 21
0.000001842806796
 31
0.0
  0
LINE
  5
2DB19
330
2DAEB
100
AcDbEntity
  8
WAKU
 62
     7
370
    25
100
AcDbLine
 10
502.2000049294655
 20
834.3000018428078
 30
0.0
 11
502.2000049294674
 21
461.7000018428092
 31
0.0
  0
TEXT
  5
2DB1A
330
2DAEB
100
AcDbEntity
  8
DIMTEXT
 62
     7
370
    18
100
AcDbText
 10
684.9591477866112
 20
8.910001842808519
 30
0.0
 40
38.88
  1
730
 41
0.8
 72
     1
 11
724.9500049294684
 21
28.35000184280852
 31
0.0
100
AcDbText
 73
     2
  0
TEXT
  5
2DB1B
330
2DAEB
100
AcDbEntity
  8
DIMTEXT
 62
     7
370
    18
100
AcDbText
 10
684.9591477866129
 20
136.4850018428074
 30
0.0
 40
38.88
  1
633
 41
0.8
 72
     1
 11
724.9500049294701
 21
155.9250018428073
 31
0.0
100
AcDbText
 73
     2
  0
TEXT
  5
2DB1C
330
2DAEB
100
AcDbEntity
  8
DIMTEXT
 62
     7
370
    18
100
AcDbText
 10
665.7042906437558
 20
264.491550188672
 30
0.0
 40
38.88
  1
1,645
 41
0.8
 72
     1
 11
724.9500049294701
 21
283.931550188672
 31
0.0
100
AcDbText
 73
     2
  0
TEXT
  5
2DB1D
330
2DAEB
100
AcDbEntity
  8
DIMTEXT
 62
     7
370
    18
100
AcDbText
 10
665.7042906437558
 20
203.3100018428053
 30
0.0
 40
38.88
  1
1,745
 41
0.8
 72
     1
 11
724.9500049294701
 21
222.7500018428054
 31
0.0
100
AcDbText
 73
     2
  0
TEXT
  5
2DB1E
330
2DAEB
100
AcDbEntity
  8
DIMTEXT
 62
     7
370
    18
100
AcDbText
 10
684.9591477866129
 20
393.6600018428066
 30
0.0
 40
38.88
  1
388
 41
0.8
 72
     1
 11
724.9500049294701
 21
413.1000018428067
 31
0.0
100
AcDbText
 73
     2
  0
TEXT
  5
2DB1F
330
2DAEB
100
AcDbEntity
  8
DIMTEXT
 62
     7
370
    18
100
AcDbText
 10
687.9214335008986
 20
458.4600018428067
 30
0.0
 40
38.88
  1
418
 41
0.8
 72
     1
 11
724.9500049294701
 21
477.9000018428067
 31
0.0
100
AcDbText
 73
     2
  0
TEXT
  5
2DB20
330
2DAEB
100
AcDbEntity
  8
DIMTEXT
 62
     7
370
    18
100
AcDbText
 10
684.9591477866129
 20
328.8600018428073
 30
0.0
 40
38.88
  1
683
 41
0.8
 72
     1
 11
724.9500049294701
 21
348.3000018428073
 31
0.0
100
AcDbText
 73
     2
  0
TEXT
  5
2DB21
330
2DAEB
100
AcDbEntity
  8
DIMTEXT
 62
     7
370
    18
100
AcDbText
 10
662.7420049294684
 20
69.66000184280852
 30
0.0
 40
38.88
  1
547.5
 41
0.8
 72
     1
 11
724.9500049294684
 21
89.10000184280852
 31
0.0
100
AcDbText
 73
     2
  0
LINE
  5
2DB22
330
2DAEB
100
AcDbEntity
  8
WAKU
 62
     7
370
    25
100
AcDbLine
 10
502.2000049294674
 20
186.3000018428087
 30
0.0
 11
502.2000049294674
 21
0.0000018428077055
 31
0.0
  0
LINE
  5
2DB23
330
2DAEB
100
AcDbEntity
  8
WAKU
 62
     7
370
    25
100
AcDbLine
 10
947.7000049294691
 20
186.3000018428087
 30
0.0
 11
947.7000049294691
 21
0.0000018428077055
 31
0.0
  0
TEXT
  5
2DB24
330
2DAEB
100
AcDbEntity
  8
DIMTEXT
 62
     7
370
    18
100
AcDbText
 10
684.9591477866112
 20
588.0600018428099
 30
0.0
 40
38.88
  1
425
 41
0.8
 72
     1
 11
724.9500049294684
 21
607.50000184281
 31
0.0
100
AcDbText
 73
     2
  0
TEXT
  5
2DB25
330
2DAEB
100
AcDbEntity
  8
DIMTEXT
 62
     7
370
    18
100
AcDbText
 10
685.6997192151843
 20
523.260001842807
 30
0.0
 40
38.88
  1
799
 41
0.8
 72
     1
 11
724.9500049294701
 21
542.7000018428071
 31
0.0
100
AcDbText
 73
     2
  0
TEXT
  5
2DB26
330
2DAEB
100
AcDbEntity
  8
DIMTEXT
 62
     7
370
    18
100
AcDbText
 10
554.6185763580398
 20
717.6600018428084
 30
0.0
 40
38.88
  1
UM837BB-H25
 41
0.8
 72
     1
 11
724.9500049294684
 21
737.1000018428085
 31
0.0
100
AcDbText
 73
     2
  0
TEXT
  5
2DB27
330
2DAEB
100
AcDbEntity
  8
DIMTEXT
 62
     7
370
    18
100
AcDbText
 10
684.9591477866112
 20
782.4600018428077
 30
0.0
 40
38.88
  1
370
 41
0.8
 72
     1
 11
724.9500049294684
 21
801.9000018428078
 31
0.0
100
AcDbText
 73
     2
  0
TEXT
  5
2DB28
330
2DAEB
100
AcDbEntity
  8
DIMTEXT
 62
     7
370
    18
100
AcDbText
 10
699.7705763580397
 20
652.8600018428083
 30
0.0
 40
38.88
  1
55
 41
0.8
 72
     1
 11
724.9500049294684
 21
672.3000018428083
 31
0.0
100
AcDbText
 73
     2
  0
TEXT
  5
2DB29
330
2DAEB
100
AcDbEntity
  8
DIMTEXT
 62
     7
370
    18
100
AcDbText
 10
1352.761572083129
 20
8.93131062281423
 30
0.0
 40
38.88
  1
784
 41
0.8
 72
     1
 11
1393.493000654558
 21
28.37131062281423
 31
0.0
100
AcDbText
 73
     2
  0
TEXT
  5
2DB2A
330
2DAEB
100
AcDbEntity
  8
DIMTEXT
 62
     7
370
    18
100
AcDbText
 10
1353.502143511701
 20
69.68131062281514
 30
0.0
 40
38.88
  1
588
 41
0.8
 72
     1
 11
1393.493000654558
 21
89.12131062281515
 31
0.0
100
AcDbText
 73
     2
  0
TEXT
  5
2DB2B
330
2DAEB
100
AcDbEntity
  8
DIMTEXT
 62
     7
370
    18
100
AcDbText
 10
1353.949719215183
 20
134.4600018428095
 30
0.0
 40
38.88
  1
679
 41
0.8
 72
     1
 11
1393.200004929469
 21
153.9000018428095
 31
0.0
100
AcDbText
 73
     2
  0
LINE
  5
2DB2C
330
2DAEB
100
AcDbEntity
  8
WAKU
 62
     7
370
    25
100
AcDbLine
 10
1393.200004929466
 20
311.8500018428089
 30
0.0
 11
1393.200004929466
 21
190.350001842808
 31
0.0
  0
TEXT
  5
2DB2D
330
2DAEB
100
AcDbEntity
  8
DIMTEXT
 62
     7
370
    18
100
AcDbText
 10
1353.209147786612
 20
393.6600018428094
 30
0.0
 40
38.88
  1
425
 41
0.8
 72
     1
 11
1393.200004929469
 21
413.1000018428093
 31
0.0
100
AcDbText
 73
     2
  0
TEXT
  5
2DB2E
330
2DAEB
100
AcDbEntity
  8
DIMTEXT
 62
     7
370
    18
100
AcDbText
 10
1353.209147786612
 20
458.4600018428096
 30
0.0
 40
38.88
  1
448
 41
0.8
 72
     1
 11
1393.200004929469
 21
477.9000018428096
 31
0.0
100
AcDbText
 73
     2
  0
TEXT
  5
2DB2F
330
2DAEB
100
AcDbEntity
  8
DIMTEXT
 62
     7
370
    18
100
AcDbText
 10
1353.209147786614
 20
328.8600018428073
 30
0.0
 40
38.88
  1
735
 41
0.8
 72
     1
 11
1393.200004929471
 21
348.3000018428073
 31
0.0
100
AcDbText
 73
     2
  0
TEXT
  5
2DB30
330
2DAEB
100
AcDbEntity
  8
DIMTEXT
 62
     7
370
    18
100
AcDbText
 10
1130.459147786611
 20
588.0600018428099
 30
0.0
 40
38.88
  1
527
 41
0.8
 72
     1
 11
1170.450004929467
 21
607.50000184281
 31
0.0
100
AcDbText
 73
     2
  0
TEXT
  5
2DB31
330
2DAEB
100
AcDbEntity
  8
DIMTEXT
 62
     7
370
    18
100
AcDbText
 10
1145.270576358039
 20
652.8600018428083
 30
0.0
 40
38.88
  1
67
 41
0.8
 72
     1
 11
1170.450004929467
 21
672.3000018428083
 31
0.0
100
AcDbText
 73
     2
  0
TEXT
  5
2DB32
330
2DAEB
100
AcDbEntity
  8
DIMTEXT
 62
     7
370
    18
100
AcDbText
 10
1130.459147786611
 20
782.4600018428077
 30
0.0
 40
38.88
  1
460
 41
0.8
 72
     1
 11
1170.450004929467
 21
801.9000018428078
 31
0.0
100
AcDbText
 73
     2
  0
LINE
  5
2DB33
330
2DAEB
100
AcDbEntity
  8
WAKU
 62
     7
370
    25
100
AcDbLine
 10
1393.200004929467
 20
834.3000018428096
 30
0.0
 11
1393.200004929464
 21
575.1000018428088
 31
0.0
  0
TEXT
  5
2DB34
330
2DAEB
100
AcDbEntity
  8
DIMTEXT
 62
     7
370
    18
100
AcDbText
 10
1353.209147786612
 20
523.2600018428087
 30
0.0
 40
38.88
  1
855
 41
0.8
 72
     1
 11
1393.200004929469
 21
542.7000018428087
 31
0.0
100
AcDbText
 73
     2
  0
LINE
  5
2DB35
330
2DAEB
100
AcDbEntity
  8
WAKU
 62
     7
370
    25
100
AcDbLine
 10
1838.700004929465
 20
834.3000018428096
 30
0.0
 11
1838.700004929465
 21
0.000001842808615
 31
0.0
  0
ENDBLK
  5
2DB37
330
2DAEB
100
AcDbEntity
  8
0
 62
     7
100
AcDbBlockEnd
  0
ENDSEC
  0
SECTION
  2
ENTITIES
  0
INSERT
  5
15497
330
17
100
AcDbEntity
  8
0
100
AcDbBlockReference
 66
     1
  2
dimstat2
 10
7723.001826654316
 20
1309.141213428434
 30
0.0
  0
ATTRIB
  5
15498
330
15497
100
AcDbEntity
  8
0
100
AcDbText
 10
7723.001826654316
 20
1309.141213428434
 30
0.0
 40
1.0
  1
(1.28 1.92 0 0 0 0 0 3.2 12 0 )
 41
0.7
100
AcDbAttribute
  2
DIMSIZ
 70
     1
  0
SEQEND
  5
15499
330
15497
100
AcDbEntity
  8
0
  0
INSERT
  5
1549A
330
17
100
AcDbEntity
  8
0
100
AcDbBlockReference
 66
     1
  2
dimstat
 10
7723.001826654316
 20
1309.141213428434
 30
0.0
  0
ATTRIB
  5
1549B
330
1549A
100
AcDbEntity
  8
0
100
AcDbText
 10
7723.001826654316
 20
1310.141213428434
 30
0.0
 40
1.0
  1
1
 41
0.7
 51
15.0
100
AcDbAttribute
  2
DIMEXT
 70
     1
  0
ATTRIB
  5
1549C
330
1549A
100
AcDbEntity
  8
0
100
AcDbText
 10
7723.001826654316
 20
1309.141213428434
 30
0.0
 40
1.0
  1
10 
 41
0.7
 51
15.0
100
AcDbAttribute
  2
DIMBAL
 70
     1
  0
ATTRIB
  5
1549D
330
1549A
100
AcDbEntity
  8
0
100
AcDbText
 10
7723.965683778215
 20
1308.229563439422
 30
0.0
 40
1.0
  1
4 
 41
0.7
 51
15.0
 72
     1
 11
7724.509017111548
 21
1308.229563439422
 31
0.0
100
AcDbAttribute
  2
SYMSCL
 70
     1
  0
SEQEND
  5
1549E
330
1549A
100
AcDbEntity
  8
0
  0
TEXT
  5
25323
330
17
100
AcDbEntity
  8
DIM
 62
     7
370
    18
100
AcDbText
 10
105.4854082039998
 20
4259.593765135567
 30
0.0
 40
80.0
  1
『給湯専用丸形５５０Ｌ外形図』
 41
0.8
100
AcDbText
  0
INSERT
  5
2B9C7
330
17
100
AcDbEntity
  8
WAKU
100
AcDbBlockReference
  2
waku0
 10
0.0
 20
0.0
 30
0.0
 41
3150.0
 42
4455.0
 43
3150.0
  0
TEXT
  5
2CE38
330
17
100
AcDbEntity
  8
DIMTEXT
 62
     7
100
AcDbText
 10
994.4306657098421
 20
3795.059326963268
 30
0.0
 40
48.0
  1
質量
 41
0.8
 72
     1
 11
1035.390665709842
 21
3819.059326963268
 31
0.0
100
AcDbText
 73
     2
  0
TEXT
  5
2CE39
330
17
100
AcDbEntity
  8
DIMTEXT
 62
     7
100
AcDbText
 10
964.6057614735493
 20
3725.434661831374
 30
0.0
 40
48.0
  1
（kg）
 41
0.8
 72
     1
 11
1028.240047187835
 21
3749.434661831374
 31
0.0
100
AcDbText
 73
     2
  0
LINE
  5
2CE3A
330
17
100
AcDbEntity
  8
WAKU
 62
     7
100
AcDbLine
 10
3037.687343440972
 20
4017.76907224851
 30
0.0
 11
1137.687343440971
 21
4017.76907224851
 31
0.0
  0
LINE
  5
2CE3B
330
17
100
AcDbEntity
  8
WAKU
 62
     7
100
AcDbLine
 10
937.6873434409743
 20
3697.769072248509
 30
0.0
 11
3037.687343440973
 21
3697.769072248509
 31
0.0
  0
LINE
  5
2CE3C
330
17
100
AcDbEntity
  8
WAKU
 62
     7
100
AcDbLine
 10
937.6873434409739
 20
4177.76907224851
 30
0.0
 11
937.6873434409743
 21
3697.769072248509
 31
0.0
  0
LINE
  5
2CE3D
330
17
100
AcDbEntity
  8
WAKU
 62
     7
100
AcDbLine
 10
1137.687343440973
 20
3857.769072248509
 30
0.0
 11
3037.687343440972
 21
3857.769072248509
 31
0.0
  0
LINE
  5
2CE3E
330
17
100
AcDbEntity
  8
WAKU
 62
     7
100
AcDbLine
 10
1137.687343440973
 20
3777.769072248508
 30
0.0
 11
3037.687343440973
 21
3777.769072248509
 31
0.0
  0
LINE
  5
2CE3F
330
17
100
AcDbEntity
  8
WAKU
 62
     7
100
AcDbLine
 10
1137.687343440971
 20
3937.76907224851
 30
0.0
 11
3037.687343440972
 21
3937.769072248509
 31
0.0
  0
LINE
  5
2CE41
330
17
100
AcDbEntity
  8
WAKU
 62
     7
100
AcDbLine
 10
1387.687343440971
 20
4177.76907224851
 30
0.0
 11
1387.687343440971
 21
3697.769072248509
 31
0.0
  0
LINE
  5
2CE42
330
17
100
AcDbEntity
  8
WAKU
 62
     7
100
AcDbLine
 10
1137.687343440971
 20
4177.76907224851
 30
0.0
 11
1137.687343440973
 21
3697.769072248509
 31
0.0
  0
TEXT
  5
2CE43
330
17
100
AcDbEntity
  8
DIMTEXT
 62
     7
100
AcDbText
 10
1199.967343440974
 20
3873.76907224851
 30
0.0
 40
48.0
  1
圧　力
 41
0.8
 72
     1
 11
1262.687343440974
 21
3897.76907224851
 31
0.0
100
AcDbText
 73
     2
  0
TEXT
  5
2CE44
330
17
100
AcDbEntity
  8
DIMTEXT
 62
     7
100
AcDbText
 10
1198.687343440974
 20
3793.769072248509
 30
0.0
 40
48.0
  1
本　体
 41
0.8
 72
     1
 11
1262.687343440974
 21
3817.769072248509
 31
0.0
100
AcDbText
 73
     2
  0
TEXT
  5
2CE45
330
17
100
AcDbEntity
  8
DIMTEXT
 62
     7
100
AcDbText
 10
1198.687343440974
 20
3713.76907224851
 30
0.0
 40
48.0
  1
満水時
 41
0.8
 72
     1
 11
1262.687343440974
 21
3737.76907224851
 31
0.0
100
AcDbText
 73
     2
  0
LINE
  5
2CE47
330
17
100
AcDbEntity
  8
WAKU
 62
     7
100
AcDbLine
 10
1387.687343440976
 20
3707.769072248508
 30
0.0
 11
1387.687343440976
 21
3697.769072248509
 31
0.0
  0
LINE
  5
2CE48
330
17
100
AcDbEntity
  8
WAKU
 62
     7
100
AcDbLine
 10
1937.687343440974
 20
4177.769072248509
 30
0.0
 11
1937.687343440975
 21
3937.76907224851
 31
0.0
  0
TEXT
  5
2CE49
330
17
100
AcDbEntity
  8
DIMTEXT
 62
     7
100
AcDbText
 10
1828.039795530647
 20
3873.76907224851
 30
0.0
 40
48.0
  1
標準圧タイプ
 41
0.8
 72
     1
 11
1961.159795530648
 21
3897.76907224851
 31
0.0
100
AcDbText
 73
     2
  0
TEXT
  5
2CE4A
330
17
100
AcDbEntity
  8
DIMTEXT
 62
     7
100
AcDbText
 10
1617.887343440976
 20
3713.769072248513
 30
0.0
 40
48.0
  1
619
 41
0.8
 72
     1
 11
1662.687343440976
 21
3737.769072248513
 31
0.0
100
AcDbText
 73
     2
  0
TEXT
  5
2CE4B
330
17
100
AcDbEntity
  8
DIMTEXT
 62
     7
100
AcDbText
 10
1632.515914869547
 20
3793.769072248512
 30
0.0
 40
48.0
  1
69
 41
0.8
 72
     1
 11
1662.687343440976
 21
3817.769072248512
 31
0.0
100
AcDbText
 73
     2
  0
TEXT
  5
2CE4E
330
17
100
AcDbEntity
  8
DIMTEXT
 62
     7
100
AcDbText
 10
2163.315914869546
 20
3713.769072248513
 30
0.0
 40
48.0
  1
622
 41
0.8
 72
     1
 11
2212.687343440975
 21
3737.769072248513
 31
0.0
100
AcDbText
 73
     2
  0
TEXT
  5
2CE4F
330
17
100
AcDbEntity
  8
DIMTEXT
 62
     7
100
AcDbText
 10
2181.60162915526
 20
3793.769072248512
 30
0.0
 40
48.0
  1
72
 41
0.8
 72
     1
 11
2212.687343440975
 21
3817.769072248512
 31
0.0
100
AcDbText
 73
     2
  0
LINE
  5
2CE50
330
17
100
AcDbEntity
  8
WAKU
 62
     7
100
AcDbLine
 10
2487.687343440973
 20
4177.769072248509
 30
0.0
 11
2487.687343440974
 21
3697.769072248509
 31
0.0
  0
TEXT
  5
2CE52
330
17
100
AcDbEntity
  8
DIMTEXT
 62
     7
100
AcDbText
 10
1462.458772012403
 20
4033.769072248511
 30
0.0
 40
48.0
  1
SM855BB-H21
 41
0.8
 72
     1
 11
1662.687343440975
 21
4057.769072248511
 31
0.0
100
AcDbText
 73
     2
  0
TEXT
  5
2CE7F
330
17
100
AcDbEntity
  8
DIMTEXT
 62
     7
100
AcDbText
 10
2730.687343440975
 20
3793.769072248512
 30
0.0
 40
48.0
  1
74
 41
0.8
 72
     1
 11
2762.687343440975
 21
3817.769072248512
 31
0.0
100
AcDbText
 73
     2
  0
TEXT
  5
2CE80
330
17
100
AcDbEntity
  8
DIMTEXT
 62
     7
100
AcDbText
 10
2712.401629155261
 20
3713.769072248513
 30
0.0
 40
48.0
  1
624
 41
0.8
 72
     1
 11
2762.687343440975
 21
3737.769072248513
 31
0.0
100
AcDbText
 73
     2
  0
TEXT
  5
2CE81
330
17
100
AcDbEntity
  8
DIMTEXT
 62
     7
100
AcDbText
 10
2652.607343440977
 20
3873.76907224851
 30
0.0
 40
48.0
  1
高圧タイプ
 41
0.8
 72
     1
 11
2762.687343440977
 21
3897.76907224851
 31
0.0
100
AcDbText
 73
     2
  0
LINE
  5
2CE82
330
17
100
AcDbEntity
  8
WAKU
 62
     7
100
AcDbLine
 10
3037.687343440971
 20
4177.769072248509
 30
0.0
 11
3037.687343440973
 21
3697.769072248509
 31
0.0
  0
TEXT
  5
2CE83
330
17
100
AcDbEntity
  8
DIMTEXT
 62
     7
100
AcDbText
 10
1981.373057726691
 20
4033.511722742678
 30
0.0
 40
48.0
  1
SM855BWB-H24
 41
0.8
 72
     1
 11
2212.687343440977
 21
4057.511722742678
 31
0.0
100
AcDbText
 73
     2
  0
TEXT
  5
2CE84
330
17
100
AcDbEntity
  8
DIMTEXT
 62
     7
100
AcDbText
 10
2552.401629155263
 20
4033.511722742678
 30
0.0
 40
48.0
  1
UM855BB-H27
 41
0.8
 72
     1
 11
2762.687343440977
 21
4057.511722742678
 31
0.0
100
AcDbText
 73
     2
  0
TEXT
  5
2CE85
330
17
100
AcDbEntity
  8
DIMTEXT
 62
     7
100
AcDbText
 10
1173.087343440974
 20
3953.769072248508
 30
0.0
 40
48.0
  1
ヒータ数
 41
0.8
 72
     1
 11
1262.687343440974
 21
3977.769072248508
 31
0.0
100
AcDbText
 73
     2
  0
TEXT
  5
2CE86
330
17
100
AcDbEntity
  8
DIMTEXT
 62
     7
100
AcDbText
 10
1658.115914869547
 20
3953.769072248511
 30
0.0
 40
48.0
  1
1
 41
0.8
 72
     1
 11
1662.687343440976
 21
3977.769072248511
 31
0.0
100
AcDbText
 73
     2
  0
TEXT
  5
2CE87
330
17
100
AcDbEntity
  8
DIMTEXT
 62
     7
100
AcDbText
 10
2199.887343440978
 20
3953.769072248511
 30
0.0
 40
48.0
  1
2
 41
0.8
 72
     1
 11
2212.687343440978
 21
3977.769072248511
 31
0.0
100
AcDbText
 73
     2
  0
TEXT
  5
2CE88
330
17
100
AcDbEntity
  8
DIMTEXT
 62
     7
100
AcDbText
 10
2758.115914869549
 20
3953.769072248511
 30
0.0
 40
48.0
  1
1
 41
0.8
 72
     1
 11
2762.687343440977
 21
3977.769072248511
 31
0.0
100
AcDbText
 73
     2
  0
LINE
  5
2CE89
330
17
100
AcDbEntity
  8
WAKU
 62
     7
100
AcDbLine
 10
1937.687343440974
 20
3857.769072248509
 30
0.0
 11
1937.687343440974
 21
3697.769072248508
 31
0.0
  0
DIMENSION
  5
2D10E
330
17
100
AcDbEntity
  8
DIM
 62
     7
370
    18
100
AcDbDimension
  2
*D6
 10
985.1455509891684
 20
2656.373639567107
 30
0.0
 11
1164.906118785066
 21
2631.085538639537
 31
0.0
 70
    34
 71
     5
 42
0.6981317007977319
  3
STANDARD
100
AcDb2LineAngularDimension
 13
1097.398476851404
 23
2991.195811891573
 33
0.0
 14
1274.592759039115
 24
2780.023889507218
 34
0.0
 15
985.1455509891666
 25
3554.9736395671
 35
0.0
 16
1115.347752204022
 26
2575.607355180676
 36
0.0
1001
ACAD
1000
DSTYLE
1002
{
1070
    41
1040
3.0
1070
    42
1040
2.0
1070
    43
1040
10.0
1070
    44
1040
2.0
1070
    73
1070
     0
1070
    74
1070
     0
1070
    77
1070
     1
1070
    78
1070
     8
1070
    79
1070
     2
1070
   140
1040
3.2
1070
   147
1040
0.9999999999999996
1070
   172
1070
     1
1070
   179
1070
     8
1070
   271
1070
     8
1070
   272
1070
     8
1070
   341
1005
4A
1070
   342
1005
4A
1002
}
  0
DIMENSION
  5
2D10F
330
17
100
AcDbEntity
  8
DIM
 62
     7
370
    18
100
AcDbDimension
  2
*D7
 10
877.0584555335418
 20
2996.16045524478
 30
0.0
 11
806.3850028526049
 21
2632.145476771995
 31
0.0
 70
    34
 71
     5
 42
0.6947896420740527
  3
STANDARD
100
AcDb2LineAngularDimension
 13
985.1455509891666
 23
3554.9736395671
 33
0.0
 14
985.1455509891684
 24
2656.373639567107
 34
0.0
 15
707.5571051262768
 25
2792.780077515501
 35
0.0
 16
733.1140983541919
 26
2621.215237859486
 36
0.0
1001
ACAD
1000
DSTYLE
1002
{
1070
    41
1040
3.0
1070
    42
1040
2.0
1070
    43
1040
10.0
1070
    44
1040
2.0
1070
    73
1070
     0
1070
    74
1070
     0
1070
    77
1070
     1
1070
    78
1070
     8
1070
    79
1070
     2
1070
   140
1040
3.2
1070
   147
1040
0.9999999999999996
1070
   172
1070
     1
1070
   179
1070
     0
1070
   271
1070
     8
1070
   272
1070
     8
1070
   341
1005
4A
1070
   342
1005
4A
1002
}
  0
DIMENSION
  5
2D111
330
17
100
AcDbEntity
  8
DIM
 62
     7
370
    18
100
AcDbDimension
  2
*D8
 10
1583.465657489249
 20
2677.434695419222
 30
0.0
 11
1544.465657489249
 21
3104.704167493164
 31
0.0
 70
    32
  1
（<>）
 71
     5
 42
854.538944147881
  3
STANDARD
100
AcDbAlignedDimension
 13
997.65527974429
 23
3531.973639567103
 33
0.0
 14
985.1455509891684
 24
2677.434695419222
 34
0.0
 50
90.0
100
AcDbRotatedDimension
1001
ACAD
1000
DSTYLE
1002
{
1070
     3
1000
<>
1070
    41
1040
3.0
1070
    42
1040
2.0
1070
    43
1040
10.0
1070
    44
1040
2.0
1070
    73
1070
     0
1070
    74
1070
     0
1070
    77
1070
     1
1070
    78
1070
     8
1070
    79
1070
     2
1070
   140
1040
3.2
1070
   147
1040
0.9999999999999996
1070
   172
1070
     1
1070
   179
1070
     8
1070
   271
1070
     0
1070
   272
1070
     8
1070
   341
1005
4A
1070
   342
1005
4A
1002
}
  0
LINE
  5
2D112
330
17
100
AcDbEntity
  8
MCEN
 62
     7
370
    25
100
AcDbLine
 10
985.1455509891666
 20
3554.9736395671
 30
0.0
 11
985.1455509891684
 21
2656.373639567107
 31
0.0
  0
LINE
  5
2D113
330
17
100
AcDbEntity
  8
CEN
 62
     7
370
    25
100
AcDbLine
 10
707.5571051262768
 20
2792.780077515501
 30
0.0
 11
985.1455509891684
 21
3124.973639567102
 31
0.0
  0
LINE
  5
2D115
330
17
100
AcDbEntity
  8
CEN
 62
     7
370
    25
100
AcDbLine
 10
985.1455509891684
 20
3124.973639567102
 30
0.0
 11
1274.592759039115
 21
2780.023889507218
 31
0.0
  0
DIMENSION
  5
2D116
330
17
100
AcDbEntity
  8
DIM
 62
     7
370
    18
100
AcDbDimension
  2
*D9
 10
1472.245550989166
 20
2677.434695419222
 30
0.0
 11
1433.245550989165
 21
2901.204167493163
 31
0.0
 70
    32
 71
     5
 42
447.5389441478792
  3
STANDARD
100
AcDbAlignedDimension
 13
1376.245550989166
 23
3124.973639567102
 33
0.0
 14
985.1455509891627
 24
2677.434695419222
 34
0.0
 50
90.0
100
AcDbRotatedDimension
1001
ACAD
1000
DSTYLE
1002
{
1070
     3
1000
<>
1070
    41
1040
3.0
1070
    42
1040
2.0
1070
    43
1040
10.0
1070
    44
1040
2.0
1070
    73
1070
     0
1070
    74
1070
     0
1070
    77
1070
     1
1070
    78
1070
     8
1070
    79
1070
     2
1070
   140
1040
3.2
1070
   147
1040
0.9999999999999996
1070
   172
1070
     1
1070
   179
1070
     8
1070
   271
1070
     0
1070
   272
1070
     8
1070
   341
1005
4A
1070
   342
1005
4A
1002
}
  0
LEADER
  5
2D117
330
17
100
AcDbEntity
  8
DIM
 62
     7
370
    18
100
AcDbLeader
  3
STANDARD
 76
     2
 10
1245.009917363582
 20
307.3323292440139
 30
0.0
 10
506.4327066421019
 20
158.6055886557068
 30
0.0
211
1.0
221
-0.0000000000000002
231
0.0
1001
ACAD
1000
DSTYLE
1002
{
1070
    41
1040
3.0
1070
    42
1040
2.0
1070
    43
1040
10.0
1070
    44
1040
2.0
1070
    73
1070
     0
1070
    74
1070
     0
1070
    77
1070
     1
1070
    78
1070
     8
1070
    79
1070
     2
1070
   140
1040
3.2
1070
   147
1040
0.9999999999999996
1070
   172
1070
     1
1070
   179
1070
     8
1070
   271
1070
     8
1070
   272
1070
     8
1070
   341
1005
5132
1070
   342
1005
4A
1002
}
  0
LEADER
  5
2D118
330
17
100
AcDbEntity
  8
DIM
 62
     7
370
    18
100
AcDbLeader
  3
STANDARD
 76
     2
 10
977.7377921736787
 20
306.052359833093
 30
0.0
 10
506.4327066421019
 20
158.6055886557068
 30
0.0
211
1.0
221
-0.0000000000000002
231
0.0
1001
ACAD
1000
DSTYLE
1002
{
1070
    41
1040
3.0
1070
    42
1040
2.0
1070
    43
1040
10.0
1070
    44
1040
2.0
1070
    73
1070
     0
1070
    74
1070
     0
1070
    77
1070
     1
1070
    78
1070
     8
1070
    79
1070
     2
1070
   140
1040
3.2
1070
   147
1040
0.9999999999999996
1070
   172
1070
     1
1070
   179
1070
     8
1070
   271
1070
     8
1070
   272
1070
     8
1070
   341
1005
5132
1070
   342
1005
4A
1002
}
  0
LEADER
  5
2D119
330
17
100
AcDbEntity
  8
DIM
 62
     7
370
    18
100
AcDbLeader
  3
STANDARD
 76
     2
 10
716.2959289395638
 20
305.4574630281666
 30
0.0
 10
506.4327066421019
 20
158.6055886557068
 30
0.0
211
1.0
221
-0.0000000000000002
231
0.0
1001
ACAD
1000
DSTYLE
1002
{
1070
    41
1040
3.0
1070
    42
1040
2.0
1070
    43
1040
10.0
1070
    44
1040
2.0
1070
    73
1070
     0
1070
    74
1070
     0
1070
    77
1070
     1
1070
    78
1070
     8
1070
    79
1070
     2
1070
   140
1040
3.2
1070
   147
1040
0.9999999999999996
1070
   172
1070
     1
1070
   179
1070
     8
1070
   271
1070
     8
1070
   272
1070
     8
1070
   341
1005
5132
1070
   342
1005
4A
1002
}
  0
LEADER
  5
2D11A
330
17
100
AcDbEntity
  8
DIM
 62
     7
370
    18
100
AcDbLeader
  3
STANDARD
 76
     2
 10
743.2148519623922
 20
380.8519904754803
 30
0.0
 10
592.2963754136737
 20
710.4731431225481
 30
0.0
211
1.0
221
-0.0000000000000002
231
0.0
1001
ACAD
1000
DSTYLE
1002
{
1070
    41
1040
3.0
1070
    42
1040
2.0
1070
    43
1040
10.0
1070
    44
1040
2.0
1070
    73
1070
     0
1070
    74
1070
     0
1070
    77
1070
     1
1070
    78
1070
     8
1070
    79
1070
     2
1070
   140
1040
3.2
1070
   147
1040
0.9999999999999996
1070
   172
1070
     1
1070
   179
1070
     8
1070
   271
1070
     8
1070
   272
1070
     8
1070
   341
1005
5132
1070
   342
1005
4A
1002
}
  0
LEADER
  5
2D11B
330
17
100
AcDbEntity
  8
DIM
 62
     7
370
    18
100
AcDbLeader
  3
STANDARD
 76
     2
 10
1229.57898456049
 20
380.8519904754803
 30
0.0
 10
592.2963754136737
 20
710.4731431225481
 30
0.0
211
1.0
221
-0.0000000000000002
231
0.0
1001
ACAD
1000
DSTYLE
1002
{
1070
    41
1040
3.0
1070
    42
1040
2.0
1070
    43
1040
10.0
1070
    44
1040
2.0
1070
    73
1070
     0
1070
    74
1070
     0
1070
    77
1070
     1
1070
    78
1070
     8
1070
    79
1070
     2
1070
   140
1040
3.2
1070
   147
1040
0.9999999999999996
1070
   172
1070
     1
1070
   179
1070
     8
1070
   271
1070
     8
1070
   272
1070
     8
1070
   341
1005
5132
1070
   342
1005
4A
1002
}
  0
LEADER
  5
2D11C
330
17
100
AcDbEntity
  8
DIM
 62
     7
370
    18
100
AcDbLeader
  3
STANDARD
 76
     2
 10
1178.645550989166
 20
571.7940303628296
 30
0.0
 10
594.4979849341988
 20
829.6564399176284
 30
0.0
211
1.0
221
-0.0000000000000002
231
0.0
1001
ACAD
1000
DSTYLE
1002
{
1070
    41
1040
3.0
1070
    42
1040
2.0
1070
    43
1040
10.0
1070
    44
1040
2.0
1070
    73
1070
     0
1070
    74
1070
     0
1070
    77
1070
     1
1070
    78
1070
     8
1070
    79
1070
     2
1070
   140
1040
3.2
1070
   147
1040
0.9999999999999996
1070
   172
1070
     1
1070
   179
1070
     8
1070
   271
1070
     8
1070
   272
1070
     8
1070
   341
1005
5132
1070
   342
1005
4A
1002
}
  0
LEADER
  5
2D11D
330
17
100
AcDbEntity
  8
DIM
 62
     7
370
    18
100
AcDbLeader
  3
STANDARD
 76
     2
 10
901.6455509891555
 20
897.1228315839617
 30
0.0
 10
594.4979849341988
 20
948.8397367127102
 30
0.0
211
1.0
221
-0.0000000000000002
231
0.0
1001
ACAD
1000
DSTYLE
1002
{
1070
    41
1040
3.0
1070
    42
1040
2.0
1070
    43
1040
10.0
1070
    44
1040
2.0
1070
    73
1070
     0
1070
    74
1070
     0
1070
    77
1070
     1
1070
    78
1070
     8
1070
    79
1070
     2
1070
   140
1040
3.2
1070
   147
1040
0.9999999999999996
1070
   172
1070
     1
1070
   179
1070
     8
1070
   271
1070
     8
1070
   272
1070
     8
1070
   341
1005
4A
1070
   342
1005
4A
1002
}
  0
LEADER
  5
2D11E
330
17
100
AcDbEntity
  8
DIM
 62
     7
370
    18
100
AcDbLeader
  3
STANDARD
 76
     2
 10
1010.145550989166
 20
917.5519904754851
 30
0.0
 10
596.1168193798431
 20
1201.500873182275
 30
0.0
211
1.0
221
-0.0000000000000002
231
0.0
1001
ACAD
1000
DSTYLE
1002
{
1070
    41
1040
3.0
1070
    42
1040
2.0
1070
    43
1040
10.0
1070
    44
1040
2.0
1070
    73
1070
     0
1070
    74
1070
     0
1070
    77
1070
     1
1070
    78
1070
     8
1070
    79
1070
     2
1070
   140
1040
3.2
1070
   147
1040
0.9999999999999996
1070
   172
1070
     1
1070
   179
1070
     8
1070
   271
1070
     8
1070
   272
1070
     8
1070
   341
1005
4A
1070
   342
1005
4A
1002
}
  0
LEADER
  5
2D11F
330
17
100
AcDbEntity
  8
DIM
 62
     7
370
    18
100
AcDbLeader
  3
STANDARD
 76
     2
 10
947.6455509891556
 20
918.2908705809063
 30
0.0
 10
594.4979849341986
 20
1068.151532402207
 30
0.0
211
1.0
221
-0.0000000000000002
231
0.0
1001
ACAD
1000
DSTYLE
1002
{
1070
    41
1040
3.0
1070
    42
1040
2.0
1070
    43
1040
10.0
1070
    44
1040
2.0
1070
    73
1070
     0
1070
    74
1070
     0
1070
    77
1070
     1
1070
    78
1070
     8
1070
    79
1070
     2
1070
   140
1040
3.2
1070
   147
1040
0.9999999999999996
1070
   172
1070
     1
1070
   179
1070
     8
1070
   271
1070
     8
1070
   272
1070
     8
1070
   341
1005
5132
1070
   342
1005
4A
1002
}
  0
LEADER
  5
2D120
330
17
100
AcDbEntity
  8
DIM
 62
     7
370
    18
100
AcDbLeader
  3
STANDARD
 76
     2
 10
985.1455509891676
 20
2245.399579769838
 30
0.0
 10
589.1805285075617
 20
2333.55038155839
 30
0.0
211
1.0
221
-0.0000000000000002
231
0.0
1001
ACAD
1000
DSTYLE
1002
{
1070
    41
1040
3.0
1070
    42
1040
2.0
1070
    43
1040
10.0
1070
    44
1040
2.0
1070
    73
1070
     0
1070
    74
1070
     0
1070
    77
1070
     1
1070
    78
1070
     8
1070
    79
1070
     2
1070
   140
1040
3.2
1070
   147
1040
0.9999999999999996
1070
   172
1070
     1
1070
   179
1070
     8
1070
   271
1070
     8
1070
   272
1070
     8
1070
   341
1005
5132
1070
   342
1005
4A
1002
}
  0
DIMENSION
  5
2D121
330
17
100
AcDbEntity
  8
DIM
 62
     7
370
    18
100
AcDbDimension
  2
*D10
 10
565.2866596643317
 20
380.8519904754837
 30
0.0
 11
565.2866596643316
 21
334.2019904754838
 31
0.0
 70
   160
 71
     5
 42
93.30000000000016
  3
STANDARD
100
AcDbAlignedDimension
 13
613.2866596643316
 23
287.5519904754836
 33
0.0
 14
735.9446517087953
 24
380.8519904754837
 34
0.0
 50
90.0
100
AcDbRotatedDimension
1001
ACAD
1000
DSTYLE
1002
{
1070
    45
1040
10.0
1070
    41
1040
3.0
1070
    42
1040
2.0
1070
    43
1040
10.0
1070
    44
1040
2.0
1070
    73
1070
     0
1070
    74
1070
     0
1070
    77
1070
     1
1070
    78
1070
     8
1070
    79
1070
     2
1070
   140
1040
3.2
1070
   147
1040
0.9999999999999996
1070
   172
1070
     1
1070
   179
1070
     8
1070
   271
1070
     0
1070
   272
1070
     8
1070
   341
1005
4A
1070
   342
1005
4A
1002
}
  0
LINE
  5
2D122
330
17
100
AcDbEntity
  8
0
 62
     7
370
    25
100
AcDbLine
 10
613.2866596643325
 20
287.5519904754836
 30
0.0
 11
1881.794107252929
 21
287.551990475484
 31
0.0
  0
LINE
  5
2D123
330
17
100
AcDbEntity
  8
DIM
 62
     7
370
    18
100
AcDbLine
 10
506.4327066421019
 20
158.6055886557068
 30
0.0
 11
388.5599342867287
 21
158.6055886557068
 31
0.0
  0
TEXT
  5
2D124
330
17
100
AcDbEntity
  8
DIM
 62
     7
370
    18
100
AcDbText
 10
25.98144569713259
 20
720.0981431225479
 30
0.0
 40
48.0
  1
給排水口　R3／4（20A）
 41
0.8
 11
25.98144569713259
 21
744.098143122548
 31
0.0
100
AcDbText
 73
     2
  0
LINE
  5
2D125
330
17
100
AcDbEntity
  8
DIM
 62
     7
370
    18
100
AcDbLine
 10
592.2963754136737
 20
710.4731431225481
 30
0.0
 11
19.72501681422901
 21
710.4731431225481
 31
0.0
  0
LINE
  5
2D126
330
17
100
AcDbEntity
  8
DIM
 62
     7
370
    18
100
AcDbLine
 10
594.4979849341988
 20
829.6564399176284
 30
0.0
 11
19.72501681422903
 21
829.6564399176284
 31
0.0
  0
LINE
  5
2D127
330
17
100
AcDbEntity
  8
DIM
 62
     7
370
    18
100
AcDbLine
 10
594.4979849341988
 20
948.8397367127102
 30
0.0
 11
19.72501681422903
 21
948.8397367127099
 31
0.0
  0
TEXT
  5
2D128
330
17
100
AcDbEntity
  8
DIM
 62
     7
370
    18
100
AcDbText
 10
25.98144569713259
 20
839.2814399176286
 30
0.0
 40
48.0
  1
型式銘板
 41
0.8
 11
25.98144569713259
 21
863.2814399176286
 31
0.0
100
AcDbText
 73
     2
  0
TEXT
  5
2D129
330
17
100
AcDbEntity
  8
DIM
 62
     7
370
    18
100
AcDbText
 10
405.3429196220394
 20
168.2305886557068
 30
0.0
 40
48.0
  1
脚
 41
0.8
 11
405.3429196220394
 21
192.2305886557068
 31
0.0
100
AcDbText
 73
     2
  0
LINE
  5
2D12A
330
17
100
AcDbEntity
  8
DIM
 62
     7
370
    18
100
AcDbLine
 10
594.4979849341986
 20
1068.151532402207
 30
0.0
 11
19.72501681422904
 21
1068.151532402207
 31
0.0
  0
TEXT
  5
2D12B
330
17
100
AcDbEntity
  8
DIM
 62
     7
370
    18
100
AcDbText
 10
25.98144569713259
 20
1077.776532402207
 30
0.0
 40
48.0
  1
漏電しゃ断器
 41
0.8
 11
25.98144569713259
 21
1101.776532402207
 31
0.0
100
AcDbText
 73
     2
  0
LINE
  5
2D12C
330
17
100
AcDbEntity
  8
DIM
 62
     7
370
    18
100
AcDbLine
 10
596.1168193798431
 20
1201.500873182275
 30
0.0
 11
19.72501681422905
 21
1201.500873182275
 31
0.0
  0
TEXT
  5
2D12D
330
17
100
AcDbEntity
  8
DIM
 62
     7
370
    18
100
AcDbText
 10
25.98144569713259
 20
1211.125873182274
 30
0.0
 40
48.0
  1
湯温設定スイッチ
 41
0.8
 11
25.98144569713259
 21
1235.125873182274
 31
0.0
100
AcDbText
 73
     2
  0
TEXT
  5
2D12E
330
17
100
AcDbEntity
  8
DIM
 62
     7
370
    18
100
AcDbText
 10
25.98144569713259
 20
958.46473671271
 30
0.0
 40
48.0
  1
操作カバー
 41
0.8
 11
25.98144569713259
 21
982.4647367127099
 31
0.0
100
AcDbText
 73
     2
  0
LINE
  5
2D12F
330
17
100
AcDbEntity
  8
DIM
 62
     7
370
    18
100
AcDbLine
 10
589.1805285075617
 20
2333.55038155839
 30
0.0
 11
18.12824346469809
 21
2333.55038155839
 31
0.0
  0
TEXT
  5
2D130
330
17
100
AcDbEntity
  8
DIM
 62
     7
370
    18
100
AcDbText
 10
25.98144569713247
 20
2343.175381558391
 30
0.0
 40
48.0
  1
給湯口　R3／4（20A）
 41
0.8
 11
25.98144569713247
 21
2367.175381558391
 31
0.0
100
AcDbText
 73
     2
  0
LINE
  5
2D131
330
17
100
AcDbEntity
  8
ZUKEI
 62
     7
370
    25
100
AcDbLine
 10
1068.645550989155
 20
970.0519904754852
 30
0.0
 11
1068.645550989155
 21
876.0519904754842
 31
0.0
  0
LINE
  5
2D132
330
17
100
AcDbEntity
  8
ZUKEI
 62
     7
370
    25
100
AcDbLine
 10
1057.645550989155
 20
975.5519904754851
 30
0.0
 11
1057.645550989155
 21
870.5519904754842
 31
0.0
  0
LINE
  5
2D133
330
17
100
AcDbEntity
  8
ZUKEI
 62
     7
370
    25
100
AcDbLine
 10
901.6455509891555
 20
970.0519904754845
 30
0.0
 11
901.6455509891555
 21
876.0519904754847
 31
0.0
  0
LINE
  5
2D134
330
17
100
AcDbEntity
  8
ZUKEI
 62
     7
370
    25
100
AcDbLine
 10
913.6455509891558
 20
975.5519904754846
 30
0.0
 11
913.6455509891558
 21
870.5519904754847
 31
0.0
  0
LINE
  5
2D135
330
17
100
AcDbEntity
  8
MCEN
 62
     7
370
    25
100
AcDbLine
 10
985.1455509891676
 20
2321.831926293691
 30
0.0
 11
985.1455509891666
 21
263.8590575107958
 31
0.0
  0
LINE
  5
2D136
330
17
100
AcDbEntity
  8
ZUKEI
 62
     7
370
    25
100
AcDbLine
 10
1352.045550989048
 20
2174.551990475481
 30
0.0
 11
1352.045550989048
 21
333.5519904754851
 31
0.0
  0
LINE
  5
2D137
330
17
100
AcDbEntity
  8
ZUKEI
 62
     7
370
    25
100
AcDbLine
 10
618.2455509893907
 20
2174.551990475489
 30
0.0
 11
618.2455509893907
 21
333.5519904754672
 31
0.0
  0
LINE
  5
2D138
330
17
100
AcDbEntity
  8
ZUKEI
 62
     7
370
    25
100
AcDbLine
 10
1116.145550989167
 20
2151.051990475491
 30
0.0
 11
1116.145550989166
 21
374.5519904754841
 31
0.0
  0
LINE
  5
2D139
330
17
100
AcDbEntity
  8
ZUKEI
 62
     7
370
    25
100
AcDbLine
 10
854.1455509891665
 20
2151.051990475491
 30
0.0
 11
854.1455509891665
 21
374.5519904754845
 31
0.0
  0
DIMENSION
  5
2D13A
330
17
100
AcDbEntity
  8
DIM
 62
     7
370
    18
100
AcDbDimension
  2
*D11
 10
1698.528057586673
 20
287.5519904754838
 30
0.0
 11
1659.528057586673
 21
1278.551990475484
 31
0.0
 70
    32
 71
     5
 42
1981.999999999999
  3
STANDARD
100
AcDbAlignedDimension
 13
998.7455509891679
 23
2269.551990475481
 33
0.0
 14
985.1455509891666
 24
287.551990475484
 34
0.0
 50
90.0
100
AcDbRotatedDimension
1001
ACAD
1000
DSTYLE
1002
{
1070
    41
1040
3.0
1070
    42
1040
2.0
1070
    43
1040
10.0
1070
    44
1040
2.0
1070
    73
1070
     0
1070
    74
1070
     0
1070
    77
1070
     1
1070
    78
1070
     8
1070
    79
1070
     2
1070
   140
1040
3.2
1070
   147
1040
0.9999999999999996
1070
   172
1070
     1
1070
   179
1070
     8
1070
   271
1070
     0
1070
   272
1070
     8
1070
   341
1005
4A
1070
   342
1005
4A
1002
}
  0
DIMENSION
  5
2D13B
330
17
100
AcDbEntity
  8
DIM
 62
     7
370
    18
100
AcDbDimension
  2
*D12
 10
1583.465657489249
 20
327.5519904754842
 30
0.0
 11
1544.465657489249
 21
1268.551990475484
 31
0.0
 70
    32
 71
     5
 42
1881.999999999999
  3
STANDARD
100
AcDbAlignedDimension
 13
1347.645550989164
 23
2209.551990475484
 33
0.0
 14
1345.245550989049
 24
327.5519904754844
 34
0.0
 50
90.0
100
AcDbRotatedDimension
1001
ACAD
1000
DSTYLE
1002
{
1070
    41
1040
3.0
1070
    42
1040
2.0
1070
    43
1040
10.0
1070
    44
1040
2.0
1070
    73
1070
     0
1070
    74
1070
     0
1070
    77
1070
     1
1070
    78
1070
     8
1070
    79
1070
     2
1070
   140
1040
3.2
1070
   147
1040
0.9999999999999996
1070
   172
1070
     1
1070
   179
1070
     8
1070
   271
1070
     0
1070
   272
1070
     8
1070
   341
1005
4A
1070
   342
1005
4A
1002
}
  0
DIMENSION
  5
2D13C
330
17
100
AcDbEntity
  8
DIM
 62
     7
370
    18
100
AcDbDimension
  2
*D13
 10
1583.465657489249
 20
287.551990475483
 30
0.0
 11
1544.465657489249
 21
151.466276189769
 31
0.0
 70
    32
 71
     5
 42
40.00000000000119
  3
STANDARD
100
AcDbAlignedDimension
 13
1345.245550989049
 23
327.5519904754844
 33
0.0
 14
1320.695518579372
 24
287.5519904754832
 34
0.0
 50
90.0
100
AcDbRotatedDimension
1001
ACAD
1000
DSTYLE
1002
{
1070
    41
1040
3.0
1070
    42
1040
2.0
1070
    43
1040
10.0
1070
    44
1040
2.0
1070
    73
1070
     0
1070
    74
1070
     0
1070
    77
1070
     1
1070
    78
1070
     8
1070
    79
1070
     2
1070
   140
1040
3.2
1070
   147
1040
0.9999999999999996
1070
   172
1070
     1
1070
   179
1070
     8
1070
   271
1070
     8
1070
   272
1070
     8
1070
   341
1005
4A
1070
   342
1005
4A
1002
}
  0
LINE
  5
2D13D
330
17
100
AcDbEntity
  8
DIM
 62
     7
370
    18
100
AcDbLine
 10
1348.845156833873
 20
287.5519904754832
 30
0.0
 11
1493.867802181913
 21
287.5519904754832
 31
0.0
  0
LINE
  5
2D13E
330
17
100
AcDbEntity
  8
DIM
 62
     7
370
    18
100
AcDbLine
 10
1350.695518579372
 20
287.5519904754832
 30
0.0
 11
1614.573846559254
 21
287.5519904754832
 31
0.0
  0
LINE
  5
2D13F
330
17
100
AcDbEntity
  8
ZUKEI
 62
     7
370
    25
100
AcDbLine
 10
918.6455509891557
 20
859.0519904754847
 30
0.0
 11
1051.645550989155
 21
859.0519904754842
 31
0.0
  0
LINE
  5
2D140
330
17
100
AcDbEntity
  8
ZUKEI
 62
     7
370
    25
100
AcDbLine
 10
913.6455509891558
 20
870.5519904754847
 30
0.0
 11
1057.645550989155
 21
870.5519904754842
 31
0.0
  0
LINE
  5
2D141
330
17
100
AcDbEntity
  8
ZUKEI
 62
     7
370
    25
100
AcDbLine
 10
625.0455509893908
 20
327.5519904754844
 30
0.0
 11
1345.245550989049
 21
327.551990475484
 31
0.0
  0
LINE
  5
2D142
330
17
100
AcDbEntity
  8
ZUKEI
 62
     7
370
    25
100
AcDbLine
 10
852.1455509891666
 20
374.5519904754845
 30
0.0
 11
1118.145550989166
 21
374.5519904754841
 31
0.0
  0
LINE
  5
2D143
330
17
100
AcDbEntity
  8
ZUKEI
 62
     7
370
    25
100
AcDbLine
 10
852.1455509891666
 20
352.5519904754844
 30
0.0
 11
1118.145550989166
 21
352.551990475484
 31
0.0
  0
LINE
  5
2D144
330
17
100
AcDbEntity
  8
ZUKEI
 62
     7
370
    25
100
AcDbLine
 10
852.1455509891666
 20
337.5519904754844
 30
0.0
 11
1118.145550989166
 21
337.551990475484
 31
0.0
  0
LINE
  5
2D145
330
17
100
AcDbEntity
  8
ZUKEI
 62
     7
370
    25
100
AcDbLine
 10
735.1455509891666
 20
322.5519904754845
 30
0.0
 11
1235.145550989166
 21
322.5519904754841
 31
0.0
  0
LINE
  5
2D146
330
17
100
AcDbEntity
  8
ZUKEI
 62
     7
370
    25
100
AcDbLine
 10
618.2455509893907
 20
333.5519904754854
 30
0.0
 11
854.1455509891884
 21
333.5519904754854
 31
0.0
  0
LWPOLYLINE
  5
2D147
330
17
100
AcDbEntity
  8
ZUKEI
 62
     7
370
    25
100
AcDbPolyline
 90
       15
 70
     0
 43
0.0
 10
721.8957678893481
 20
367.230184447523
 42
0.0699238280844273
 10
726.0231871578731
 20
359.6387870398874
 42
0.106239636795507
 10
734.1453484873112
 20
352.4935224690024
 42
0.1495559562006099
 10
741.7387314448809
 20
350.8519904754837
 42
0.1281482373363467
 10
749.876601579465
 20
352.9725211957472
 42
0.1062396367955064
 10
757.4542757318892
 20
359.6387870398874
 42
0.0851721693417716
 10
762.188049310717
 20
369.0117181422535
 42
0.0745735507777748
 10
763.9638673156428
 20
380.8519904754837
 42
0.0745735507777815
 10
762.188049310717
 20
392.6922628087148
 42
0.0851721693417771
 10
757.4542757318892
 20
402.0651939110802
 42
0.1062396367955404
 10
749.876601579465
 20
408.7314597552202
 42
0.1281482373363777
 10
741.7387314448809
 20
410.8519904754837
 42
0.1281482373363703
 10
733.6008613102952
 20
408.731459755219
 42
0.106239636795517
 10
726.0231871578731
 20
402.0651939110802
 42
0.0702487340430201
 10
721.8817097878224
 20
394.4361885579855
 42
0.0745735507777661
  0
LINE
  5
2D148
330
17
100
AcDbEntity
  8
ZUKEI
 62
     7
370
    25
100
AcDbLine
 10
731.1058790462667
 20
327.5519904754846
 30
0.0
 11
678.0689823659534
 21
327.5519904754837
 31
0.0
  0
LINE
  5
2D149
330
17
100
AcDbEntity
  8
ZUKEI
 62
     7
370
    25
100
AcDbLine
 10
623.0689823659522
 20
291.5519904754837
 30
0.0
 11
755.918056872759
 21
291.5519904754837
 31
0.0
  0
LINE
  5
2D14A
330
17
100
AcDbEntity
  8
ZUKEI
 62
     7
370
    25
100
AcDbLine
 10
755.918056872759
 20
287.5519904754836
 30
0.0
 11
629.9188127735508
 21
287.5519904754836
 31
0.0
  0
ARC
  5
2D14B
330
17
100
AcDbEntity
  8
ZUKEI
 62
     7
370
    25
100
AcDbCircle
 10
671.7424310305553
 20
307.5519904754837
 30
0.0
 40
20.0
100
AcDbArc
 50
90.0
 51
180.0
  0
ARC
  5
2D14C
330
17
100
AcDbEntity
  8
ZUKEI
 62
     7
370
    25
100
AcDbCircle
 10
625.0455509893908
 20
333.3519904754846
 30
0.0
 40
5.799999999999998
100
AcDbArc
 50
180.0
 51
270.0
  0
LINE
  5
2D14D
330
17
100
AcDbEntity
  8
ZUKEI
 62
     7
370
    25
100
AcDbLine
 10
619.2455509893907
 20
333.3519904754846
 30
0.0
 11
619.2455509893907
 21
333.5519904754856
 31
0.0
  0
ARC
  5
2D14E
330
17
100
AcDbEntity
  8
ZUKEI
 62
     7
370
    25
100
AcDbCircle
 10
626.0689823659522
 20
290.5519904754837
 30
0.0
 40
3.0
100
AcDbArc
 50
180.0
 51
270.0
  0
LINE
  5
2D14F
330
17
100
AcDbEntity
  8
ZUKEI
 62
     7
370
    25
100
AcDbLine
 10
623.0689823659522
 20
292.5519904754837
 30
0.0
 11
624.6689823659519
 21
292.5519904754837
 31
0.0
  0
LINE
  5
2D150
330
17
100
AcDbEntity
  8
ZUKEI
 62
     7
370
    25
100
AcDbLine
 10
624.6689823659519
 20
291.5519904754837
 30
0.0
 11
624.6689823659519
 21
292.5519904754837
 31
0.0
  0
LINE
  5
2D151
330
17
100
AcDbEntity
  8
ZUKEI
 62
     7
370
    25
100
AcDbLine
 10
623.0689823659522
 20
290.5519904754837
 30
0.0
 11
623.0689823659522
 21
292.5519904754837
 31
0.0
  0
LINE
  5
2D152
330
17
100
AcDbEntity
  8
ZUKEI
 62
     7
370
    25
100
AcDbLine
 10
623.0689823659522
 20
290.5519904754837
 30
0.0
 11
623.0689823659522
 21
292.5519904754837
 31
0.0
  0
LINE
  5
2D153
330
17
100
AcDbEntity
  8
ZUKEI
 62
     7
370
    25
100
AcDbLine
 10
651.7424310305552
 20
299.1519904754841
 30
0.0
 11
651.7424310305552
 21
307.5519904754837
 31
0.0
  0
ARC
  5
2D154
330
17
100
AcDbEntity
  8
ZUKEI
 62
     7
370
    25
100
AcDbCircle
 10
641.7424310305562
 20
299.1519904754841
 30
0.0
 40
10.0
100
AcDbArc
 50
310.5358021113377
 51
0.0
  0
LINE
  5
2D155
330
17
100
AcDbEntity
  8
ZUKEI
 62
     7
370
    25
100
AcDbLine
 10
629.9188127735508
 20
287.5519904754836
 30
0.0
 11
626.2180892825528
 21
287.5519904754836
 31
0.0
  0
LINE
  5
2D156
330
17
100
AcDbEntity
  8
ZUKEI
 62
     7
370
    25
100
AcDbLine
 10
671.7424310305553
 20
327.5519904754837
 30
0.0
 11
678.0689823659534
 21
327.5519904754837
 31
0.0
  0
LINE
  5
2D157
330
17
100
AcDbEntity
  8
ZUKEI
 62
     7
370
    25
100
AcDbLine
 10
735.1455509891666
 20
322.5519904754845
 30
0.0
 11
730.1455509891666
 21
327.5519904754844
 31
0.0
  0
LINE
  5
2D158
330
17
100
AcDbEntity
  8
ZUKEI
 62
     7
370
    25
100
AcDbLine
 10
755.918056872759
 20
291.5519904754837
 30
0.0
 11
755.918056872759
 21
287.5519904754836
 31
0.0
  0
LINE
  5
2D159
330
17
100
AcDbEntity
  8
ZUKEI
 62
     7
370
    25
100
AcDbLine
 10
751.3180568727586
 20
287.5519904754836
 30
0.0
 11
747.21188666084
 21
287.5519904754836
 31
0.0
  0
LINE
  5
2D15A
330
17
100
AcDbEntity
  8
ZUKEI
 62
     7
370
    25
100
AcDbLine
 10
746.1058790462669
 20
291.5519904754837
 30
0.0
 11
746.1058790462669
 21
312.5519904754836
 31
0.0
  0
ARC
  5
2D15B
330
17
100
AcDbEntity
  8
ZUKEI
 62
     7
370
    25
100
AcDbCircle
 10
731.1058790462667
 20
312.5519904754836
 30
0.0
 40
15.0
100
AcDbArc
 50
0.0
 51
90.0
  0
LWPOLYLINE
  5
2D15C
330
17
100
AcDbEntity
  8
ZUKEI
 62
     7
370
    25
100
AcDbPolyline
 90
       16
 70
     1
 43
0.0
 10
720.5103964007782
 20
380.8519904754837
 42
-0.0769657557824258
 10
719.7404820381295
 20
375.8799506901485
 42
-0.0868255636404355
 10
717.7181960484564
 20
371.9999933750149
 42
-0.1057457995553319
 10
714.3286076574208
 20
369.1077144081698
 42
-0.1481106049023757
 10
711.4021558447736
 20
368.5096007926774
 42
-0.1265208152647925
 10
708.1115060745129
 20
369.328787393925
 42
-0.1057457995553346
 10
704.9810027975624
 20
371.9999933750149
 42
-0.0868255636404375
 10
702.9587168078893
 20
375.8799506901485
 42
-0.0769657557824208
 10
702.1888024452406
 20
380.8519904754837
 42
-0.076965755782424
 10
702.9587168078893
 20
385.8240302608189
 42
-0.0868255636404604
 10
704.9810027975624
 20
389.7039875759527
 42
-0.1057457995553532
 10
708.1115060745148
 20
392.3751935570425
 42
-0.1245603994657762
 10
711.3495994230094
 20
393.194583026834
 42
-0.1245603994658014
 10
714.5876927715058
 20
392.3751935570425
 42
-0.1057457995553058
 10
717.7181960484564
 20
389.7039875759527
 42
-0.0868255636404388
 10
719.7404820381295
 20
385.8240302608189
 42
-0.0769657557824121
  0
LWPOLYLINE
  5
2D15D
330
17
100
AcDbEntity
  8
ZUKEI
 62
     7
370
    25
100
AcDbPolyline
 90
       16
 70
     1
 43
0.0
 10
721.7678038494274
 20
380.8519904754837
 42
-0.0769657557824256
 10
720.9390009195746
 20
375.4996534606842
 42
-0.0868255636404357
 10
718.716382420717
 20
371.2353382513473
 42
-0.1057457995553347
 10
714.9266777018915
 20
368.0016467276789
 42
-0.1455683687626903
 10
711.3495994230094
 20
367.2519904754843
 42
-0.1245603994657995
 10
707.5134360300441
 20
368.2227197134341
 42
-0.1057457995553349
 10
703.9828164253018
 20
371.2353382513473
 42
-0.0868255636404369
 10
701.7601979264441
 20
375.4996534606842
 42
-0.0769657557824217
 10
700.9313949965914
 20
380.8519904754837
 42
-0.0769657557824225
 10
701.7601979264441
 20
386.2043274902824
 42
-0.086825563640458
 10
703.9828164253018
 20
390.4686426996203
 42
-0.1057457995553575
 10
707.5134360300441
 20
393.4812612375342
 42
-0.1245603994657739
 10
711.3495994230094
 20
394.4519904754832
 42
-0.1245603994658063
 10
715.1857628159765
 20
393.4812612375333
 42
-0.1057457995553055
 10
718.716382420717
 20
390.4686426996212
 42
-0.0868255636404378
 10
720.9390009195746
 20
386.2043274902834
 42
-0.0769657557824121
  0
LINE
  5
2D15E
330
17
100
AcDbEntity
  8
ZUKEI
 62
     7
370
    25
100
AcDbLine
 10
741.7387314448809
 20
367.2519904754598
 30
0.0
 11
710.9588817077169
 21
367.2519904754997
 31
0.0
  0
LINE
  5
2D15F
330
17
100
AcDbEntity
  8
ZUKEI
 62
     7
370
    25
100
AcDbLine
 10
741.7387314448809
 20
394.4519904754824
 30
0.0
 11
710.9588817077169
 21
394.451990475486
 31
0.0
  0
LWPOLYLINE
  5
2D160
330
17
100
AcDbEntity
  8
ZUKEI
 62
     7
370
    25
100
AcDbPolyline
 90
        5
 70
     0
 43
0.0
 10
719.4359447772609
 20
394.4519904754832
 42
-0.1245603994658063
 10
723.2721081702281
 20
393.4812612375333
 42
-0.1057457995553055
 10
726.8027277749703
 20
390.4686426996212
 42
-0.0868255636404378
 10
729.0253462738279
 20
386.2043274902834
 42
-0.0769657557824121
 10
729.8541492036807
 20
380.8519904754837
 42
-0.0769657557824256
  0
LWPOLYLINE
  5
2D161
330
17
100
AcDbEntity
  8
ZUKEI
 62
     7
370
    25
100
AcDbPolyline
 90
        5
 70
     0
 43
0.0
 10
729.8541492036807
 20
380.8519904754837
 42
-0.0769657557824256
 10
729.0253462738279
 20
375.4996534606842
 42
-0.0868255636404357
 10
726.8027277749703
 20
371.2353382513473
 42
-0.1057457995553347
 10
723.0130230561432
 20
368.0016467276789
 42
-0.1455683687624852
 10
719.4359447772609
 20
367.2519904755096
 42
-0.1245603994657995
  0
LWPOLYLINE
  5
2D162
330
17
100
AcDbEntity
  8
ZUKEI
 62
     7
370
    25
100
AcDbPolyline
 90
        5
 70
     0
 43
0.0
 10
741.7387314448809
 20
394.4519904754832
 42
-0.1245603994658063
 10
745.5748948378483
 20
393.4812612375333
 42
-0.1057457995553055
 10
749.1055144425887
 20
390.4686426996203
 42
-0.0868255636404378
 10
751.3281329414482
 20
386.2043274902824
 42
-0.0769657557824121
 10
752.1569358712992
 20
380.8519904754837
 42
-0.0769657557824256
  0
LWPOLYLINE
  5
2D163
330
17
100
AcDbEntity
  8
ZUKEI
 62
     7
370
    25
100
AcDbPolyline
 90
        5
 70
     0
 43
0.0
 10
752.1569358712992
 20
380.8519904754837
 42
-0.0769657557824256
 10
751.3281329414462
 20
375.4996534606842
 42
-0.0868255636404357
 10
749.1055144425906
 20
371.2353382513473
 42
-0.1057457995553347
 10
745.3158097237634
 20
368.0016467276781
 42
-0.1455683687624852
 10
741.7387314448809
 20
367.2519904755096
 42
-0.1245603994657995
  0
LINE
  5
2D164
330
17
100
AcDbEntity
  8
ZUKEI
 62
     7
370
    25
100
AcDbLine
 10
852.1455509891666
 20
374.5519904754845
 30
0.0
 11
852.1455509891666
 21
337.5519904754844
 31
0.0
  0
LINE
  5
2D165
330
17
100
AcDbEntity
  8
ZUKEI
 62
     7
370
    25
100
AcDbLine
 10
854.1455509891884
 20
337.5519904754844
 30
0.0
 11
854.1455509891884
 21
333.5519904754854
 31
0.0
  0
LINE
  5
2D166
330
17
100
AcDbEntity
  8
ZUKEI
 62
     7
370
    25
100
AcDbLine
 10
965.1504223147632
 20
327.551990475484
 30
0.0
 11
1005.150422314763
 21
327.551990475484
 31
0.0
  0
LINE
  5
2D167
330
17
100
AcDbEntity
  8
ZUKEI
 62
     7
370
    25
100
AcDbLine
 10
985.1455509891666
 20
291.5519904754841
 30
0.0
 11
947.6455509891666
 21
291.5519904754841
 31
0.0
  0
LINE
  5
2D168
330
17
100
AcDbEntity
  8
ZUKEI
 62
     7
370
    25
100
AcDbLine
 10
1019.150408418691
 20
287.551990475484
 30
0.0
 11
971.1455509891663
 21
287.551990475484
 31
0.0
  0
LINE
  5
2D169
330
17
100
AcDbEntity
  8
ZUKEI
 62
     7
370
    25
100
AcDbLine
 10
951.1406935596431
 20
287.551990475484
 30
0.0
 11
971.1455509891663
 21
287.551990475484
 31
0.0
  0
LINE
  5
2D16A
330
17
100
AcDbEntity
  8
ZUKEI
 62
     7
370
    25
100
AcDbLine
 10
947.6455509891666
 20
291.5519904754841
 30
0.0
 11
947.6455509891666
 21
290.8676581341917
 31
0.0
  0
ARC
  5
2D16B
330
17
100
AcDbEntity
  8
ZUKEI
 62
     7
370
    25
100
AcDbCircle
 10
951.1406935596415
 20
291.0519904754841
 30
0.0
 40
3.5
100
AcDbArc
 50
183.0189582176645
 51
270.0
  0
LINE
  5
2D16C
330
17
100
AcDbEntity
  8
ZUKEI
 62
     7
370
    25
100
AcDbLine
 10
955.1504223147631
 20
317.5519904754841
 30
0.0
 11
955.1504223147631
 21
291.5519904754841
 31
0.0
  0
ARC
  5
2D16D
330
17
100
AcDbEntity
  8
ZUKEI
 62
     7
370
    25
100
AcDbCircle
 10
965.1504223147632
 20
317.5519904754841
 30
0.0
 40
10.0
100
AcDbArc
 50
90.0
 51
180.0
  0
LINE
  5
2D16E
330
17
100
AcDbEntity
  8
ZUKEI
 62
     7
370
    25
100
AcDbLine
 10
1017.714520094691
 20
287.551990475484
 30
0.0
 11
1001.816468974656
 21
287.551990475484
 31
0.0
  0
LINE
  5
2D16F
330
17
100
AcDbEntity
  8
ZUKEI
 62
     7
370
    25
100
AcDbLine
 10
1017.714520094691
 20
287.551990475484
 30
0.0
 11
1001.816468974656
 21
287.551990475484
 31
0.0
  0
LINE
  5
2D170
330
17
100
AcDbEntity
  8
ZUKEI
 62
     7
370
    25
100
AcDbLine
 10
1022.650408418691
 20
291.0519904754841
 30
0.0
 11
1022.650408418691
 21
291.5519904754841
 31
0.0
  0
ARC
  5
2D171
330
17
100
AcDbEntity
  8
ZUKEI
 62
     7
370
    25
100
AcDbCircle
 10
1019.150408418689
 20
291.0519904754841
 30
0.0
 40
3.5
100
AcDbArc
 50
270.0
 51
0.0
  0
LINE
  5
2D172
330
17
100
AcDbEntity
  8
ZUKEI
 62
     7
370
    25
100
AcDbLine
 10
1022.650408418691
 20
291.5519904754841
 30
0.0
 11
985.1455509891684
 21
291.5519904754841
 31
0.0
  0
LINE
  5
2D173
330
17
100
AcDbEntity
  8
ZUKEI
 62
     7
370
    25
100
AcDbLine
 10
1015.14067966357
 20
317.5519904754841
 30
0.0
 11
1015.14067966357
 21
291.5519904754841
 31
0.0
  0
ARC
  5
2D174
330
17
100
AcDbEntity
  8
ZUKEI
 62
     7
370
    25
100
AcDbCircle
 10
1005.150422314763
 20
317.5519904754841
 30
0.0
 40
10.0
100
AcDbArc
 50
0.0
 51
90.0
  0
LINE
  5
2D175
330
17
100
AcDbEntity
  8
DASH
 62
     7
370
    18
100
AcDbLine
 10
931.1455509891557
 20
951.0519904754847
 30
0.0
 11
964.1455509891555
 21
951.0519904754842
 31
0.0
  0
LINE
  5
2D176
330
17
100
AcDbEntity
  8
DASH
 62
     7
370
    18
100
AcDbLine
 10
931.1455509891557
 20
886.0519904754847
 30
0.0
 11
964.1455509891555
 21
886.0519904754841
 31
0.0
  0
ARC
  5
2D177
330
17
100
AcDbEntity
  8
ZUKEI
 62
     7
370
    25
100
AcDbCircle
 10
918.6455509891541
 20
876.0519904754847
 30
0.0
 40
17.0
100
AcDbArc
 50
180.0
 51
270.0
  0
LINE
  5
2D178
330
17
100
AcDbEntity
  8
DASH
 62
     7
370
    18
100
AcDbLine
 10
931.1455509891557
 20
951.0519904754847
 30
0.0
 11
931.1455509891557
 21
886.0519904754847
 31
0.0
  0
LINE
  5
2D179
330
17
100
AcDbEntity
  8
DASH
 62
     7
370
    18
100
AcDbLine
 10
964.1455509891555
 20
951.0519904754842
 30
0.0
 11
964.1455509891555
 21
886.0519904754841
 31
0.0
  0
LINE
  5
2D17A
330
17
100
AcDbEntity
  8
ZUKEI
 62
     7
370
    25
100
AcDbLine
 10
1026.145550989165
 20
917.5519904754851
 30
0.0
 11
1026.145550989165
 21
909.5519904754851
 31
0.0
  0
LINE
  5
2D17B
330
17
100
AcDbEntity
  8
ZUKEI
 62
     7
370
    25
100
AcDbLine
 10
1026.145550989165
 20
902.5519904754853
 30
0.0
 11
1026.145550989165
 21
894.5519904754842
 31
0.0
  0
LINE
  5
2D17C
330
17
100
AcDbEntity
  8
ZUKEI
 62
     7
370
    25
100
AcDbLine
 10
1010.145550989166
 20
902.5519904754853
 30
0.0
 11
1010.145550989166
 21
894.5519904754842
 31
0.0
  0
LINE
  5
2D17D
330
17
100
AcDbEntity
  8
ZUKEI
 62
     7
370
    25
100
AcDbLine
 10
1010.145550989166
 20
917.5519904754851
 30
0.0
 11
1010.145550989166
 21
909.5519904754851
 31
0.0
  0
LINE
  5
2D17E
330
17
100
AcDbEntity
  8
ZUKEI
 62
     7
370
    25
100
AcDbLine
 10
1026.145550989165
 20
894.5519904754842
 30
0.0
 11
1010.145550989166
 21
894.5519904754842
 31
0.0
  0
LINE
  5
2D17F
330
17
100
AcDbEntity
  8
ZUKEI
 62
     7
370
    25
100
AcDbLine
 10
1010.145550989166
 20
902.5519904754853
 30
0.0
 11
1026.145550989165
 21
902.5519904754853
 31
0.0
  0
LINE
  5
2D180
330
17
100
AcDbEntity
  8
ZUKEI
 62
     7
370
    25
100
AcDbLine
 10
1010.145550989166
 20
909.5519904754851
 30
0.0
 11
1026.145550989165
 21
909.5519904754851
 31
0.0
  0
LINE
  5
2D181
330
17
100
AcDbEntity
  8
ZUKEI
 62
     7
370
    25
100
AcDbLine
 10
1010.145550989166
 20
917.5519904754851
 30
0.0
 11
1026.145550989165
 21
917.5519904754851
 31
0.0
  0
LINE
  5
2D182
330
17
100
AcDbEntity
  8
DIM
 62
     7
370
    18
100
AcDbLine
 10
1221.145550989165
 20
634.6284293244056
 30
0.0
 11
1221.145550989165
 21
504.6284293244053
 31
0.0
  0
LINE
  5
2D183
330
17
100
AcDbEntity
  8
DIM
 62
     7
370
    18
100
AcDbLine
 10
1136.145550989166
 20
634.6284293244056
 30
0.0
 11
1136.145550989166
 21
504.6284293244053
 31
0.0
  0
LINE
  5
2D184
330
17
100
AcDbEntity
  8
ZUKEI
 62
     7
370
    25
100
AcDbLine
 10
1239.185222932065
 20
327.5519904754842
 30
0.0
 11
1292.222119612381
 21
327.5519904754833
 31
0.0
  0
LINE
  5
2D185
330
17
100
AcDbEntity
  8
ZUKEI
 62
     7
370
    25
100
AcDbLine
 10
1253.232590029571
 20
327.5519904754842
 30
0.0
 11
1310.694353019554
 21
327.5519904754842
 31
0.0
  0
LWPOLYLINE
  5
2D186
330
17
100
AcDbEntity
  8
ZUKEI
 62
     7
370
    25
100
AcDbPolyline
 90
       16
 70
     1
 43
0.0
 10
1249.190218573513
 20
380.8519904754833
 42
0.0769657557824256
 10
1250.019021503367
 20
375.4996534606838
 42
0.0868255636404357
 10
1252.241640002225
 20
371.2353382513469
 42
0.1057457995553347
 10
1256.031344721052
 20
368.0016467276785
 42
0.1455683687626903
 10
1259.608422999932
 20
367.2519904754839
 42
0.1245603994657995
 10
1263.4445863929
 20
368.2227197134337
 42
0.1057457995553349
 10
1266.975205997642
 20
371.2353382513469
 42
0.0868255636404369
 10
1269.197824496498
 20
375.4996534606838
 42
0.0769657557824217
 10
1270.026627426352
 20
380.8519904754833
 42
0.0769657557824225
 10
1269.197824496498
 20
386.204327490282
 42
0.086825563640458
 10
1266.975205997642
 20
390.4686426996198
 42
0.1057457995553575
 10
1263.444586392898
 20
393.4812612375337
 42
0.1245603994657739
 10
1259.608422999934
 20
394.4519904754827
 42
0.1245603994658063
 10
1255.772259606967
 20
393.4812612375329
 42
0.1057457995553055
 10
1252.241640002225
 20
390.4686426996207
 42
0.0868255636404378
 10
1250.019021503367
 20
386.2043274902828
 42
0.0769657557824121
  0
LWPOLYLINE
  5
2D187
330
17
100
AcDbEntity
  8
ZUKEI
 62
     7
370
    25
100
AcDbPolyline
 90
       16
 70
     1
 43
0.0
 10
1250.447626022165
 20
380.8519904754833
 42
0.0769657557824258
 10
1251.217540384814
 20
375.8799506901481
 42
0.0868255636404355
 10
1253.239826374487
 20
371.9999933750144
 42
0.1057457995553319
 10
1256.629414765523
 20
369.1077144081694
 42
0.1481106049023757
 10
1259.555866578168
 20
368.509600792677
 42
0.1265208152647925
 10
1262.846516348429
 20
369.3287873939246
 42
0.1057457995553346
 10
1265.977019625379
 20
371.9999933750144
 42
0.0868255636404375
 10
1267.999305615052
 20
375.8799506901481
 42
0.0769657557824208
 10
1268.7692199777
 20
380.8519904754833
 42
0.076965755782424
 10
1267.999305615054
 20
385.8240302608185
 42
0.0868255636404604
 10
1265.977019625379
 20
389.7039875759523
 42
0.1057457995553532
 10
1262.846516348429
 20
392.375193557042
 42
0.1245603994657762
 10
1259.608422999934
 20
393.1945830268336
 42
0.1245603994658014
 10
1256.370329651438
 20
392.375193557042
 42
0.1057457995553058
 10
1253.239826374487
 20
389.7039875759523
 42
0.0868255636404388
 10
1251.217540384814
 20
385.8240302608185
 42
0.0769657557824121
  0
LINE
  5
2D188
330
17
100
AcDbEntity
  8
ZUKEI
 62
     7
370
    25
100
AcDbLine
 10
1229.219290978063
 20
367.2519904754593
 30
0.0
 11
1259.999140715225
 21
367.2519904754993
 31
0.0
  0
LINE
  5
2D189
330
17
100
AcDbEntity
  8
ZUKEI
 62
     7
370
    25
100
AcDbLine
 10
1229.219290978063
 20
394.4519904754819
 30
0.0
 11
1259.999140715225
 21
394.4519904754855
 31
0.0
  0
LINE
  5
2D18A
330
17
100
AcDbEntity
  8
ZUKEI
 62
     7
370
    25
100
AcDbLine
 10
1116.145550989166
 20
333.551990475485
 30
0.0
 11
1352.045550989048
 21
333.5519904754838
 31
0.0
  0
LINE
  5
2D18B
330
17
100
AcDbEntity
  8
HOJO
 62
     7
370
    18
100
AcDbLine
 10
1214.373045105574
 20
287.5519904754832
 30
0.0
 11
1340.372289204783
 21
287.5519904754832
 31
0.0
  0
LINE
  5
2D18C
330
17
100
AcDbEntity
  8
ZUKEI
 62
     7
370
    25
100
AcDbLine
 10
1347.222119612381
 20
291.5519904754833
 30
0.0
 11
1214.373045105574
 21
291.5519904754833
 31
0.0
  0
LWPOLYLINE
  5
2D18D
330
17
100
AcDbEntity
  8
ZUKEI
 62
     7
370
    25
100
AcDbPolyline
 90
       15
 70
     0
 43
0.0
 10
1249.062254533592
 20
367.2301844475226
 42
-0.0699238280844273
 10
1244.934835265069
 20
359.638787039887
 42
-0.106239636795507
 10
1236.812673935631
 20
352.4935224690019
 42
-0.1495559562006099
 10
1229.219290978063
 20
350.8519904754833
 42
-0.1281482373363467
 10
1221.081420843477
 20
352.9725211957468
 42
-0.1062396367955064
 10
1213.503746691054
 20
359.638787039887
 42
-0.0851721693417716
 10
1208.769973112225
 20
369.011718142253
 42
-0.0745735507777748
 10
1206.9941551073
 20
380.8519904754833
 42
-0.0745735507777815
 10
1208.769973112227
 20
392.6922628087144
 42
-0.0851721693417771
 10
1213.503746691054
 20
402.0651939110797
 42
-0.1062396367955404
 10
1221.081420843479
 20
408.7314597552198
 42
-0.1281482373363777
 10
1229.219290978063
 20
410.8519904754833
 42
-0.1281482373363703
 10
1237.357161112646
 20
408.7314597552189
 42
-0.106239636795517
 10
1244.934835265071
 20
402.0651939110797
 42
-0.0702487340430201
 10
1249.07631263512
 20
394.436188557985
 42
-0.0745735507777661
  0
LINE
  5
2D18E
330
17
100
AcDbEntity
  8
ZUKEI
 62
     7
370
    25
100
AcDbLine
 10
1118.145550989166
 20
374.5519904754841
 30
0.0
 11
1118.145550989166
 21
337.551990475484
 31
0.0
  0
LINE
  5
2D18F
330
17
100
AcDbEntity
  8
ZUKEI
 62
     7
370
    25
100
AcDbLine
 10
1116.145550989166
 20
337.551990475484
 30
0.0
 11
1116.145550989166
 21
333.551990475484
 31
0.0
  0
LINE
  5
2D190
330
17
100
AcDbEntity
  8
ZUKEI
 62
     7
370
    25
100
AcDbLine
 10
1224.185222932067
 20
291.5519904754833
 30
0.0
 11
1224.185222932065
 21
312.5519904754832
 31
0.0
  0
LINE
  5
2D191
330
17
100
AcDbEntity
  8
ZUKEI
 62
     7
370
    25
100
AcDbLine
 10
1218.973045105575
 20
287.5519904754832
 30
0.0
 11
1223.079215317492
 21
287.5519904754832
 31
0.0
  0
LINE
  5
2D192
330
17
100
AcDbEntity
  8
ZUKEI
 62
     7
370
    25
100
AcDbLine
 10
1214.373045105574
 20
291.5519904754833
 30
0.0
 11
1214.373045105574
 21
287.5519904754832
 31
0.0
  0
ARC
  5
2D193
330
17
100
AcDbEntity
  8
DIMTEXT
 62
     7
370
    18
100
AcDbCircle
 10
1239.185222932065
 20
312.5519904754832
 30
0.0
 40
15.0
100
AcDbArc
 50
90.0
 51
180.0
  0
LWPOLYLINE
  5
2D194
330
17
100
AcDbEntity
  8
ZUKEI
 62
     7
370
    25
100
AcDbPolyline
 90
        5
 70
     0
 43
0.0
 10
1251.522077645681
 20
394.4519904754827
 42
0.1245603994658063
 10
1247.685914252716
 20
393.4812612375329
 42
0.1057457995553055
 10
1244.155294647973
 20
390.4686426996207
 42
0.0868255636404378
 10
1241.932676149116
 20
386.2043274902828
 42
0.0769657557824121
 10
1241.103873219263
 20
380.8519904754833
 42
0.0769657557824256
  0
LWPOLYLINE
  5
2D195
330
17
100
AcDbEntity
  8
ZUKEI
 62
     7
370
    25
100
AcDbPolyline
 90
        5
 70
     0
 43
0.0
 10
1241.103873219263
 20
380.8519904754833
 42
0.0769657557824256
 10
1241.932676149116
 20
375.4996534606838
 42
0.0868255636404357
 10
1244.155294647973
 20
371.2353382513469
 42
0.1057457995553347
 10
1247.944999366799
 20
368.0016467276785
 42
0.1455683687624852
 10
1251.522077645681
 20
367.2519904755092
 42
0.1245603994657995
  0
LWPOLYLINE
  5
2D196
330
17
100
AcDbEntity
  8
ZUKEI
 62
     7
370
    25
100
AcDbPolyline
 90
        5
 70
     0
 43
0.0
 10
1229.219290978063
 20
394.4519904754827
 42
0.1245603994658063
 10
1225.383127585095
 20
393.4812612375329
 42
0.1057457995553055
 10
1221.852507980353
 20
390.4686426996198
 42
0.0868255636404378
 10
1219.629889481494
 20
386.204327490282
 42
0.0769657557824121
 10
1218.801086551643
 20
380.8519904754833
 42
0.0769657557824256
  0
LWPOLYLINE
  5
2D197
330
17
100
AcDbEntity
  8
ZUKEI
 62
     7
370
    25
100
AcDbPolyline
 90
        5
 70
     0
 43
0.0
 10
1218.801086551643
 20
380.8519904754833
 42
0.0769657557824256
 10
1219.629889481494
 20
375.4996534606838
 42
0.0868255636404357
 10
1221.852507980353
 20
371.2353382513469
 42
0.1057457995553347
 10
1225.642212699179
 20
368.0016467276776
 42
0.1455683687624852
 10
1229.219290978063
 20
367.2519904755092
 42
0.1245603994657995
  0
LINE
  5
2D198
330
17
100
AcDbEntity
  8
DIM
 62
     7
370
    18
100
AcDbLine
 10
1136.145550989166
 20
504.6284293244053
 30
0.0
 11
1221.145550989165
 21
504.6284293244053
 31
0.0
  0
ARC
  5
2D199
330
17
100
AcDbEntity
  8
ZUKEI
 62
     7
370
    25
100
AcDbCircle
 10
1298.548670947777
 20
307.5519904754833
 30
0.0
 40
20.0
100
AcDbArc
 50
0.0
 51
90.0
  0
LINE
  5
2D19A
330
17
100
AcDbEntity
  8
ZUKEI
 62
     7
370
    25
100
AcDbLine
 10
1298.548670947777
 20
327.5519904754833
 30
0.0
 11
1292.222119612381
 21
327.5519904754833
 31
0.0
  0
LINE
  5
2D19B
330
17
100
AcDbEntity
  8
ZUKEI
 62
     7
370
    25
100
AcDbLine
 10
1235.145550989166
 20
322.5519904754841
 30
0.0
 11
1240.145550989166
 21
327.551990475484
 31
0.0
  0
ARC
  5
2D19E
330
17
100
AcDbEntity
  8
ZUKEI
 62
     7
370
    25
100
AcDbCircle
 10
1345.245550989049
 20
333.3519904754844
 30
0.0
 40
5.799999999999998
100
AcDbArc
 50
270.0
 51
0.0
  0
LINE
  5
2D19F
330
17
100
AcDbEntity
  8
ZUKEI
 62
     7
370
    25
100
AcDbLine
 10
1351.045550989049
 20
333.3519904754844
 30
0.0
 11
1351.045550989049
 21
333.5519904754842
 31
0.0
  0
ARC
  5
2D1A0
330
17
100
AcDbEntity
  8
ZUKEI
 62
     7
370
    25
100
AcDbCircle
 10
1328.548670947777
 20
299.1519904754836
 30
0.0
 40
10.0
100
AcDbArc
 50
180.0
 51
229.464197888662
  0
LINE
  5
2D1A1
330
17
100
AcDbEntity
  8
ZUKEI
 62
     7
370
    25
100
AcDbLine
 10
1318.548670947777
 20
299.1519904754836
 30
0.0
 11
1318.548670947777
 21
307.5519904754833
 31
0.0
  0
LINE
  5
2D1A2
330
17
100
AcDbEntity
  8
ZUKEI
 62
     7
370
    25
100
AcDbLine
 10
1347.222119612381
 20
290.5519904754833
 30
0.0
 11
1347.222119612381
 21
292.5519904754833
 31
0.0
  0
LINE
  5
2D1A3
330
17
100
AcDbEntity
  8
ZUKEI
 62
     7
370
    25
100
AcDbLine
 10
1347.222119612381
 20
290.5519904754833
 30
0.0
 11
1347.222119612381
 21
292.5519904754833
 31
0.0
  0
LINE
  5
2D1A4
330
17
100
AcDbEntity
  8
ZUKEI
 62
     7
370
    25
100
AcDbLine
 10
1345.622119612381
 20
291.5519904754833
 30
0.0
 11
1345.622119612381
 21
292.5519904754833
 31
0.0
  0
LINE
  5
2D1A5
330
17
100
AcDbEntity
  8
ZUKEI
 62
     7
370
    25
100
AcDbLine
 10
1340.372289204783
 20
287.5519904754832
 30
0.0
 11
1344.073012695781
 21
287.5519904754832
 31
0.0
  0
LINE
  5
2D1A6
330
17
100
AcDbEntity
  8
ZUKEI
 62
     7
370
    25
100
AcDbLine
 10
1347.222119612381
 20
292.5519904754833
 30
0.0
 11
1345.622119612381
 21
292.5519904754833
 31
0.0
  0
ARC
  5
2D1A7
330
17
100
AcDbEntity
  8
ZUKEI
 62
     7
370
    25
100
AcDbCircle
 10
1344.222119612379
 20
290.5519904754833
 30
0.0
 40
3.0
100
AcDbArc
 50
270.0
 51
0.0
  0
LINE
  5
2D1A8
330
17
100
AcDbEntity
  8
DIM
 62
     7
370
    18
100
AcDbLine
 10
1136.145550989166
 20
634.6284293244056
 30
0.0
 11
1221.145550989165
 21
634.6284293244056
 31
0.0
  0
ARC
  5
2D1A9
330
17
100
AcDbEntity
  8
ZUKEI
 62
     7
370
    25
100
AcDbCircle
 10
1051.645550989154
 20
876.0519904754842
 30
0.0
 40
17.0
100
AcDbArc
 50
270.0
 51
0.0
  0
CIRCLE
  5
2D1AA
330
17
100
AcDbEntity
  8
ZUKEI
 62
     7
370
    25
100
AcDbCircle
 10
1047.395550989153
 20
923.0519904754842
 30
0.0
 40
9.0
  0
TEXT
  5
2D1AB
330
17
100
AcDbEntity
  8
DIM
 62
     7
370
    18
100
AcDbText
 10
1794.136230442452
 20
309.9960073658543
 30
0.0
 40
51.2
  1
GL
 41
0.8
100
AcDbText
  0
DIMENSION
  5
2D1AC
330
17
100
AcDbEntity
  8
DIM
 62
     7
370
    18
100
AcDbDimension
  2
*D14
 10
1583.465657489249
 20
2269.551990475481
 30
0.0
 11
1544.465657489249
 21
2405.637704761198
 31
0.0
 70
    32
 71
     5
 42
59.99999999999953
  3
STANDARD
100
AcDbAlignedDimension
 13
1347.645550989164
 23
2209.551990475484
 33
0.0
 14
998.7455509891676
 24
2269.551990475481
 34
0.0
 50
90.0
100
AcDbRotatedDimension
1001
ACAD
1000
DSTYLE
1002
{
1070
    41
1040
3.0
1070
    42
1040
2.0
1070
    43
1040
10.0
1070
    44
1040
2.0
1070
    73
1070
     0
1070
    74
1070
     0
1070
    77
1070
     1
1070
    78
1070
     8
1070
    79
1070
     2
1070
   140
1040
3.2
1070
   147
1040
0.9999999999999996
1070
   172
1070
     1
1070
   179
1070
     8
1070
   271
1070
     8
1070
   272
1070
     8
1070
   341
1005
4A
1070
   342
1005
4A
1002
}
  0
LINE
  5
2D1AF
330
17
100
AcDbEntity
  8
ZUKEI
 62
     7
370
    25
100
AcDbLine
 10
918.6455509891557
 20
987.0519904754845
 30
0.0
 11
1051.645550989155
 21
987.0519904754852
 31
0.0
  0
LINE
  5
2D1B0
330
17
100
AcDbEntity
  8
ZUKEI
 62
     7
370
    25
100
AcDbLine
 10
913.6455509891558
 20
975.5519904754846
 30
0.0
 11
1057.645550989155
 21
975.5519904754851
 31
0.0
  0
ARC
  5
2D1B1
330
17
100
AcDbEntity
  8
ZUKEI
 62
     7
370
    25
100
AcDbCircle
 10
918.6455509891541
 20
970.0519904754845
 30
0.0
 40
17.0
100
AcDbArc
 50
90.0
 51
180.0
  0
ARC
  5
2D1B2
330
17
100
AcDbEntity
  8
ZUKEI
 62
     7
370
    25
100
AcDbCircle
 10
1051.645550989155
 20
970.0519904754852
 30
0.0
 40
17.0
100
AcDbArc
 50
0.0
 51
90.0
  0
DIMENSION
  5
2D1B3
330
17
100
AcDbEntity
  8
DIM
 62
     7
370
    18
100
AcDbDimension
  2
*D15
 10
1352.645550989163
 20
2366.551990475484
 30
0.0
 11
985.1455509891655
 21
2405.551990475482
 31
0.0
 70
    32
  1
φ<>（直径）
 71
     5
 42
734.9999999999984
  3
STANDARD
100
AcDbAlignedDimension
 13
617.6455509891662
 23
2204.551990475482
 33
0.0
 14
1352.645550989163
 24
2204.551990475482
 34
0.0
100
AcDbRotatedDimension
1001
ACAD
1000
DSTYLE
1002
{
1070
    41
1040
3.0
1070
    42
1040
2.0
1070
    43
1040
10.0
1070
    44
1040
2.0
1070
    73
1070
     0
1070
    74
1070
     0
1070
    77
1070
     1
1070
    78
1070
     8
1070
    79
1070
     2
1070
   140
1040
3.2
1070
   147
1040
0.9999999999999996
1070
   172
1070
     1
1070
   179
1070
     8
1070
   271
1070
     0
1070
   272
1070
     8
1070
   341
1005
4A
1070
   342
1005
4A
1002
}
  0
ARC
  5
2D1B4
330
17
100
AcDbEntity
  8
ZUKEI
 62
     7
370
    25
100
AcDbCircle
 10
1027.145550989167
 20
2211.551990475491
 30
0.0
 40
8.0
100
AcDbArc
 50
18.20995686399855
 51
90.0
  0
LINE
  5
2D1B5
330
17
100
AcDbEntity
  8
ZUKEI
 62
     7
370
    25
100
AcDbLine
 10
841.1455509891691
 20
2214.051990475491
 30
0.0
 11
1129.145550989167
 21
2214.051990475491
 31
0.0
  0
LINE
  5
2D1B6
330
17
100
AcDbEntity
  8
ZUKEI
 62
     7
370
    25
100
AcDbLine
 10
840.1455509891691
 20
2151.051990475491
 30
0.0
 11
1130.145550989167
 21
2151.051990475491
 31
0.0
  0
LINE
  5
2D1B7
330
17
100
AcDbEntity
  8
ZUKEI
 62
     7
370
    25
100
AcDbLine
 10
856.0221132451042
 20
2191.051990475491
 30
0.0
 11
1114.268988733231
 21
2191.051990475491
 31
0.0
  0
ARC
  5
2D1B8
330
17
100
AcDbEntity
  8
ZUKEI
 62
     7
370
    25
100
AcDbCircle
 10
985.1455509891684
 20
3092.434695419223
 30
0.0
 40
415.0
100
AcDbArc
 50
252.859831843952
 51
287.1401681560478
  0
LINE
  5
2D1B9
330
17
100
AcDbEntity
  8
ZUKEI
 62
     7
370
    25
100
AcDbLine
 10
840.1455509891684
 20
2806.934695419217
 30
0.0
 11
1130.145550989168
 21
2806.934695419219
 31
0.0
  0
ARC
  5
2D1BA
330
17
100
AcDbEntity
  8
ZUKEI
 62
     7
370
    25
100
AcDbCircle
 10
985.1455509891684
 20
3051.934695419223
 30
0.0
 40
315.5
100
AcDbArc
 50
242.6394777708873
 51
297.3605222291125
  0
LINE
  5
2D1BB
330
17
100
AcDbEntity
  8
ZUKEI
 62
     7
370
    25
100
AcDbLine
 10
785.9813068591846
 20
2239.551990475485
 30
0.0
 11
884.3098256367301
 21
2239.551990475485
 31
0.0
  0
LINE
  5
2D1BC
330
17
100
AcDbEntity
  8
ZUKEI
 62
     7
370
    25
100
AcDbLine
 10
787.4947932803697
 20
2237.551990475485
 30
0.0
 11
882.7963302771529
 21
2237.551990475485
 31
0.0
  0
LINE
  5
2D1BD
330
17
100
AcDbEntity
  8
ZUKEI
 62
     7
370
    25
100
AcDbLine
 10
788.8440355715737
 20
2235.551990475485
 30
0.0
 11
881.4471121831319
 21
2235.551990475485
 31
0.0
  0
LINE
  5
2D1BE
330
17
100
AcDbEntity
  8
ZUKEI
 62
     7
370
    25
100
AcDbLine
 10
840.1455509891691
 20
2209.551990475484
 30
0.0
 11
622.6455509891674
 21
2209.551990475484
 31
0.0
  0
LINE
  5
2D1BF
330
17
100
AcDbEntity
  8
ZUKEI
 62
     7
370
    25
100
AcDbLine
 10
840.1455509891691
 20
2174.551990475483
 30
0.0
 11
617.6455509891665
 21
2174.551990475481
 31
0.0
  0
LINE
  5
2D1C0
330
17
100
AcDbEntity
  8
ZUKEI
 62
     7
370
    25
100
AcDbLine
 10
617.6455509891665
 20
2204.551990475482
 30
0.0
 11
617.6455509891665
 21
2174.551990475483
 31
0.0
  0
ARC
  5
2D1C1
330
17
100
AcDbEntity
  8
ZUKEI
 62
     7
370
    25
100
AcDbCircle
 10
622.6455509891674
 20
2204.551990475482
 30
0.0
 40
5.0
100
AcDbArc
 50
90.0
 51
180.0
  0
ARC
  5
2D1C2
330
17
100
AcDbEntity
  8
ZUKEI
 62
     7
370
    25
100
AcDbCircle
 10
787.4947932803697
 20
2233.551990475485
 30
0.0
 40
4.000000000000047
100
AcDbArc
 50
90.0
 51
158.008870082853
  0
ARC
  5
2D1C3
330
17
100
AcDbEntity
  8
ZUKEI
 62
     7
370
    25
100
AcDbCircle
 10
788.8440355715701
 20
2231.551990475485
 30
0.0
 40
4.000000000000047
100
AcDbArc
 50
90.0
 51
158.0088700828588
  0
ARC
  5
2D1C4
330
17
100
AcDbEntity
  8
ZUKEI
 62
     7
370
    25
100
AcDbCircle
 10
785.9813068591828
 20
2235.551990475485
 30
0.0
 40
4.000000000000047
100
AcDbArc
 50
90.0
 51
139.304468960487
  0
ARC
  5
2D1C5
330
17
100
AcDbEntity
  8
ZUKEI
 62
     7
370
    25
100
AcDbCircle
 10
772.9470664067648
 20
2213.551990475487
 30
0.0
 40
4.000000000000047
100
AcDbArc
 50
269.9999999999478
 51
338.0088700827792
  0
ARC
  5
2D1C6
330
17
100
AcDbEntity
  8
ZUKEI
 62
     7
370
    25
100
AcDbCircle
 10
772.8093625771033
 20
2218.551990475491
 30
0.0
 40
4.000000000000047
100
AcDbArc
 50
270.0
 51
338.008870082853
  0
ARC
  5
2D1C7
330
17
100
AcDbEntity
  8
ZUKEI
 62
     7
370
    25
100
AcDbCircle
 10
761.2687340866558
 20
2217.551990475485
 30
0.0
 40
3.00000000000005
100
AcDbArc
 50
270.0000000000521
 51
319.304468960487
  0
LINE
  5
2D1C8
330
17
100
AcDbEntity
  8
ZUKEI
 62
     7
370
    25
100
AcDbLine
 10
757.6455509891692
 20
2214.551990475485
 30
0.0
 11
757.6455509891692
 21
2209.551990475485
 31
0.0
  0
LINE
  5
2D1C9
330
17
100
AcDbEntity
  8
ZUKEI
 62
     7
370
    25
100
AcDbLine
 10
757.6455509891692
 20
2214.551990475485
 30
0.0
 11
773.100382942002
 21
2214.551990475487
 31
0.0
  0
LINE
  5
2D1CA
330
17
100
AcDbEntity
  8
ZUKEI
 62
     7
370
    25
100
AcDbLine
 10
783.7858259319381
 20
2235.04984267389
 30
0.0
 11
776.5183299255367
 21
2217.054138277086
 31
0.0
  0
LINE
  5
2D1CB
330
17
100
AcDbEntity
  8
ZUKEI
 62
     7
370
    25
100
AcDbLine
 10
785.1350682231402
 20
2233.04984267389
 30
0.0
 11
776.6560337551981
 21
2212.054138277081
 31
0.0
  0
LINE
  5
2D1CC
330
17
100
AcDbEntity
  8
ZUKEI
 62
     7
370
    25
100
AcDbLine
 10
763.5432896755918
 20
2215.595872669001
 30
0.0
 11
782.9485660739373
 21
2238.160147550797
 31
0.0
  0
LINE
  5
2D1CD
330
17
100
AcDbEntity
  8
ZUKEI
 62
     7
370
    25
100
AcDbLine
 10
840.1455509891691
 20
2213.051990475491
 30
0.0
 11
840.1455509891691
 21
2151.051990475491
 31
0.0
  0
LINE
  5
2D1CE
330
17
100
AcDbEntity
  8
ZUKEI
 62
     7
370
    25
100
AcDbLine
 10
851.0236750130625
 20
2186.176951431291
 30
0.0
 11
850.1455509891693
 21
2151.051990475491
 31
0.0
  0
ARC
  5
2D1D0
330
17
100
AcDbEntity
  8
ZUKEI
 62
     7
370
    25
100
AcDbCircle
 10
943.1455509891677
 20
2211.551990475489
 30
0.0
 40
8.0
100
AcDbArc
 50
90.0
 51
161.7900431360014
  0
ARC
  5
2D1D1
330
17
100
AcDbEntity
  8
ZUKEI
 62
     7
370
    25
100
AcDbCircle
 10
882.7963086979652
 20
2233.551990475485
 30
0.0
 40
4.000000000000047
100
AcDbArc
 50
21.99112991714692
 51
90.0
  0
ARC
  5
2D1D2
330
17
100
AcDbEntity
  8
ZUKEI
 62
     7
370
    25
100
AcDbCircle
 10
884.309795119152
 20
2235.551990475485
 30
0.0
 40
4.000000000000047
100
AcDbArc
 50
40.69553103951295
 51
90.0
  0
LINE
  5
2D1D3
330
17
100
AcDbEntity
  8
ZUKEI
 62
     7
370
    25
100
AcDbLine
 10
885.1560337551982
 20
2233.04984267389
 30
0.0
 11
892.8282432968588
 21
2214.051990475491
 31
0.0
  0
ARC
  5
2D1D4
330
17
100
AcDbEntity
  8
ZUKEI
 62
     7
370
    25
100
AcDbCircle
 10
881.4470664067647
 20
2231.551990475485
 30
0.0
 40
4.000000000000047
100
AcDbArc
 50
21.99112991714089
 51
90.0
  0
ARC
  5
2D1D5
330
17
100
AcDbEntity
  8
ZUKEI
 62
     7
370
    25
100
AcDbCircle
 10
841.1455509891673
 20
2213.051990475491
 30
0.0
 40
1.0
100
AcDbArc
 50
90.0
 51
180.0
  0
ARC
  5
2D1D6
330
17
100
AcDbEntity
  8
ZUKEI
 62
     7
370
    25
100
AcDbCircle
 10
856.0221132451022
 20
2186.051990475491
 30
0.0
 40
5.0
100
AcDbArc
 50
90.0
 51
178.5679038158353
  0
LINE
  5
2D1D7
330
17
100
AcDbEntity
  8
ZUKEI
 62
     7
370
    25
100
AcDbLine
 10
912.6455725683534
 20
2214.551990475485
 30
0.0
 11
912.6455725683534
 21
2214.051990475491
 31
0.0
  0
LINE
  5
2D1D8
330
17
100
AcDbEntity
  8
ZUKEI
 62
     7
370
    25
100
AcDbLine
 10
912.6455509891693
 20
2214.551990475485
 30
0.0
 11
897.1907190363344
 21
2214.551990475487
 31
0.0
  0
ARC
  5
2D1D9
330
17
100
AcDbEntity
  8
ZUKEI
 62
     7
370
    25
100
AcDbCircle
 10
909.0223678916787
 20
2217.551990475485
 30
0.0
 40
3.00000000000005
100
AcDbArc
 50
220.6955310395128
 51
269.9999999999478
  0
ARC
  5
2D1DA
330
17
100
AcDbEntity
  8
ZUKEI
 62
     7
370
    25
100
AcDbCircle
 10
897.4817394012315
 20
2218.551990475491
 30
0.0
 40
4.000000000000047
100
AcDbArc
 50
201.9911299171468
 51
270.0
  0
LINE
  5
2D1DB
330
17
100
AcDbEntity
  8
ZUKEI
 62
     7
370
    25
100
AcDbLine
 10
886.5052760463985
 20
2235.04984267389
 30
0.0
 11
893.7727720528018
 21
2217.054138277086
 31
0.0
  0
LINE
  5
2D1DC
330
17
100
AcDbEntity
  8
ZUKEI
 62
     7
370
    25
100
AcDbLine
 10
906.7478123027449
 20
2215.595872669001
 30
0.0
 11
887.3425359043991
 21
2238.160147550797
 31
0.0
  0
LINE
  5
2D1DD
330
17
100
AcDbEntity
  8
ZUKEI
 62
     7
370
    25
100
AcDbLine
 10
968.1455509891677
 20
2231.551990475489
 30
0.0
 11
1002.145550989167
 21
2231.551990475491
 31
0.0
  0
LINE
  5
2D1DE
330
17
100
AcDbEntity
  8
ZUKEI
 62
     7
370
    25
100
AcDbLine
 10
971.5455509891688
 20
2269.551990475481
 30
0.0
 11
998.7455509891676
 21
2269.551990475481
 31
0.0
  0
LINE
  5
2D1DF
330
17
100
AcDbEntity
  8
ZUKEI
 62
     7
370
    25
100
AcDbLine
 10
968.1455509891677
 20
2233.551990475491
 30
0.0
 11
1002.145550989167
 21
2233.551990475491
 31
0.0
  0
LINE
  5
2D1E0
330
17
100
AcDbEntity
  8
ZUKEI
 62
     7
370
    25
100
AcDbLine
 10
971.5455509891688
 20
2255.021990475483
 30
0.0
 11
998.7455509891676
 21
2255.021990475483
 31
0.0
  0
ARC
  5
2D1E1
330
17
100
AcDbEntity
  8
ZUKEI
 62
     7
370
    25
100
AcDbCircle
 10
968.1455509891527
 20
2232.551990475788
 30
0.0
 40
1.000000000633006
100
AcDbArc
 50
90.00247279174109
 51
270.0000000008337
  0
ARC
  5
2D1E2
330
17
100
AcDbEntity
  8
BORDER
 62
     7
370
    18
100
AcDbCircle
 10
968.1455509891677
 20
2233.551990475491
 30
0.0
 40
0.0
100
AcDbArc
 50
180.0
 51
0.0
  0
LINE
  5
2D1E3
330
17
100
AcDbEntity
  8
ZUKEI
 62
     7
370
    25
100
AcDbLine
 10
971.5455509891688
 20
2253.421990475481
 30
0.0
 11
973.1455509891711
 21
2255.021990475483
 31
0.0
  0
LINE
  5
2D1E4
330
17
100
AcDbEntity
  8
ZUKEI
 62
     7
370
    25
100
AcDbLine
 10
971.5455509891688
 20
2269.551990475481
 30
0.0
 11
971.5455509891688
 21
2233.551990475491
 31
0.0
  0
LINE
  5
2D1E5
330
17
100
AcDbEntity
  8
ZUKEI
 62
     7
370
    25
100
AcDbLine
 10
973.1455509891691
 20
2269.551990475485
 30
0.0
 11
973.1455509891674
 21
2255.021990475483
 31
0.0
  0
ARC
  5
2D1E6
330
17
100
AcDbEntity
  8
ZUKEI
 62
     7
370
    25
100
AcDbCircle
 10
966.1455509891693
 20
2221.551990475489
 30
0.0
 40
2.0
100
AcDbArc
 50
270.0
 51
0.0000000000065138
  0
LINE
  5
2D1E7
330
17
100
AcDbEntity
  8
ZUKEI
 62
     7
370
    25
100
AcDbLine
 10
943.1455509891693
 20
2219.551990475489
 30
0.0
 11
966.1455509891693
 21
2219.551990475489
 31
0.0
  0
LINE
  5
2D1E8
330
17
100
AcDbEntity
  8
ZUKEI
 62
     7
370
    25
100
AcDbLine
 10
968.1455509891677
 20
2231.551990475489
 30
0.0
 11
968.1455509891693
 21
2221.551990475489
 31
0.0
  0
ARC
  5
2D1E9
330
17
100
AcDbEntity
  8
ZUKEI
 62
     7
370
    25
100
AcDbCircle
 10
1002.145550989418
 20
2232.551990475707
 30
0.0
 40
0.99999999978354
100
AcDbArc
 50
269.9999999856697
 51
90.00000001433033
  0
LINE
  5
2D1EA
330
17
100
AcDbEntity
  8
ZUKEI
 62
     7
370
    25
100
AcDbLine
 10
998.7455509891676
 20
2253.421990475481
 30
0.0
 11
997.1455509891656
 21
2255.021990475483
 31
0.0
  0
LINE
  5
2D1EB
330
17
100
AcDbEntity
  8
ZUKEI
 62
     7
370
    25
100
AcDbLine
 10
998.7455509891676
 20
2269.551990475481
 30
0.0
 11
998.7455509891676
 21
2233.551990475491
 31
0.0
  0
LINE
  5
2D1EC
330
17
100
AcDbEntity
  8
ZUKEI
 62
     7
370
    25
100
AcDbLine
 10
997.1455509891674
 20
2269.551990475481
 30
0.0
 11
997.1455509891674
 21
2255.021990475483
 31
0.0
  0
ARC
  5
2D1ED
330
17
100
AcDbEntity
  8
ZUKEI
 62
     7
370
    25
100
AcDbCircle
 10
1004.145550989167
 20
2221.551990475491
 30
0.0
 40
2.0
100
AcDbArc
 50
180.0
 51
270.0
  0
LINE
  5
2D1EE
330
17
100
AcDbEntity
  8
ZUKEI
 62
     7
370
    25
100
AcDbLine
 10
1002.145550989167
 20
2231.551990475491
 30
0.0
 11
1002.145550989167
 21
2221.551990475491
 31
0.0
  0
LINE
  5
2D1EF
330
17
100
AcDbEntity
  8
ZUKEI
 62
     7
370
    25
100
AcDbLine
 10
1004.145550989167
 20
2219.551990475491
 30
0.0
 11
1027.145550989167
 21
2219.551990475491
 31
0.0
  0
ARC
  5
2D1F0
330
17
100
AcDbEntity
  8
ZUKEI
 62
     7
370
    25
100
AcDbCircle
 10
978.2213687545365
 20
3115.130589287389
 30
0.0
 40
415.0
100
AcDbArc
 50
228.1220189339868
 51
231.8779810659834
  0
ARC
  5
2D1F1
330
17
100
AcDbEntity
  8
ZUKEI
 62
     7
370
    25
100
AcDbCircle
 10
978.2213687545365
 20
3115.130589287389
 30
0.0
 40
400.47
100
AcDbArc
 50
228.1220189339868
 51
231.8779810659834
  0
LINE
  5
2D1F2
330
17
100
AcDbEntity
  8
ZUKEI
 62
     7
370
    25
100
AcDbLine
 10
701.1895857464451
 20
2806.134810670009
 30
0.0
 11
739.4247607132621
 21
2851.701717800183
 31
0.0
  0
LINE
  5
2D1F3
330
17
100
AcDbEntity
  8
ZUKEI
 62
     7
370
    25
100
AcDbLine
 10
702.383520515871
 20
2805.06852859782
 30
0.0
 11
711.7272733186628
 21
2816.203979568858
 31
0.0
  0
LINE
  5
2D1F4
330
17
100
AcDbEntity
  8
ZUKEI
 62
     7
370
    25
100
AcDbLine
 10
720.7685871507265
 20
2789.641625965343
 30
0.0
 11
730.1123399535181
 21
2800.777076936383
 31
0.0
  0
LINE
  5
2D1F5
330
17
100
AcDbEntity
  8
ZUKEI
 62
     7
370
    25
100
AcDbLine
 10
722.0259945992884
 20
2788.650987686544
 30
0.0
 11
760.3098609173668
 21
2834.275922909509
 31
0.0
  0
ARC
  5
2D1F6
330
17
100
AcDbEntity
  8
ZUKEI
 62
     7
370
    25
100
AcDbCircle
 10
868.1455509891684
 20
2713.0668000986
 30
0.0
 40
18.0
100
AcDbArc
 50
180.0
 51
252.859831843952
  0
LINE
  5
2D1F7
330
17
100
AcDbEntity
  8
ZUKEI
 62
     7
370
    25
100
AcDbLine
 10
850.1455509891684
 20
2766.776406042954
 30
0.0
 11
850.1455509891684
 21
2713.0668000986
 31
0.0
  0
CIRCLE
  5
2D1F8
330
17
100
AcDbEntity
  8
ZUKEI
 62
     7
370
    25
100
AcDbCircle
 10
855.1455509891685
 20
2796.934695419218
 30
0.0
 40
3.0
  0
LINE
  5
2D1F9
330
17
100
AcDbEntity
  8
ZUKEI
 62
     7
370
    25
100
AcDbLine
 10
840.1455509891684
 20
2806.934695419217
 30
0.0
 11
840.1455509891684
 21
2771.728967426378
 31
0.0
  0
CIRCLE
  5
2D1FA
330
17
100
AcDbEntity
  8
ZUKEI
 62
     7
370
    25
100
AcDbCircle
 10
985.1455509891684
 20
2791.934695419218
 30
0.0
 40
3.0
  0
LINE
  5
2D1FB
330
17
100
AcDbEntity
  8
ZUKEI
 62
     7
370
    25
100
AcDbLine
 10
1130.145550989167
 20
2209.551990475484
 30
0.0
 11
1347.645550989164
 21
2209.551990475484
 31
0.0
  0
LINE
  5
2D1FC
330
17
100
AcDbEntity
  8
ZUKEI
 62
     7
370
    25
100
AcDbLine
 10
1130.145550989167
 20
2174.551990475483
 30
0.0
 11
1352.645550989165
 21
2174.551990475481
 31
0.0
  0
LINE
  5
2D1FD
330
17
100
AcDbEntity
  8
ZUKEI
 62
     7
370
    25
100
AcDbLine
 10
1130.145550989167
 20
2213.051990475491
 30
0.0
 11
1130.145550989167
 21
2151.051990475491
 31
0.0
  0
LINE
  5
2D1FE
330
17
100
AcDbEntity
  8
ZUKEI
 62
     7
370
    25
100
AcDbLine
 10
1119.267426965274
 20
2186.176951431291
 30
0.0
 11
1120.145550989167
 21
2151.051990475491
 31
0.0
  0
LINE
  5
2D1FF
330
17
100
AcDbEntity
  8
ZUKEI
 62
     7
370
    25
100
AcDbLine
 10
1184.309795119152
 20
2239.551990475485
 30
0.0
 11
1085.981276341606
 21
2239.551990475485
 31
0.0
  0
LINE
  5
2D200
330
17
100
AcDbEntity
  8
ZUKEI
 62
     7
370
    25
100
AcDbLine
 10
1181.447066406763
 20
2235.551990475485
 30
0.0
 11
1088.843989795204
 21
2235.551990475485
 31
0.0
  0
LINE
  5
2D201
330
17
100
AcDbEntity
  8
ZUKEI
 62
     7
370
    25
100
AcDbLine
 10
1182.796308697967
 20
2237.551990475485
 30
0.0
 11
1087.494771701183
 21
2237.551990475485
 31
0.0
  0
LINE
  5
2D202
330
17
100
AcDbEntity
  8
ZUKEI
 62
     7
370
    25
100
AcDbLine
 10
1083.785825931938
 20
2235.04984267389
 30
0.0
 11
1076.518329925534
 21
2217.054138277086
 31
0.0
  0
LINE
  5
2D203
330
17
100
AcDbEntity
  8
ZUKEI
 62
     7
370
    25
100
AcDbLine
 10
1085.135068223137
 20
2233.04984267389
 30
0.0
 11
1077.462858681478
 21
2214.051990475491
 31
0.0
  0
LINE
  5
2D204
330
17
100
AcDbEntity
  8
ZUKEI
 62
     7
370
    25
100
AcDbLine
 10
1063.543289675592
 20
2215.595872669001
 30
0.0
 11
1082.948566073937
 21
2238.160147550797
 31
0.0
  0
LINE
  5
2D205
330
17
100
AcDbEntity
  8
ZUKEI
 62
     7
370
    25
100
AcDbLine
 10
1057.645529409981
 20
2214.551990475485
 30
0.0
 11
1057.645529409981
 21
2214.051990475491
 31
0.0
  0
ARC
  5
2D206
330
17
100
AcDbEntity
  8
ZUKEI
 62
     7
370
    25
100
AcDbCircle
 10
1072.809362577103
 20
2218.551990475491
 30
0.0
 40
4.000000000000047
100
AcDbArc
 50
270.0
 51
338.008870082853
  0
ARC
  5
2D207
330
17
100
AcDbEntity
  8
ZUKEI
 62
     7
370
    25
100
AcDbCircle
 10
1061.268734086656
 20
2217.551990475485
 30
0.0
 40
3.00000000000005
100
AcDbArc
 50
270.0000000000521
 51
319.304468960487
  0
LINE
  5
2D208
330
17
100
AcDbEntity
  8
ZUKEI
 62
     7
370
    25
100
AcDbLine
 10
1057.645550989167
 20
2214.551990475485
 30
0.0
 11
1073.100382942002
 21
2214.551990475487
 31
0.0
  0
ARC
  5
2D209
330
17
100
AcDbEntity
  8
ZUKEI
 62
     7
370
    25
100
AcDbCircle
 10
1085.981306859183
 20
2235.551990475485
 30
0.0
 40
4.000000000000047
100
AcDbArc
 50
90.0
 51
139.304468960487
  0
ARC
  5
2D20A
330
17
100
AcDbEntity
  8
ZUKEI
 62
     7
370
    25
100
AcDbCircle
 10
1087.494793280369
 20
2233.551990475485
 30
0.0
 40
4.000000000000047
100
AcDbArc
 50
90.0
 51
158.008870082853
  0
ARC
  5
2D20B
330
17
100
AcDbEntity
  8
ZUKEI
 62
     7
370
    25
100
AcDbCircle
 10
1088.84403557157
 20
2231.551990475485
 30
0.0
 40
4.000000000000047
100
AcDbArc
 50
90.0
 51
158.0088700828588
  0
ARC
  5
2D20C
330
17
100
AcDbEntity
  8
ZUKEI
 62
     7
370
    25
100
AcDbCircle
 10
1129.145550989167
 20
2213.051990475491
 30
0.0
 40
1.0
100
AcDbArc
 50
0.0
 51
90.0
  0
ARC
  5
2D20D
330
17
100
AcDbEntity
  8
ZUKEI
 62
     7
370
    25
100
AcDbCircle
 10
1114.268988733231
 20
2186.051990475491
 30
0.0
 40
5.0
100
AcDbArc
 50
1.432096184164646
 51
90.0
  0
ARC
  5
2D20E
330
17
100
AcDbEntity
  8
ZUKEI
 62
     7
370
    25
100
AcDbCircle
 10
1129.145550989167
 20
2213.051990475491
 30
0.0
 40
1.0
100
AcDbArc
 50
0.0
 51
90.0
  0
ARC
  5
2D20F
330
17
100
AcDbEntity
  8
ZUKEI
 62
     7
370
    25
100
AcDbCircle
 10
1181.447066406764
 20
2231.551990475485
 30
0.0
 40
4.000000000000047
100
AcDbArc
 50
21.99112991714089
 51
90.0
  0
ARC
  5
2D210
330
17
100
AcDbEntity
  8
ZUKEI
 62
     7
370
    25
100
AcDbCircle
 10
1182.796308697965
 20
2233.551990475485
 30
0.0
 40
4.000000000000047
100
AcDbArc
 50
21.99112991714692
 51
90.0
  0
ARC
  5
2D211
330
17
100
AcDbEntity
  8
ZUKEI
 62
     7
370
    25
100
AcDbCircle
 10
1184.309795119152
 20
2235.551990475485
 30
0.0
 40
4.000000000000047
100
AcDbArc
 50
40.69553103951295
 51
90.0
  0
LINE
  5
2D212
330
17
100
AcDbEntity
  8
ZUKEI
 62
     7
370
    25
100
AcDbLine
 10
1212.645550989167
 20
2214.551990475485
 30
0.0
 11
1212.645550989167
 21
2209.551990475485
 31
0.0
  0
LINE
  5
2D213
330
17
100
AcDbEntity
  8
ZUKEI
 62
     7
370
    25
100
AcDbLine
 10
1212.645550989167
 20
2214.551990475485
 30
0.0
 11
1197.190719036334
 21
2214.551990475487
 31
0.0
  0
ARC
  5
2D214
330
17
100
AcDbEntity
  8
ZUKEI
 62
     7
370
    25
100
AcDbCircle
 10
1197.48173940123
 20
2218.551990475491
 30
0.0
 40
4.000000000000047
100
AcDbArc
 50
201.9911299171468
 51
270.0
  0
ARC
  5
2D215
330
17
100
AcDbEntity
  8
ZUKEI
 62
     7
370
    25
100
AcDbCircle
 10
1197.34403557157
 20
2213.551990475487
 30
0.0
 40
4.000000000000047
100
AcDbArc
 50
201.9911299172207
 51
270.0000000000521
  0
ARC
  5
2D216
330
17
100
AcDbEntity
  8
ZUKEI
 62
     7
370
    25
100
AcDbCircle
 10
1209.022367891679
 20
2217.551990475485
 30
0.0
 40
3.00000000000005
100
AcDbArc
 50
220.6955310395128
 51
269.9999999999478
  0
LINE
  5
2D217
330
17
100
AcDbEntity
  8
ZUKEI
 62
     7
370
    25
100
AcDbLine
 10
1185.156033755196
 20
2233.04984267389
 30
0.0
 11
1193.635068223138
 21
2212.054138277081
 31
0.0
  0
LINE
  5
2D218
330
17
100
AcDbEntity
  8
ZUKEI
 62
     7
370
    25
100
AcDbLine
 10
1186.505276046398
 20
2235.04984267389
 30
0.0
 11
1193.7727720528
 21
2217.054138277086
 31
0.0
  0
LINE
  5
2D219
330
17
100
AcDbEntity
  8
ZUKEI
 62
     7
370
    25
100
AcDbLine
 10
1206.747812302745
 20
2215.595872669001
 30
0.0
 11
1187.342535904399
 21
2238.160147550797
 31
0.0
  0
LINE
  5
2D21A
330
17
100
AcDbEntity
  8
ZUKEI
 62
     7
370
    25
100
AcDbLine
 10
1352.645550989165
 20
2204.551990475482
 30
0.0
 11
1352.645550989165
 21
2174.551990475483
 31
0.0
  0
ARC
  5
2D21B
330
17
100
AcDbEntity
  8
ZUKEI
 62
     7
370
    25
100
AcDbCircle
 10
1347.645550989164
 20
2204.551990475482
 30
0.0
 40
5.0
100
AcDbArc
 50
0.0
 51
90.0
  0
ARC
  5
2D21C
330
17
100
AcDbEntity
  8
ZUKEI
 62
     7
370
    25
100
AcDbCircle
 10
992.8515649799384
 20
3115.789969708857
 30
0.0
 40
400.47
100
AcDbArc
 50
308.1220189340165
 51
311.8779810660129
  0
ARC
  5
2D21D
330
17
100
AcDbEntity
  8
ZUKEI
 62
     7
370
    25
100
AcDbCircle
 10
992.8515649799384
 20
3115.789969708857
 30
0.0
 40
415.0
100
AcDbArc
 50
308.1220189340165
 51
311.8779810660129
  0
LINE
  5
2D21E
330
17
100
AcDbEntity
  8
ZUKEI
 62
     7
370
    25
100
AcDbLine
 10
1269.88334798803
 20
2806.794191091478
 30
0.0
 11
1231.626391459321
 21
2852.387056476286
 31
0.0
  0
LINE
  5
2D21F
330
17
100
AcDbEntity
  8
ZUKEI
 62
     7
370
    25
100
AcDbLine
 10
1120.145550989168
 20
2766.776406042954
 30
0.0
 11
1120.145550989168
 21
2713.0668000986
 31
0.0
  0
ARC
  5
2D220
330
17
100
AcDbEntity
  8
ZUKEI
 62
     7
370
    25
100
AcDbCircle
 10
1102.145550989167
 20
2713.0668000986
 30
0.0
 40
18.0
100
AcDbArc
 50
287.1401681560478
 51
0.0
  0
LINE
  5
2D221
330
17
100
AcDbEntity
  8
ZUKEI
 62
     7
370
    25
100
AcDbLine
 10
1130.145550989168
 20
2806.934695419219
 30
0.0
 11
1130.145550989168
 21
2771.728967426378
 31
0.0
  0
CIRCLE
  5
2D222
330
17
100
AcDbEntity
  8
ZUKEI
 62
     7
370
    25
100
AcDbCircle
 10
1115.145550989168
 20
2796.934695419218
 30
0.0
 40
3.0
  0
LINE
  5
2D223
330
17
100
AcDbEntity
  8
ZUKEI
 62
     7
370
    25
100
AcDbLine
 10
1250.304346583748
 20
2790.301006386811
 30
0.0
 11
1240.960593780956
 21
2801.43645735785
 31
0.0
  0
LINE
  5
2D224
330
17
100
AcDbEntity
  8
ZUKEI
 62
     7
370
    25
100
AcDbLine
 10
1249.046939135188
 20
2789.310368108012
 30
0.0
 11
1210.78998260648
 21
2834.903233492818
 31
0.0
  0
LINE
  5
2D225
330
17
100
AcDbEntity
  8
ZUKEI
 62
     7
370
    25
100
AcDbLine
 10
1268.689413218603
 20
2805.727909019287
 30
0.0
 11
1259.345660415813
 21
2816.863359990326
 31
0.0
  0
LEADER
  5
2D226
330
17
100
AcDbEntity
  8
DIM
 62
     7
370
    18
100
AcDbLeader
  3
STANDARD
 76
     2
 10
1135.145550989168
 20
3234.973639567103
 30
0.0
 10
573.9434852359226
 20
3498.257768515568
 30
0.0
211
1.0
221
-0.0000000000000002
231
0.0
1001
ACAD
1000
DSTYLE
1002
{
1070
    41
1040
3.0
1070
    42
1040
2.0
1070
    43
1040
10.0
1070
    44
1040
2.0
1070
    73
1070
     0
1070
    74
1070
     0
1070
    77
1070
     1
1070
    78
1070
     8
1070
    79
1070
     2
1070
   140
1040
3.2
1070
   147
1040
0.9999999999999996
1070
   172
1070
     1
1070
   179
1070
     8
1070
   271
1070
     8
1070
   272
1070
     8
1070
   341
1005
4A
1070
   342
1005
4A
1002
}
  0
LEADER
  5
2D227
330
17
100
AcDbEntity
  8
DIM
 62
     7
370
    18
100
AcDbLeader
  3
STANDARD
 76
     2
 10
835.1455509891684
 20
3234.973639567103
 30
0.0
 10
573.9434852359226
 20
3498.257768515568
 30
0.0
211
1.0
221
-0.0000000000000002
231
0.0
1001
ACAD
1000
DSTYLE
1002
{
1070
    41
1040
3.0
1070
    42
1040
2.0
1070
    43
1040
10.0
1070
    44
1040
2.0
1070
    73
1070
     0
1070
    74
1070
     0
1070
    77
1070
     1
1070
    78
1070
     8
1070
    79
1070
     2
1070
   140
1040
3.2
1070
   147
1040
0.9999999999999996
1070
   172
1070
     1
1070
   179
1070
     8
1070
   271
1070
     8
1070
   272
1070
     8
1070
   341
1005
4A
1070
   342
1005
4A
1002
}
  0
LINE
  5
2D228
330
17
100
AcDbEntity
  8
MCEN
 62
     7
370
    25
100
AcDbLine
 10
594.0455509891672
 20
3124.973639567102
 30
0.0
 11
1376.245550989166
 21
3124.973639567102
 31
0.0
  0
LINE
  5
2D229
330
17
100
AcDbEntity
  8
DIM
 62
     7
370
    18
100
AcDbLine
 10
573.9434852359226
 20
3498.257768515569
 30
0.0
 11
388.5599342867287
 21
3498.257768515569
 31
0.0
  0
TEXT
  5
2D22A
330
17
100
AcDbEntity
  8
DIM
 62
     7
370
    18
100
AcDbText
 10
405.3429196220402
 20
3507.882768515568
 30
0.0
 40
48.0
  1
取　手
 41
0.8
 11
405.3429196220402
 21
3531.882768515568
 31
0.0
100
AcDbText
 73
     2
  0
CIRCLE
  5
2D22B
330
17
100
AcDbEntity
  8
ZUKEI
 62
     7
370
    25
100
AcDbCircle
 10
985.1455509891666
 20
3124.973639567101
 30
0.0
 40
50.0
  0
LINE
  5
2D22C
330
17
100
AcDbEntity
  8
ZUKEI
 62
     7
370
    25
100
AcDbLine
 10
757.6455509891684
 20
3216.973639567102
 30
0.0
 11
912.6455509891684
 21
3216.973639567102
 31
0.0
  0
LINE
  5
2D22D
330
17
100
AcDbEntity
  8
ZUKEI
 62
     7
370
    25
100
AcDbLine
 10
757.6455509891684
 20
3232.973639567102
 30
0.0
 11
912.6455509891684
 21
3232.973639567102
 31
0.0
  0
LINE
  5
2D22E
330
17
100
AcDbEntity
  8
ZUKEI
 62
     7
370
    25
100
AcDbLine
 10
757.6455509891684
 20
3214.973639567102
 30
0.0
 11
912.6455509891684
 21
3214.973639567102
 31
0.0
  0
LINE
  5
2D22F
330
17
100
AcDbEntity
  8
ZUKEI
 62
     7
370
    25
100
AcDbLine
 10
757.6455509891684
 20
3234.973639567102
 30
0.0
 11
912.6455509891684
 21
3234.973639567102
 31
0.0
  0
LINE
  5
2D230
330
17
100
AcDbEntity
  8
ZUKEI
 62
     7
370
    25
100
AcDbLine
 10
670.137690619845
 20
2925.783258510333
 30
0.0
 11
655.1376906198441
 21
2951.764020623866
 31
0.0
  0
ARC
  5
2D231
330
17
100
AcDbEntity
  8
ZUKEI
 62
     7
370
    25
100
AcDbCircle
 10
666.2687650695445
 20
2915.466629533736
 30
0.0
 40
8.0
100
AcDbArc
 50
47.71893187343301
 51
120.0000000000005
  0
ARC
  5
2D232
330
17
100
AcDbEntity
  8
ZUKEI
 62
     7
370
    25
100
AcDbCircle
 10
660.5787111210741
 20
2923.13989667071
 30
0.0
 40
25.0
100
AcDbArc
 50
210.0000000000215
 51
298.4015084429243
  0
ARC
  5
2D233
330
17
100
AcDbEntity
  8
ZUKEI
 62
     7
370
    25
100
AcDbCircle
 10
660.5787111210741
 20
2923.13989667071
 30
0.0
 40
23.39999999999999
100
AcDbArc
 50
210.0000000000215
 51
298.347759035625
  0
ARC
  5
2D234
330
17
100
AcDbEntity
  8
ZUKEI
 62
     7
370
    25
100
AcDbCircle
 10
666.2687650695445
 20
2915.466629533736
 30
0.0
 40
9.599999999999999
100
AcDbArc
 50
47.71893187343301
 51
120.0000000000005
  0
LINE
  5
2D235
330
17
100
AcDbEntity
  8
ZUKEI
 62
     7
370
    25
100
AcDbLine
 10
668.7520499737886
 20
2924.983258510331
 30
0.0
 11
653.7520499737886
 21
2950.964020623865
 31
0.0
  0
ARC
  5
2D236
330
17
100
AcDbEntity
  8
ZUKEI
 62
     7
370
    25
100
AcDbCircle
 10
666.7424310305562
 20
2958.464020623865
 30
0.0
 40
15.0
100
AcDbArc
 50
148.5832703310768
 51
210.0000000000215
  0
ARC
  5
2D237
330
17
100
AcDbEntity
  8
ZUKEI
 62
     7
370
    25
100
AcDbCircle
 10
666.7424310305562
 20
2958.464020623865
 30
0.0
 40
13.4
100
AcDbArc
 50
153.293314037787
 51
210.0000000000215
  0
ARC
  5
2D238
330
17
100
AcDbEntity
  8
ZUKEI
 62
     7
370
    25
100
AcDbCircle
 10
644.2687650695445
 20
2953.571747300252
 30
0.0
 40
9.599999999999999
100
AcDbArc
 50
300.0000000000005
 51
12.28106812660586
  0
ARC
  5
2D239
330
17
100
AcDbEntity
  8
ZUKEI
 62
     7
370
    25
100
AcDbCircle
 10
644.2687650695445
 20
2953.571747300252
 30
0.0
 40
8.0
100
AcDbArc
 50
300.0000000000005
 51
12.28106812660586
  0
LINE
  5
2D23A
330
17
100
AcDbEntity
  8
ZUKEI
 62
     7
370
    25
100
AcDbLine
 10
650.1655360770767
 20
2974.874107973679
 30
0.0
 11
634.9698953129193
 21
2966.100900687985
 31
0.0
  0
LINE
  5
2D23B
330
17
100
AcDbEntity
  8
ZUKEI
 62
     7
370
    25
100
AcDbLine
 10
650.795031090048
 20
2973.390026227465
 30
0.0
 11
635.7698953129195
 21
2964.71526004193
 31
0.0
  0
LINE
  5
2D23C
330
17
100
AcDbEntity
  8
ZUKEI
 62
     7
370
    25
100
AcDbLine
 10
648.2687650695445
 20
2946.643544069979
 30
0.0
 11
627.2832776386315
 21
2934.527567252666
 31
0.0
  0
LINE
  5
2D23D
330
17
100
AcDbEntity
  8
ZUKEI
 62
     7
370
    25
100
AcDbLine
 10
649.0687650695447
 20
2945.257903423923
 30
0.0
 11
628.0832776386317
 21
2933.141926606609
 31
0.0
  0
ARC
  5
2D23E
330
17
100
AcDbEntity
  8
ZUKEI
 62
     7
370
    25
100
AcDbCircle
 10
648.0689823659522
 20
2944.807382463486
 30
0.0
 40
25.0
100
AcDbArc
 50
121.5984915570245
 51
210.0000000000215
  0
ARC
  5
2D23F
330
17
100
AcDbEntity
  8
ZUKEI
 62
     7
370
    25
100
AcDbCircle
 10
648.0689823659522
 20
2944.807382463486
 30
0.0
 40
23.39999999999999
100
AcDbArc
 50
121.6522409643406
 51
210.0000000000215
  0
LINE
  5
2D240
330
17
100
AcDbEntity
  8
ZUKEI
 62
     7
370
    25
100
AcDbLine
 10
638.9280760264621
 20
2910.639896670712
 30
0.0
 11
632.6732116489022
 21
2921.473639567099
 31
0.0
  0
LINE
  5
2D241
330
17
100
AcDbEntity
  8
ZUKEI
 62
     7
370
    25
100
AcDbLine
 10
640.3137166725174
 20
2911.439896670712
 30
0.0
 11
634.0588522949575
 21
2922.2736395671
 31
0.0
  0
LINE
  5
2D242
330
17
100
AcDbEntity
  8
ZUKEI
 62
     7
370
    25
100
AcDbLine
 10
661.4687650695453
 20
2923.78047341007
 30
0.0
 11
640.4832776386313
 21
2911.664496592754
 31
0.0
  0
LINE
  5
2D243
330
17
100
AcDbEntity
  8
ZUKEI
 62
     7
370
    25
100
AcDbLine
 10
662.2687650695454
 20
2922.394832764013
 30
0.0
 11
641.2832776386315
 21
2910.2788559467
 31
0.0
  0
LINE
  5
2D244
330
17
100
AcDbEntity
  8
ZUKEI
 62
     7
370
    25
100
AcDbLine
 10
626.4183472713423
 20
2932.307382463486
 30
0.0
 11
632.6732116489022
 21
2921.473639567099
 31
0.0
  0
LINE
  5
2D245
330
17
100
AcDbEntity
  8
ZUKEI
 62
     7
370
    25
100
AcDbLine
 10
627.8039879173968
 20
2933.107382463486
 30
0.0
 11
634.0588522949575
 21
2922.2736395671
 31
0.0
  0
CIRCLE
  5
2D246
330
17
100
AcDbEntity
  8
ZUKEI
 62
     7
370
    25
100
AcDbCircle
 10
645.6635927056687
 20
2928.973639567097
 30
0.0
 40
8.0
  0
LINE
  5
2D247
330
17
100
AcDbEntity
  8
ZUKEI
 62
     7
370
    25
100
AcDbLine
 10
687.6655360770776
 20
2909.922202689847
 30
0.0
 11
672.4698953129184
 21
2901.148995404152
 31
0.0
  0
LINE
  5
2D248
330
17
100
AcDbEntity
  8
ZUKEI
 62
     7
370
    25
100
AcDbLine
 10
686.6950310900477
 20
2911.209402235741
 30
0.0
 11
671.6698953129191
 21
2902.534636050206
 31
0.0
  0
ARC
  5
2D249
330
17
100
AcDbEntity
  8
ZUKEI
 62
     7
370
    25
100
AcDbCircle
 10
681.742431030555
 20
2932.483258510331
 30
0.0
 40
15.0
100
AcDbArc
 50
210.0000000000215
 51
271.4167296689018
  0
ARC
  5
2D24A
330
17
100
AcDbEntity
  8
ZUKEI
 62
     7
370
    25
100
AcDbCircle
 10
681.742431030555
 20
2932.483258510331
 30
0.0
 40
13.4
100
AcDbArc
 50
210.0000000000215
 51
266.7066859622378
  0
CIRCLE
  5
2D24B
330
17
100
AcDbEntity
  8
ZUKEI
 62
     7
370
    25
100
AcDbCircle
 10
767.6455509891684
 20
3224.973639567102
 30
0.0
 40
2.5
  0
LINE
  5
2D24C
330
17
100
AcDbEntity
  8
ZUKEI
 62
     7
370
    25
100
AcDbLine
 10
757.6455509891684
 20
3234.973639567102
 30
0.0
 11
757.6455509891684
 21
3214.973639567102
 31
0.0
  0
LINE
  5
2D24D
330
17
100
AcDbEntity
  8
ZUKEI
 62
     7
370
    25
100
AcDbLine
 10
789.1455509891684
 20
3234.973639567102
 30
0.0
 11
789.1455509891684
 21
3214.973639567102
 31
0.0
  0
LINE
  5
2D24E
330
17
100
AcDbEntity
  8
ZUKEI
 62
     7
370
    25
100
AcDbLine
 10
881.1455509891684
 20
3234.973639567102
 30
0.0
 11
881.1455509891684
 21
3214.973639567102
 31
0.0
  0
CIRCLE
  5
2D24F
330
17
100
AcDbEntity
  8
ZUKEI
 62
     7
370
    25
100
AcDbCircle
 10
902.6455509891684
 20
3224.973639567101
 30
0.0
 40
2.5
  0
LINE
  5
2D250
330
17
100
AcDbEntity
  8
ZUKEI
 62
     7
370
    25
100
AcDbLine
 10
912.6455509891684
 20
3234.973639567102
 30
0.0
 11
912.6455509891684
 21
3214.973639567102
 31
0.0
  0
CIRCLE
  5
2D251
330
17
100
AcDbEntity
  8
ZUKEI
 62
     7
370
    25
100
AcDbCircle
 10
985.1455509891684
 20
3124.973639567101
 30
0.0
 40
13.6
  0
CIRCLE
  5
2D252
330
17
100
AcDbEntity
  8
ZUKEI
 62
     7
370
    25
100
AcDbCircle
 10
985.1455509891684
 20
3124.973639567101
 30
0.0
 40
18.0
  0
ARC
  5
2D253
330
17
100
AcDbEntity
  8
ZUKEI
 62
     7
370
    25
100
AcDbCircle
 10
972.6358222340447
 20
3506.973639567101
 30
0.0
 40
25.0
100
AcDbArc
 50
90.0
 51
178.4015084429456
  0
ARC
  5
2D254
330
17
100
AcDbEntity
  8
ZUKEI
 62
     7
370
    25
100
AcDbCircle
 10
972.6358222340447
 20
3506.973639567101
 30
0.0
 40
23.39999999999999
100
AcDbArc
 50
90.0
 51
178.3477590356371
  0
LINE
  5
2D255
330
17
100
AcDbEntity
  8
ZUKEI
 62
     7
370
    25
100
AcDbLine
 10
971.1455509891685
 20
3505.882541867311
 30
0.0
 11
971.1455509891685
 21
3530.114495501937
 31
0.0
  0
LINE
  5
2D256
330
17
100
AcDbEntity
  8
ZUKEI
 62
     7
370
    25
100
AcDbLine
 10
972.7455509891667
 20
3505.882541867309
 30
0.0
 11
972.7455509891688
 21
3530.114495501937
 31
0.0
  0
CIRCLE
  5
2D257
330
17
100
AcDbEntity
  8
ZUKEI
 62
     7
370
    25
100
AcDbCircle
 10
985.1455509891666
 20
3516.973639567102
 30
0.0
 40
8.0
  0
ARC
  5
2D258
330
17
100
AcDbEntity
  8
ZUKEI
 62
     7
370
    25
100
AcDbCircle
 10
997.6552797442863
 20
3506.973639567101
 30
0.0
 40
25.0
100
AcDbArc
 50
1.598491557047823
 51
90.0
  0
ARC
  5
2D259
330
17
100
AcDbEntity
  8
ZUKEI
 62
     7
370
    25
100
AcDbCircle
 10
997.6552797442863
 20
3506.973639567101
 30
0.0
 40
23.39999999999999
100
AcDbArc
 50
1.652240964362917
 51
90.0
  0
LINE
  5
2D25A
330
17
100
AcDbEntity
  8
ZUKEI
 62
     7
370
    25
100
AcDbLine
 10
999.1455509891684
 20
3505.882541867309
 30
0.0
 11
999.1455509891684
 21
3530.114495501937
 31
0.0
  0
LINE
  5
2D25B
330
17
100
AcDbEntity
  8
ZUKEI
 62
     7
370
    25
100
AcDbLine
 10
997.5455509891679
 20
3505.882541867309
 30
0.0
 11
997.5455509891679
 21
3530.114495501937
 31
0.0
  0
LINE
  5
2D25C
330
17
100
AcDbEntity
  8
ZUKEI
 62
     7
370
    25
100
AcDbLine
 10
1000.145550989168
 20
3498.973639567104
 30
0.0
 11
970.1455509891685
 21
3498.973639567104
 31
0.0
  0
LINE
  5
2D25D
330
17
100
AcDbEntity
  8
ZUKEI
 62
     7
370
    25
100
AcDbLine
 10
1000.145550989168
 20
3497.373639567104
 30
0.0
 11
970.1455509891685
 21
3497.373639567104
 31
0.0
  0
ARC
  5
2D25E
330
17
100
AcDbEntity
  8
ZUKEI
 62
     7
370
    25
100
AcDbCircle
 10
963.1455509891647
 20
3505.882541867308
 30
0.0
 40
9.599999999999999
100
AcDbArc
 50
287.7189318734098
 51
0.0
  0
ARC
  5
2D25F
330
17
100
AcDbEntity
  8
ZUKEI
 62
     7
370
    25
100
AcDbCircle
 10
970.1455509891648
 20
3483.973639567101
 30
0.0
 40
15.0
100
AcDbArc
 50
90.0
 51
151.4167296688781
  0
ARC
  5
2D260
330
17
100
AcDbEntity
  8
ZUKEI
 62
     7
370
    25
100
AcDbCircle
 10
970.1455509891648
 20
3483.973639567101
 30
0.0
 40
13.4
100
AcDbArc
 50
90.0
 51
146.7066859622632
  0
ARC
  5
2D261
330
17
100
AcDbEntity
  8
ZUKEI
 62
     7
370
    25
100
AcDbCircle
 10
963.1455509891647
 20
3505.882541867308
 30
0.0
 40
8.0
100
AcDbArc
 50
287.7189318734098
 51
0.0
  0
LINE
  5
2D262
330
17
100
AcDbEntity
  8
ZUKEI
 62
     7
370
    25
100
AcDbLine
 10
949.2455509891687
 20
3490.321490238093
 30
0.0
 11
949.2455509891687
 21
3507.671022609165
 31
0.0
  0
LINE
  5
2D263
330
17
100
AcDbEntity
  8
ZUKEI
 62
     7
370
    25
100
AcDbLine
 10
947.6455509891684
 20
3490.124608037775
 30
0.0
 11
947.6455509891684
 21
3507.671022609165
 31
0.0
  0
ARC
  5
2D264
330
17
100
AcDbEntity
  8
ZUKEI
 62
     7
370
    25
100
AcDbCircle
 10
1007.145550989166
 20
3505.882541867308
 30
0.0
 40
9.599999999999999
100
AcDbArc
 50
180.0
 51
252.2810681265901
  0
ARC
  5
2D265
330
17
100
AcDbEntity
  8
ZUKEI
 62
     7
370
    25
100
AcDbCircle
 10
1007.145550989166
 20
3505.882541867308
 30
0.0
 40
8.0
100
AcDbArc
 50
180.0
 51
252.2810681265901
  0
ARC
  5
2D266
330
17
100
AcDbEntity
  8
ZUKEI
 62
     7
370
    25
100
AcDbCircle
 10
1000.145550989166
 20
3483.973639567101
 30
0.0
 40
13.4
100
AcDbArc
 50
33.29331403773678
 51
90.0
  0
ARC
  5
2D267
330
17
100
AcDbEntity
  8
ZUKEI
 62
     7
370
    25
100
AcDbCircle
 10
1000.145550989166
 20
3483.973639567101
 30
0.0
 40
15.0
100
AcDbArc
 50
28.58327033112187
 51
90.0
  0
LINE
  5
2D268
330
17
100
AcDbEntity
  8
ZUKEI
 62
     7
370
    25
100
AcDbLine
 10
1021.045550989168
 20
3490.321490238093
 30
0.0
 11
1021.045550989168
 21
3507.671022609167
 31
0.0
  0
LINE
  5
2D269
330
17
100
AcDbEntity
  8
ZUKEI
 62
     7
370
    25
100
AcDbLine
 10
1022.645550989168
 20
3490.124608037775
 30
0.0
 11
1022.645550989168
 21
3507.671022609165
 31
0.0
  0
LINE
  5
2D26A
330
17
100
AcDbEntity
  8
ZUKEI
 62
     7
370
    25
100
AcDbLine
 10
972.6358222340468
 20
3531.973639567103
 30
0.0
 11
985.1455509891684
 21
3531.973639567103
 31
0.0
  0
LINE
  5
2D26B
330
17
100
AcDbEntity
  8
ZUKEI
 62
     7
370
    25
100
AcDbLine
 10
972.6358222340486
 20
3530.373639567104
 30
0.0
 11
985.1455509891684
 21
3530.373639567104
 31
0.0
  0
LINE
  5
2D26C
330
17
100
AcDbEntity
  8
ZUKEI
 62
     7
370
    25
100
AcDbLine
 10
997.6552797442883
 20
3531.973639567103
 30
0.0
 11
985.1455509891684
 21
3531.973639567103
 31
0.0
  0
LINE
  5
2D26D
330
17
100
AcDbEntity
  8
ZUKEI
 62
     7
370
    25
100
AcDbLine
 10
997.6552797442883
 20
3530.373639567104
 30
0.0
 11
985.1455509891684
 21
3530.373639567104
 31
0.0
  0
LINE
  5
2D26E
330
17
100
AcDbEntity
  8
ZUKEI
 62
     7
370
    25
100
AcDbLine
 10
1212.645550989168
 20
3216.973639567102
 30
0.0
 11
1057.645550989168
 21
3216.973639567102
 31
0.0
  0
LINE
  5
2D26F
330
17
100
AcDbEntity
  8
ZUKEI
 62
     7
370
    25
100
AcDbLine
 10
1212.645550989168
 20
3232.973639567102
 30
0.0
 11
1057.645550989168
 21
3232.973639567102
 31
0.0
  0
LINE
  5
2D270
330
17
100
AcDbEntity
  8
ZUKEI
 62
     7
370
    25
100
AcDbLine
 10
1212.645550989168
 20
3214.973639567102
 30
0.0
 11
1057.645550989168
 21
3214.973639567102
 31
0.0
  0
LINE
  5
2D271
330
17
100
AcDbEntity
  8
ZUKEI
 62
     7
370
    25
100
AcDbLine
 10
1212.645550989168
 20
3234.973639567102
 30
0.0
 11
1057.645550989168
 21
3234.973639567102
 31
0.0
  0
CIRCLE
  5
2D272
330
17
100
AcDbEntity
  8
ZUKEI
 62
     7
370
    25
100
AcDbCircle
 10
1067.645550989168
 20
3224.973639567102
 30
0.0
 40
2.5
  0
LINE
  5
2D273
330
17
100
AcDbEntity
  8
ZUKEI
 62
     7
370
    25
100
AcDbLine
 10
1057.645550989168
 20
3234.973639567102
 30
0.0
 11
1057.645550989168
 21
3214.973639567102
 31
0.0
  0
LINE
  5
2D274
330
17
100
AcDbEntity
  8
ZUKEI
 62
     7
370
    25
100
AcDbLine
 10
1089.145550989168
 20
3234.973639567102
 30
0.0
 11
1089.145550989168
 21
3214.973639567102
 31
0.0
  0
LINE
  5
2D275
330
17
100
AcDbEntity
  8
ZUKEI
 62
     7
370
    25
100
AcDbLine
 10
1181.145550989168
 20
3234.973639567102
 30
0.0
 11
1181.145550989168
 21
3214.973639567102
 31
0.0
  0
CIRCLE
  5
2D276
330
17
100
AcDbEntity
  8
ZUKEI
 62
     7
370
    25
100
AcDbCircle
 10
1202.645550989168
 20
3224.973639567103
 30
0.0
 40
2.5
  0
LINE
  5
2D277
330
17
100
AcDbEntity
  8
ZUKEI
 62
     7
370
    25
100
AcDbLine
 10
1212.645550989168
 20
3234.973639567102
 30
0.0
 11
1212.645550989168
 21
3214.973639567102
 31
0.0
  0
LINE
  5
2D278
330
17
100
AcDbEntity
  8
ZUKEI
 62
     7
370
    25
100
AcDbLine
 10
1300.153411358491
 20
2925.783258510334
 30
0.0
 11
1315.153411358491
 21
2951.764020623868
 31
0.0
  0
ARC
  5
2D279
330
17
100
AcDbEntity
  8
ZUKEI
 62
     7
370
    25
100
AcDbCircle
 10
1304.022336908789
 20
2915.466629533737
 30
0.0
 40
8.0
100
AcDbArc
 50
59.99999999999946
 51
132.2810681265669
  0
ARC
  5
2D27A
330
17
100
AcDbEntity
  8
ZUKEI
 62
     7
370
    25
100
AcDbCircle
 10
1309.71239085726
 20
2923.139896670711
 30
0.0
 40
25.0
100
AcDbArc
 50
241.5984915570757
 51
329.9999999999783
  0
ARC
  5
2D27B
330
17
100
AcDbEntity
  8
ZUKEI
 62
     7
370
    25
100
AcDbCircle
 10
1309.71239085726
 20
2923.139896670711
 30
0.0
 40
23.39999999999999
100
AcDbArc
 50
241.6522409643749
 51
329.9999999999783
  0
ARC
  5
2D27C
330
17
100
AcDbEntity
  8
ZUKEI
 62
     7
370
    25
100
AcDbCircle
 10
1304.022336908789
 20
2915.466629533737
 30
0.0
 40
9.599999999999999
100
AcDbArc
 50
59.99999999999946
 51
132.2810681265669
  0
LINE
  5
2D27D
330
17
100
AcDbEntity
  8
ZUKEI
 62
     7
370
    25
100
AcDbLine
 10
1301.539052004546
 20
2924.983258510333
 30
0.0
 11
1316.539052004546
 21
2950.964020623866
 31
0.0
  0
ARC
  5
2D27E
330
17
100
AcDbEntity
  8
ZUKEI
 62
     7
370
    25
100
AcDbCircle
 10
1288.548670947779
 20
2932.483258510333
 30
0.0
 40
15.0
100
AcDbArc
 50
268.5832703310981
 51
329.9999999999783
  0
LINE
  5
2D27F
330
17
100
AcDbEntity
  8
ZUKEI
 62
     7
370
    25
100
AcDbLine
 10
1282.625565901259
 20
2909.922202689849
 30
0.0
 11
1297.821206665416
 21
2901.148995404153
 31
0.0
  0
LINE
  5
2D280
330
17
100
AcDbEntity
  8
ZUKEI
 62
     7
370
    25
100
AcDbLine
 10
1283.596070888286
 20
2911.209402235744
 30
0.0
 11
1298.621206665417
 21
2902.534636050207
 31
0.0
  0
ARC
  5
2D281
330
17
100
AcDbEntity
  8
ZUKEI
 62
     7
370
    25
100
AcDbCircle
 10
1288.548670947779
 20
2932.483258510333
 30
0.0
 40
13.4
100
AcDbArc
 50
273.293314037762
 51
329.9999999999783
  0
ARC
  5
2D282
330
17
100
AcDbEntity
  8
ZUKEI
 62
     7
370
    25
100
AcDbCircle
 10
1322.222119612381
 20
2944.807382463487
 30
0.0
 40
25.0
100
AcDbArc
 50
329.9999999999783
 51
58.40150844297548
  0
ARC
  5
2D283
330
17
100
AcDbEntity
  8
ZUKEI
 62
     7
370
    25
100
AcDbCircle
 10
1322.222119612381
 20
2944.807382463487
 30
0.0
 40
23.39999999999999
100
AcDbArc
 50
329.9999999999783
 51
58.34775903565938
  0
ARC
  5
2D284
330
17
100
AcDbEntity
  8
ZUKEI
 62
     7
370
    25
100
AcDbCircle
 10
1303.548670947779
 20
2958.464020623866
 30
0.0
 40
15.0
100
AcDbArc
 50
329.9999999999783
 51
31.41672966891721
  0
ARC
  5
2D285
330
17
100
AcDbEntity
  8
ZUKEI
 62
     7
370
    25
100
AcDbCircle
 10
1303.548670947779
 20
2958.464020623866
 30
0.0
 40
13.4
100
AcDbArc
 50
329.9999999999783
 51
26.70668596221289
  0
ARC
  5
2D286
330
17
100
AcDbEntity
  8
ZUKEI
 62
     7
370
    25
100
AcDbCircle
 10
1326.022336908789
 20
2953.571747300252
 30
0.0
 40
9.599999999999999
100
AcDbArc
 50
167.7189318733941
 51
239.9999999999994
  0
ARC
  5
2D287
330
17
100
AcDbEntity
  8
ZUKEI
 62
     7
370
    25
100
AcDbCircle
 10
1326.022336908789
 20
2953.571747300252
 30
0.0
 40
8.0
100
AcDbArc
 50
167.7189318733941
 51
239.9999999999994
  0
LINE
  5
2D288
330
17
100
AcDbEntity
  8
ZUKEI
 62
     7
370
    25
100
AcDbLine
 10
1320.125565901259
 20
2974.87410797368
 30
0.0
 11
1335.321206665416
 21
2966.100900687985
 31
0.0
  0
LINE
  5
2D289
330
17
100
AcDbEntity
  8
ZUKEI
 62
     7
370
    25
100
AcDbLine
 10
1319.496070888286
 20
2973.390026227467
 30
0.0
 11
1334.521206665415
 21
2964.715260041931
 31
0.0
  0
LINE
  5
2D28A
330
17
100
AcDbEntity
  8
ZUKEI
 62
     7
370
    25
100
AcDbLine
 10
1322.022336908791
 20
2946.64354406998
 30
0.0
 11
1343.007824339704
 21
2934.527567252667
 31
0.0
  0
LINE
  5
2D28B
330
17
100
AcDbEntity
  8
ZUKEI
 62
     7
370
    25
100
AcDbLine
 10
1321.22233690879
 20
2945.257903423925
 30
0.0
 11
1342.207824339705
 21
2933.14192660661
 31
0.0
  0
LINE
  5
2D28C
330
17
100
AcDbEntity
  8
ZUKEI
 62
     7
370
    25
100
AcDbLine
 10
1331.363025951872
 20
2910.639896670712
 30
0.0
 11
1337.617890329433
 21
2921.473639567099
 31
0.0
  0
LINE
  5
2D28D
330
17
100
AcDbEntity
  8
ZUKEI
 62
     7
370
    25
100
AcDbLine
 10
1329.977385305818
 20
2911.439896670713
 30
0.0
 11
1336.232249683379
 21
2922.273639567101
 31
0.0
  0
LINE
  5
2D28E
330
17
100
AcDbEntity
  8
ZUKEI
 62
     7
370
    25
100
AcDbLine
 10
1308.022336908791
 20
2922.394832764015
 30
0.0
 11
1329.007824339704
 21
2910.278855946702
 31
0.0
  0
LINE
  5
2D28F
330
17
100
AcDbEntity
  8
ZUKEI
 62
     7
370
    25
100
AcDbLine
 10
1308.82233690879
 20
2923.78047341007
 30
0.0
 11
1329.807824339703
 21
2911.664496592756
 31
0.0
  0
CIRCLE
  5
2D290
330
17
100
AcDbEntity
  8
ZUKEI
 62
     7
370
    25
100
AcDbCircle
 10
1324.627509272665
 20
2928.973639567097
 30
0.0
 40
8.0
  0
LINE
  5
2D291
330
17
100
AcDbEntity
  8
ZUKEI
 62
     7
370
    25
100
AcDbLine
 10
1343.872754706994
 20
2932.307382463488
 30
0.0
 11
1337.617890329433
 21
2921.473639567099
 31
0.0
  0
LINE
  5
2D292
330
17
100
AcDbEntity
  8
ZUKEI
 62
     7
370
    25
100
AcDbLine
 10
1342.487114060938
 20
2933.107382463487
 30
0.0
 11
1336.232249683379
 21
2922.273639567101
 31
0.0
  0
MTEXT
  5
2D293
330
17
100
AcDbEntity
  8
DIM
 62
     7
370
    18
100
AcDbMText
 10
1616.476832930168
 20
3116.697436055438
 30
0.0
 40
48.0
 41
0.0
 71
     5
 72
     1
  1
（最大奥行き寸法）
 11
-0.0000000000000003
 21
1.0
 31
0.0
 73
     1
 44
1.0
  0
LEADER
  5
2D4B4
330
17
100
AcDbEntity
  8
DIM
 62
     7
370
    18
100
AcDbLeader
  3
STANDARD
 74
     0
 40
51.2
 41
245.7599999999998
 76
     2
 10
2082.446412233052
 20
2782.399429852524
 30
0.0
 10
2053.318334391252
 20
2575.279858535183
 30
0.0
211
1.0
221
-0.0000000000000002
231
0.0
1001
ACAD
1000
DSTYLE
1002
{
1070
    41
1040
3.0
1070
    42
1040
2.0
1070
    43
1040
10.0
1070
    44
1040
2.0
1070
    73
1070
     0
1070
    74
1070
     0
1070
    77
1070
     1
1070
    78
1070
     8
1070
    79
1070
     2
1070
   140
1040
3.2
1070
   147
1040
0.9999999999999996
1070
   172
1070
     1
1070
   179
1070
     8
1070
   271
1070
     8
1070
   272
1070
     8
1070
   341
1005
5132
1070
   342
1005
4A
1002
}
  0
DIMENSION
  5
2D4B5
330
17
100
AcDbEntity
  8
DIM
 62
     7
370
    18
100
AcDbDimension
  2
*D16
 10
2421.928370516559
 20
2978.399429852529
 30
0.0
 11
2586.334350139372
 21
3073.319266444143
 31
0.0
 70
    34
 71
     5
 42
2.0943951023932
  3
STANDARD
100
AcDb2LineAngularDimension
 13
2421.928370516559
 23
2496.366833618837
 33
0.0
 14
2421.928370516559
 24
3378.399429852523
 34
0.0
 15
2747.370656857166
 25
2790.50523822809
 35
0.0
 16
2570.476450129232
 26
3004.592464220671
 36
0.0
1001
ACAD
1000
DSTYLE
1002
{
1070
    41
1040
3.0
1070
    42
1040
2.0
1070
    43
1040
10.0
1070
    44
1040
2.0
1070
    73
1070
     0
1070
    74
1070
     0
1070
    77
1070
     1
1070
    78
1070
     8
1070
    79
1070
     2
1070
   140
1040
3.2
1070
   147
1040
0.9999999999999996
1070
   172
1070
     1
1070
   179
1070
     8
1070
   271
1070
     8
1070
   272
1070
     8
1070
   341
1005
4A
1070
   342
1005
4A
1002
}
  0
DIMENSION
  5
2D4B6
330
17
100
AcDbEntity
  8
DIM
 62
     7
370
    18
100
AcDbDimension
  2
*D17
 10
2421.928370516559
 20
2978.399429852529
 30
0.0
 11
2257.522390893753
 21
3073.319266444141
 31
0.0
 70
    34
 71
     5
 42
2.094395102393197
  3
STANDARD
100
AcDb2LineAngularDimension
 13
2421.928370516559
 23
2496.366833618837
 33
0.0
 14
2421.928370516559
 24
3378.399429852523
 34
0.0
 15
2096.486084175954
 25
2790.50523822809
 35
0.0
 16
2324.970497545217
 26
3093.949323296421
 36
0.0
1001
ACAD
1000
DSTYLE
1002
{
1070
    41
1040
3.0
1070
    42
1040
2.0
1070
    43
1040
10.0
1070
    44
1040
2.0
1070
    73
1070
     0
1070
    74
1070
     0
1070
    77
1070
     1
1070
    78
1070
     8
1070
    79
1070
     2
1070
   140
1040
3.2
1070
   147
1040
0.9999999999999996
1070
   172
1070
     1
1070
   179
1070
     8
1070
   271
1070
     8
1070
   272
1070
     8
1070
   341
1005
4A
1070
   342
1005
4A
1002
}
  0
LINE
  5
2D4B7
330
17
100
AcDbEntity
  8
MCEN
 62
     7
370
    25
100
AcDbLine
 10
2421.928370516559
 20
2496.366833618837
 30
0.0
 11
2421.928370516559
 21
3408.399429852529
 31
0.0
  0
ARC
  5
2D4B9
330
17
100
AcDbEntity
  8
ZUKEI
 62
     7
370
    25
100
AcDbCircle
 10
2421.928370516591
 20
2946.003691684198
 30
0.0
 40
411.9999999999999
100
AcDbArc
 50
252.922145010765
 51
287.0778549892349
  0
ARC
  5
2D4BA
330
17
100
AcDbEntity
  8
ZUKEI
 62
     7
370
    25
100
AcDbCircle
 10
2421.928370516591
 20
2907.503691684195
 30
0.0
 40
302.5000000000001
100
AcDbArc
 50
243.9172091667248
 51
296.0827908332751
  0
LINE
  5
2D4BC
330
17
100
AcDbEntity
  8
DIM
 62
     7
370
    18
100
AcDbLine
 10
2010.425952605724
 20
2180.415420733881
 30
0.0
 11
2845.486780108386
 21
2180.41542073388
 31
0.0
  0
TEXT
  5
2D4BE
330
17
100
AcDbEntity
  8
DIM
 62
     7
370
    18
100
AcDbText
 10
2022.568370516559
 20
2196.161714987479
 30
0.0
 40
48.0
  1
基礎ボルトおよび配管位置図（上空図）
 41
0.8
 72
     1
 11
2421.928370516559
 21
2196.161714987479
 31
0.0
100
AcDbText
  0
LINE
  5
2D4BF
330
17
100
AcDbEntity
  8
DIM
 62
     7
370
    18
100
AcDbLine
 10
2053.318334391252
 20
2575.279858535183
 30
0.0
 11
1533.2899296782
 21
2575.279858535183
 31
0.0
  0
TEXT
  5
2D4C0
330
17
100
AcDbEntity
  8
DIM
 62
     7
370
    18
100
AcDbText
 10
1550.072915013512
 20
2584.904858535184
 30
0.0
 40
48.0
  1
3-M12アンカーボルト
 41
0.8
 11
1550.072915013512
 21
2608.904858535184
 31
0.0
100
AcDbText
 73
     2
  0
TEXT
  5
2D4C5
330
17
100
AcDbEntity
  8
DIM
 62
     7
370
    18
100
AcDbText
 10
1550.072915013512
 20
2517.555869155695
 30
0.0
 40
48.0
  1
（3-φ17穴）
 41
0.8
 11
1550.072915013512
 21
2541.555869155695
 31
0.0
100
AcDbText
 73
     2
  0
LINE
  5
2D4CD
330
17
100
AcDbEntity
  8
ZUKEI
 62
     7
370
    25
100
AcDbLine
 10
2288.928370516591
 20
2568.420588248674
 30
0.0
 11
2288.928370516591
 21
2635.810390331368
 31
0.0
  0
ARC
  5
2D4CE
330
17
100
AcDbEntity
  8
ZUKEI
 62
     7
370
    25
100
AcDbCircle
 10
2305.92837051659
 20
2568.420588248674
 30
0.0
 40
17.0
100
AcDbArc
 50
180.0
 51
252.922145010765
  0
CIRCLE
  5
2D4CF
330
17
100
AcDbEntity
  8
ZUKEI
 62
     7
370
    25
100
AcDbCircle
 10
2331.928370516591
 20
2584.003691684198
 30
0.0
 40
15.5
  0
CIRCLE
  5
2D4D0
330
17
100
AcDbEntity
  8
ZUKEI
 62
     7
370
    25
100
AcDbCircle
 10
2331.928370516591
 20
2584.003691684198
 30
0.0
 40
9.5
  0
CIRCLE
  5
2D4D4
330
17
100
AcDbEntity
  8
ZUKEI
 62
     7
370
    25
100
AcDbCircle
 10
2421.928370516591
 20
2569.003691684198
 30
0.0
 40
15.5
  0
CIRCLE
  5
2D4D5
330
17
100
AcDbEntity
  8
ZUKEI
 62
     7
370
    25
100
AcDbCircle
 10
2421.928370516591
 20
2569.003691684198
 30
0.0
 40
9.5
  0
LINE
  5
2D4D6
330
17
100
AcDbEntity
  8
ZUKEI
 62
     7
370
    25
100
AcDbLine
 10
2554.928370516591
 20
2568.420588248677
 30
0.0
 11
2554.928370516591
 21
2635.810390331372
 31
0.0
  0
CIRCLE
  5
2D4D7
330
17
100
AcDbEntity
  8
ZUKEI
 62
     7
370
    25
100
AcDbCircle
 10
2511.92837051659
 20
2584.003691684198
 30
0.0
 40
9.5
  0
CIRCLE
  5
2D4D8
330
17
100
AcDbEntity
  8
ZUKEI
 62
     7
370
    25
100
AcDbCircle
 10
2511.92837051659
 20
2584.003691684198
 30
0.0
 40
15.5
  0
ARC
  5
2D4D9
330
17
100
AcDbEntity
  8
ZUKEI
 62
     7
370
    25
100
AcDbCircle
 10
2537.928370516591
 20
2568.420588248677
 30
0.0
 40
17.0
100
AcDbArc
 50
287.0778549892349
 51
0.0
  0
DIMENSION
  5
2D4E1
330
17
100
AcDbEntity
  8
DIM
 62
     7
370
    18
100
AcDbDimension
  2
*D18
 10
2761.410328800052
 20
3594.543785904836
 30
0.0
 11
2421.928370516559
 21
3594.543785904836
 31
0.0
 70
   160
 71
     5
 42
678.9639165669999
  3
STANDARD
100
AcDbAlignedDimension
 13
2082.446412233052
 23
2782.399429852524
 33
0.0
 14
2761.410328800052
 24
2782.399429852514
 34
0.0
100
AcDbRotatedDimension
1001
ACAD
1000
DSTYLE
1002
{
1070
    41
1040
3.0
1070
    42
1040
2.0
1070
    43
1040
10.0
1070
    44
1040
2.0
1070
    73
1070
     0
1070
    74
1070
     0
1070
    77
1070
     1
1070
    78
1070
     8
1070
    79
1070
     2
1070
   140
1040
3.2
1070
   147
1040
0.9999999999999996
1070
   172
1070
     1
1070
   179
1070
     8
1070
   271
1070
     0
1070
   272
1070
     8
1070
   341
1005
4A
1070
   342
1005
4A
1002
}
  0
LINE
  5
2D4E2
330
17
100
AcDbEntity
  8
CEN
 62
     7
370
    25
100
AcDbLine
 10
2049.537446889253
 20
2763.399429852527
 30
0.0
 11
2421.928370516559
 21
2978.399429852529
 31
0.0
  0
LINE
  5
2D4E3
330
17
100
AcDbEntity
  8
MCEN
 62
     7
370
    25
100
AcDbLine
 10
2031.928370516554
 20
2978.399429852529
 30
0.0
 11
2811.928370516556
 21
2978.399429852529
 31
0.0
  0
LINE
  5
2D4E4
330
17
100
AcDbEntity
  8
DASH
 62
     7
370
    18
100
AcDbLine
 10
2185.200876400142
 20
2798.423477210607
 30
0.0
 11
2124.448355604457
 21
2763.347992975271
 31
0.0
  0
LINE
  5
2D4E5
330
17
100
AcDbEntity
  8
DASH
 62
     7
370
    18
100
AcDbLine
 10
2184.868664817813
 20
2800.079195625527
 30
0.0
 11
2123.477850617431
 21
2764.635192521167
 31
0.0
  0
LINE
  5
2D4E6
330
17
100
AcDbEntity
  8
DASH
 62
     7
370
    18
100
AcDbLine
 10
2175.388698573649
 20
2801.418667738988
 30
0.0
 11
2126.025250557939
 21
2772.91866773899
 31
0.0
  0
LINE
  5
2D4E7
330
17
100
AcDbEntity
  8
DASH
 62
     7
370
    18
100
AcDbLine
 10
2174.588698573652
 20
2802.804308385046
 30
0.0
 11
2125.225250557938
 21
2774.304308385044
 31
0.0
  0
CIRCLE
  5
2D4E8
330
17
100
AcDbEntity
  8
DASH
 62
     7
370
    18
100
AcDbCircle
 10
2147.398317516885
 20
2819.899429852524
 30
0.0
 40
5.5
  0
LINE
  5
2D4E9
330
17
100
AcDbEntity
  8
DASH
 62
     7
370
    18
100
AcDbLine
 10
2147.700876400142
 20
2863.37538249444
 30
0.0
 11
2086.948355604457
 21
2828.299898259102
 31
0.0
  0
LINE
  5
2D4EA
330
17
100
AcDbEntity
  8
DASH
 62
     7
370
    18
100
AcDbLine
 10
2148.968664817814
 20
2862.259819617251
 30
0.0
 11
2087.57785061743
 21
2826.815816512889
 31
0.0
  0
LINE
  5
2D4EB
330
17
100
AcDbEntity
  8
DASH
 62
     7
370
    18
100
AcDbLine
 10
2145.38869857365
 20
2853.380191966055
 30
0.0
 11
2096.025250557939
 21
2824.880191966057
 31
0.0
  0
LINE
  5
2D4EC
330
17
100
AcDbEntity
  8
DASH
 62
     7
370
    18
100
AcDbLine
 10
2146.188698573651
 20
2851.994551320002
 30
0.0
 11
2096.825250557938
 21
2823.494551320002
 31
0.0
  0
LINE
  5
2D4ED
330
17
100
AcDbEntity
  8
ZUKEI
 62
     7
370
    25
100
AcDbLine
 10
2106.920510147227
 20
2779.209048795757
 30
0.0
 11
2091.920510147227
 21
2805.18981090929
 31
0.0
  0
LINE
  5
2D4EE
330
17
100
AcDbEntity
  8
ZUKEI
 62
     7
370
    25
100
AcDbLine
 10
2105.534869501172
 20
2778.409048795757
 30
0.0
 11
2090.534869501172
 21
2804.38981090929
 31
0.0
  0
LINE
  5
2D4EF
330
17
100
AcDbEntity
  8
ZUKEI
 62
     7
370
    25
100
AcDbLine
 10
2099.051584596929
 20
2775.820623049438
 30
0.0
 11
2078.066097166014
 21
2763.704646232124
 31
0.0
  0
ARC
  5
2D4F0
330
17
100
AcDbEntity
  8
ZUKEI
 62
     7
370
    25
100
AcDbCircle
 10
2097.361530648455
 20
2776.565686956137
 30
0.0
 40
23.39999999999999
100
AcDbArc
 50
210.0000000000103
 51
298.347759035622
  0
ARC
  5
2D4F1
330
17
100
AcDbEntity
  8
ZUKEI
 62
     7
370
    25
100
AcDbCircle
 10
2097.361530648455
 20
2776.565686956137
 30
0.0
 40
25.0
100
AcDbArc
 50
210.0000000000103
 51
298.4015084429366
  0
LINE
  5
2D4F2
330
17
100
AcDbEntity
  8
ZUKEI
 62
     7
370
    25
100
AcDbLine
 10
2098.251584596928
 20
2777.206263695493
 30
0.0
 11
2077.266097166013
 21
2765.09028687818
 31
0.0
  0
ARC
  5
2D4F3
330
17
100
AcDbEntity
  8
DASH
 62
     7
370
    18
100
AcDbCircle
 10
2103.525250557939
 20
2811.889810909291
 30
0.0
 40
15.0
100
AcDbArc
 50
119.9999999999973
 51
148.5832703310939
  0
ARC
  5
2D4F4
330
17
100
AcDbEntity
  8
DASH
 62
     7
370
    18
100
AcDbCircle
 10
2103.525250557939
 20
2811.889810909291
 30
0.0
 40
13.4
100
AcDbArc
 50
119.9999999999973
 51
153.2933140377811
  0
ARC
  5
2D4F5
330
17
100
AcDbEntity
  8
ZUKEI
 62
     7
370
    25
100
AcDbCircle
 10
2081.051584596927
 20
2806.997537585679
 30
0.0
 40
8.0
100
AcDbArc
 50
299.9999999999972
 51
12.2810681265804
  0
ARC
  5
2D4F6
330
17
100
AcDbEntity
  8
ZUKEI
 62
     7
370
    25
100
AcDbCircle
 10
2081.051584596927
 20
2806.997537585679
 30
0.0
 40
9.599999999999999
100
AcDbArc
 50
299.9999999999972
 51
12.2810681265804
  0
ARC
  5
2D4F7
330
17
100
AcDbEntity
  8
ZUKEI
 62
     7
370
    25
100
AcDbCircle
 10
2084.851801893335
 20
2798.23317274891
 30
0.0
 40
23.39999999999999
100
AcDbArc
 50
121.6522409643473
 51
210.0000000000103
  0
ARC
  5
2D4F8
330
17
100
AcDbEntity
  8
ZUKEI
 62
     7
370
    25
100
AcDbCircle
 10
2084.851801893335
 20
2798.23317274891
 30
0.0
 40
25.0
100
AcDbArc
 50
121.5984915570723
 51
210.0000000000103
  0
LINE
  5
2D4F9
330
17
100
AcDbEntity
  8
ZUKEI
 62
     7
370
    25
100
AcDbLine
 10
2085.851584596928
 20
2798.683693709348
 30
0.0
 11
2064.866097166015
 21
2786.567716892033
 31
0.0
  0
LINE
  5
2D4FA
330
17
100
AcDbEntity
  8
ZUKEI
 62
     7
370
    25
100
AcDbLine
 10
2085.051584596927
 20
2800.069334355402
 30
0.0
 11
2064.066097166014
 21
2787.953357538089
 31
0.0
  0
ARC
  5
2D4FB
330
17
100
AcDbEntity
  8
ZUKEI
 62
     7
370
    25
100
AcDbCircle
 10
2103.525250557939
 20
2811.889810909291
 30
0.0
 40
13.4
100
AcDbArc
 50
153.2933140377811
 51
210.0000000000103
  0
ARC
  5
2D4FC
330
17
100
AcDbEntity
  8
ZUKEI
 62
     7
370
    25
100
AcDbCircle
 10
2103.525250557939
 20
2811.889810909291
 30
0.0
 40
15.0
100
AcDbArc
 50
148.5832703310939
 51
210.0000000000103
  0
LINE
  5
2D4FD
330
17
100
AcDbEntity
  8
ZUKEI
 62
     7
370
    25
100
AcDbLine
 10
2077.0965361999
 20
2764.865686956137
 30
0.0
 11
2070.84167182234
 21
2775.699429852524
 31
0.0
  0
LINE
  5
2D4FE
330
17
100
AcDbEntity
  8
ZUKEI
 62
     7
370
    25
100
AcDbLine
 10
2075.710895553843
 20
2764.065686956135
 30
0.0
 11
2069.456031176283
 21
2774.899429852523
 31
0.0
  0
CIRCLE
  5
2D4FF
330
17
100
AcDbEntity
  8
ZUKEI
 62
     7
370
    25
100
AcDbCircle
 10
2082.446412233052
 20
2782.399429852524
 30
0.0
 40
8.0
  0
LINE
  5
2D500
330
17
100
AcDbEntity
  8
ZUKEI
 62
     7
370
    25
100
AcDbLine
 10
2064.586807444781
 20
2786.53317274891
 30
0.0
 11
2070.84167182234
 21
2775.699429852524
 31
0.0
  0
LINE
  5
2D501
330
17
100
AcDbEntity
  8
ZUKEI
 62
     7
370
    25
100
AcDbLine
 10
2063.201166798724
 20
2785.733172748911
 30
0.0
 11
2069.456031176283
 21
2774.899429852523
 31
0.0
  0
LINE
  5
2D502
330
17
100
AcDbEntity
  8
ZUKEI
 62
     7
370
    25
100
AcDbLine
 10
2087.57785061743
 20
2826.815816512889
 30
0.0
 11
2072.552714840303
 21
2818.141050327354
 31
0.0
  0
LINE
  5
2D503
330
17
100
AcDbEntity
  8
ZUKEI
 62
     7
370
    25
100
AcDbLine
 10
2086.948355604457
 20
2828.299898259102
 30
0.0
 11
2071.752714840302
 21
2819.526690973409
 31
0.0
  0
ARC
  5
2D504
330
17
100
AcDbEntity
  8
ZUKEI
 62
     7
370
    25
100
AcDbCircle
 10
2118.525250557939
 20
2785.909048795756
 30
0.0
 40
13.4
100
AcDbArc
 50
210.0000000000103
 51
266.7066859622378
  0
ARC
  5
2D505
330
17
100
AcDbEntity
  8
ZUKEI
 62
     7
370
    25
100
AcDbCircle
 10
2118.525250557939
 20
2785.909048795756
 30
0.0
 40
15.0
100
AcDbArc
 50
210.0000000000103
 51
271.416729668902
  0
ARC
  5
2D506
330
17
100
AcDbEntity
  8
ZUKEI
 62
     7
370
    25
100
AcDbCircle
 10
2103.051584596927
 20
2768.892419819163
 30
0.0
 40
8.0
100
AcDbArc
 50
47.7189318733813
 51
119.9999999999973
  0
ARC
  5
2D507
330
17
100
AcDbEntity
  8
ZUKEI
 62
     7
370
    25
100
AcDbCircle
 10
2103.051584596927
 20
2768.892419819163
 30
0.0
 40
9.599999999999999
100
AcDbArc
 50
47.7189318733813
 51
119.9999999999973
  0
ARC
  5
2D508
330
17
100
AcDbEntity
  8
DASH
 62
     7
370
    18
100
AcDbCircle
 10
2118.525250557939
 20
2785.909048795756
 30
0.0
 40
15.0
100
AcDbArc
 50
271.416729668902
 51
299.9999999999972
  0
ARC
  5
2D509
330
17
100
AcDbEntity
  8
DASH
 62
     7
370
    18
100
AcDbCircle
 10
2118.525250557939
 20
2785.909048795756
 30
0.0
 40
13.4
100
AcDbArc
 50
266.7066859622378
 51
299.9999999999972
  0
CIRCLE
  5
2D50A
330
17
100
AcDbEntity
  8
DASH
 62
     7
370
    18
100
AcDbCircle
 10
2124.587428384429
 20
2789.409048795758
 30
0.0
 40
1.5
  0
LINE
  5
2D50B
330
17
100
AcDbEntity
  8
ZUKEI
 62
     7
370
    25
100
AcDbLine
 10
2123.477850617431
 20
2764.635192521167
 30
0.0
 11
2108.4527148403
 21
2755.960426335631
 31
0.0
  0
LINE
  5
2D50C
330
17
100
AcDbEntity
  8
ZUKEI
 62
     7
370
    25
100
AcDbLine
 10
2124.448355604457
 20
2763.347992975271
 30
0.0
 11
2109.2527148403
 21
2754.574785689576
 31
0.0
  0
LINE
  5
2D50D
330
17
100
AcDbEntity
  8
DASH
 62
     7
370
    18
100
AcDbLine
 10
2180.879079630418
 20
2821.909048795756
 30
0.0
 11
2165.879079630418
 21
2847.88981090929
 31
0.0
  0
LINE
  5
2D50E
330
17
100
AcDbEntity
  8
DASH
 62
     7
370
    18
100
AcDbLine
 10
2190.691257456907
 20
2818.913858267373
 30
0.0
 11
2168.191257456907
 21
2857.885001437673
 31
0.0
  0
LINE
  5
2D50F
330
17
100
AcDbEntity
  8
DASH
 62
     7
370
    18
100
AcDbLine
 10
2179.493438984362
 20
2821.109048795757
 30
0.0
 11
2164.493438984364
 21
2847.08981090929
 31
0.0
  0
LINE
  5
2D510
330
17
100
AcDbEntity
  8
DASH
 62
     7
370
    18
100
AcDbLine
 10
2166.805616810854
 20
2857.085001437673
 30
0.0
 11
2189.305616810854
 21
2818.113858267373
 31
0.0
  0
ARC
  5
2D511
330
17
100
AcDbEntity
  8
DASH
 62
     7
370
    18
100
AcDbCircle
 10
2177.700876400142
 20
2811.413858267374
 30
0.0
 40
15.0
100
AcDbArc
 50
299.9999999999972
 51
30.00000000001032
  0
ARC
  5
2D512
330
17
100
AcDbEntity
  8
DASH
 62
     7
370
    18
100
AcDbCircle
 10
2177.700876400142
 20
2811.413858267374
 30
0.0
 40
13.4
100
AcDbArc
 50
299.9999999999972
 51
30.00000000001032
  0
ARC
  5
2D513
330
17
100
AcDbEntity
  8
DASH
 62
     7
370
    18
100
AcDbCircle
 10
2167.88869857365
 20
2814.409048795758
 30
0.0
 40
13.4
100
AcDbArc
 50
299.9999999999972
 51
30.00000000001032
  0
ARC
  5
2D514
330
17
100
AcDbEntity
  8
DASH
 62
     7
370
    18
100
AcDbCircle
 10
2167.88869857365
 20
2814.409048795758
 30
0.0
 40
15.0
100
AcDbArc
 50
299.9999999999972
 51
30.00000000001032
  0
ARC
  5
2D515
330
17
100
AcDbEntity
  8
DASH
 62
     7
370
    18
100
AcDbCircle
 10
2155.200876400142
 20
2850.385001437674
 30
0.0
 40
13.4
100
AcDbArc
 50
30.00000000001032
 51
119.9999999999973
  0
ARC
  5
2D516
330
17
100
AcDbEntity
  8
DASH
 62
     7
370
    18
100
AcDbCircle
 10
2152.888698573649
 20
2840.389810909291
 30
0.0
 40
13.4
100
AcDbArc
 50
30.00000000001032
 51
119.9999999999973
  0
ARC
  5
2D517
330
17
100
AcDbEntity
  8
DASH
 62
     7
370
    18
100
AcDbCircle
 10
2152.888698573649
 20
2840.389810909291
 30
0.0
 40
15.0
100
AcDbArc
 50
30.00000000001032
 51
119.9999999999973
  0
ARC
  5
2D518
330
17
100
AcDbEntity
  8
DASH
 62
     7
370
    18
100
AcDbCircle
 10
2155.200876400142
 20
2850.385001437674
 30
0.0
 40
15.0
100
AcDbArc
 50
30.00000000001032
 51
119.9999999999973
  0
ARC
  5
2D519
330
17
100
AcDbEntity
  8
ZUKEI
 62
     7
370
    25
100
AcDbCircle
 10
2759.004939139772
 20
2798.233172748918
 30
0.0
 40
23.39999999999999
100
AcDbArc
 50
329.9999999999897
 51
58.34775903565252
  0
ARC
  5
2D51A
330
17
100
AcDbEntity
  8
ZUKEI
 62
     7
370
    25
100
AcDbCircle
 10
2759.004939139772
 20
2798.233172748918
 30
0.0
 40
25.0
100
AcDbArc
 50
329.9999999999897
 51
58.40150844292768
  0
DIMENSION
  5
2D51B
330
17
100
AcDbEntity
  8
DIM
 62
     7
370
    18
100
AcDbDimension
  2
*D19
 10
2907.928370516556
 20
3385.399429852523
 30
0.0
 11
2868.928370516556
 21
3517.828001281095
 31
0.0
 70
    32
 71
     5
 42
15.0
  3
STANDARD
100
AcDbAlignedDimension
 13
2421.928370516537
 23
3370.399429852523
 33
0.0
 14
2434.438099271662
 24
3385.399429852523
 34
0.0
 50
90.0
100
AcDbRotatedDimension
1001
ACAD
1000
DSTYLE
1002
{
1070
    41
1040
3.0
1070
    42
1040
2.0
1070
    43
1040
10.0
1070
    44
1040
2.0
1070
    73
1070
     0
1070
    74
1070
     0
1070
    77
1070
     1
1070
    78
1070
     8
1070
    79
1070
     2
1070
   140
1040
3.2
1070
   147
1040
0.9999999999999996
1070
   172
1070
     1
1070
   179
1070
     8
1070
   271
1070
     8
1070
   272
1070
     8
1070
   341
1005
4A
1070
   342
1005
4A
1002
}
  0
DIMENSION
  5
2D51C
330
17
100
AcDbEntity
  8
DIM
 62
     7
370
    18
100
AcDbDimension
  2
*D20
 10
2907.928370516556
 20
2782.399429852528
 30
0.0
 11
2868.928370516556
 21
3076.399429852525
 31
0.0
 70
    32
 71
     5
 42
587.999999999995
  3
STANDARD
100
AcDbAlignedDimension
 13
2421.928370516537
 23
3370.399429852523
 33
0.0
 14
2761.41032880006
 24
2782.399429852528
 34
0.0
 50
90.0
100
AcDbRotatedDimension
1001
ACAD
1000
DSTYLE
1002
{
1070
    41
1040
3.0
1070
    42
1040
2.0
1070
    43
1040
10.0
1070
    44
1040
2.0
1070
    73
1070
     0
1070
    74
1070
     0
1070
    77
1070
     1
1070
    78
1070
     8
1070
    79
1070
     2
1070
   140
1040
3.2
1070
   147
1040
0.9999999999999996
1070
   172
1070
     1
1070
   179
1070
     8
1070
   271
1070
     8
1070
   272
1070
     8
1070
   341
1005
4A
1070
   342
1005
4A
1002
}
  0
LINE
  5
2D51D
330
17
100
AcDbEntity
  8
CEN
 62
     7
370
    25
100
AcDbLine
 10
2421.928370516555
 20
2978.399429852529
 30
0.0
 11
2794.31929414387
 21
2763.399429852528
 31
0.0
  0
ARC
  5
2D51E
330
17
100
AcDbEntity
  8
DASH
 62
     7
370
    18
100
AcDbCircle
 10
2688.655864632965
 20
2850.385001437679
 30
0.0
 40
13.4
100
AcDbArc
 50
60.00000000000272
 51
149.9999999999896
  0
ARC
  5
2D51F
330
17
100
AcDbEntity
  8
DASH
 62
     7
370
    18
100
AcDbCircle
 10
2690.968042459456
 20
2840.389810909297
 30
0.0
 40
13.4
100
AcDbArc
 50
60.00000000000272
 51
149.9999999999896
  0
ARC
  5
2D520
330
17
100
AcDbEntity
  8
DASH
 62
     7
370
    18
100
AcDbCircle
 10
2690.968042459456
 20
2840.389810909297
 30
0.0
 40
15.0
100
AcDbArc
 50
60.00000000000272
 51
149.9999999999896
  0
ARC
  5
2D521
330
17
100
AcDbEntity
  8
DASH
 62
     7
370
    18
100
AcDbCircle
 10
2688.655864632965
 20
2850.385001437679
 30
0.0
 40
15.0
100
AcDbArc
 50
60.00000000000272
 51
149.9999999999896
  0
LINE
  5
2D522
330
17
100
AcDbEntity
  8
DASH
 62
     7
370
    18
100
AcDbLine
 10
2658.655864632966
 20
2798.423477210612
 30
0.0
 11
2719.40838542865
 21
2763.347992975278
 31
0.0
  0
LINE
  5
2D523
330
17
100
AcDbEntity
  8
DASH
 62
     7
370
    18
100
AcDbLine
 10
2658.988076215296
 20
2800.079195625535
 30
0.0
 11
2720.378890415678
 21
2764.635192521172
 31
0.0
  0
LINE
  5
2D524
330
17
100
AcDbEntity
  8
DASH
 62
     7
370
    18
100
AcDbLine
 10
2668.468042459458
 20
2801.418667738996
 30
0.0
 11
2717.83149047517
 21
2772.918667738996
 31
0.0
  0
LINE
  5
2D525
330
17
100
AcDbEntity
  8
DASH
 62
     7
370
    18
100
AcDbLine
 10
2669.268042459457
 20
2802.804308385052
 30
0.0
 11
2718.63149047517
 21
2774.304308385052
 31
0.0
  0
LINE
  5
2D526
330
17
100
AcDbEntity
  8
DASH
 62
     7
370
    18
100
AcDbLine
 10
2662.97766140269
 20
2821.909048795763
 30
0.0
 11
2677.977661402691
 21
2847.889810909296
 31
0.0
  0
LINE
  5
2D527
330
17
100
AcDbEntity
  8
DASH
 62
     7
370
    18
100
AcDbLine
 10
2653.165483576199
 20
2818.91385826738
 30
0.0
 11
2675.665483576201
 21
2857.885001437681
 31
0.0
  0
LINE
  5
2D528
330
17
100
AcDbEntity
  8
DASH
 62
     7
370
    18
100
AcDbLine
 10
2664.363302048746
 20
2821.109048795764
 30
0.0
 11
2679.363302048745
 21
2847.089810909296
 31
0.0
  0
LINE
  5
2D529
330
17
100
AcDbEntity
  8
DASH
 62
     7
370
    18
100
AcDbLine
 10
2677.051124222255
 20
2857.085001437678
 30
0.0
 11
2654.551124222255
 21
2818.113858267381
 31
0.0
  0
ARC
  5
2D52A
330
17
100
AcDbEntity
  8
DASH
 62
     7
370
    18
100
AcDbCircle
 10
2675.968042459456
 20
2814.409048795764
 30
0.0
 40
13.4
100
AcDbArc
 50
149.9999999999896
 51
240.0000000000026
  0
ARC
  5
2D52B
330
17
100
AcDbEntity
  8
DASH
 62
     7
370
    18
100
AcDbCircle
 10
2666.155864632965
 20
2811.413858267381
 30
0.0
 40
15.0
100
AcDbArc
 50
149.9999999999896
 51
240.0000000000026
  0
ARC
  5
2D52C
330
17
100
AcDbEntity
  8
DASH
 62
     7
370
    18
100
AcDbCircle
 10
2666.155864632965
 20
2811.413858267381
 30
0.0
 40
13.4
100
AcDbArc
 50
149.9999999999896
 51
240.0000000000026
  0
ARC
  5
2D52D
330
17
100
AcDbEntity
  8
DASH
 62
     7
370
    18
100
AcDbCircle
 10
2675.968042459456
 20
2814.409048795764
 30
0.0
 40
15.0
100
AcDbArc
 50
149.9999999999896
 51
240.0000000000026
  0
LINE
  5
2D52E
330
17
100
AcDbEntity
  8
DASH
 62
     7
370
    18
100
AcDbLine
 10
2696.155864632966
 20
2863.375382494446
 30
0.0
 11
2756.90838542865
 21
2828.299898259111
 31
0.0
  0
LINE
  5
2D52F
330
17
100
AcDbEntity
  8
DASH
 62
     7
370
    18
100
AcDbLine
 10
2694.888076215294
 20
2862.259819617258
 30
0.0
 11
2756.278890415676
 21
2826.815816512896
 31
0.0
  0
LINE
  5
2D530
330
17
100
AcDbEntity
  8
DASH
 62
     7
370
    18
100
AcDbLine
 10
2698.468042459458
 20
2853.380191966063
 30
0.0
 11
2747.83149047517
 21
2824.880191966063
 31
0.0
  0
LINE
  5
2D531
330
17
100
AcDbEntity
  8
DASH
 62
     7
370
    18
100
AcDbLine
 10
2697.668042459457
 20
2851.994551320008
 30
0.0
 11
2747.03149047517
 21
2823.494551320008
 31
0.0
  0
ARC
  5
2D532
330
17
100
AcDbEntity
  8
ZUKEI
 62
     7
370
    25
100
AcDbCircle
 10
2725.33149047517
 20
2785.909048795764
 30
0.0
 40
13.4
100
AcDbArc
 50
273.293314037762
 51
329.9999999999897
  0
ARC
  5
2D533
330
17
100
AcDbEntity
  8
ZUKEI
 62
     7
370
    25
100
AcDbCircle
 10
2725.33149047517
 20
2785.909048795764
 30
0.0
 40
15.0
100
AcDbArc
 50
268.583270331098
 51
329.9999999999897
  0
LINE
  5
2D534
330
17
100
AcDbEntity
  8
ZUKEI
 62
     7
370
    25
100
AcDbLine
 10
2720.378890415678
 20
2764.635192521172
 30
0.0
 11
2735.404026192806
 21
2755.960426335636
 31
0.0
  0
LINE
  5
2D535
330
17
100
AcDbEntity
  8
ZUKEI
 62
     7
370
    25
100
AcDbLine
 10
2719.40838542865
 20
2763.347992975278
 30
0.0
 11
2734.604026192805
 21
2754.574785689583
 31
0.0
  0
CIRCLE
  5
2D536
330
17
100
AcDbEntity
  8
DASH
 62
     7
370
    18
100
AcDbCircle
 10
2696.458423516223
 20
2819.899429852529
 30
0.0
 40
5.5
  0
ARC
  5
2D537
330
17
100
AcDbEntity
  8
DASH
 62
     7
370
    18
100
AcDbCircle
 10
2725.33149047517
 20
2785.909048795764
 30
0.0
 40
15.0
100
AcDbArc
 50
240.0000000000026
 51
268.583270331098
  0
ARC
  5
2D538
330
17
100
AcDbEntity
  8
DASH
 62
     7
370
    18
100
AcDbCircle
 10
2725.33149047517
 20
2785.909048795764
 30
0.0
 40
13.4
100
AcDbArc
 50
240.0000000000026
 51
273.293314037762
  0
CIRCLE
  5
2D539
330
17
100
AcDbEntity
  8
DASH
 62
     7
370
    18
100
AcDbCircle
 10
2719.269312648678
 20
2789.409048795764
 30
0.0
 40
1.5
  0
ARC
  5
2D53A
330
17
100
AcDbEntity
  8
ZUKEI
 62
     7
370
    25
100
AcDbCircle
 10
2762.80515643618
 20
2806.997537585685
 30
0.0
 40
8.0
100
AcDbArc
 50
167.7189318734195
 51
240.0000000000026
  0
ARC
  5
2D53B
330
17
100
AcDbEntity
  8
ZUKEI
 62
     7
370
    25
100
AcDbCircle
 10
2762.80515643618
 20
2806.997537585685
 30
0.0
 40
9.599999999999999
100
AcDbArc
 50
167.7189318734195
 51
240.0000000000026
  0
LINE
  5
2D53C
330
17
100
AcDbEntity
  8
ZUKEI
 62
     7
370
    25
100
AcDbLine
 10
2736.936230885882
 20
2779.209048795763
 30
0.0
 11
2751.936230885883
 21
2805.189810909296
 31
0.0
  0
LINE
  5
2D53D
330
17
100
AcDbEntity
  8
ZUKEI
 62
     7
370
    25
100
AcDbLine
 10
2738.321871531937
 20
2778.409048795762
 30
0.0
 11
2753.321871531937
 21
2804.389810909296
 31
0.0
  0
LINE
  5
2D53E
330
17
100
AcDbEntity
  8
ZUKEI
 62
     7
370
    25
100
AcDbLine
 10
2758.005156436181
 20
2798.683693709353
 30
0.0
 11
2778.990643867094
 21
2786.56771689204
 31
0.0
  0
LINE
  5
2D53F
330
17
100
AcDbEntity
  8
ZUKEI
 62
     7
370
    25
100
AcDbLine
 10
2758.80515643618
 20
2800.069334355409
 30
0.0
 11
2779.790643867093
 21
2787.953357538096
 31
0.0
  0
ARC
  5
2D540
330
17
100
AcDbEntity
  8
ZUKEI
 62
     7
370
    25
100
AcDbCircle
 10
2740.33149047517
 20
2811.889810909297
 30
0.0
 40
13.4
100
AcDbArc
 50
329.9999999999897
 51
26.70668596221871
  0
ARC
  5
2D541
330
17
100
AcDbEntity
  8
ZUKEI
 62
     7
370
    25
100
AcDbCircle
 10
2740.33149047517
 20
2811.889810909297
 30
0.0
 40
15.0
100
AcDbArc
 50
329.9999999999897
 51
31.4167296689061
  0
LINE
  5
2D542
330
17
100
AcDbEntity
  8
ZUKEI
 62
     7
370
    25
100
AcDbLine
 10
2766.760204833206
 20
2764.865686956142
 30
0.0
 11
2773.015069210768
 21
2775.69942985253
 31
0.0
  0
LINE
  5
2D543
330
17
100
AcDbEntity
  8
ZUKEI
 62
     7
370
    25
100
AcDbLine
 10
2768.145845479262
 20
2764.065686956143
 30
0.0
 11
2774.400709856823
 21
2774.89942985253
 31
0.0
  0
LINE
  5
2D544
330
17
100
AcDbEntity
  8
ZUKEI
 62
     7
370
    25
100
AcDbLine
 10
2744.805156436179
 20
2775.820623049443
 30
0.0
 11
2765.790643867093
 21
2763.704646232131
 31
0.0
  0
ARC
  5
2D545
330
17
100
AcDbEntity
  8
ZUKEI
 62
     7
370
    25
100
AcDbCircle
 10
2746.49521038465
 20
2776.565686956143
 30
0.0
 40
23.39999999999999
100
AcDbArc
 50
241.6522409643778
 51
329.9999999999897
  0
ARC
  5
2D546
330
17
100
AcDbEntity
  8
ZUKEI
 62
     7
370
    25
100
AcDbCircle
 10
2746.49521038465
 20
2776.565686956143
 30
0.0
 40
25.0
100
AcDbArc
 50
241.5984915570632
 51
329.9999999999897
  0
LINE
  5
2D547
330
17
100
AcDbEntity
  8
ZUKEI
 62
     7
370
    25
100
AcDbLine
 10
2745.605156436179
 20
2777.2062636955
 30
0.0
 11
2766.590643867091
 21
2765.090286878185
 31
0.0
  0
ARC
  5
2D548
330
17
100
AcDbEntity
  8
ZUKEI
 62
     7
370
    25
100
AcDbCircle
 10
2740.805156436179
 20
2768.892419819169
 30
0.0
 40
8.0
100
AcDbArc
 50
60.00000000000272
 51
132.2810681266186
  0
ARC
  5
2D549
330
17
100
AcDbEntity
  8
ZUKEI
 62
     7
370
    25
100
AcDbCircle
 10
2740.805156436179
 20
2768.892419819169
 30
0.0
 40
9.599999999999999
100
AcDbArc
 50
60.00000000000272
 51
132.2810681266186
  0
CIRCLE
  5
2D54A
330
17
100
AcDbEntity
  8
ZUKEI
 62
     7
370
    25
100
AcDbCircle
 10
2761.410328800056
 20
2782.399429852531
 30
0.0
 40
8.0
  0
LINE
  5
2D54B
330
17
100
AcDbEntity
  8
ZUKEI
 62
     7
370
    25
100
AcDbLine
 10
2779.269933588329
 20
2786.533172748917
 30
0.0
 11
2773.015069210768
 21
2775.69942985253
 31
0.0
  0
LINE
  5
2D54C
330
17
100
AcDbEntity
  8
ZUKEI
 62
     7
370
    25
100
AcDbLine
 10
2780.655574234383
 20
2785.733172748916
 30
0.0
 11
2774.400709856823
 21
2774.89942985253
 31
0.0
  0
ARC
  5
2D54D
330
17
100
AcDbEntity
  8
DASH
 62
     7
370
    18
100
AcDbCircle
 10
2740.33149047517
 20
2811.889810909297
 30
0.0
 40
15.0
100
AcDbArc
 50
31.4167296689061
 51
60.00000000000272
  0
ARC
  5
2D54E
330
17
100
AcDbEntity
  8
DASH
 62
     7
370
    18
100
AcDbCircle
 10
2740.33149047517
 20
2811.889810909297
 30
0.0
 40
13.4
100
AcDbArc
 50
26.70668596221871
 51
60.00000000000272
  0
LINE
  5
2D54F
330
17
100
AcDbEntity
  8
ZUKEI
 62
     7
370
    25
100
AcDbLine
 10
2756.278890415676
 20
2826.815816512896
 30
0.0
 11
2771.304026192805
 21
2818.14105032736
 31
0.0
  0
LINE
  5
2D550
330
17
100
AcDbEntity
  8
ZUKEI
 62
     7
370
    25
100
AcDbLine
 10
2756.90838542865
 20
2828.299898259111
 30
0.0
 11
2772.104026192805
 21
2819.526690973416
 31
0.0
  0
ARC
  5
2D551
330
17
100
AcDbEntity
  8
ZUKEI
 62
     7
370
    25
100
AcDbCircle
 10
2409.41864176142
 20
3360.399429852523
 30
0.0
 40
23.39999999999999
100
AcDbArc
 50
90.0
 51
178.3477590356239
  0
ARC
  5
2D552
330
17
100
AcDbEntity
  8
ZUKEI
 62
     7
370
    25
100
AcDbCircle
 10
2409.41864176142
 20
3360.399429852523
 30
0.0
 40
25.0
100
AcDbArc
 50
90.0
 51
178.4015084429456
  0
LINE
  5
2D553
330
17
100
AcDbEntity
  8
ZUKEI
 62
     7
370
    25
100
AcDbLine
 10
2434.328370516539
 20
3359.308332152731
 30
0.0
 11
2434.328370516542
 21
3383.540285787356
 31
0.0
  0
LINE
  5
2D554
330
17
100
AcDbEntity
  8
ZUKEI
 62
     7
370
    25
100
AcDbLine
 10
2435.928370516542
 20
3359.308332152731
 30
0.0
 11
2435.928370516542
 21
3383.540285787358
 31
0.0
  0
ARC
  5
2D555
330
17
100
AcDbEntity
  8
ZUKEI
 62
     7
370
    25
100
AcDbCircle
 10
2434.438099271662
 20
3360.399429852523
 30
0.0
 40
23.39999999999999
100
AcDbArc
 50
1.652240964375939
 51
90.0
  0
ARC
  5
2D556
330
17
100
AcDbEntity
  8
ZUKEI
 62
     7
370
    25
100
AcDbCircle
 10
2434.438099271662
 20
3360.399429852523
 30
0.0
 40
25.0
100
AcDbArc
 50
1.598491557054334
 51
90.0
  0
CIRCLE
  5
2D557
330
17
100
AcDbEntity
  8
ZUKEI
 62
     7
370
    25
100
AcDbCircle
 10
2421.928370516542
 20
3370.399429852523
 30
0.0
 40
8.0
  0
LINE
  5
2D558
330
17
100
AcDbEntity
  8
ZUKEI
 62
     7
370
    25
100
AcDbLine
 10
2409.528370516541
 20
3359.308332152731
 30
0.0
 11
2409.528370516541
 21
3383.540285787356
 31
0.0
  0
LINE
  5
2D559
330
17
100
AcDbEntity
  8
ZUKEI
 62
     7
370
    25
100
AcDbLine
 10
2407.928370516542
 20
3359.308332152731
 30
0.0
 11
2407.928370516542
 21
3383.540285787356
 31
0.0
  0
ARC
  5
2D55A
330
17
100
AcDbEntity
  8
DASH
 62
     7
370
    18
100
AcDbCircle
 10
2399.42837051654
 20
3273.399429852523
 30
0.0
 40
13.4
100
AcDbArc
 50
180.0
 51
270.0
  0
ARC
  5
2D55B
330
17
100
AcDbEntity
  8
DASH
 62
     7
370
    18
100
AcDbCircle
 10
2399.42837051654
 20
3273.399429852523
 30
0.0
 40
15.0
100
AcDbArc
 50
180.0
 51
270.0
  0
ARC
  5
2D55C
330
17
100
AcDbEntity
  8
DASH
 62
     7
370
    18
100
AcDbCircle
 10
2444.428370516539
 20
3273.399429852523
 30
0.0
 40
13.4
100
AcDbArc
 50
270.0
 51
0.0
  0
ARC
  5
2D55D
330
17
100
AcDbEntity
  8
DASH
 62
     7
370
    18
100
AcDbCircle
 10
2444.428370516539
 20
3273.399429852523
 30
0.0
 40
15.0
100
AcDbArc
 50
270.0
 51
0.0
  0
ARC
  5
2D55E
330
17
100
AcDbEntity
  8
DASH
 62
     7
370
    18
100
AcDbCircle
 10
2436.928370516542
 20
3280.399429852522
 30
0.0
 40
15.0
100
AcDbArc
 50
270.0
 51
0.0
  0
ARC
  5
2D55F
330
17
100
AcDbEntity
  8
DASH
 62
     7
370
    18
100
AcDbCircle
 10
2436.928370516542
 20
3280.399429852522
 30
0.0
 40
13.4
100
AcDbArc
 50
270.0
 51
0.0
  0
ARC
  5
2D560
330
17
100
AcDbEntity
  8
DASH
 62
     7
370
    18
100
AcDbCircle
 10
2406.928370516542
 20
3280.399429852522
 30
0.0
 40
15.0
100
AcDbArc
 50
180.0
 51
270.0
  0
ARC
  5
2D561
330
17
100
AcDbEntity
  8
DASH
 62
     7
370
    18
100
AcDbCircle
 10
2406.928370516542
 20
3280.399429852522
 30
0.0
 40
13.4
100
AcDbArc
 50
180.0
 51
270.0
  0
LINE
  5
2D562
330
17
100
AcDbEntity
  8
DASH
 62
     7
370
    18
100
AcDbLine
 10
2436.928370516542
 20
3266.999429852524
 30
0.0
 11
2406.928370516542
 21
3266.999429852524
 31
0.0
  0
LINE
  5
2D563
330
17
100
AcDbEntity
  8
DASH
 62
     7
370
    18
100
AcDbLine
 10
2436.928370516542
 20
3265.399429852524
 30
0.0
 11
2406.928370516542
 21
3265.399429852524
 31
0.0
  0
LINE
  5
2D564
330
17
100
AcDbEntity
  8
DASH
 62
     7
370
    18
100
AcDbLine
 10
2444.428370516542
 20
3258.399429852524
 30
0.0
 11
2399.428370516542
 21
3258.399429852524
 31
0.0
  0
LINE
  5
2D565
330
17
100
AcDbEntity
  8
DASH
 62
     7
370
    18
100
AcDbLine
 10
2399.428370516542
 20
3259.999429852525
 30
0.0
 11
2444.428370516542
 21
3259.999429852525
 31
0.0
  0
LINE
  5
2D566
330
17
100
AcDbEntity
  8
ZUKEI
 62
     7
370
    25
100
AcDbLine
 10
2436.928370516542
 20
3350.799429852523
 30
0.0
 11
2406.928370516542
 21
3350.799429852523
 31
0.0
  0
LINE
  5
2D567
330
17
100
AcDbEntity
  8
ZUKEI
 62
     7
370
    25
100
AcDbLine
 10
2436.928370516542
 20
3352.399429852523
 30
0.0
 11
2406.928370516542
 21
3352.399429852523
 31
0.0
  0
ARC
  5
2D568
330
17
100
AcDbEntity
  8
DASH
 62
     7
370
    18
100
AcDbCircle
 10
2406.928370516541
 20
3337.399429852523
 30
0.0
 40
13.4
100
AcDbArc
 50
146.7066859622127
 51
180.0
  0
ARC
  5
2D569
330
17
100
AcDbEntity
  8
DASH
 62
     7
370
    18
100
AcDbCircle
 10
2406.928370516541
 20
3337.399429852523
 30
0.0
 40
15.0
100
AcDbArc
 50
151.4167296688953
 51
180.0
  0
LINE
  5
2D56A
330
17
100
AcDbEntity
  8
ZUKEI
 62
     7
370
    25
100
AcDbLine
 10
2384.428370516542
 20
3343.550398323196
 30
0.0
 11
2384.428370516542
 21
3361.096812894584
 31
0.0
  0
LINE
  5
2D56B
330
17
100
AcDbEntity
  8
ZUKEI
 62
     7
370
    25
100
AcDbLine
 10
2386.028370516543
 20
3343.747280523514
 30
0.0
 11
2386.028370516543
 21
3361.096812894584
 31
0.0
  0
ARC
  5
2D56C
330
17
100
AcDbEntity
  8
ZUKEI
 62
     7
370
    25
100
AcDbCircle
 10
2399.928370516541
 20
3359.308332152731
 30
0.0
 40
8.0
100
AcDbArc
 50
287.7189318734078
 51
0.0
  0
ARC
  5
2D56D
330
17
100
AcDbEntity
  8
ZUKEI
 62
     7
370
    25
100
AcDbCircle
 10
2399.928370516541
 20
3359.308332152731
 30
0.0
 40
9.599999999999999
100
AcDbArc
 50
287.7189318734078
 51
0.0
  0
ARC
  5
2D56E
330
17
100
AcDbEntity
  8
ZUKEI
 62
     7
370
    25
100
AcDbCircle
 10
2406.928370516541
 20
3337.399429852523
 30
0.0
 40
13.4
100
AcDbArc
 50
90.0
 51
146.7066859622127
  0
ARC
  5
2D56F
330
17
100
AcDbEntity
  8
ZUKEI
 62
     7
370
    25
100
AcDbCircle
 10
2406.928370516541
 20
3337.399429852523
 30
0.0
 40
15.0
100
AcDbArc
 50
90.0
 51
151.4167296688953
  0
LINE
  5
2D570
330
17
100
AcDbEntity
  8
DASH
 62
     7
370
    18
100
AcDbLine
 10
2386.028370516541
 20
3272.85927431479
 30
0.0
 11
2386.028370516543
 21
3343.747280523514
 31
0.0
  0
LINE
  5
2D571
330
17
100
AcDbEntity
  8
DASH
 62
     7
370
    18
100
AcDbLine
 10
2393.528370516541
 20
3280.399429852524
 30
0.0
 11
2393.528370516541
 21
3337.399429852523
 31
0.0
  0
LINE
  5
2D572
330
17
100
AcDbEntity
  8
DASH
 62
     7
370
    18
100
AcDbLine
 10
2391.928370516542
 20
3280.399429852524
 30
0.0
 11
2391.928370516542
 21
3337.399429852523
 31
0.0
  0
LINE
  5
2D573
330
17
100
AcDbEntity
  8
DASH
 62
     7
370
    18
100
AcDbLine
 10
2384.428370516542
 20
3273.399429852524
 30
0.0
 11
2384.428370516542
 21
3343.550398323196
 31
0.0
  0
ARC
  5
2D574
330
17
100
AcDbEntity
  8
DASH
 62
     7
370
    18
100
AcDbCircle
 10
2436.928370516542
 20
3337.399429852523
 30
0.0
 40
13.4
100
AcDbArc
 50
0.0
 51
33.29331403778716
  0
ARC
  5
2D575
330
17
100
AcDbEntity
  8
DASH
 62
     7
370
    18
100
AcDbCircle
 10
2436.928370516542
 20
3337.399429852523
 30
0.0
 40
15.0
100
AcDbArc
 50
0.0
 51
28.58327033110471
  0
LINE
  5
2D576
330
17
100
AcDbEntity
  8
ZUKEI
 62
     7
370
    25
100
AcDbLine
 10
2459.428370516542
 20
3343.550398323194
 30
0.0
 11
2459.428370516542
 21
3361.096812894586
 31
0.0
  0
LINE
  5
2D577
330
17
100
AcDbEntity
  8
ZUKEI
 62
     7
370
    25
100
AcDbLine
 10
2457.828370516542
 20
3343.747280523514
 30
0.0
 11
2457.828370516542
 21
3361.096812894586
 31
0.0
  0
ARC
  5
2D578
330
17
100
AcDbEntity
  8
ZUKEI
 62
     7
370
    25
100
AcDbCircle
 10
2436.928370516542
 20
3337.399429852523
 30
0.0
 40
15.0
100
AcDbArc
 50
28.58327033110471
 51
90.0
  0
ARC
  5
2D579
330
17
100
AcDbEntity
  8
ZUKEI
 62
     7
370
    25
100
AcDbCircle
 10
2436.928370516542
 20
3337.399429852523
 30
0.0
 40
13.4
100
AcDbArc
 50
33.29331403778716
 51
90.0
  0
ARC
  5
2D57A
330
17
100
AcDbEntity
  8
ZUKEI
 62
     7
370
    25
100
AcDbCircle
 10
2443.928370516542
 20
3359.308332152731
 30
0.0
 40
8.0
100
AcDbArc
 50
180.0
 51
252.2810681265921
  0
ARC
  5
2D57B
330
17
100
AcDbEntity
  8
ZUKEI
 62
     7
370
    25
100
AcDbCircle
 10
2443.928370516542
 20
3359.308332152731
 30
0.0
 40
9.599999999999999
100
AcDbArc
 50
180.0
 51
252.2810681265921
  0
CIRCLE
  5
2D57C
330
17
100
AcDbEntity
  8
DASH
 62
     7
370
    18
100
AcDbCircle
 10
2421.928370516542
 20
3295.399429852523
 30
0.0
 40
5.5
  0
CIRCLE
  5
2D57D
330
17
100
AcDbEntity
  8
DASH
 62
     7
370
    18
100
AcDbCircle
 10
2436.928370516542
 20
3330.399429852523
 30
0.0
 40
1.5
  0
LINE
  5
2D57E
330
17
100
AcDbEntity
  8
DASH
 62
     7
370
    18
100
AcDbLine
 10
2450.328370516542
 20
3280.399429852524
 30
0.0
 11
2450.328370516542
 21
3337.399429852523
 31
0.0
  0
LINE
  5
2D57F
330
17
100
AcDbEntity
  8
DASH
 62
     7
370
    18
100
AcDbLine
 10
2451.928370516542
 20
3280.399429852524
 30
0.0
 11
2451.928370516542
 21
3337.399429852523
 31
0.0
  0
LINE
  5
2D580
330
17
100
AcDbEntity
  8
DASH
 62
     7
370
    18
100
AcDbLine
 10
2457.828370516542
 20
3272.859274314792
 30
0.0
 11
2457.828370516542
 21
3343.747280523514
 31
0.0
  0
LINE
  5
2D581
330
17
100
AcDbEntity
  8
DASH
 62
     7
370
    18
100
AcDbLine
 10
2459.428370516542
 20
3273.399429852524
 30
0.0
 11
2459.428370516542
 21
3343.550398323194
 31
0.0
  0
LINE
  5
2D582
330
17
100
AcDbEntity
  8
ZUKEI
 62
     7
370
    25
100
AcDbLine
 10
2409.41864176142
 20
3383.799429852523
 30
0.0
 11
2421.928370516542
 21
3383.799429852523
 31
0.0
  0
LINE
  5
2D583
330
17
100
AcDbEntity
  8
ZUKEI
 62
     7
370
    25
100
AcDbLine
 10
2409.41864176142
 20
3385.399429852523
 30
0.0
 11
2421.928370516542
 21
3385.399429852523
 31
0.0
  0
LINE
  5
2D584
330
17
100
AcDbEntity
  8
ZUKEI
 62
     7
370
    25
100
AcDbLine
 10
2434.438099271662
 20
3383.799429852523
 30
0.0
 11
2421.928370516542
 21
3383.799429852523
 31
0.0
  0
LINE
  5
2D585
330
17
100
AcDbEntity
  8
ZUKEI
 62
     7
370
    25
100
AcDbLine
 10
2434.438099271662
 20
3385.399429852523
 30
0.0
 11
2421.928370516542
 21
3385.399429852523
 31
0.0
  0
ARC
  5
2D8CE
330
17
100
AcDbEntity
  8
ZUKEI
 62
     7
100
AcDbCircle
 10
985.1455509891666
 20
3124.973639567101
 30
0.0
 40
367.5
100
AcDbArc
 50
293.2383994788547
 51
246.7616005211457
  0
DIMENSION
  5
2D91E
330
17
100
AcDbEntity
  8
DIM
 62
     7
100
AcDbDimension
  2
*D21
 10
657.2108902432852
 20
2842.525332586922
 30
0.0
 11
764.1157165766009
 21
3031.398164245377
 31
0.0
 70
    33
  1
425
 71
     5
 42
426.9922174093538
  3
STANDARD
100
AcDbAlignedDimension
 13
985.1455509891676
 23
3124.973639567101
 33
0.0
 14
711.4645107345402
 24
2797.222145393082
 34
0.0
1001
ACAD
1000
DSTYLE
1002
{
1070
    41
1040
3.0
1070
    42
1040
2.0
1070
    43
1040
10.0
1070
    44
1040
2.0
1070
    73
1070
     0
1070
    74
1070
     0
1070
    77
1070
     1
1070
    78
1070
     8
1070
    79
1070
     2
1070
   140
1040
3.2
1070
   147
1040
0.9999999999999996
1070
   172
1070
     1
1070
   179
1070
     4
1070
   271
1070
     0
1070
   272
1070
     2
1070
   341
1005
4A
1070
   342
1005
4A
1002
}
  0
LINE
  5
2D95B
330
17
100
AcDbEntity
  8
ZUKEI
 62
     7
370
    25
100
AcDbLine
 10
2706.666167515451
 20
2660.219981376921
 30
0.0
 11
2668.409210986744
 21
2705.812846761729
 31
0.0
  0
ARC
  5
2D95C
330
17
100
AcDbEntity
  8
ZUKEI
 62
     7
370
    25
100
AcDbCircle
 10
2429.63438450736
 20
2969.2157599943
 30
0.0
 40
415.0
100
AcDbArc
 50
308.1220189340165
 51
311.8779810660129
  0
LINE
  5
2D95D
330
17
100
AcDbEntity
  8
ZUKEI
 62
     7
370
    25
100
AcDbLine
 10
2705.472232746024
 20
2659.153699304731
 30
0.0
 11
2696.128479943236
 21
2670.289150275769
 31
0.0
  0
LINE
  5
2D95E
330
17
100
AcDbEntity
  8
ZUKEI
 62
     7
370
    25
100
AcDbLine
 10
2685.82975866261
 20
2642.736158393454
 30
0.0
 11
2647.572802133903
 21
2688.329023778261
 31
0.0
  0
LINE
  5
2D95F
330
17
100
AcDbEntity
  8
ZUKEI
 62
     7
370
    25
100
AcDbLine
 10
2687.08716611117
 20
2643.726796672253
 30
0.0
 11
2677.743413308379
 21
2654.862247643293
 31
0.0
  0
ARC
  5
2D960
330
17
100
AcDbEntity
  8
ZUKEI
 62
     7
370
    25
100
AcDbCircle
 10
2429.63438450736
 20
2969.2157599943
 30
0.0
 40
400.47
100
AcDbArc
 50
308.1220189340165
 51
311.8779810660129
  0
LINE
  5
2D961
330
17
100
AcDbEntity
  8
ZUKEI
 62
     7
370
    25
100
AcDbLine
 10
2137.972405273867
 20
2659.560600955452
 30
0.0
 11
2176.207580240684
 21
2705.127508085626
 31
0.0
  0
ARC
  5
2D962
330
17
100
AcDbEntity
  8
ZUKEI
 62
     7
370
    25
100
AcDbCircle
 10
2415.004188281959
 20
2968.55637957283
 30
0.0
 40
415.0
100
AcDbArc
 50
228.1220189339868
 51
231.8779810659834
  0
ARC
  5
2D963
330
17
100
AcDbEntity
  8
ZUKEI
 62
     7
370
    25
100
AcDbCircle
 10
2415.004188281959
 20
2968.55637957283
 30
0.0
 40
400.47
100
AcDbArc
 50
228.1220189339868
 51
231.8779810659834
  0
LINE
  5
2D964
330
17
100
AcDbEntity
  8
ZUKEI
 62
     7
370
    25
100
AcDbLine
 10
2139.166340043293
 20
2658.494318883263
 30
0.0
 11
2148.510092846085
 21
2669.629769854299
 31
0.0
  0
LINE
  5
2D965
330
17
100
AcDbEntity
  8
ZUKEI
 62
     7
370
    25
100
AcDbLine
 10
2158.80881412671
 20
2642.076777971987
 30
0.0
 11
2197.092680444789
 21
2687.701713194952
 31
0.0
  0
LINE
  5
2D966
330
17
100
AcDbEntity
  8
ZUKEI
 62
     7
370
    25
100
AcDbLine
 10
2157.551406678149
 20
2643.067416250786
 30
0.0
 11
2166.89515948094
 21
2654.202867221826
 31
0.0
  0
CIRCLE
  5
2D967
330
17
100
AcDbEntity
  8
ZUKEI
 62
     7
100
AcDbCircle
 10
2421.928370516503
 20
2978.399429852442
 30
0.0
 40
367.5
  0
ARC
  5
2D9BC
330
17
100
AcDbEntity
  8
ZUKEI
 62
     7
100
AcDbCircle
 10
2421.928370491774
 20
2978.399429838218
 30
0.0
 40
392.0
100
AcDbArc
 50
58.95981358004457
 51
104.8168661650509
  0
ARC
  5
2D9BD
330
17
100
AcDbEntity
  8
ZUKEI
 62
     7
100
AcDbCircle
 10
2421.928370491774
 20
2978.399429838218
 30
0.0
 40
392.0
100
AcDbArc
 50
315.1831338349692
 51
344.8168661720302
  0
ARC
  5
2D9BE
330
17
100
AcDbEntity
  8
ZUKEI
 62
     7
100
AcDbCircle
 10
2421.928370491774
 20
2978.399429838218
 30
0.0
 40
392.0
100
AcDbArc
 50
195.1831338298653
 51
241.040186420057
  0
DIMENSION
  5
2D9BF
330
17
100
AcDbEntity
  8
DIM
 62
     7
100
AcDbDimension
  2
*D22
 10
2250.816132038766
 20
2625.717417465033
 30
0.0
 11
2668.407318636588
 21
3486.420902909011
 31
0.0
 70
    35
 71
     5
 42
783.9999999999995
  3
STANDARD
100
AcDbDiametricDimension
 15
2593.040608944785
 25
3331.081442211405
 35
0.0
 40
0.0
1001
ACAD
1000
DSTYLE
1002
{
1070
    41
1040
3.0
1070
    42
1040
2.0
1070
    43
1040
10.0
1070
    44
1040
2.0
1070
    73
1070
     0
1070
    74
1070
     0
1070
    77
1070
     1
1070
    78
1070
     8
1070
    79
1070
     2
1070
   140
1040
3.2
1070
   147
1040
0.9999999999999996
1070
   172
1070
     1
1070
   179
1070
     4
1070
   271
1070
     2
1070
   272
1070
     2
1070
   288
1070
     1
1070
   341
1005
4A
1070
   342
1005
4A
1002
}
  0
TEXT
  5
2DAB5
330
17
100
AcDbEntity
  8
0
 62
     7
370
    18
100
AcDbText
 10
2183.655838272083
 20
1824.436369763549
 30
0.0
 40
48.0
  1
リモコンケーブル引込口
 41
0.8
100
AcDbText
  0
TEXT
  5
2DAB6
330
17
100
AcDbEntity
  8
0
 62
     7
370
    18
100
AcDbText
 10
2183.655838272083
 20
1904.43636976355
 30
0.0
 40
48.0
  1
100・200V補助電源引込口
 41
0.8
100
AcDbText
  0
LINE
  5
2DAB7
330
17
100
AcDbEntity
  8
WAKU
 62
     7
100
AcDbLine
 10
2843.071304817915
 20
2125.22760332667
 30
0.0
 11
2043.071304817912
 21
2125.22760332667
 31
0.0
  0
LINE
  5
2DAB8
330
17
100
AcDbEntity
  8
WAKU
 62
     7
100
AcDbLine
 10
2043.071304817912
 20
2045.22760332667
 30
0.0
 11
2843.071304817915
 21
2045.22760332667
 31
0.0
  0
TEXT
  5
2DAB9
330
17
100
AcDbEntity
  8
DIMTEXT
 62
     7
100
AcDbText
 10
2352.776211036104
 20
2061.22760332667
 30
0.0
 40
48.0
  1
名      称
 41
0.8
 72
     1
 11
2462.856211036104
 21
2085.22760332667
 31
0.0
100
AcDbText
 73
     2
  0
LINE
  5
2DABA
330
17
100
AcDbEntity
  8
WAKU
 62
     7
100
AcDbLine
 10
2043.071304817912
 20
1805.22760332667
 30
0.0
 11
2843.071304817915
 21
1805.22760332667
 31
0.0
  0
LINE
  5
2DABB
330
17
100
AcDbEntity
  8
WAKU
 62
     7
100
AcDbLine
 10
2043.071304817912
 20
1885.227603326669
 30
0.0
 11
2843.071304817915
 21
1885.227603326669
 31
0.0
  0
LINE
  5
2DABC
330
17
100
AcDbEntity
  8
WAKU
 62
     7
100
AcDbLine
 10
2043.071304817912
 20
1965.227603326669
 30
0.0
 11
2843.071304817915
 21
1965.227603326669
 31
0.0
  0
TEXT
  5
2DABD
330
17
100
AcDbEntity
  8
DIMTEXT
 62
     7
100
AcDbText
 10
2065.904906327154
 20
2061.22760332667
 30
0.0
 40
48.0
  1
番号
 41
0.8
 72
     1
 11
2106.864906327154
 21
2085.22760332667
 31
0.0
100
AcDbText
 73
     2
  0
LINE
  5
2DABE
330
17
100
AcDbEntity
  8
WAKU
 62
     7
100
AcDbLine
 10
2043.071304817912
 20
2125.22760332667
 30
0.0
 11
2043.071304817912
 21
1805.22760332667
 31
0.0
  0
TEXT
  5
2DABF
330
17
100
AcDbEntity
  8
0
 62
     7
370
    18
100
AcDbText
 10
2183.655838272083
 20
1984.43636976355
 30
0.0
 40
48.0
  1
200V電源引込口
 41
0.8
100
AcDbText
  0
LINE
  5
2DAC0
330
17
100
AcDbEntity
  8
WAKU
 62
     7
100
AcDbLine
 10
2168.161789060613
 20
2125.22760332667
 30
0.0
 11
2168.161789060613
 21
1805.22760332667
 31
0.0
  0
TEXT
  5
2DAC1
330
17
100
AcDbEntity
  8
DIMTEXT
 62
     7
100
AcDbText
 10
2094.064906327154
 20
1820.314608102483
 30
0.0
 40
48.0
  1
3
 41
0.8
 72
     1
 11
2106.864906327154
 21
1844.314608102483
 31
0.0
100
AcDbText
 73
     2
  0
TEXT
  5
2DAC2
330
17
100
AcDbEntity
  8
DIMTEXT
 62
     7
100
AcDbText
 10
2094.064906327154
 20
1900.314608102483
 30
0.0
 40
48.0
  1
2
 41
0.8
 72
     1
 11
2106.864906327154
 21
1924.314608102483
 31
0.0
100
AcDbText
 73
     2
  0
TEXT
  5
2DAC3
330
17
100
AcDbEntity
  8
DIMTEXT
 62
     7
100
AcDbText
 10
2102.293477755726
 20
1980.314608102483
 30
0.0
 40
48.0
  1
1
 41
0.8
 72
     1
 11
2106.864906327154
 21
2004.314608102482
 31
0.0
100
AcDbText
 73
     2
  0
LINE
  5
2DAC4
330
17
100
AcDbEntity
  8
WAKU
 62
     7
100
AcDbLine
 10
2843.071304817915
 20
2125.22760332667
 30
0.0
 11
2843.071304817915
 21
1805.22760332667
 31
0.0
  0
LEADER
  5
2DAC5
330
17
100
AcDbEntity
  8
DIM
 62
     7
100
AcDbLeader
  3
STANDARD
 76
     2
 10
2331.928370516591
 20
2584.003691684198
 30
0.0
 10
2174.914806390212
 20
2488.023785291848
 30
0.0
1001
SSE_BALOON
1005
2DACF
1001
ACAD
1000
DSTYLE
1002
{
1070
    41
1040
3.0
1070
    42
1040
2.0
1070
    43
1040
10.0
1070
    44
1040
2.0
1070
    73
1070
     0
1070
    74
1070
     0
1070
    77
1070
     1
1070
    78
1070
     8
1070
    79
1070
     2
1070
   140
1040
3.2
1070
   147
1040
0.9999999999999996
1070
   172
1070
     1
1070
   179
1070
     4
1070
   271
1070
     2
1070
   272
1070
     2
1070
   341
1005
5132
1070
   342
1005
4A
1002
}
  0
INSERT
  5
2DACF
330
17
100
AcDbEntity
  8
DIM
 62
     7
100
AcDbBlockReference
 66
     1
  2
SSE_BALOON1
 10
2136.520080649599
 20
2464.553697194377
 30
0.0
 41
45.0
 42
45.0
 43
45.0
1001
SSE_BALOON
1005
2DAC5
  0
ATTRIB
  5
2DAD0
330
2DACF
100
AcDbEntity
  8
DIMTEXT
100
AcDbText
 10
2132.94865207817
 20
2449.553697194377
 30
0.0
 40
30.0
  1
1
 72
     4
 11
2136.520080649599
 21
2464.553697194377
 31
0.0
100
AcDbAttribute
  2
BAL_NUM
 70
     0
  0
SEQEND
  5
2DAD1
330
2DACF
100
AcDbEntity
  8
DIM
 62
     7
  0
LEADER
  5
2DAD3
330
17
100
AcDbEntity
  8
DIM
 62
     7
100
AcDbLeader
  3
STANDARD
 76
     2
 10
2421.928370516591
 20
2569.003691684198
 30
0.0
 10
2330.470761948823
 20
2493.257167351907
 30
0.0
1001
SSE_BALOON
1005
2DAD4
1001
ACAD
1000
DSTYLE
1002
{
1070
    41
1040
3.0
1070
    42
1040
2.0
1070
    43
1040
10.0
1070
    44
1040
2.0
1070
    73
1070
     0
1070
    74
1070
     0
1070
    77
1070
     1
1070
    78
1070
     8
1070
    79
1070
     2
1070
   140
1040
3.2
1070
   147
1040
0.9999999999999996
1070
   172
1070
     1
1070
   179
1070
     4
1070
   271
1070
     2
1070
   272
1070
     2
1070
   341
1005
5132
1070
   342
1005
4A
1002
}
  0
INSERT
  5
2DAD4
330
17
100
AcDbEntity
  8
DIM
 62
     7
100
AcDbBlockReference
 66
     1
  2
SSE_BALOON1
 10
2295.813716475849
 20
2464.553697194377
 30
0.0
 41
45.0
 42
45.0
 43
45.0
1001
SSE_BALOON
1005
2DAD3
  0
ATTRIB
  5
2DAD5
330
2DAD4
100
AcDbEntity
  8
DIMTEXT
100
AcDbText
 10
2286.213716475849
 20
2450.153697194377
 30
0.0
 40
28.8
  1
2
 72
     4
 11
2295.813716475849
 21
2464.553697194377
 31
0.0
100
AcDbAttribute
  2
BAL_NUM
 70
     0
  0
SEQEND
  5
2DAD6
330
2DAD4
100
AcDbEntity
  8
DIM
 62
     7
  0
LEADER
  5
2DAD8
330
17
100
AcDbEntity
  8
DIM
 62
     7
100
AcDbLeader
  3
STANDARD
 76
     2
 10
2511.92837051659
 20
2584.003691684198
 30
0.0
 10
2581.548038335931
 20
2499.315440375703
 30
0.0
1001
SSE_BALOON
1005
2DAD9
1001
ACAD
1000
DSTYLE
1002
{
1070
    41
1040
3.0
1070
    42
1040
2.0
1070
    43
1040
10.0
1070
    44
1040
2.0
1070
    73
1070
     0
1070
    74
1070
     0
1070
    77
1070
     1
1070
    78
1070
     8
1070
    79
1070
     2
1070
   140
1040
3.2
1070
   147
1040
0.9999999999999996
1070
   172
1070
     1
1070
   179
1070
     4
1070
   271
1070
     2
1070
   272
1070
     2
1070
   341
1005
5132
1070
   342
1005
4A
1002
}
  0
INSERT
  5
2DAD9
330
17
100
AcDbEntity
  8
DIM
 62
     7
100
AcDbBlockReference
 66
     1
  2
SSE_BALOON1
 10
2610.12462334876
 20
2464.553697194377
 30
0.0
 41
45.0
 42
45.0
 43
45.0
1001
SSE_BALOON
1005
2DAD8
  0
ATTRIB
  5
2DADA
330
2DAD9
100
AcDbEntity
  8
DIMTEXT
100
AcDbText
 10
2600.124623348761
 20
2449.553697194377
 30
0.0
 40
30.0
  1
3
 72
     4
 11
2610.12462334876
 21
2464.553697194377
 31
0.0
100
AcDbAttribute
  2
BAL_NUM
 70
     0
  0
SEQEND
  5
2DADB
330
2DAD9
100
AcDbEntity
  8
DIM
 62
     7
  0
LINE
  5
2DAE3
330
17
100
AcDbEntity
  8
WAKU
 62
     7
100
AcDbLine
 10
3037.687343440971
 20
4177.769072248509
 30
0.0
 11
937.6873434409739
 21
4177.76907224851
 31
0.0
  0
TEXT
  5
2DAE4
330
17
100
AcDbEntity
  8
DIMTEXT
 62
     7
100
AcDbText
 10
1485.315914869546
 20
4113.769072248511
 30
0.0
 40
48.0
  1
SM855B-H11
 41
0.8
 72
     1
 11
1662.687343440975
 21
4137.769072248511
 31
0.0
100
AcDbText
 73
     2
  0
TEXT
  5
2DAE5
330
17
100
AcDbEntity
  8
DIMTEXT
 62
     7
100
AcDbText
 10
2004.230200583834
 20
4113.511722742678
 30
0.0
 40
48.0
  1
SM855BW-H14
 41
0.8
 72
     1
 11
2212.687343440977
 21
4137.511722742678
 31
0.0
100
AcDbText
 73
     2
  0
TEXT
  5
2DB39
330
17
100
AcDbEntity
  8
DIMTEXT
 62
     7
100
AcDbText
 10
2575.258772012405
 20
4113.511722742679
 30
0.0
 40
48.0
  1
UM855B-H17
 41
0.8
 72
     1
 11
2762.687343440977
 21
4137.511722742679
 31
0.0
100
AcDbText
 73
     2
  0
HATCH
  5
2DB43
330
17
100
AcDbEntity
  8
0
 62
     7
100
AcDbHatch
 10
0.0
 20
0.0
 30
0.0
210
0.0
220
0.0
230
1.0
  2
ANSI31
 70
     0
 71
     1
 91
        1
 92
        1
 93
       12
 72
     2
 10
972.9043509891688
 20
2039.517990475481
 40
1.853999999999998
 50
90.0
 51
180.0
 73
     1
 72
     1
 10
971.050350989169
 20
2039.517990475481
 11
971.050350989169
 21
2022.831990475481
 72
     1
 10
971.050350989169
 20
2022.831990475481
 11
975.1291509891688
 21
2022.831990475481
 72
     1
 10
975.1291509891688
 20
2022.831990475481
 11
975.1291509891688
 21
2036.180790475481
 72
     2
 10
976.2415509891688
 20
2036.180790475481
 40
1.112399999999998
 50
180.0
 51
270.0
 73
     0
 72
     1
 10
976.2415509891688
 20
2037.293190475481
 11
978.8371509891689
 21
2037.293190475481
 72
     2
 10
978.8371509891689
 20
2036.180790475481
 40
1.112399999999998
 50
270.0
 51
360.0
 73
     0
 72
     1
 10
979.9495509891688
 20
2036.180790475481
 11
979.9495509891688
 21
2022.831990475481
 72
     1
 10
979.9495509891688
 20
2022.831990475481
 11
984.0283509891687
 21
2022.831990475481
 72
     1
 10
984.0283509891687
 20
2022.831990475481
 11
984.0283509891687
 21
2039.517990475481
 72
     2
 10
982.1743509891687
 20
2039.517990475481
 40
1.853999999999998
 50
0.0
 51
90.0
 73
     1
 72
     1
 10
982.1743509891687
 20
2041.371990475481
 11
972.9043509891688
 21
2041.371990475481
 97
       12
330
2DB9D
330
2DB4D
330
2DB72
330
2DB74
330
2DB4F
330
2DB9F
330
2DB50
330
2DB77
330
2DB76
330
2DB54
330
2DBA0
330
2DB96
 75
     0
 76
     1
 52
0.0
 41
0.05
 77
     0
 78
     1
 53
45.0
 43
886.5646248728735
 44
1829.961008982781
 45
-0.1122532015133644
 46
0.1122532015133644
 79
     0
 98
        1
 10
886.5646248728735
 20
1829.961008982781
  0
HATCH
  5
2DB44
330
17
100
AcDbEntity
  8
0
 62
     7
100
AcDbHatch
 10
0.0
 20
0.0
 30
0.0
210
0.0
220
0.0
230
1.0
  2
ANSI31
 70
     0
 71
     0
 91
        2
 92
        1
 93
       14
 72
     1
 10
941.3863509891688
 20
2054.34999047548
 11
945.4651509891689
 21
2054.34999047548
 72
     1
 10
945.4651509891689
 20
2054.34999047548
 11
945.4651509891689
 21
2037.29319047548
 72
     2
 10
946.577550989169
 20
2037.293190475481
 40
1.112399999999998
 50
180.0
 51
270.0
 73
     1
 72
     1
 10
946.577550989169
 20
2036.180790475481
 11
950.2855509891691
 21
2036.180790475481
 72
     1
 10
950.2855509891686
 20
2036.180790475481
 11
950.2855509891686
 21
2054.349990475482
 72
     1
 10
950.2855509891686
 20
2054.34999047548
 11
954.3643509891689
 21
2054.34999047548
 72
     1
 10
954.3643509891689
 20
2054.34999047548
 11
954.3643509891689
 21
2023.944390475481
 72
     1
 10
954.3643509891689
 20
2023.944390475481
 11
954.3643509891689
 21
2023.88303159008
 72
     2
 10
939.532350989169
 20
2023.88303159008
 40
14.832
 50
360.0
 51
398.1572265873694
 73
     0
 72
     1
 10
951.1950245905831
 20
2014.719502331826
 11
950.2855509891691
 21
2013.561990475481
 72
     1
 10
950.2855509891686
 20
2013.561990475481
 11
950.2855509891686
 21
2032.101990475481
 72
     1
 10
950.2855509891686
 20
2032.101990475481
 11
943.2403509891686
 21
2032.101990475481
 72
     2
 10
943.240350989169
 20
2033.955990475481
 40
1.853999999999998
 50
90.0
 51
180.0
 73
     0
 72
     1
 10
941.3863509891688
 20
2033.955990475481
 11
941.3863509891688
 21
2054.34999047548
 97
        0
 92
       48
 93
        1
 72
     1
 10
954.3643509891689
 20
2023.944390475481
 11
954.3643509891689
 21
2023.88303159008
 97
        0
 75
     0
 76
     1
 52
0.0
 41
0.05
 77
     0
 78
     1
 53
45.0
 43
886.5646248728735
 44
1829.961008982781
 45
-0.1122532015133644
 46
0.1122532015133644
 79
     0
 98
        1
 10
886.5646248728735
 20
1829.961008982781
  0
LINE
  5
2DB45
330
17
100
AcDbEntity
  8
0
 62
     7
100
AcDbLine
 10
941.3863509891688
 20
2054.34999047548
 30
0.0
 11
941.3863509891688
 21
2033.955990475481
 31
0.0
  0
ARC
  5
2DB46
330
17
100
AcDbEntity
  8
0
 62
     7
100
AcDbCircle
 10
946.577550989169
 20
2037.293190475481
 30
0.0
 40
1.112399999999998
100
AcDbArc
 50
180.0
 51
270.0
  0
HATCH
  5
2DB47
330
17
100
AcDbEntity
  8
0
 62
     7
100
AcDbHatch
 10
0.0
 20
0.0
 30
0.0
210
0.0
220
0.0
230
1.0
  2
ANSI31
 70
     0
 71
     1
 91
        1
 92
        1
 93
       12
 72
     1
 10
956.2183509891687
 20
2041.371990475481
 11
960.2971509891689
 21
2041.371990475481
 72
     1
 10
960.2971509891689
 20
2041.371990475481
 11
960.2971509891689
 21
2028.023190475481
 72
     2
 10
961.4095509891688
 20
2028.023190475481
 40
1.112399999999998
 50
180.0
 51
270.0
 73
     1
 72
     1
 10
961.4095509891688
 20
2026.910790475481
 11
964.0051509891689
 21
2026.910790475481
 72
     2
 10
964.0051509891689
 20
2028.023190475481
 40
1.112399999999998
 50
270.0
 51
360.0
 73
     1
 72
     1
 10
965.117550989169
 20
2028.023190475481
 11
965.117550989169
 21
2041.371990475481
 72
     1
 10
965.117550989169
 20
2041.371990475481
 11
969.1963509891687
 21
2041.371990475481
 72
     1
 10
969.1963509891687
 20
2041.371990475481
 11
969.1963509891687
 21
2024.685990475481
 72
     2
 10
967.3423509891689
 20
2024.685990475481
 40
1.853999999999998
 50
360.0
 51
450.0
 73
     0
 72
     1
 10
967.3423509891689
 20
2022.831990475481
 11
958.072350989169
 21
2022.831990475481
 72
     2
 10
958.072350989169
 20
2024.685990475481
 40
1.853999999999998
 50
90.0
 51
180.0
 73
     0
 72
     1
 10
956.2183509891687
 20
2024.685990475481
 11
956.2183509891687
 21
2041.371990475481
 97
       12
330
2DB9B
330
2DB4B
330
2DB70
330
2DB71
330
2DB6E
330
2DB4E
330
2DB9C
330
2DB4C
330
2DB73
330
2DB6D
330
2DB6F
330
2DB4A
 75
     0
 76
     1
 52
0.0
 41
0.05
 77
     0
 78
     1
 53
45.0
 43
886.5646248728735
 44
1829.961008982781
 45
-0.1122532015133644
 46
0.1122532015133644
 79
     0
 98
        1
 10
886.5646248728735
 20
1829.961008982781
  0
LINE
  5
2DB48
330
17
100
AcDbEntity
  8
0
 62
     7
100
AcDbLine
 10
954.3643509891689
 20
2054.34999047548
 30
0.0
 11
954.3643509891689
 21
2023.944390475481
 31
0.0
  0
LINE
  5
2DB49
330
17
100
AcDbEntity
  8
0
 62
     7
100
AcDbLine
 10
950.2855509891686
 20
2054.34999047548
 30
0.0
 11
950.2855509891686
 21
2036.180790475481
 31
0.0
  0
LINE
  5
2DB4A
102
{ACAD_REACTORS
330
2DB47
102
}
330
17
100
AcDbEntity
  8
0
 62
     7
100
AcDbLine
 10
956.2183509891687
 20
2041.371990475481
 30
0.0
 11
956.2183509891687
 21
2024.685990475481
 31
0.0
  0
LINE
  5
2DB4B
102
{ACAD_REACTORS
330
2DB47
102
}
330
17
100
AcDbEntity
  8
0
 62
     7
100
AcDbLine
 10
960.2971509891689
 20
2041.371990475481
 30
0.0
 11
960.2971509891689
 21
2028.023190475481
 31
0.0
  0
LINE
  5
2DB4C
102
{ACAD_REACTORS
330
2DB47
102
}
330
17
100
AcDbEntity
  8
0
 62
     7
100
AcDbLine
 10
969.1963509891687
 20
2041.371990475481
 30
0.0
 11
969.1963509891687
 21
2024.685990475481
 31
0.0
  0
LINE
  5
2DB4D
102
{ACAD_REACTORS
330
2DB43
102
}
330
17
100
AcDbEntity
  8
0
 62
     7
100
AcDbLine
 10
971.050350989169
 20
2022.831990475481
 30
0.0
 11
971.050350989169
 21
2039.517990475481
 31
0.0
  0
LINE
  5
2DB4E
102
{ACAD_REACTORS
330
2DB47
102
}
330
17
100
AcDbEntity
  8
0
 62
     7
100
AcDbLine
 10
965.117550989169
 20
2041.371990475481
 30
0.0
 11
965.117550989169
 21
2028.023190475481
 31
0.0
  0
ARC
  5
2DB4F
102
{ACAD_REACTORS
330
2DB43
102
}
330
17
100
AcDbEntity
  8
0
 62
     7
100
AcDbCircle
 10
976.2415509891688
 20
2036.180790475481
 30
0.0
 40
1.112399999999998
100
AcDbArc
 50
90.0
 51
180.0
  0
ARC
  5
2DB50
102
{ACAD_REACTORS
330
2DB43
102
}
330
17
100
AcDbEntity
  8
0
 62
     7
100
AcDbCircle
 10
978.8371509891689
 20
2036.180790475481
 30
0.0
 40
1.112399999999998
100
AcDbArc
 50
0.0
 51
90.0
  0
HATCH
  5
2DB51
330
17
100
AcDbEntity
  8
0
 62
     7
100
AcDbHatch
 10
0.0
 20
0.0
 30
0.0
210
0.0
220
0.0
230
1.0
  2
ANSI31
 70
     0
 71
     1
 91
        1
 92
        1
 93
       15
 72
     1
 10
1014.433950989168
 20
2041.371990475481
 11
1009.242750989169
 21
2041.371990475481
 72
     1
 10
1009.242750989169
 20
2041.371990475481
 11
1004.793150989168
 21
2033.955990475481
 72
     1
 10
1004.793150989168
 20
2033.955990475481
 11
1004.793150989168
 21
2054.34999047548
 72
     1
 10
1004.793150989168
 20
2054.34999047548
 11
1000.714350989168
 21
2054.34999047548
 72
     1
 10
1000.714350989168
 20
2054.34999047548
 11
1000.714350989168
 21
2022.831990475481
 72
     1
 10
1000.714350989168
 20
2022.831990475481
 11
1004.793150989168
 21
2022.831990475481
 72
     1
 10
1004.793150989168
 20
2022.831990475481
 11
1004.793150989168
 21
2029.877190475481
 72
     1
 10
1004.793150989168
 20
2029.877190475481
 11
1008.871950989168
 21
2029.877190475481
 72
     2
 10
1008.871950989168
 20
2028.764790475481
 40
1.112399999999998
 50
270.0
 51
360.0
 73
     0
 72
     1
 10
1009.984350989168
 20
2028.764790475481
 11
1009.984350989168
 21
2022.831990475481
 72
     1
 10
1009.984350989168
 20
2022.831990475481
 11
1014.063150989169
 21
2022.831990475481
 72
     1
 10
1014.063150989169
 20
2022.831990475481
 11
1014.063150989169
 21
2032.101990475481
 72
     2
 10
1012.209150989168
 20
2032.101990475481
 40
1.853999999999998
 50
0.0
 51
90.0
 73
     1
 72
     1
 10
1012.209150989168
 20
2033.955990475481
 11
1009.984350989168
 21
2033.955990475481
 72
     1
 10
1009.984350989168
 20
2033.955990475481
 11
1014.433950989168
 21
2041.371990475481
 97
       15
330
2DBA3
330
2DB5A
330
2DB59
330
2DBA5
330
2DB58
330
2DB81
330
2DB82
330
2DB80
330
2DB85
330
2DB86
330
2DB84
330
2DB83
330
2DB7E
330
2DB87
330
2DB52
 75
     0
 76
     1
 52
0.0
 41
0.05
 77
     0
 78
     1
 53
45.0
 43
886.5646248728735
 44
1829.961008982781
 45
-0.1122532015133644
 46
0.1122532015133644
 79
     0
 98
        1
 10
886.5646248728735
 20
1829.961008982781
  0
LINE
  5
2DB52
102
{ACAD_REACTORS
330
2DB51
102
}
330
17
100
AcDbEntity
  8
0
 62
     7
100
AcDbLine
 10
1014.433950989168
 20
2041.371990475481
 30
0.0
 11
1009.984350989168
 21
2033.955990475481
 31
0.0
  0
HATCH
  5
2DB53
330
17
100
AcDbEntity
  8
0
 62
     7
100
AcDbHatch
 10
0.0
 20
0.0
 30
0.0
210
0.0
220
0.0
230
1.0
  2
ANSI31
 70
     0
 71
     1
 91
        2
 92
        1
 93
        8
 72
     1
 10
997.0063509891687
 20
2041.371990475481
 11
987.7363509891686
 21
2041.371990475481
 72
     2
 10
987.7363509891686
 20
2039.517990475481
 40
1.853999999999998
 50
90.0
 51
180.0
 73
     1
 72
     1
 10
985.8823509891688
 20
2039.517990475481
 11
985.8823509891688
 21
2024.685990475481
 72
     2
 10
987.7363509891686
 20
2024.685990475481
 40
1.853999999999998
 50
180.0
 51
270.0
 73
     1
 72
     1
 10
987.7363509891686
 20
2022.831990475481
 11
997.0063509891687
 21
2022.831990475481
 72
     2
 10
997.0063509891687
 20
2024.685990475481
 40
1.853999999999998
 50
270.0
 51
360.0
 73
     1
 72
     1
 10
998.8603509891689
 20
2024.685990475481
 11
998.8603509891689
 21
2039.517990475481
 72
     2
 10
997.0063509891687
 20
2039.517990475481
 40
1.853999999999998
 50
0.0
 51
90.0
 73
     1
 97
        8
330
2DB9E
330
2DBA1
330
2DB55
330
2DB78
330
2DB75
330
2DB7F
330
2DB5B
330
2DBA4
 92
       16
 93
        8
 72
     2
 10
993.6691509891687
 20
2036.180790475481
 40
1.112399999999998
 50
0.0
 51
90.0
 73
     1
 72
     1
 10
993.6691509891687
 20
2037.293190475481
 11
991.0735509891686
 21
2037.293190475481
 72
     2
 10
991.0735509891686
 20
2036.180790475481
 40
1.112399999999998
 50
90.0
 51
180.0
 73
     1
 72
     1
 10
989.9611509891686
 20
2036.180790475481
 11
989.9611509891686
 21
2028.023190475481
 72
     2
 10
991.0735509891686
 20
2028.023190475481
 40
1.112399999999998
 50
180.0
 51
270.0
 73
     1
 72
     1
 10
991.0735509891686
 20
2026.910790475481
 11
993.6691509891687
 21
2026.910790475481
 72
     2
 10
993.6691509891687
 20
2028.023190475481
 40
1.112399999999998
 50
270.0
 51
360.0
 73
     1
 72
     1
 10
994.7815509891688
 20
2028.023190475481
 11
994.7815509891688
 21
2036.180790475481
 97
        8
330
2DB57
330
2DBA2
330
2DB56
330
2DB79
330
2DB7C
330
2DB7B
330
2DB7D
330
2DB7A
 75
     0
 76
     1
 52
0.0
 41
0.05
 77
     0
 78
     1
 53
45.0
 43
886.5646248728735
 44
1829.961008982781
 45
-0.1122532015133644
 46
0.1122532015133644
 79
     0
 98
        1
 10
886.5646248728735
 20
1829.961008982781
  0
LINE
  5
2DB54
102
{ACAD_REACTORS
330
2DB43
102
}
330
17
100
AcDbEntity
  8
0
 62
     7
100
AcDbLine
 10
984.0283509891687
 20
2022.831990475481
 30
0.0
 11
984.0283509891687
 21
2039.517990475481
 31
0.0
  0
LINE
  5
2DB55
102
{ACAD_REACTORS
330
2DB53
102
}
330
17
100
AcDbEntity
  8
0
 62
     7
100
AcDbLine
 10
985.8823509891688
 20
2024.685990475481
 30
0.0
 11
985.8823509891688
 21
2039.517990475481
 31
0.0
  0
ARC
  5
2DB56
102
{ACAD_REACTORS
330
2DB53
102
}
330
17
100
AcDbEntity
  8
0
 62
     7
100
AcDbCircle
 10
991.0735509891686
 20
2036.180790475481
 30
0.0
 40
1.112399999999998
100
AcDbArc
 50
90.0
 51
180.0
  0
ARC
  5
2DB57
102
{ACAD_REACTORS
330
2DB53
102
}
330
17
100
AcDbEntity
  8
0
 62
     7
100
AcDbCircle
 10
993.6691509891687
 20
2036.180790475481
 30
0.0
 40
1.112399999999998
100
AcDbArc
 50
0.0
 51
90.0
  0
LINE
  5
2DB58
102
{ACAD_REACTORS
330
2DB51
102
}
330
17
100
AcDbEntity
  8
0
 62
     7
100
AcDbLine
 10
1000.714350989168
 20
2022.831990475481
 30
0.0
 11
1000.714350989168
 21
2054.34999047548
 31
0.0
  0
LINE
  5
2DB59
102
{ACAD_REACTORS
330
2DB51
102
}
330
17
100
AcDbEntity
  8
0
 62
     7
100
AcDbLine
 10
1004.793150989168
 20
2033.955990475481
 30
0.0
 11
1004.793150989168
 21
2054.34999047548
 31
0.0
  0
LINE
  5
2DB5A
102
{ACAD_REACTORS
330
2DB51
102
}
330
17
100
AcDbEntity
  8
0
 62
     7
100
AcDbLine
 10
1009.242750989169
 20
2041.371990475481
 30
0.0
 11
1004.793150989168
 21
2033.955990475481
 31
0.0
  0
LINE
  5
2DB5B
102
{ACAD_REACTORS
330
2DB53
102
}
330
17
100
AcDbEntity
  8
0
 62
     7
100
AcDbLine
 10
998.8603509891689
 20
2024.685990475481
 30
0.0
 11
998.8603509891689
 21
2039.517990475481
 31
0.0
  0
LINE
  5
2DB5C
330
17
100
AcDbEntity
  8
0
 62
     7
100
AcDbLine
 10
1032.645550989168
 20
2014.351990475481
 30
0.0
 11
1032.645550989168
 21
2054.351990475481
 31
0.0
  0
HATCH
  5
2DB5D
330
17
100
AcDbEntity
  8
0
 62
     7
100
AcDbHatch
 10
0.0
 20
0.0
 30
0.0
210
0.0
220
0.0
230
1.0
  2
ANSI31
 70
     0
 71
     1
 91
        2
 92
        1
 93
       12
 72
     1
 10
1027.041150989169
 20
2041.371990475481
 11
1015.917150989168
 21
2041.371990475481
 72
     1
 10
1015.917150989168
 20
2041.371990475481
 11
1015.917150989168
 21
2037.293190475481
 72
     1
 10
1015.917150989168
 20
2037.293190475481
 11
1024.816350989168
 21
2037.293190475481
 72
     1
 10
1024.816350989168
 20
2037.293190475481
 11
1024.816350989168
 21
2033.955990475481
 72
     1
 10
1024.816350989168
 20
2033.955990475481
 11
1017.771150989168
 21
2033.955990475481
 72
     2
 10
1017.771150989168
 20
2032.101990475481
 40
1.853999999999998
 50
90.0
 51
180.0
 73
     1
 72
     1
 10
1015.917150989168
 20
2032.101990475481
 11
1015.917150989168
 21
2024.685990475481
 72
     2
 10
1017.771150989168
 20
2024.685990475481
 40
1.853999999999998
 50
180.0
 51
270.0
 73
     1
 72
     1
 10
1017.771150989168
 20
2022.831990475481
 11
1027.041150989169
 21
2022.831990475481
 72
     2
 10
1027.041150989169
 20
2024.685990475481
 40
1.853999999999998
 50
270.0
 51
360.0
 73
     1
 72
     1
 10
1028.895150989169
 20
2024.685990475481
 11
1028.895150989169
 21
2039.517990475481
 72
     2
 10
1027.041150989169
 20
2039.517990475481
 40
1.853999999999998
 50
0.0
 51
90.0
 73
     1
 97
       12
330
2DB94
330
2DBA6
330
2DB95
330
2DB5F
330
2DB8B
330
2DB63
330
2DB88
330
2DB62
330
2DB8A
330
2DB92
330
2DB5E
330
2DBA7
 92
       16
 93
        6
 72
     2
 10
1021.108350989168
 20
2028.764790475481
 40
1.112399999999998
 50
90.0
 51
180.0
 73
     1
 72
     1
 10
1019.995950989168
 20
2028.764790475481
 11
1019.995950989168
 21
2028.023190475481
 72
     2
 10
1021.108350989168
 20
2028.023190475481
 40
1.112399999999998
 50
180.0
 51
270.0
 73
     1
 72
     1
 10
1021.108350989168
 20
2026.910790475481
 11
1024.816350989168
 21
2026.910790475481
 72
     1
 10
1024.816350989168
 20
2026.910790475481
 11
1024.816350989168
 21
2029.877190475481
 72
     1
 10
1024.816350989168
 20
2029.877190475481
 11
1021.108350989168
 21
2029.877190475481
 97
        6
330
2DB8E
330
2DB90
330
2DB8F
330
2DB8C
330
2DB91
330
2DB8D
 75
     0
 76
     1
 52
0.0
 41
0.05
 77
     0
 78
     1
 53
45.0
 43
886.5646248728735
 44
1829.961008982781
 45
-0.1122532015133644
 46
0.1122532015133644
 79
     0
 98
        1
 10
886.5646248728735
 20
1829.961008982781
  0
LINE
  5
2DB5E
102
{ACAD_REACTORS
330
2DB5D
102
}
330
17
100
AcDbEntity
  8
0
 62
     7
100
AcDbLine
 10
1028.895150989169
 20
2039.517990475481
 30
0.0
 11
1028.895150989169
 21
2024.685990475481
 31
0.0
  0
LINE
  5
2DB5F
102
{ACAD_REACTORS
330
2DB5D
102
}
330
17
100
AcDbEntity
  8
0
 62
     7
100
AcDbLine
 10
1024.816350989168
 20
2037.293190475481
 30
0.0
 11
1024.816350989168
 21
2033.955990475481
 31
0.0
  0
LINE
  5
2DB60
330
17
100
AcDbEntity
  8
0
 62
     7
100
AcDbLine
 10
937.6455509891687
 20
2054.351990475481
 30
0.0
 11
937.6455509891687
 21
2014.351990475481
 31
0.0
  0
LINE
  5
2DB61
330
17
100
AcDbEntity
  8
0
 62
     7
100
AcDbLine
 10
939.6455509891687
 20
2012.351990475481
 30
0.0
 11
1030.645550989168
 21
2012.351990475481
 31
0.0
  0
ARC
  5
2DB62
102
{ACAD_REACTORS
330
2DB5D
102
}
330
17
100
AcDbEntity
  8
0
 62
     7
100
AcDbCircle
 10
1017.771150989168
 20
2024.685990475481
 30
0.0
 40
1.853999999999998
100
AcDbArc
 50
180.0
 51
270.0
  0
ARC
  5
2DB63
102
{ACAD_REACTORS
330
2DB5D
102
}
330
17
100
AcDbEntity
  8
0
 62
     7
100
AcDbCircle
 10
1017.771150989168
 20
2032.101990475481
 30
0.0
 40
1.853999999999998
100
AcDbArc
 50
90.0
 51
180.0
  0
ARC
  5
2DB64
330
17
100
AcDbEntity
  8
0
 62
     7
100
AcDbCircle
 10
939.532350989169
 20
2023.88303159008
 30
0.0
 40
14.832
100
AcDbArc
 50
321.8427734126485
 51
0.0
  0
LINE
  5
2DB65
330
17
100
AcDbEntity
  8
0
 62
     7
100
AcDbLine
 10
943.240350989169
 20
2032.101990475481
 30
0.0
 11
950.2855509891686
 21
2032.101990475481
 31
0.0
  0
LINE
  5
2DB66
330
17
100
AcDbEntity
  8
0
 62
     7
100
AcDbLine
 10
946.577550989169
 20
2036.180790475481
 30
0.0
 11
950.2855509891686
 21
2036.180790475481
 31
0.0
  0
ARC
  5
2DB67
330
17
100
AcDbEntity
  8
0
 62
     7
100
AcDbCircle
 10
943.240350989169
 20
2033.955990475481
 30
0.0
 40
1.853999999999998
100
AcDbArc
 50
180.0
 51
270.0
  0
LINE
  5
2DB68
330
17
100
AcDbEntity
  8
0
 62
     7
100
AcDbLine
 10
950.2855509891686
 20
2032.101990475481
 30
0.0
 11
950.2855509891686
 21
2013.561990475481
 31
0.0
  0
LINE
  5
2DB69
330
17
100
AcDbEntity
  8
0
 62
     7
100
AcDbLine
 10
951.1950245905831
 20
2014.719502331826
 30
0.0
 11
950.2855509891686
 21
2013.561990475481
 31
0.0
  0
LINE
  5
2DB6A
330
17
100
AcDbEntity
  8
0
 62
     7
100
AcDbLine
 10
954.3643509891689
 20
2023.944390475481
 30
0.0
 11
954.3643509891689
 21
2023.88303159008
 31
0.0
  0
LINE
  5
2DB6B
330
17
100
AcDbEntity
  8
0
 62
     7
100
AcDbLine
 10
954.3643509891689
 20
2023.944390475481
 30
0.0
 11
954.3643509891689
 21
2023.88303159008
 31
0.0
  0
ARC
  5
2DB6C
330
17
100
AcDbEntity
  8
0
 62
     7
100
AcDbCircle
 10
939.6455509891687
 20
2014.351990475481
 30
0.0
 40
2.0
100
AcDbArc
 50
180.0
 51
270.0
  0
LINE
  5
2DB6D
102
{ACAD_REACTORS
330
2DB47
102
}
330
17
100
AcDbEntity
  8
0
 62
     7
100
AcDbLine
 10
958.072350989169
 20
2022.831990475481
 30
0.0
 11
967.3423509891689
 21
2022.831990475481
 31
0.0
  0
ARC
  5
2DB6E
102
{ACAD_REACTORS
330
2DB47
102
}
330
17
100
AcDbEntity
  8
0
 62
     7
100
AcDbCircle
 10
964.0051509891689
 20
2028.023190475481
 30
0.0
 40
1.112399999999998
100
AcDbArc
 50
270.0
 51
0.0
  0
ARC
  5
2DB6F
102
{ACAD_REACTORS
330
2DB47
102
}
330
17
100
AcDbEntity
  8
0
 62
     7
100
AcDbCircle
 10
958.072350989169
 20
2024.685990475481
 30
0.0
 40
1.853999999999998
100
AcDbArc
 50
180.0
 51
270.0
  0
ARC
  5
2DB70
102
{ACAD_REACTORS
330
2DB47
102
}
330
17
100
AcDbEntity
  8
0
 62
     7
100
AcDbCircle
 10
961.4095509891688
 20
2028.023190475481
 30
0.0
 40
1.112399999999998
100
AcDbArc
 50
180.0
 51
270.0
  0
LINE
  5
2DB71
102
{ACAD_REACTORS
330
2DB47
102
}
330
17
100
AcDbEntity
  8
0
 62
     7
100
AcDbLine
 10
961.4095509891688
 20
2026.910790475481
 30
0.0
 11
964.0051509891689
 21
2026.910790475481
 31
0.0
  0
LINE
  5
2DB72
102
{ACAD_REACTORS
330
2DB43
102
}
330
17
100
AcDbEntity
  8
0
 62
     7
100
AcDbLine
 10
971.050350989169
 20
2022.831990475481
 30
0.0
 11
975.1291509891688
 21
2022.831990475481
 31
0.0
  0
ARC
  5
2DB73
102
{ACAD_REACTORS
330
2DB47
102
}
330
17
100
AcDbEntity
  8
0
 62
     7
100
AcDbCircle
 10
967.3423509891689
 20
2024.685990475481
 30
0.0
 40
1.853999999999998
100
AcDbArc
 50
270.0
 51
0.0
  0
LINE
  5
2DB74
102
{ACAD_REACTORS
330
2DB43
102
}
330
17
100
AcDbEntity
  8
0
 62
     7
100
AcDbLine
 10
975.1291509891688
 20
2022.831990475481
 30
0.0
 11
975.1291509891688
 21
2036.180790475481
 31
0.0
  0
LINE
  5
2DB75
102
{ACAD_REACTORS
330
2DB53
102
}
330
17
100
AcDbEntity
  8
0
 62
     7
100
AcDbLine
 10
997.0063509891687
 20
2022.831990475481
 30
0.0
 11
987.7363509891686
 21
2022.831990475481
 31
0.0
  0
LINE
  5
2DB76
102
{ACAD_REACTORS
330
2DB43
102
}
330
17
100
AcDbEntity
  8
0
 62
     7
100
AcDbLine
 10
979.9495509891688
 20
2022.831990475481
 30
0.0
 11
984.0283509891687
 21
2022.831990475481
 31
0.0
  0
LINE
  5
2DB77
102
{ACAD_REACTORS
330
2DB43
102
}
330
17
100
AcDbEntity
  8
0
 62
     7
100
AcDbLine
 10
979.9495509891688
 20
2022.831990475481
 30
0.0
 11
979.9495509891688
 21
2036.180790475481
 31
0.0
  0
ARC
  5
2DB78
102
{ACAD_REACTORS
330
2DB53
102
}
330
17
100
AcDbEntity
  8
0
 62
     7
100
AcDbCircle
 10
987.7363509891686
 20
2024.685990475481
 30
0.0
 40
1.853999999999998
100
AcDbArc
 50
180.0
 51
270.0
  0
LINE
  5
2DB79
102
{ACAD_REACTORS
330
2DB53
102
}
330
17
100
AcDbEntity
  8
0
 62
     7
100
AcDbLine
 10
989.9611509891686
 20
2028.023190475481
 30
0.0
 11
989.9611509891686
 21
2036.180790475481
 31
0.0
  0
LINE
  5
2DB7A
102
{ACAD_REACTORS
330
2DB53
102
}
330
17
100
AcDbEntity
  8
0
 62
     7
100
AcDbLine
 10
994.7815509891688
 20
2028.023190475481
 30
0.0
 11
994.7815509891688
 21
2036.180790475481
 31
0.0
  0
LINE
  5
2DB7B
102
{ACAD_REACTORS
330
2DB53
102
}
330
17
100
AcDbEntity
  8
0
 62
     7
100
AcDbLine
 10
993.6691509891687
 20
2026.910790475481
 30
0.0
 11
991.0735509891686
 21
2026.910790475481
 31
0.0
  0
ARC
  5
2DB7C
102
{ACAD_REACTORS
330
2DB53
102
}
330
17
100
AcDbEntity
  8
0
 62
     7
100
AcDbCircle
 10
991.0735509891686
 20
2028.023190475481
 30
0.0
 40
1.112399999999998
100
AcDbArc
 50
180.0
 51
270.0
  0
ARC
  5
2DB7D
102
{ACAD_REACTORS
330
2DB53
102
}
330
17
100
AcDbEntity
  8
0
 62
     7
100
AcDbCircle
 10
993.6691509891687
 20
2028.023190475481
 30
0.0
 40
1.112399999999998
100
AcDbArc
 50
270.0
 51
0.0
  0
ARC
  5
2DB7E
102
{ACAD_REACTORS
330
2DB51
102
}
330
17
100
AcDbEntity
  8
0
 62
     7
100
AcDbCircle
 10
1012.209150989168
 20
2032.101990475481
 30
0.0
 40
1.853999999999998
100
AcDbArc
 50
0.0
 51
90.0
  0
ARC
  5
2DB7F
102
{ACAD_REACTORS
330
2DB53
102
}
330
17
100
AcDbEntity
  8
0
 62
     7
100
AcDbCircle
 10
997.0063509891687
 20
2024.685990475481
 30
0.0
 40
1.853999999999998
100
AcDbArc
 50
270.0
 51
0.0
  0
LINE
  5
2DB80
102
{ACAD_REACTORS
330
2DB51
102
}
330
17
100
AcDbEntity
  8
0
 62
     7
100
AcDbLine
 10
1004.793150989168
 20
2029.877190475481
 30
0.0
 11
1008.871950989168
 21
2029.877190475481
 31
0.0
  0
LINE
  5
2DB81
102
{ACAD_REACTORS
330
2DB51
102
}
330
17
100
AcDbEntity
  8
0
 62
     7
100
AcDbLine
 10
1004.793150989168
 20
2022.831990475481
 30
0.0
 11
1000.714350989168
 21
2022.831990475481
 31
0.0
  0
LINE
  5
2DB82
102
{ACAD_REACTORS
330
2DB51
102
}
330
17
100
AcDbEntity
  8
0
 62
     7
100
AcDbLine
 10
1004.793150989168
 20
2022.831990475481
 30
0.0
 11
1004.793150989168
 21
2029.877190475481
 31
0.0
  0
LINE
  5
2DB83
102
{ACAD_REACTORS
330
2DB51
102
}
330
17
100
AcDbEntity
  8
0
 62
     7
100
AcDbLine
 10
1014.063150989169
 20
2032.101990475481
 30
0.0
 11
1014.063150989169
 21
2022.831990475481
 31
0.0
  0
LINE
  5
2DB84
102
{ACAD_REACTORS
330
2DB51
102
}
330
17
100
AcDbEntity
  8
0
 62
     7
100
AcDbLine
 10
1014.063150989169
 20
2022.831990475481
 30
0.0
 11
1009.984350989168
 21
2022.831990475481
 31
0.0
  0
ARC
  5
2DB85
102
{ACAD_REACTORS
330
2DB51
102
}
330
17
100
AcDbEntity
  8
0
 62
     7
100
AcDbCircle
 10
1008.871950989168
 20
2028.764790475481
 30
0.0
 40
1.112399999999998
100
AcDbArc
 50
0.0
 51
90.0
  0
LINE
  5
2DB86
102
{ACAD_REACTORS
330
2DB51
102
}
330
17
100
AcDbEntity
  8
0
 62
     7
100
AcDbLine
 10
1009.984350989168
 20
2028.764790475481
 30
0.0
 11
1009.984350989168
 21
2022.831990475481
 31
0.0
  0
LINE
  5
2DB87
102
{ACAD_REACTORS
330
2DB51
102
}
330
17
100
AcDbEntity
  8
0
 62
     7
100
AcDbLine
 10
1009.984350989168
 20
2033.955990475481
 30
0.0
 11
1012.209150989168
 21
2033.955990475481
 31
0.0
  0
LINE
  5
2DB88
102
{ACAD_REACTORS
330
2DB5D
102
}
330
17
100
AcDbEntity
  8
0
 62
     7
100
AcDbLine
 10
1015.917150989168
 20
2032.101990475481
 30
0.0
 11
1015.917150989168
 21
2024.685990475481
 31
0.0
  0
ARC
  5
2DB89
330
17
100
AcDbEntity
  8
0
 62
     7
100
AcDbCircle
 10
1030.645550989168
 20
2014.351990475481
 30
0.0
 40
2.0
100
AcDbArc
 50
270.0
 51
0.0
  0
LINE
  5
2DB8A
102
{ACAD_REACTORS
330
2DB5D
102
}
330
17
100
AcDbEntity
  8
0
 62
     7
100
AcDbLine
 10
1027.041150989169
 20
2022.831990475481
 30
0.0
 11
1017.771150989168
 21
2022.831990475481
 31
0.0
  0
LINE
  5
2DB8B
102
{ACAD_REACTORS
330
2DB5D
102
}
330
17
100
AcDbEntity
  8
0
 62
     7
100
AcDbLine
 10
1017.771150989168
 20
2033.955990475481
 30
0.0
 11
1024.816350989168
 21
2033.955990475481
 31
0.0
  0
LINE
  5
2DB8C
102
{ACAD_REACTORS
330
2DB5D
102
}
330
17
100
AcDbEntity
  8
0
 62
     7
100
AcDbLine
 10
1024.816350989168
 20
2026.910790475481
 30
0.0
 11
1021.108350989168
 21
2026.910790475481
 31
0.0
  0
LINE
  5
2DB8D
102
{ACAD_REACTORS
330
2DB5D
102
}
330
17
100
AcDbEntity
  8
0
 62
     7
100
AcDbLine
 10
1021.108350989168
 20
2029.877190475481
 30
0.0
 11
1024.816350989168
 21
2029.877190475481
 31
0.0
  0
ARC
  5
2DB8E
102
{ACAD_REACTORS
330
2DB5D
102
}
330
17
100
AcDbEntity
  8
0
 62
     7
100
AcDbCircle
 10
1021.108350989168
 20
2028.764790475481
 30
0.0
 40
1.112399999999998
100
AcDbArc
 50
90.0
 51
180.0
  0
ARC
  5
2DB8F
102
{ACAD_REACTORS
330
2DB5D
102
}
330
17
100
AcDbEntity
  8
0
 62
     7
100
AcDbCircle
 10
1021.108350989168
 20
2028.023190475481
 30
0.0
 40
1.112399999999998
100
AcDbArc
 50
180.0
 51
270.0
  0
LINE
  5
2DB90
102
{ACAD_REACTORS
330
2DB5D
102
}
330
17
100
AcDbEntity
  8
0
 62
     7
100
AcDbLine
 10
1019.995950989168
 20
2028.764790475481
 30
0.0
 11
1019.995950989168
 21
2028.023190475481
 31
0.0
  0
LINE
  5
2DB91
102
{ACAD_REACTORS
330
2DB5D
102
}
330
17
100
AcDbEntity
  8
0
 62
     7
100
AcDbLine
 10
1024.816350989168
 20
2029.877190475481
 30
0.0
 11
1024.816350989168
 21
2026.910790475481
 31
0.0
  0
ARC
  5
2DB92
102
{ACAD_REACTORS
330
2DB5D
102
}
330
17
100
AcDbEntity
  8
0
 62
     7
100
AcDbCircle
 10
1027.041150989169
 20
2024.685990475481
 30
0.0
 40
1.853999999999998
100
AcDbArc
 50
270.0
 51
0.0
  0
LINE
  5
2DB93
330
17
100
AcDbEntity
  8
0
 62
     7
100
AcDbLine
 10
1030.645550989168
 20
2056.351990475481
 30
0.0
 11
939.6455509891687
 21
2056.351990475481
 31
0.0
  0
LINE
  5
2DB94
102
{ACAD_REACTORS
330
2DB5D
102
}
330
17
100
AcDbEntity
  8
0
 62
     7
100
AcDbLine
 10
1027.041150989169
 20
2041.371990475481
 30
0.0
 11
1015.917150989168
 21
2041.371990475481
 31
0.0
  0
LINE
  5
2DB95
102
{ACAD_REACTORS
330
2DB5D
102
}
330
17
100
AcDbEntity
  8
0
 62
     7
100
AcDbLine
 10
1024.816350989168
 20
2037.293190475481
 30
0.0
 11
1015.917150989168
 21
2037.293190475481
 31
0.0
  0
LINE
  5
2DB96
102
{ACAD_REACTORS
330
2DB43
102
}
330
17
100
AcDbEntity
  8
0
 62
     7
100
AcDbLine
 10
972.9043509891688
 20
2041.371990475481
 30
0.0
 11
982.1743509891687
 21
2041.371990475481
 31
0.0
  0
LINE
  5
2DB97
330
17
100
AcDbEntity
  8
0
 62
     7
100
AcDbLine
 10
945.4651509891689
 20
2054.34999047548
 30
0.0
 11
945.4651509891689
 21
2037.293190475481
 31
0.0
  0
LINE
  5
2DB98
330
17
100
AcDbEntity
  8
0
 62
     7
100
AcDbLine
 10
941.3863509891688
 20
2054.34999047548
 30
0.0
 11
945.4651509891689
 21
2054.34999047548
 31
0.0
  0
LINE
  5
2DB99
330
17
100
AcDbEntity
  8
0
 62
     7
100
AcDbLine
 10
950.2855509891686
 20
2054.34999047548
 30
0.0
 11
954.3643509891689
 21
2054.34999047548
 31
0.0
  0
ARC
  5
2DB9A
330
17
100
AcDbEntity
  8
0
 62
     7
100
AcDbCircle
 10
939.6455509891687
 20
2054.351990475481
 30
0.0
 40
2.0
100
AcDbArc
 50
90.0
 51
180.0
  0
LINE
  5
2DB9B
102
{ACAD_REACTORS
330
2DB47
102
}
330
17
100
AcDbEntity
  8
0
 62
     7
100
AcDbLine
 10
956.2183509891687
 20
2041.371990475481
 30
0.0
 11
960.2971509891689
 21
2041.371990475481
 31
0.0
  0
LINE
  5
2DB9C
102
{ACAD_REACTORS
330
2DB47
102
}
330
17
100
AcDbEntity
  8
0
 62
     7
100
AcDbLine
 10
965.117550989169
 20
2041.371990475481
 30
0.0
 11
969.1963509891687
 21
2041.371990475481
 31
0.0
  0
ARC
  5
2DB9D
102
{ACAD_REACTORS
330
2DB43
102
}
330
17
100
AcDbEntity
  8
0
 62
     7
100
AcDbCircle
 10
972.9043509891688
 20
2039.517990475481
 30
0.0
 40
1.853999999999998
100
AcDbArc
 50
90.0
 51
180.0
  0
LINE
  5
2DB9E
102
{ACAD_REACTORS
330
2DB53
102
}
330
17
100
AcDbEntity
  8
0
 62
     7
100
AcDbLine
 10
997.0063509891687
 20
2041.371990475481
 30
0.0
 11
987.7363509891686
 21
2041.371990475481
 31
0.0
  0
LINE
  5
2DB9F
102
{ACAD_REACTORS
330
2DB43
102
}
330
17
100
AcDbEntity
  8
0
 62
     7
100
AcDbLine
 10
976.2415509891688
 20
2037.293190475481
 30
0.0
 11
978.8371509891689
 21
2037.293190475481
 31
0.0
  0
ARC
  5
2DBA0
102
{ACAD_REACTORS
330
2DB43
102
}
330
17
100
AcDbEntity
  8
0
 62
     7
100
AcDbCircle
 10
982.1743509891687
 20
2039.517990475481
 30
0.0
 40
1.853999999999998
100
AcDbArc
 50
0.0
 51
90.0
  0
ARC
  5
2DBA1
102
{ACAD_REACTORS
330
2DB53
102
}
330
17
100
AcDbEntity
  8
0
 62
     7
100
AcDbCircle
 10
987.7363509891686
 20
2039.517990475481
 30
0.0
 40
1.853999999999998
100
AcDbArc
 50
90.0
 51
180.0
  0
LINE
  5
2DBA2
102
{ACAD_REACTORS
330
2DB53
102
}
330
17
100
AcDbEntity
  8
0
 62
     7
100
AcDbLine
 10
993.6691509891687
 20
2037.293190475481
 30
0.0
 11
991.0735509891686
 21
2037.293190475481
 31
0.0
  0
LINE
  5
2DBA3
102
{ACAD_REACTORS
330
2DB51
102
}
330
17
100
AcDbEntity
  8
0
 62
     7
100
AcDbLine
 10
1014.433950989168
 20
2041.371990475481
 30
0.0
 11
1009.242750989169
 21
2041.371990475481
 31
0.0
  0
ARC
  5
2DBA4
102
{ACAD_REACTORS
330
2DB53
102
}
330
17
100
AcDbEntity
  8
0
 62
     7
100
AcDbCircle
 10
997.0063509891687
 20
2039.517990475481
 30
0.0
 40
1.853999999999998
100
AcDbArc
 50
0.0
 51
90.0
  0
LINE
  5
2DBA5
102
{ACAD_REACTORS
330
2DB51
102
}
330
17
100
AcDbEntity
  8
0
 62
     7
100
AcDbLine
 10
1000.714350989168
 20
2054.34999047548
 30
0.0
 11
1004.793150989168
 21
2054.34999047548
 31
0.0
  0
LINE
  5
2DBA6
102
{ACAD_REACTORS
330
2DB5D
102
}
330
17
100
AcDbEntity
  8
0
 62
     7
100
AcDbLine
 10
1015.917150989168
 20
2041.371990475481
 30
0.0
 11
1015.917150989168
 21
2037.293190475481
 31
0.0
  0
ARC
  5
2DBA7
102
{ACAD_REACTORS
330
2DB5D
102
}
330
17
100
AcDbEntity
  8
0
 62
     7
100
AcDbCircle
 10
1027.041150989169
 20
2039.517990475481
 30
0.0
 40
1.853999999999998
100
AcDbArc
 50
0.0
 51
90.0
  0
ARC
  5
2DBA8
330
17
100
AcDbEntity
  8
0
 62
     7
100
AcDbCircle
 10
1030.645550989168
 20
2054.351990475481
 30
0.0
 40
2.0
100
AcDbArc
 50
0.0
 51
90.0
  0
ENDSEC
  0
SECTION
  2
OBJECTS
  0
DICTIONARY
  5
C
330
0
100
AcDbDictionary
281
     1
  3
ACAD_GROUP
350
D
  3
ACAD_LAYOUT
350
34
  3
ACAD_MLINESTYLE
350
1A
  3
ACAD_PLOTSETTINGS
350
35
  3
ACAD_PLOTSTYLENAME
350
32
  3
AcadDim
350
2C65E
  3
AcDbVariableDictionary
350
44
  0
DICTIONARY
  5
2C31C
330
2
100
AcDbDictionary
280
     1
281
     1
  3
ACAD_LAYERSTATES
360
2C31D
  0
DICTIONARY
  5
D
102
{ACAD_REACTORS
330
C
102
}
330
C
100
AcDbDictionary
281
     1
  3
*A1
350
3917
  3
*A10
350
14DF1
  3
*A2
350
14DF3
  3
*A3
350
14E80
  3
*A4
350
14E82
  3
*A5
350
17876
  3
*A6
350
3E2F
  3
*A7
350
14154
  3
*A8
350
14C46
  3
*A9
350
14C48
  0
DICTIONARY
  5
34
102
{ACAD_REACTORS
330
C
102
}
330
C
100
AcDbDictionary
281
     1
  3
Model
350
36
  3
ﾚｲｱｳﾄ1
350
37
  0
DICTIONARY
  5
1A
102
{ACAD_REACTORS
330
C
102
}
330
C
100
AcDbDictionary
281
     1
  3
STANDARD
350
1B
  0
DICTIONARY
  5
35
102
{ACAD_REACTORS
330
C
102
}
330
C
100
AcDbDictionary
281
     1
  0
ACDBDICTIONARYWDFLT
  5
32
102
{ACAD_REACTORS
330
C
102
}
330
C
100
AcDbDictionary
281
     1
  3
Normal
350
33
100
AcDbDictionaryWithDefault
340
33
  0
XRECORD
  5
2C65E
102
{ACAD_REACTORS
330
C
102
}
330
C
100
AcDbXrecord
280
     1
 90
   990106
  3

 60
     0
 61
     0
 62
     4
 63
     4
 64
     1
 65
     0
 66
     0
 67
     2
 68
     1
 69
     0
 70
     0
 71
     0
 72
     0
 40
0.0
170
     2
340
0
  0
DICTIONARY
  5
44
102
{ACAD_REACTORS
330
C
102
}
330
C
100
AcDbDictionary
281
     1
  3
DIMASSOC
350
45
  3
SORTENTS
350
6F8C
  0
DICTIONARY
  5
2C31D
102
{ACAD_REACTORS
330
2C31C
102
}
330
2C31C
100
AcDbDictionary
281
     1
  0
GROUP
  5
3917
102
{ACAD_REACTORS
330
D
102
}
330
D
100
AcDbGroup
300
SSE_Dim15
 70
     1
 71
     1
  0
GROUP
  5
14DF1
102
{ACAD_REACTORS
330
D
102
}
330
D
100
AcDbGroup
300

 70
     1
 71
     1
  0
GROUP
  5
14DF3
102
{ACAD_REACTORS
330
D
102
}
330
D
100
AcDbGroup
300

 70
     1
 71
     1
  0
GROUP
  5
14E80
102
{ACAD_REACTORS
330
D
102
}
330
D
100
AcDbGroup
300

 70
     1
 71
     1
  0
GROUP
  5
14E82
102
{ACAD_REACTORS
330
D
102
}
330
D
100
AcDbGroup
300

 70
     1
 71
     1
  0
GROUP
  5
17876
102
{ACAD_REACTORS
330
D
102
}
330
D
100
AcDbGroup
300

 70
     1
 71
     1
  0
GROUP
  5
3E2F
102
{ACAD_REACTORS
330
D
102
}
330
D
100
AcDbGroup
300

 70
     1
 71
     1
  0
GROUP
  5
14154
102
{ACAD_REACTORS
330
D
102
}
330
D
100
AcDbGroup
300

 70
     1
 71
     1
  0
GROUP
  5
14C46
102
{ACAD_REACTORS
330
D
102
}
330
D
100
AcDbGroup
300

 70
     1
 71
     1
  0
GROUP
  5
14C48
102
{ACAD_REACTORS
330
D
102
}
330
D
100
AcDbGroup
300

 70
     1
 71
     1
  0
LAYOUT
  5
36
102
{ACAD_REACTORS
330
34
102
}
330
34
100
AcDbPlotSettings
  1

  2
DocuPrint 360 - 技術開発部 熱利用技術Ｇ.pc3
  4
A4
  6

 40
0.0
 41
0.0
 42
0.97332763671875
 43
0.96832275390625
 44
209.9733276367186
 45
296.9683227539062
 46
0.0
 47
0.21
 48
0.0
 49
0.0
140
3150.0
141
4455.0
142
1.0
143
15.07177033492822
 70
 11956
 72
     1
 73
     0
 74
     4
  7
monochrome.ctb
 75
     0
147
0.0663492063492064
148
0.0
149
0.0
100
AcDbLayout
  1
Model
 70
     1
 71
     0
 10
0.0
 20
0.0
 11
12.0
 21
9.0
 12
0.0
 22
0.0
 32
0.0
 14
0.0
 24
0.0
 34
0.0
 15
0.0
 25
0.0
 35
0.0
146
0.0
 13
0.0
 23
0.0
 33
0.0
 16
1.0
 26
0.0
 36
0.0
 17
0.0
 27
1.0
 37
0.0
 76
     0
330
17
  0
LAYOUT
  5
37
102
{ACAD_REACTORS
330
34
102
}
330
34
100
AcDbPlotSettings
  1

  2
EPSON LP-8300C
  4

  6

 40
0.0
 41
0.0
 42
0.0
 43
0.0
 44
0.0
 45
0.0
 46
0.0
 47
0.0
 48
0.0
 49
0.0
140
0.0
141
0.0
142
1.0
143
1.0
 70
   688
 72
     0
 73
     0
 74
     5
  7
monochrome.ctb
 75
    16
147
1.0
148
0.0
149
0.0
100
AcDbLayout
  1
ﾚｲｱｳﾄ1
 70
     0
 71
     1
 10
0.0
 20
0.0
 11
12.0
 21
9.0
 12
0.0
 22
0.0
 32
0.0
 14
1.000000000000000E+20
 24
1.000000000000000E+20
 34
1.000000000000000E+20
 15
-1.000000000000000E+20
 25
-1.000000000000000E+20
 35
-1.000000000000000E+20
146
0.0
 13
0.0
 23
0.0
 33
0.0
 16
1.0
 26
0.0
 36
0.0
 17
0.0
 27
1.0
 37
0.0
 76
     0
330
14
  0
MLINESTYLE
  5
1B
102
{ACAD_REACTORS
330
1A
102
}
330
1A
100
AcDbMlineStyle
  2
STANDARD
 70
     0
  3

 62
   256
 51
90.0
 52
90.0
 71
     2
 49
0.5
 62
   256
  6
BYLAYER
 49
-0.5
 62
   256
  6
BYLAYER
  0
ACDBPLACEHOLDER
  5
33
102
{ACAD_REACTORS
330
32
102
}
330
32
  0
DICTIONARYVAR
  5
45
102
{ACAD_REACTORS
330
44
102
}
330
44
100
DictionaryVariables
280
     0
  1
1
  0
DICTIONARYVAR
  5
6F8C
102
{ACAD_REACTORS
330
44
102
}
330
44
100
DictionaryVariables
280
     0
  1
96
  0
ENDSEC
  0
EOF
