  0
SECTION
  2
HEADER
  9
$ACADVER
  1
AC1015
  9
$ACADMAINTVER
 70
    14
  9
$DWGCODEPAGE
  3
ANSI_932
  9
$INSBASE
 10
0.0
 20
0.0
 30
0.0
  9
$EXTMIN
 10
0.0
 20
0.0
 30
0.0
  9
$EXTMAX
 10
3150.0
 20
4455.0
 30
0.0
  9
$LIMMIN
 10
0.0
 20
0.0
  9
$LIMMAX
 10
3150.0
 20
4455.0
  9
$ORTHOMODE
 70
     1
  9
$REGENMODE
 70
     1
  9
$FILLMODE
 70
     1
  9
$QTEXTMODE
 70
     0
  9
$MIRRTEXT
 70
     0
  9
$LTSCALE
 40
15.0
  9
$ATTMODE
 70
     1
  9
$TEXTSIZE
 40
16.0
  9
$TRACEWID
 40
0.05
  9
$TEXTSTYLE
  7
STANDARD
  9
$CLAYER
  8
0
  9
$CELTYPE
  6
BYLAYER
  9
$CECOLOR
 62
   256
  9
$CELTSCALE
 40
1.0
  9
$DISPSILH
 70
     0
  9
$DIMSCALE
 40
15.0
  9
$DIMASZ
 40
3.0
  9
$DIMEXO
 40
2.0
  9
$DIMDLI
 40
10.0
  9
$DIMRND
 40
0.0
  9
$DIMDLE
 40
0.0
  9
$DIMEXE
 40
2.0
  9
$DIMTP
 40
0.0
  9
$DIMTM
 40
0.0
  9
$DIMTXT
 40
3.2
  9
$DIMCEN
 40
0.09
  9
$DIMTSZ
 40
0.0
  9
$DIMTOL
 70
     0
  9
$DIMLIM
 70
     0
  9
$DIMTIH
 70
     0
  9
$DIMTOH
 70
     0
  9
$DIMSE1
 70
     0
  9
$DIMSE2
 70
     0
  9
$DIMTAD
 70
     1
  9
$DIMZIN
 70
     8
  9
$DIMBLK
  1
Open30
  9
$DIMASO
 70
     1
  9
$DIMSHO
 70
     0
  9
$DIMPOST
  1

  9
$DIMAPOST
  1

  9
$DIMALT
 70
     0
  9
$DIMALTD
 70
     2
  9
$DIMALTF
 40
25.4
  9
$DIMLFAC
 40
1.0
  9
$DIMTOFL
 70
     1
  9
$DIMTVP
 40
0.0
  9
$DIMTIX
 70
     0
  9
$DIMSOXD
 70
     0
  9
$DIMSAH
 70
     0
  9
$DIMBLK1
  1

  9
$DIMBLK2
  1

  9
$DIMSTYLE
  2
STANDARD
  9
$DIMCLRD
 70
     0
  9
$DIMCLRE
 70
     0
  9
$DIMCLRT
 70
     0
  9
$DIMTFAC
 40
1.0
  9
$DIMGAP
 40
0.9999999999999996
  9
$DIMJUST
 70
     0
  9
$DIMSD1
 70
     0
  9
$DIMSD2
 70
     0
  9
$DIMTOLJ
 70
     1
  9
$DIMTZIN
 70
     0
  9
$DIMALTZ
 70
     0
  9
$DIMALTTZ
 70
     0
  9
$DIMUPT
 70
     0
  9
$DIMDEC
 70
     2
  9
$DIMTDEC
 70
     2
  9
$DIMALTU
 70
     2
  9
$DIMALTTD
 70
     2
  9
$DIMTXSTY
  7
STANDARD
  9
$DIMAUNIT
 70
     0
  9
$DIMADEC
 70
     4
  9
$DIMALTRND
 40
0.0
  9
$DIMAZIN
 70
     2
  9
$DIMDSEP
 70
    46
  9
$DIMATFIT
 70
     3
  9
$DIMFRAC
 70
     0
  9
$DIMLDRBLK
  1
Open30
  9
$DIMLUNIT
 70
     2
  9
$DIMLWD
 70
    -2
  9
$DIMLWE
 70
    -2
  9
$DIMTMOVE
 70
     0
  9
$LUNITS
 70
     2
  9
$LUPREC
 70
     2
  9
$SKETCHINC
 40
0.1
  9
$FILLETRAD
 40
20.0
  9
$AUNITS
 70
     0
  9
$AUPREC
 70
     2
  9
$MENU
  1
dash
  9
$ELEVATION
 40
0.0
  9
$PELEVATION
 40
0.0
  9
$THICKNESS
 40
0.0
  9
$LIMCHECK
 70
     0
  9
$CHAMFERA
 40
0.0
  9
$CHAMFERB
 40
0.0
  9
$CHAMFERC
 40
0.0
  9
$CHAMFERD
 40
0.0
  9
$SKPOLY
 70
     0
  9
$TDCREATE
 40
2453136.600744351
  9
$TDUCREATE
 40
2453136.225744351
  9
$TDUPDATE
 40
2454497.462335069
  9
$TDUUPDATE
 40
2454497.087335069
  9
$TDINDWG
 40
6.8762862153
  9
$TDUSRTIMER
 40
6.8762842130
  9
$USRTIMER
 70
     1
  9
$ANGBASE
 50
0.0
  9
$ANGDIR
 70
     0
  9
$PDMODE
 70
    35
  9
$PDSIZE
 40
1.0
  9
$PLINEWID
 40
0.0
  9
$SPLFRAME
 70
     0
  9
$SPLINETYPE
 70
     6
  9
$SPLINESEGS
 70
     8
  9
$HANDSEED
  5
2DBCC
  9
$SURFTAB1
 70
     6
  9
$SURFTAB2
 70
     6
  9
$SURFTYPE
 70
     6
  9
$SURFU
 70
     6
  9
$SURFV
 70
     6
  9
$UCSBASE
  2

  9
$UCSNAME
  2

  9
$UCSORG
 10
0.0
 20
0.0
 30
0.0
  9
$UCSXDIR
 10
1.0
 20
0.0
 30
0.0
  9
$UCSYDIR
 10
0.0
 20
1.0
 30
0.0
  9
$UCSORTHOREF
  2

  9
$UCSORTHOVIEW
 70
     0
  9
$UCSORGTOP
 10
0.0
 20
0.0
 30
0.0
  9
$UCSORGBOTTOM
 10
0.0
 20
0.0
 30
0.0
  9
$UCSORGLEFT
 10
0.0
 20
0.0
 30
0.0
  9
$UCSORGRIGHT
 10
0.0
 20
0.0
 30
0.0
  9
$UCSORGFRONT
 10
0.0
 20
0.0
 30
0.0
  9
$UCSORGBACK
 10
0.0
 20
0.0
 30
0.0
  9
$PUCSBASE
  2

  9
$PUCSNAME
  2

  9
$PUCSORG
 10
0.0
 20
0.0
 30
0.0
  9
$PUCSXDIR
 10
1.0
 20
0.0
 30
0.0
  9
$PUCSYDIR
 10
0.0
 20
1.0
 30
0.0
  9
$PUCSORTHOREF
  2

  9
$PUCSORTHOVIEW
 70
     0
  9
$PUCSORGTOP
 10
0.0
 20
0.0
 30
0.0
  9
$PUCSORGBOTTOM
 10
0.0
 20
0.0
 30
0.0
  9
$PUCSORGLEFT
 10
0.0
 20
0.0
 30
0.0
  9
$PUCSORGRIGHT
 10
0.0
 20
0.0
 30
0.0
  9
$PUCSORGFRONT
 10
0.0
 20
0.0
 30
0.0
  9
$PUCSORGBACK
 10
0.0
 20
0.0
 30
0.0
  9
$USERI1
 70
     0
  9
$USERI2
 70
     0
  9
$USERI3
 70
     0
  9
$USERI4
 70
     0
  9
$USERI5
 70
     0
  9
$USERR1
 40
0.0
  9
$USERR2
 40
3.2
  9
$USERR3
 40
0.0
  9
$USERR4
 40
0.0
  9
$USERR5
 40
0.0
  9
$WORLDVIEW
 70
     1
  9
$SHADEDGE
 70
     3
  9
$SHADEDIF
 70
    70
  9
$TILEMODE
 70
     1
  9
$MAXACTVP
 70
    48
  9
$PINSBASE
 10
0.0
 20
0.0
 30
0.0
  9
$PLIMCHECK
 70
     0
  9
$PEXTMIN
 10
1.000000000000000E+20
 20
1.000000000000000E+20
 30
1.000000000000000E+20
  9
$PEXTMAX
 10
-1.000000000000000E+20
 20
-1.000000000000000E+20
 30
-1.000000000000000E+20
  9
$PLIMMIN
 10
0.0
 20
0.0
  9
$PLIMMAX
 10
12.0
 20
9.0
  9
$UNITMODE
 70
     0
  9
$VISRETAIN
 70
     0
  9
$PLINEGEN
 70
     0
  9
$PSLTSCALE
 70
     0
  9
$TREEDEPTH
 70
  3020
  9
$CMLSTYLE
  2
STANDARD
  9
$CMLJUST
 70
     0
  9
$CMLSCALE
 40
1.0
  9
$PROXYGRAPHICS
 70
     1
  9
$MEASUREMENT
 70
     1
  9
$CELWEIGHT
370
    -1
  9
$ENDCAPS
280
     0
  9
$JOINSTYLE
280
     0
  9
$LWDISPLAY
290
     0
  9
$INSUNITS
 70
     0
  9
$HYPERLINKBASE
  1

  9
$STYLESHEET
  1
MONOCHROME.CTB
  9
$XEDIT
290
     1
  9
$CEPSNTYPE
380
     0
  9
$PSTYLEMODE
290
     1
  9
$FINGERPRINTGUID
  2
{F2A97C53-EF7E-49C1-956A-0F2CE1E6DF2C}
  9
$VERSIONGUID
  2
{0618CAC0-49F3-4183-9168-F942B3803EE8}
  9
$EXTNAMES
290
     1
  9
$PSVPSCALE
 40
0.0
  9
$OLESTARTUP
290
     0
  0
ENDSEC
  0
SECTION
  2
CLASSES
  0
CLASS
  1
ACDBDICTIONARYWDFLT
  2
AcDbDictionaryWithDefault
  3
AutoCAD 2000
 90
        0
280
     0
281
     0
  0
CLASS
  1
ACDBPLACEHOLDER
  2
AcDbPlaceHolder
  3
AutoCAD 2000
 90
        0
280
     0
281
     0
  0
CLASS
  1
LAYOUT
  2
AcDbLayout
  3
AutoCAD 2000
 90
        0
280
     0
281
     0
  0
CLASS
  1
DICTIONARYVAR
  2
AcDbDictionaryVar
  3
AutoCAD 2000
 90
        0
280
     0
281
     0
  0
ENDSEC
  0
SECTION
  2
TABLES
  0
TABLE
  2
VPORT
  5
8
330
0
100
AcDbSymbolTable
 70
     3
  0
VPORT
  5
2DBCB
330
8
100
AcDbSymbolTableRecord
100
AcDbViewportTableRecord
  2
*Active
 70
     0
 10
0.0
 20
0.0
 11
1.0
 21
1.0
 12
1344.5155289592
 22
1910.885309978939
 13
0.0
 23
0.0
 14
1.0
 24
1.0
 15
0.0
 25
0.0
 16
0.0
 26
0.0
 36
1.0
 17
0.0
 27
0.0
 37
0.0
 40
5519.290124775278
 41
1.645205479452054
 42
50.0
 43
0.0
 44
0.0
 50
0.0
 51
0.0
 71
     0
 72
  2000
 73
     1
 74
     3
 75
     0
 76
     0
 77
     0
 78
     0
281
     0
 65
     1
110
0.0
120
0.0
130
0.0
111
1.0
121
0.0
131
0.0
112
0.0
122
1.0
132
0.0
 79
     0
146
0.0
  0
ENDTAB
  0
TABLE
  2
LTYPE
  5
5
330
0
100
AcDbSymbolTable
 70
     4
  0
LTYPE
  5
11
330
5
100
AcDbSymbolTableRecord
100
AcDbLinetypeTableRecord
  2
BYBLOCK
 70
     0
  3

 72
    65
 73
     0
 40
0.0
  0
LTYPE
  5
12
330
5
100
AcDbSymbolTableRecord
100
AcDbLinetypeTableRecord
  2
BYLAYER
 70
     0
  3

 72
    65
 73
     0
 40
0.0
  0
LTYPE
  5
13
330
5
100
AcDbSymbolTableRecord
100
AcDbLinetypeTableRecord
  2
CONTINUOUS
 70
     0
  3
Solid line
 72
    65
 73
     0
 40
0.0
  0
LTYPE
  5
1D
330
5
100
AcDbSymbolTableRecord
100
AcDbLinetypeTableRecord
  2
CENTER
 70
     0
  3
____ _ ____ _ ____ _ ____ _ ____ _ ____ _ ____
 72
    65
 73
     4
 40
12.0
 49
9.0
 74
     0
 49
-1.0
 74
     0
 49
1.0
 74
     0
 49
-1.0
 74
     0
  0
LTYPE
  5
1A042
330
5
100
AcDbSymbolTableRecord
100
AcDbLinetypeTableRecord
  2
HASEN2
 70
     0
  3
A,2,-1 __  __  __  __  __  __  __  __
 72
    65
 73
     2
 40
3.0
 49
2.0
 74
     0
 49
-1.0
 74
     0
  0
LTYPE
  5
2CF81
330
5
100
AcDbSymbolTableRecord
100
AcDbLinetypeTableRecord
  2
ITTEN1
 70
     0
  3
A,15,-2,2,-2 __________  __  __________  __  __
 72
    65
 73
     4
 40
21.0
 49
15.0
 74
     0
 49
-2.0
 74
     0
 49
2.0
 74
     0
 49
-2.0
 74
     0
  0
ENDTAB
  0
TABLE
  2
LAYER
  5
2
102
{ACAD_XDICTIONARY
360
2C31C
102
}
330
0
100
AcDbSymbolTable
 70
    11
  0
LAYER
  5
E
330
2
100
AcDbSymbolTableRecord
100
AcDbLayerTableRecord
  2
0
 70
     0
 62
     3
  6
CONTINUOUS
370
    25
390
33
  0
LAYER
  5
21
330
2
100
AcDbSymbolTableRecord
100
AcDbLayerTableRecord
  2
CEN
 70
     0
 62
     4
  6
CENTER
370
    18
390
33
  0
LAYER
  5
23
330
2
100
AcDbSymbolTableRecord
100
AcDbLayerTableRecord
  2
DIM
 70
     0
 62
     7
  6
CONTINUOUS
370
    18
390
33
  0
LAYER
  5
24
330
2
100
AcDbSymbolTableRecord
100
AcDbLayerTableRecord
  2
WAKU
 70
     0
 62
     3
  6
CONTINUOUS
370
    25
390
33
  0
LAYER
  5
25
330
2
100
AcDbSymbolTableRecord
100
AcDbLayerTableRecord
  2
HOJO
 70
     0
 62
     5
  6
CONTINUOUS
370
    18
390
33
  0
LAYER
  5
27
330
2
100
AcDbSymbolTableRecord
100
AcDbLayerTableRecord
  2
DIMTEXT
 70
     0
 62
     7
  6
CONTINUOUS
370
    18
390
33
  0
LAYER
  5
42A
330
2
100
AcDbSymbolTableRecord
100
AcDbLayerTableRecord
  2
Defpoints
 70
     0
 62
     7
  6
CONTINUOUS
290
     0
370
    -3
390
33
  0
LAYER
  5
1FD1
330
2
100
AcDbSymbolTableRecord
100
AcDbLayerTableRecord
  2
ZUKEI
 70
     0
 62
     2
  6
CONTINUOUS
370
    -3
390
33
  0
LAYER
  5
1A043
330
2
100
AcDbSymbolTableRecord
100
AcDbLayerTableRecord
  2
DASH
 70
     0
 62
     3
  6
HASEN2
370
    -3
390
33
  0
LAYER
  5
2CF82
330
2
100
AcDbSymbolTableRecord
100
AcDbLayerTableRecord
  2
BORDER
 70
     0
 62
     5
  6
CONTINUOUS
370
    -3
390
33
  0
LAYER
  5
2CF83
330
2
100
AcDbSymbolTableRecord
100
AcDbLayerTableRecord
  2
MCEN
 70
     0
 62
     4
  6
ITTEN1
370
    -3
390
33
  0
ENDTAB
  0
TABLE
  2
STYLE
  5
3
330
0
100
AcDbSymbolTable
 70
     1
  0
STYLE
  5
F
330
3
100
AcDbSymbolTableRecord
100
AcDbTextStyleTableRecord
  2
STANDARD
 70
     0
 40
0.0
 41
0.8
 50
0.0
 71
     0
 42
16.0
  3
sse
  4
bigfont
  0
ENDTAB
  0
TABLE
  2
VIEW
  5
6
330
0
100
AcDbSymbolTable
 70
     0
  0
ENDTAB
  0
TABLE
  2
UCS
  5
7
330
0
100
AcDbSymbolTable
 70
     0
  0
ENDTAB
  0
TABLE
  2
APPID
  5
9
330
0
100
AcDbSymbolTable
 70
    12
  0
APPID
  5
10
330
9
100
AcDbSymbolTableRecord
100
AcDbRegAppTableRecord
  2
ACAD
 70
     0
  0
APPID
  5
91
330
9
100
AcDbSymbolTableRecord
100
AcDbRegAppTableRecord
  2
SSE
 70
     0
  0
APPID
  5
92
330
9
100
AcDbSymbolTableRecord
100
AcDbRegAppTableRecord
  2
SSE_DIMTEXT
 70
     0
  0
APPID
  5
6B32
330
9
100
AcDbSymbolTableRecord
100
AcDbRegAppTableRecord
  2
GENIUS_GENODEF_13
 70
     0
  0
APPID
  5
6B33
330
9
100
AcDbSymbolTableRecord
100
AcDbRegAppTableRecord
  2
GENIUS_GENOBJ-N-CEN_13
 70
     0
  0
APPID
  5
6B34
330
9
100
AcDbSymbolTableRecord
100
AcDbRegAppTableRecord
  2
GENIUS_GENOBJ-N-FIL_13
 70
     0
  0
APPID
  5
B60B
330
9
100
AcDbSymbolTableRecord
100
AcDbRegAppTableRecord
  2
SSE_BALOON
 70
     0
  0
APPID
  5
1414F
330
9
100
AcDbSymbolTableRecord
100
AcDbRegAppTableRecord
  2
TYP
 70
     0
  0
APPID
  5
14150
330
9
100
AcDbSymbolTableRecord
100
AcDbRegAppTableRecord
  2
BNO
 70
     0
  0
APPID
  5
14151
330
9
100
AcDbSymbolTableRecord
100
AcDbRegAppTableRecord
  2
BLN
 70
     0
  0
APPID
  5
14152
330
9
100
AcDbSymbolTableRecord
100
AcDbRegAppTableRecord
  2
ETC
 70
     0
  0
APPID
  5
14153
330
9
100
AcDbSymbolTableRecord
100
AcDbRegAppTableRecord
  2
DEF
 70
     0
  0
ENDTAB
  0
TABLE
  2
DIMSTYLE
  5
A
330
0
100
AcDbSymbolTable
 70
     2
100
AcDbDimStyleTable
 71
     1
340
2C
  0
DIMSTYLE
105
2C
102
{ACAD_REACTORS
330
2D10E
330
2D10F
330
2D110
330
2D111
330
2D116
330
2D121
330
2D13A
330
2D13B
330
2D13C
330
2D1AC
330
2D1B3
330
2D4B5
330
2D4B6
330
2D4E1
330
2D51B
330
2D51C
330
2D9F2
102
}
330
A
100
AcDbSymbolTableRecord
100
AcDbDimStyleTableRecord
  2
STANDARD
 70
     0
 40
15.0
340
F
  0
DIMSTYLE
105
2DBA5
330
A
100
AcDbSymbolTableRecord
100
AcDbDimStyleTableRecord
  2
ISO-25
 70
     0
 41
2.5
 42
0.625
 43
3.75
 44
1.25
 73
     0
 74
     0
 77
     1
 78
     8
140
2.5
141
2.5
143
0.03937007874016
147
0.625
171
     3
172
     1
271
     2
272
     2
274
     3
283
     0
284
     8
340
F
341
2DBA2
  0
ENDTAB
  0
TABLE
  2
BLOCK_RECORD
  5
1
330
0
100
AcDbSymbolTable
 70
    24
  0
BLOCK_RECORD
  5
17
330
1
100
AcDbSymbolTableRecord
100
AcDbBlockTableRecord
  2
*MODEL_SPACE
340
36
  0
BLOCK_RECORD
  5
14
330
1
100
AcDbSymbolTableRecord
100
AcDbBlockTableRecord
  2
*PAPER_SPACE
340
37
  0
BLOCK_RECORD
  5
4A
330
1
100
AcDbSymbolTableRecord
100
AcDbBlockTableRecord
  2
_Open30
340
0
102
{BLKREFS
331
2DABD
331
2DABE
331
2DAC6
331
2DAC7
331
2DAD1
331
2DAD2
331
2DADC
331
2DADD
331
2DAE5
331
2DAE6
331
2DAEE
331
2DAEF
331
2DAF9
331
2DAFA
331
2DB02
331
2DB03
331
2DB0B
331
2DB0C
331
2DB16
331
2DB17
331
2DB1F
331
2DB20
331
2DB2B
331
2DB2C
331
2DB32
331
2DB33
331
2DB3D
331
2DB3E
331
2DB46
331
2DB47
331
2DB4D
331
2DB4E
331
2DB56
331
2DB57
102
}
  0
BLOCK_RECORD
  5
2C2
330
1
100
AcDbSymbolTableRecord
100
AcDbBlockTableRecord
  2
dimstat
340
0
102
{BLKREFS
331
1549A
102
}
  0
BLOCK_RECORD
  5
2CD
330
1
100
AcDbSymbolTableRecord
100
AcDbBlockTableRecord
  2
dimstat2
340
0
102
{BLKREFS
331
15497
102
}
  0
BLOCK_RECORD
  5
5132
330
1
100
AcDbSymbolTableRecord
100
AcDbBlockTableRecord
  2
_DotSmall
340
0
  0
BLOCK_RECORD
  5
192FE
330
1
100
AcDbSymbolTableRecord
100
AcDbBlockTableRecord
  2
waku0
340
0
102
{BLKREFS
331
2B9C7
102
}
  0
BLOCK_RECORD
  5
2D294
330
1
100
AcDbSymbolTableRecord
100
AcDbBlockTableRecord
  2
*D5
340
0
  0
BLOCK_RECORD
  5
2D2A2
330
1
100
AcDbSymbolTableRecord
100
AcDbBlockTableRecord
  2
*D6
340
0
  0
BLOCK_RECORD
  5
2D2B0
330
1
100
AcDbSymbolTableRecord
100
AcDbBlockTableRecord
  2
*D7
340
0
  0
BLOCK_RECORD
  5
2D2BC
330
1
100
AcDbSymbolTableRecord
100
AcDbBlockTableRecord
  2
*D8
340
0
  0
BLOCK_RECORD
  5
2D2C8
330
1
100
AcDbSymbolTableRecord
100
AcDbBlockTableRecord
  2
*D9
340
0
  0
BLOCK_RECORD
  5
2D2D4
330
1
100
AcDbSymbolTableRecord
100
AcDbBlockTableRecord
  2
*D10
340
0
  0
BLOCK_RECORD
  5
2D2E2
330
1
100
AcDbSymbolTableRecord
100
AcDbBlockTableRecord
  2
*D11
340
0
  0
BLOCK_RECORD
  5
2D2EE
330
1
100
AcDbSymbolTableRecord
100
AcDbBlockTableRecord
  2
*D12
340
0
  0
BLOCK_RECORD
  5
2D2FA
330
1
100
AcDbSymbolTableRecord
100
AcDbBlockTableRecord
  2
*D13
340
0
  0
BLOCK_RECORD
  5
2D308
330
1
100
AcDbSymbolTableRecord
100
AcDbBlockTableRecord
  2
*D14
340
0
  0
BLOCK_RECORD
  5
2D316
330
1
100
AcDbSymbolTableRecord
100
AcDbBlockTableRecord
  2
*D15
340
0
  0
BLOCK_RECORD
  5
2D591
330
1
100
AcDbSymbolTableRecord
100
AcDbBlockTableRecord
  2
*D16
340
0
  0
BLOCK_RECORD
  5
2D59D
330
1
100
AcDbSymbolTableRecord
100
AcDbBlockTableRecord
  2
*D17
340
0
  0
BLOCK_RECORD
  5
2D5A9
330
1
100
AcDbSymbolTableRecord
100
AcDbBlockTableRecord
  2
*D18
340
0
  0
BLOCK_RECORD
  5
2D5B5
330
1
100
AcDbSymbolTableRecord
100
AcDbBlockTableRecord
  2
*D19
340
0
  0
BLOCK_RECORD
  5
2D5C3
330
1
100
AcDbSymbolTableRecord
100
AcDbBlockTableRecord
  2
*D20
340
0
  0
BLOCK_RECORD
  5
2D9F3
330
1
100
AcDbSymbolTableRecord
100
AcDbBlockTableRecord
  2
*D21
340
0
  0
BLOCK_RECORD
  5
2DBA2
330
1
100
AcDbSymbolTableRecord
100
AcDbBlockTableRecord
  2
_None
340
0
  0
BLOCK_RECORD
  5
2DBA6
330
1
100
AcDbSymbolTableRecord
100
AcDbBlockTableRecord
  2
SSE_BALOON1
340
0
102
{BLKREFS
331
2DBAB
331
2DBB1
331
2DBB7
102
}
  0
ENDTAB
  0
ENDSEC
  0
SECTION
  2
BLOCKS
  0
BLOCK
  5
2A
330
17
100
AcDbEntity
  8
0
100
AcDbBlockBegin
  2
*MODEL_SPACE
 70
     0
 10
0.0
 20
0.0
 30
0.0
  3
*MODEL_SPACE
  1

  0
ENDBLK
  5
2B
330
17
100
AcDbEntity
  8
0
100
AcDbBlockEnd
  0
BLOCK
  5
28
330
14
100
AcDbEntity
 67
     1
  8
0
100
AcDbBlockBegin
  2
*PAPER_SPACE
 70
     0
 10
0.0
 20
0.0
 30
0.0
  3
*PAPER_SPACE
  1

  0
ENDBLK
  5
29
330
14
100
AcDbEntity
 67
     1
  8
0
100
AcDbBlockEnd
  0
BLOCK
  5
4E
330
4A
100
AcDbEntity
  8
0
100
AcDbBlockBegin
  2
_Open30
 70
     0
 10
0.0
 20
0.0
 30
0.0
  3
_Open30
  1

  0
LINE
  5
4B
330
4A
100
AcDbEntity
  8
0
  6
ByBlock
 62
     0
370
    -2
100
AcDbLine
 10
-1.0
 20
0.26794919
 30
0.0
 11
0.0
 21
0.0
 31
0.0
  0
LINE
  5
4C
330
4A
100
AcDbEntity
  8
0
  6
ByBlock
 62
     0
370
    -2
100
AcDbLine
 10
0.0
 20
0.0
 30
0.0
 11
-1.0
 21
-0.26794919
 31
0.0
  0
LINE
  5
4D
330
4A
100
AcDbEntity
  8
0
  6
ByBlock
 62
     0
370
    -2
100
AcDbLine
 10
0.0
 20
0.0
 30
0.0
 11
-1.0
 21
0.0
 31
0.0
  0
ENDBLK
  5
4F
330
4A
100
AcDbEntity
  8
0
100
AcDbBlockEnd
  0
BLOCK
  5
2C6
330
2C2
100
AcDbEntity
  8
0
100
AcDbBlockBegin
  2
dimstat
 70
     2
 10
0.0
 20
0.0
 30
0.0
  3
dimstat
  1

  0
ATTDEF
  5
2C3
330
2C2
100
AcDbEntity
  8
0
100
AcDbText
 10
0.0
 20
1.0
 30
0.0
 40
1.0
  1

 41
0.7
 51
15.0
100
AcDbAttributeDefinition
  3

  2
DIMEXT
 70
     1
  0
ATTDEF
  5
2C4
330
2C2
100
AcDbEntity
  8
0
100
AcDbText
 10
0.0
 20
0.0
 30
0.0
 40
1.0
  1

 41
0.7
 51
15.0
100
AcDbAttributeDefinition
  3

  2
DIMBAL
 70
     1
  0
ATTDEF
  5
2C5
330
2C2
100
AcDbEntity
  8
0
100
AcDbText
 10
1.50719045723035
 20
-0.911649989012119
 30
0.0
 40
1.0
  1

 41
0.7
 51
15.0
 72
     1
 11
1.50719045723035
 21
-0.911649989012119
 31
0.0
100
AcDbAttributeDefinition
  3

  2
SYMSCL
 70
     1
  0
ENDBLK
  5
2C7
330
2C2
100
AcDbEntity
  8
0
100
AcDbBlockEnd
  0
BLOCK
  5
2CF
330
2CD
100
AcDbEntity
  8
0
100
AcDbBlockBegin
  2
dimstat2
 70
     2
 10
0.0
 20
0.0
 30
0.0
  3
dimstat2
  1

  0
ATTDEF
  5
2CE
330
2CD
100
AcDbEntity
  8
0
100
AcDbText
 10
0.0
 20
0.0
 30
0.0
 40
1.0
  1

 41
0.7
100
AcDbAttributeDefinition
  3

  2
DIMSIZ
 70
     1
  0
ENDBLK
  5
2D0
330
2CD
100
AcDbEntity
  8
0
100
AcDbBlockEnd
  0
BLOCK
  5
5134
330
5132
100
AcDbEntity
  8
0
100
AcDbBlockBegin
  2
_DotSmall
 70
     0
 10
0.0
 20
0.0
 30
0.0
  3
_DotSmall
  1

  0
LWPOLYLINE
  5
5133
330
5132
100
AcDbEntity
  8
0
  6
ByBlock
 62
     0
100
AcDbPolyline
 90
        2
 70
     1
 43
0.5
 10
-0.0625
 20
0.0
 42
1.0
 10
0.0625
 20
0.0
 42
1.0
  0
ENDBLK
  5
5135
330
5132
100
AcDbEntity
  8
0
100
AcDbBlockEnd
  0
BLOCK
  5
19303
330
192FE
100
AcDbEntity
  8
0
100
AcDbBlockBegin
  2
waku0
 70
     0
 10
0.0
 20
0.0
 30
0.0
  3
waku0
  1

  0
LINE
  5
192FF
330
192FE
100
AcDbEntity
  8
0
100
AcDbLine
 10
0.0
 20
1.0
 30
0.0
 11
0.0
 21
0.0
 31
0.0
  0
LINE
  5
19300
330
192FE
100
AcDbEntity
  8
0
100
AcDbLine
 10
1.0
 20
1.0
 30
0.0
 11
0.0
 21
1.0
 31
0.0
  0
LINE
  5
19301
330
192FE
100
AcDbEntity
  8
0
100
AcDbLine
 10
1.0
 20
0.0
 30
0.0
 11
1.0
 21
1.0
 31
0.0
  0
LINE
  5
19302
330
192FE
100
AcDbEntity
  8
0
100
AcDbLine
 10
0.0
 20
0.0
 30
0.0
 11
1.0
 21
0.0
 31
0.0
  0
ENDBLK
  5
19304
330
192FE
100
AcDbEntity
  8
0
100
AcDbBlockEnd
  0
BLOCK
  5
2D2A0
330
2D294
100
AcDbEntity
  8
0
100
AcDbBlockBegin
  2
*D5
 70
     1
 10
0.0
 20
0.0
 30
0.0
  3
*D5
  1

  0
LINE
  5
2DB08
330
2D294
100
AcDbEntity
  8
DIM
 62
     0
370
    -2
100
AcDbLine
 10
985.1455509891684
 20
2626.373639567108
 30
0.0
 11
985.1455509891684
 21
2578.613266635366
 31
0.0
  0
LINE
  5
2DB09
330
2D294
100
AcDbEntity
  8
DIM
 62
     0
370
    -2
100
AcDbLine
 10
1293.87638732971
 20
2757.042556213648
 30
0.0
 11
1336.339229133407
 21
2706.437311942335
 31
0.0
  0
ARC
  5
2DB0A
330
2D294
100
AcDbEntity
  8
DIM
 62
     0
370
    -2
100
AcDbCircle
 10
985.1455509891676
 20
3124.973639567104
 30
0.0
 40
516.3603729317393
100
AcDbArc
 50
274.9948191666799
 51
305.0051808333201
  0
INSERT
  5
2DB0B
330
2D294
100
AcDbEntity
  8
DIM
 62
     0
370
    -2
100
AcDbBlockReference
  2
_Open30
 10
985.1455509891684
 20
2608.613266635366
 30
0.0
 41
45.0
 42
45.0
 43
45.0
 50
182.4974095833399
  0
INSERT
  5
2DB0C
330
2D294
100
AcDbEntity
  8
DIM
 62
     0
370
    -2
100
AcDbBlockReference
  2
_Open30
 10
1317.05560084281
 20
2729.418645235904
 30
0.0
 41
45.0
 42
45.0
 43
45.0
 50
37.50259041666014
  0
MTEXT
  5
2DB0D
330
2D294
100
AcDbEntity
  8
DIM
 62
     0
370
    18
100
AcDbMText
 10
1148.412414157276
 20
2676.401619667541
 30
0.0
 40
48.0
 41
0.0
 71
     5
 72
     1
  1
\A1;40°
 11
0.9396926207859076
 21
0.3420201433256709
 31
0.0
 73
     1
 44
1.0
  0
POINT
  5
2DB0E
330
2D294
100
AcDbEntity
  8
Defpoints
 62
     0
100
AcDbPoint
 10
1104.226448009711
 20
2622.531827315192
 30
0.0
  0
POINT
  5
2DB0F
330
2D294
100
AcDbEntity
  8
Defpoints
 62
     0
100
AcDbPoint
 10
985.1455509891668
 20
3554.9736395671
 30
0.0
  0
POINT
  5
2DB10
330
2D294
100
AcDbEntity
  8
Defpoints
 62
     0
100
AcDbPoint
 10
1097.398476851404
 20
2991.195811891574
 30
0.0
  0
POINT
  5
2DB11
330
2D294
100
AcDbEntity
  8
Defpoints
 62
     0
100
AcDbPoint
 10
1274.592759039115
 20
2780.023889507218
 30
0.0
  0
POINT
  5
2DB12
330
2D294
100
AcDbEntity
  8
Defpoints
 62
     0
100
AcDbPoint
 10
985.1455509891687
 20
2656.373639567107
 30
0.0
  0
ENDBLK
  5
2D2A1
330
2D294
100
AcDbEntity
  8
0
100
AcDbBlockEnd
  0
BLOCK
  5
2D2AE
330
2D2A2
100
AcDbEntity
  8
0
100
AcDbBlockBegin
  2
*D6
 70
     1
 10
0.0
 20
0.0
 30
0.0
  3
*D6
  1

  0
LINE
  5
2DB1C
330
2D2A2
100
AcDbEntity
  8
DIM
 62
     0
370
    -2
100
AcDbLine
 10
688.3503893508787
 20
2769.734425666984
 30
0.0
 11
634.7906261349882
 21
2705.469422186093
 31
0.0
  0
LINE
  5
2DB1D
330
2D2A2
100
AcDbEntity
  8
DIM
 62
     0
370
    -2
100
AcDbLine
 10
985.1455509891684
 20
2626.373639567107
 30
0.0
 11
985.1455509891687
 21
2578.613266635366
 31
0.0
  0
ARC
  5
2DB1E
330
2D2A2
100
AcDbEntity
  8
DIM
 62
     0
370
    -2
100
AcDbCircle
 10
985.1455509891676
 20
3125.851423774572
 30
0.0
 40
517.2381571392054
100
AcDbArc
 50
235.177823159803
 51
265.0136626999489
  0
INSERT
  5
2DB1F
330
2D2A2
100
AcDbEntity
  8
DIM
 62
     0
370
    -2
100
AcDbBlockReference
  2
_Open30
 10
653.9973419103862
 20
2728.51507403461
 30
0.0
 41
45.0
 42
45.0
 43
45.0
 50
142.6846545097774
  0
INSERT
  5
2DB20
330
2D2A2
100
AcDbEntity
  8
DIM
 62
     0
370
    -2
100
AcDbBlockReference
  2
_Open30
 10
985.1455509891684
 20
2608.613266635367
 30
0.0
 41
45.0
 42
45.0
 43
45.0
 50
357.5068313499745
  0
MTEXT
  5
2DB21
330
2D2A2
100
AcDbEntity
  8
DIM
 62
     0
370
    18
100
AcDbMText
 10
822.3296513187369
 20
2676.181858695489
 30
0.0
 40
48.0
 41
0.0
 71
     5
 72
     1
  1
\A1;40°
 11
0.9402628342518333
 21
-0.3404494125780062
 31
0.0
 73
     1
 44
1.0
  0
POINT
  5
2DB22
330
2D2A2
100
AcDbEntity
  8
Defpoints
 62
     0
100
AcDbPoint
 10
754.0399116853286
 20
2663.114463198993
 30
0.0
  0
POINT
  5
2DB23
330
2D2A2
100
AcDbEntity
  8
Defpoints
 62
     0
100
AcDbPoint
 10
707.5571051262767
 20
2792.780077515501
 30
0.0
  0
POINT
  5
2DB24
330
2D2A2
100
AcDbEntity
  8
Defpoints
 62
     0
100
AcDbPoint
 10
985.1455509891664
 20
3554.9736395671
 30
0.0
  0
POINT
  5
2DB25
330
2D2A2
100
AcDbEntity
  8
Defpoints
 62
     0
100
AcDbPoint
 10
985.1455509891684
 20
2656.373639567107
 30
0.0
  0
POINT
  5
2DB26
330
2D2A2
100
AcDbEntity
  8
Defpoints
 62
     0
100
AcDbPoint
 10
877.0584555335416
 20
2996.16045524478
 30
0.0
  0
ENDBLK
  5
2D2AF
330
2D2A2
100
AcDbEntity
  8
0
100
AcDbBlockEnd
  0
BLOCK
  5
2D2BA
330
2D2B0
100
AcDbEntity
  8
0
100
AcDbBlockBegin
  2
*D7
 70
     1
 10
0.0
 20
0.0
 30
0.0
  3
*D7
  1

  0
LINE
  5
2DB13
330
2D2B0
100
AcDbEntity
  8
DIM
 62
     0
370
    -2
100
AcDbLine
 10
962.1248518020124
 20
3144.210255925872
 30
0.0
 11
902.2512843189167
 21
3194.241961667712
 31
0.0
  0
LINE
  5
2DB14
330
2D2B0
100
AcDbEntity
  8
DIM
 62
     0
370
    -2
100
AcDbLine
 10
738.0725810173942
 20
2876.084103605919
 30
0.0
 11
678.1990135342985
 21
2926.115809347761
 31
0.0
  0
LINE
  5
2DB15
330
2D2B0
100
AcDbEntity
  8
DIM
 62
     0
370
    -2
100
AcDbLine
 10
896.4170589679183
 20
3140.474296528209
 30
0.0
 11
730.0746372596086
 21
2941.410241769724
 31
0.0
  0
INSERT
  5
2DB16
330
2D2B0
100
AcDbEntity
  8
DIM
 62
     0
370
    -2
100
AcDbBlockReference
  2
_Open30
 10
925.2719835060728
 20
3175.005345308942
 30
0.0
 41
45.0
 42
45.0
 43
45.0
 50
50.11710718841992
  0
INSERT
  5
2DB17
330
2D2B0
100
AcDbEntity
  8
DIM
 62
     0
370
    -2
100
AcDbBlockReference
  2
_Open30
 10
701.2197127214545
 20
2906.879192988991
 30
0.0
 41
45.0
 42
45.0
 43
45.0
 50
230.1171071884199
  0
MTEXT
  5
2DB18
330
2D2B0
100
AcDbEntity
  8
DIM
 62
     0
370
    18
100
AcDbMText
 10
783.3189391704608
 20
3065.949870415366
 30
0.0
 40
48.0
 41
0.0
 71
     5
 72
     1
  1
\A1;348
 11
0.641220545292316
 21
0.767356639571865
 31
0.0
 73
     1
 44
1.0
  0
POINT
  5
2DB19
330
2D2B0
100
AcDbEntity
  8
Defpoints
 62
     0
100
AcDbPoint
 10
985.1455509891684
 20
3124.973639567102
 30
0.0
  0
POINT
  5
2DB1A
330
2D2B0
100
AcDbEntity
  8
Defpoints
 62
     0
100
AcDbPoint
 10
761.0932802045502
 20
2856.847487247151
 30
0.0
  0
POINT
  5
2DB1B
330
2D2B0
100
AcDbEntity
  8
Defpoints
 62
     0
100
AcDbPoint
 10
701.2197127214545
 20
2906.879192988991
 30
0.0
  0
ENDBLK
  5
2D2BB
330
2D2B0
100
AcDbEntity
  8
0
100
AcDbBlockEnd
  0
BLOCK
  5
2D2C6
330
2D2BC
100
AcDbEntity
  8
0
100
AcDbBlockBegin
  2
*D8
 70
     1
 10
0.0
 20
0.0
 30
0.0
  3
*D8
  1

  0
LINE
  5
2DABA
330
2D2BC
100
AcDbEntity
  8
DIM
 62
     0
370
    -2
100
AcDbLine
 10
1027.655279744291
 20
3465.373639567101
 30
0.0
 11
1613.46565748925
 21
3465.373639567101
 31
0.0
  0
LINE
  5
2DABB
330
2D2BC
100
AcDbEntity
  8
DIM
 62
     0
370
    -2
100
AcDbLine
 10
1015.145550989168
 20
2749.973639567102
 30
0.0
 11
1613.465657489249
 21
2749.973639567099
 31
0.0
  0
LINE
  5
2DABC
330
2D2BC
100
AcDbEntity
  8
DIM
 62
     0
370
    -2
100
AcDbLine
 10
1583.46565748925
 20
3420.373639567101
 30
0.0
 11
1583.465657489249
 21
2794.973639567099
 31
0.0
  0
INSERT
  5
2DABD
330
2D2BC
100
AcDbEntity
  8
DIM
 62
     0
370
    -2
100
AcDbBlockReference
  2
_Open30
 10
1583.46565748925
 20
3465.373639567101
 30
0.0
 41
45.0
 42
45.0
 43
45.0
 50
90.0
  0
INSERT
  5
2DABE
330
2D2BC
100
AcDbEntity
  8
DIM
 62
     0
370
    -2
100
AcDbBlockReference
  2
_Open30
 10
1583.465657489249
 20
2749.973639567099
 30
0.0
 41
45.0
 42
45.0
 43
45.0
 50
270.0
  0
MTEXT
  5
2DABF
330
2D2BC
100
AcDbEntity
  8
DIM
 62
     0
370
    18
100
AcDbMText
 10
1544.465657489249
 20
3107.673639567102
 30
0.0
 40
48.0
 41
0.0
 71
     5
 72
     1
  1
\A1;（715）
 11
0.0000000000000001
 21
1.0
 31
0.0
 73
     1
 44
1.0
  0
POINT
  5
2DAC0
330
2D2BC
100
AcDbEntity
  8
Defpoints
 62
     0
100
AcDbPoint
 10
997.6552797442916
 20
3465.373639567101
 30
0.0
  0
POINT
  5
2DAC1
330
2D2BC
100
AcDbEntity
  8
Defpoints
 62
     0
100
AcDbPoint
 10
985.1455509891682
 20
2749.973639567102
 30
0.0
  0
POINT
  5
2DAC2
330
2D2BC
100
AcDbEntity
  8
Defpoints
 62
     0
100
AcDbPoint
 10
1583.465657489249
 20
2749.973639567099
 30
0.0
  0
ENDBLK
  5
2D2C7
330
2D2BC
100
AcDbEntity
  8
0
100
AcDbBlockEnd
  0
BLOCK
  5
2D2D2
330
2D2C8
100
AcDbEntity
  8
0
100
AcDbBlockBegin
  2
*D9
 70
     1
 10
0.0
 20
0.0
 30
0.0
  3
*D9
  1

  0
LINE
  5
2DAFF
330
2D2C8
100
AcDbEntity
  8
DIM
 62
     0
370
    -2
100
AcDbLine
 10
1406.245550989166
 20
3124.973639567102
 30
0.0
 11
1502.245550989165
 21
3124.973639567102
 31
0.0
  0
LINE
  5
2DB00
330
2D2C8
100
AcDbEntity
  8
DIM
 62
     0
370
    -2
100
AcDbLine
 10
1015.145550989162
 20
2749.973639567102
 30
0.0
 11
1502.245550989165
 21
2749.973639567102
 31
0.0
  0
LINE
  5
2DB01
330
2D2C8
100
AcDbEntity
  8
DIM
 62
     0
370
    -2
100
AcDbLine
 10
1472.245550989164
 20
3079.973639567102
 30
0.0
 11
1472.245550989164
 21
2794.973639567102
 31
0.0
  0
INSERT
  5
2DB02
330
2D2C8
100
AcDbEntity
  8
DIM
 62
     0
370
    -2
100
AcDbBlockReference
  2
_Open30
 10
1472.245550989164
 20
3124.973639567102
 30
0.0
 41
45.0
 42
45.0
 43
45.0
 50
90.0
  0
INSERT
  5
2DB03
330
2D2C8
100
AcDbEntity
  8
DIM
 62
     0
370
    -2
100
AcDbBlockReference
  2
_Open30
 10
1472.245550989164
 20
2749.973639567102
 30
0.0
 41
45.0
 42
45.0
 43
45.0
 50
270.0
  0
MTEXT
  5
2DB04
330
2D2C8
100
AcDbEntity
  8
DIM
 62
     0
370
    18
100
AcDbMText
 10
1433.245550989165
 20
2937.473639567102
 30
0.0
 40
48.0
 41
0.0
 71
     5
 72
     1
  1
\A1;375
 11
0.0000000000000001
 21
1.0
 31
0.0
 73
     1
 44
1.0
  0
POINT
  5
2DB05
330
2D2C8
100
AcDbEntity
  8
Defpoints
 62
     0
100
AcDbPoint
 10
1376.245550989166
 20
3124.973639567102
 30
0.0
  0
POINT
  5
2DB06
330
2D2C8
100
AcDbEntity
  8
Defpoints
 62
     0
100
AcDbPoint
 10
985.1455509891627
 20
2749.973639567102
 30
0.0
  0
POINT
  5
2DB07
330
2D2C8
100
AcDbEntity
  8
Defpoints
 62
     0
100
AcDbPoint
 10
1472.245550989164
 20
2749.973639567102
 30
0.0
  0
ENDBLK
  5
2D2D3
330
2D2C8
100
AcDbEntity
  8
0
100
AcDbBlockEnd
  0
BLOCK
  5
2D2E0
330
2D2D4
100
AcDbEntity
  8
0
100
AcDbBlockBegin
  2
*D10
 70
     1
 10
0.0
 20
0.0
 30
0.0
  3
*D10
  1

  0
LINE
  5
2DAD7
330
2D2D4
100
AcDbEntity
  8
DIM
 62
     0
370
    -2
100
AcDbLine
 10
583.2866596643316
 20
465.1662933402938
 30
0.0
 11
535.2866596643316
 21
465.1662933402938
 31
0.0
  0
LINE
  5
2DAD8
330
2D2D4
100
AcDbEntity
  8
DIM
 62
     0
370
    -2
100
AcDbLine
 10
729.0600672615884
 20
558.4662933402941
 30
0.0
 11
535.2866596643316
 21
558.4662933402941
 31
0.0
  0
LINE
  5
2DAD9
330
2D2D4
100
AcDbEntity
  8
DIM
 62
     0
370
    -2
100
AcDbLine
 10
565.2866596643317
 20
420.1662933402937
 30
0.0
 11
565.2866596643317
 21
375.1662933402938
 31
0.0
  0
LINE
  5
2DADA
330
2D2D4
100
AcDbEntity
  8
DIM
 62
     0
370
    -2
100
AcDbLine
 10
565.2866596643317
 20
603.4662933402941
 30
0.0
 11
565.2866596643317
 21
648.4662933402939
 31
0.0
  0
LINE
  5
2DADB
330
2D2D4
100
AcDbEntity
  8
DIM
 62
     0
370
    -2
100
AcDbLine
 10
565.2866596643317
 20
465.1662933402938
 30
0.0
 11
565.2866596643317
 21
558.4662933402941
 31
0.0
  0
INSERT
  5
2DADC
330
2D2D4
100
AcDbEntity
  8
DIM
 62
     0
370
    -2
100
AcDbBlockReference
  2
_Open30
 10
565.2866596643317
 20
465.1662933402938
 30
0.0
 41
45.0
 42
45.0
 43
45.0
 50
90.0
  0
INSERT
  5
2DADD
330
2D2D4
100
AcDbEntity
  8
DIM
 62
     0
370
    -2
100
AcDbBlockReference
  2
_Open30
 10
565.2866596643317
 20
558.4662933402941
 30
0.0
 41
45.0
 42
45.0
 43
45.0
 50
270.0
  0
MTEXT
  5
2DADE
330
2D2D4
100
AcDbEntity
  8
DIM
 62
     0
370
    18
100
AcDbMText
 10
526.2866596643316
 20
511.816293340294
 30
0.0
 40
48.0
 41
0.0
 71
     5
 72
     1
  1
\A1;90
 11
0.0000000000000001
 21
1.0
 31
0.0
 73
     1
 44
1.0
  0
POINT
  5
2DADF
330
2D2D4
100
AcDbEntity
  8
Defpoints
 62
     0
100
AcDbPoint
 10
613.2866596643316
 20
465.1662933402938
 30
0.0
  0
POINT
  5
2DAE0
330
2D2D4
100
AcDbEntity
  8
Defpoints
 62
     0
100
AcDbPoint
 10
759.0600672615884
 20
558.4662933402941
 30
0.0
  0
POINT
  5
2DAE1
330
2D2D4
100
AcDbEntity
  8
Defpoints
 62
     0
100
AcDbPoint
 10
565.2866596643317
 20
558.4662933402941
 30
0.0
  0
ENDBLK
  5
2D2E1
330
2D2D4
100
AcDbEntity
  8
0
100
AcDbBlockEnd
  0
BLOCK
  5
2D2EC
330
2D2E2
100
AcDbEntity
  8
0
100
AcDbBlockBegin
  2
*D11
 70
     1
 10
0.0
 20
0.0
 30
0.0
  3
*D11
  1

  0
LINE
  5
2DAEB
330
2D2E2
100
AcDbEntity
  8
DIM
 62
     0
370
    -2
100
AcDbLine
 10
1028.745550989164
 20
2210.366293340296
 30
0.0
 11
1568.803824066762
 21
2210.366293340295
 31
0.0
  0
LINE
  5
2DAEC
330
2D2E2
100
AcDbEntity
  8
DIM
 62
     0
370
    -2
100
AcDbLine
 10
1015.145550989166
 20
465.1662933402943
 30
0.0
 11
1568.803824066762
 21
465.1662933402942
 31
0.0
  0
LINE
  5
2DAED
330
2D2E2
100
AcDbEntity
  8
DIM
 62
     0
370
    -2
100
AcDbLine
 10
1538.803824066762
 20
2165.366293340295
 30
0.0
 11
1538.803824066762
 21
510.1662933402939
 31
0.0
  0
INSERT
  5
2DAEE
330
2D2E2
100
AcDbEntity
  8
DIM
 62
     0
370
    -2
100
AcDbBlockReference
  2
_Open30
 10
1538.803824066762
 20
2210.366293340295
 30
0.0
 41
45.0
 42
45.0
 43
45.0
 50
90.0
  0
INSERT
  5
2DAEF
330
2D2E2
100
AcDbEntity
  8
DIM
 62
     0
370
    -2
100
AcDbBlockReference
  2
_Open30
 10
1538.803824066762
 20
465.1662933402942
 30
0.0
 41
45.0
 42
45.0
 43
45.0
 50
270.0
  0
MTEXT
  5
2DAF0
330
2D2E2
100
AcDbEntity
  8
DIM
 62
     0
370
    18
100
AcDbMText
 10
1499.803824066763
 20
1337.766293340294
 30
0.0
 40
48.0
 41
0.0
 71
     5
 72
     1
  1
\A1;1745
 11
0.0000000000000001
 21
1.0
 31
0.0
 73
     1
 44
1.0
  0
POINT
  5
2DAF1
330
2D2E2
100
AcDbEntity
  8
Defpoints
 62
     0
100
AcDbPoint
 10
998.7455509891679
 20
2210.366293340296
 30
0.0
  0
POINT
  5
2DAF2
330
2D2E2
100
AcDbEntity
  8
Defpoints
 62
     0
100
AcDbPoint
 10
985.1455509891664
 20
465.1662933402943
 30
0.0
  0
POINT
  5
2DAF3
330
2D2E2
100
AcDbEntity
  8
Defpoints
 62
     0
100
AcDbPoint
 10
1538.803824066762
 20
465.1662933402942
 30
0.0
  0
ENDBLK
  5
2D2ED
330
2D2E2
100
AcDbEntity
  8
0
100
AcDbBlockEnd
  0
BLOCK
  5
2D2F8
330
2D2EE
100
AcDbEntity
  8
0
100
AcDbBlockBegin
  2
*D12
 70
     1
 10
0.0
 20
0.0
 30
0.0
  3
*D12
  1

  0
LINE
  5
2DAE2
330
2D2EE
100
AcDbEntity
  8
DIM
 62
     0
370
    -2
100
AcDbLine
 10
1312.645550989166
 20
2150.366293340296
 30
0.0
 11
1451.356479507894
 21
2150.366293340296
 31
0.0
  0
LINE
  5
2DAE3
330
2D2EE
100
AcDbEntity
  8
DIM
 62
     0
370
    -2
100
AcDbLine
 10
1310.245572568237
 20
505.1662933402954
 30
0.0
 11
1451.356479507893
 21
505.166293340295
 31
0.0
  0
LINE
  5
2DAE4
330
2D2EE
100
AcDbEntity
  8
DIM
 62
     0
370
    -2
100
AcDbLine
 10
1421.356479507894
 20
2105.366293340296
 30
0.0
 11
1421.356479507893
 21
550.166293340295
 31
0.0
  0
INSERT
  5
2DAE5
330
2D2EE
100
AcDbEntity
  8
DIM
 62
     0
370
    -2
100
AcDbBlockReference
  2
_Open30
 10
1421.356479507894
 20
2150.366293340296
 30
0.0
 41
45.0
 42
45.0
 43
45.0
 50
90.0
  0
INSERT
  5
2DAE6
330
2D2EE
100
AcDbEntity
  8
DIM
 62
     0
370
    -2
100
AcDbBlockReference
  2
_Open30
 10
1421.356479507893
 20
505.1662933402954
 30
0.0
 41
45.0
 42
45.0
 43
45.0
 50
270.0
  0
MTEXT
  5
2DAE7
330
2D2EE
100
AcDbEntity
  8
DIM
 62
     0
370
    18
100
AcDbMText
 10
1382.356479507893
 20
1327.766293340296
 30
0.0
 40
48.0
 41
0.0
 71
     5
 72
     1
  1
\A1;1645
 11
0.0000000000000001
 21
1.0
 31
0.0
 73
     1
 44
1.0
  0
POINT
  5
2DAE8
330
2D2EE
100
AcDbEntity
  8
Defpoints
 62
     0
100
AcDbPoint
 10
1282.645550989166
 20
2150.366293340296
 30
0.0
  0
POINT
  5
2DAE9
330
2D2EE
100
AcDbEntity
  8
Defpoints
 62
     0
100
AcDbPoint
 10
1280.245572568237
 20
505.1662933402954
 30
0.0
  0
POINT
  5
2DAEA
330
2D2EE
100
AcDbEntity
  8
Defpoints
 62
     0
100
AcDbPoint
 10
1421.356479507893
 20
505.1662933402954
 30
0.0
  0
ENDBLK
  5
2D2F9
330
2D2EE
100
AcDbEntity
  8
0
100
AcDbBlockEnd
  0
BLOCK
  5
2D306
330
2D2FA
100
AcDbEntity
  8
0
100
AcDbBlockBegin
  2
*D13
 70
     1
 10
0.0
 20
0.0
 30
0.0
  3
*D13
  1

  0
LINE
  5
2DAF4
330
2D2FA
100
AcDbEntity
  8
DIM
 62
     0
370
    -2
100
AcDbLine
 10
1349.445572568352
 20
505.166293340295
 30
0.0
 11
1451.356479507893
 21
505.166293340295
 31
0.0
  0
LINE
  5
2DAF5
330
2D2FA
100
AcDbEntity
  8
DIM
 62
     0
370
    -2
100
AcDbLine
 10
1346.994795088375
 20
465.1662933402932
 30
0.0
 11
1451.356479507893
 21
465.1662933402932
 31
0.0
  0
LINE
  5
2DAF6
330
2D2FA
100
AcDbEntity
  8
DIM
 62
     0
370
    -2
100
AcDbLine
 10
1421.356479507893
 20
550.166293340295
 30
0.0
 11
1421.356479507893
 21
595.1662933402952
 31
0.0
  0
LINE
  5
2DAF7
330
2D2FA
100
AcDbEntity
  8
DIM
 62
     0
370
    -2
100
AcDbLine
 10
1421.356479507893
 20
420.1662933402933
 30
0.0
 11
1421.356479507893
 21
282.9948647688646
 31
0.0
  0
LINE
  5
2DAF8
330
2D2FA
100
AcDbEntity
  8
DIM
 62
     0
370
    -2
100
AcDbLine
 10
1421.356479507893
 20
505.166293340295
 30
0.0
 11
1421.356479507893
 21
465.1662933402932
 31
0.0
  0
INSERT
  5
2DAF9
330
2D2FA
100
AcDbEntity
  8
DIM
 62
     0
370
    -2
100
AcDbBlockReference
  2
_Open30
 10
1421.356479507893
 20
505.166293340295
 30
0.0
 41
45.0
 42
45.0
 43
45.0
 50
270.0
  0
INSERT
  5
2DAFA
330
2D2FA
100
AcDbEntity
  8
DIM
 62
     0
370
    -2
100
AcDbBlockReference
  2
_Open30
 10
1421.356479507893
 20
465.1662933402932
 30
0.0
 41
45.0
 42
45.0
 43
45.0
 50
90.0
  0
MTEXT
  5
2DAFB
330
2D2FA
100
AcDbEntity
  8
DIM
 62
     0
370
    18
100
AcDbMText
 10
1382.356479507893
 20
329.0805790545793
 30
0.0
 40
48.0
 41
0.0
 71
     5
 72
     1
  1
\A1;40
 11
0.0000000000000001
 21
1.0
 31
0.0
 73
     1
 44
1.0
  0
POINT
  5
2DAFC
330
2D2FA
100
AcDbEntity
  8
Defpoints
 62
     0
100
AcDbPoint
 10
1319.445572568352
 20
505.166293340295
 30
0.0
  0
POINT
  5
2DAFD
330
2D2FA
100
AcDbEntity
  8
Defpoints
 62
     0
100
AcDbPoint
 10
1316.994795088375
 20
465.1662933402932
 30
0.0
  0
POINT
  5
2DAFE
330
2D2FA
100
AcDbEntity
  8
Defpoints
 62
     0
100
AcDbPoint
 10
1421.356479507893
 20
465.1662933402932
 30
0.0
  0
ENDBLK
  5
2D307
330
2D2FA
100
AcDbEntity
  8
0
100
AcDbBlockEnd
  0
BLOCK
  5
2D314
330
2D308
100
AcDbEntity
  8
0
100
AcDbBlockBegin
  2
*D14
 70
     1
 10
0.0
 20
0.0
 30
0.0
  3
*D14
  1

  0
LINE
  5
2DACC
330
2D308
100
AcDbEntity
  8
DIM
 62
     0
370
    -2
100
AcDbLine
 10
1351.845550989168
 20
2150.366293340296
 30
0.0
 11
1451.356479507894
 21
2150.366293340296
 31
0.0
  0
LINE
  5
2DACD
330
2D308
100
AcDbEntity
  8
DIM
 62
     0
370
    -2
100
AcDbLine
 10
1028.745550989164
 20
2210.366293340296
 30
0.0
 11
1451.356479507894
 21
2210.366293340295
 31
0.0
  0
LINE
  5
2DACE
330
2D308
100
AcDbEntity
  8
DIM
 62
     0
370
    -2
100
AcDbLine
 10
1421.356479507894
 20
2105.366293340296
 30
0.0
 11
1421.356479507894
 21
2060.366293340296
 31
0.0
  0
LINE
  5
2DACF
330
2D308
100
AcDbEntity
  8
DIM
 62
     0
370
    -2
100
AcDbLine
 10
1421.356479507894
 20
2255.366293340296
 30
0.0
 11
1421.356479507894
 21
2392.537721911724
 31
0.0
  0
LINE
  5
2DAD0
330
2D308
100
AcDbEntity
  8
DIM
 62
     0
370
    -2
100
AcDbLine
 10
1421.356479507894
 20
2150.366293340296
 30
0.0
 11
1421.356479507894
 21
2210.366293340295
 31
0.0
  0
INSERT
  5
2DAD1
330
2D308
100
AcDbEntity
  8
DIM
 62
     0
370
    -2
100
AcDbBlockReference
  2
_Open30
 10
1421.356479507894
 20
2150.366293340296
 30
0.0
 41
45.0
 42
45.0
 43
45.0
 50
90.0
  0
INSERT
  5
2DAD2
330
2D308
100
AcDbEntity
  8
DIM
 62
     0
370
    -2
100
AcDbBlockReference
  2
_Open30
 10
1421.356479507894
 20
2210.366293340295
 30
0.0
 41
45.0
 42
45.0
 43
45.0
 50
270.0
  0
MTEXT
  5
2DAD3
330
2D308
100
AcDbEntity
  8
DIM
 62
     0
370
    18
100
AcDbMText
 10
1382.356479507893
 20
2346.45200762601
 30
0.0
 40
48.0
 41
0.0
 71
     5
 72
     1
  1
\A1;60
 11
0.0000000000000001
 21
1.0
 31
0.0
 73
     1
 44
1.0
  0
POINT
  5
2DAD4
330
2D308
100
AcDbEntity
  8
Defpoints
 62
     0
100
AcDbPoint
 10
1321.845550989168
 20
2150.366293340296
 30
0.0
  0
POINT
  5
2DAD5
330
2D308
100
AcDbEntity
  8
Defpoints
 62
     0
100
AcDbPoint
 10
998.7455509891679
 20
2210.366293340296
 30
0.0
  0
POINT
  5
2DAD6
330
2D308
100
AcDbEntity
  8
Defpoints
 62
     0
100
AcDbPoint
 10
1421.356479507894
 20
2210.366293340295
 30
0.0
  0
ENDBLK
  5
2D315
330
2D308
100
AcDbEntity
  8
0
100
AcDbBlockEnd
  0
BLOCK
  5
2D320
330
2D316
100
AcDbEntity
  8
0
100
AcDbBlockBegin
  2
*D15
 70
     1
 10
0.0
 20
0.0
 30
0.0
  3
*D15
  1

  0
LINE
  5
2DAC3
330
2D316
100
AcDbEntity
  8
DIM
 62
     0
370
    -2
100
AcDbLine
 10
682.6455509891684
 20
2175.366293340295
 30
0.0
 11
682.6455509891684
 21
2337.366293340296
 31
0.0
  0
LINE
  5
2DAC4
330
2D316
100
AcDbEntity
  8
DIM
 62
     0
370
    -2
100
AcDbLine
 10
1287.645550989165
 20
2175.366293340296
 30
0.0
 11
1287.645550989165
 21
2337.366293340296
 31
0.0
  0
LINE
  5
2DAC5
330
2D316
100
AcDbEntity
  8
DIM
 62
     0
370
    -2
100
AcDbLine
 10
727.6455509891684
 20
2307.366293340296
 30
0.0
 11
1242.645550989166
 21
2307.366293340296
 31
0.0
  0
INSERT
  5
2DAC6
330
2D316
100
AcDbEntity
  8
DIM
 62
     0
370
    -2
100
AcDbBlockReference
  2
_Open30
 10
682.6455509891684
 20
2307.366293340296
 30
0.0
 41
45.0
 42
45.0
 43
45.0
 50
180.0
  0
INSERT
  5
2DAC7
330
2D316
100
AcDbEntity
  8
DIM
 62
     0
370
    -2
100
AcDbBlockReference
  2
_Open30
 10
1287.645550989165
 20
2307.366293340296
 30
0.0
 41
45.0
 42
45.0
 43
45.0
  0
MTEXT
  5
2DAC8
330
2D316
100
AcDbEntity
  8
DIM
 62
     0
370
    18
100
AcDbMText
 10
985.1455509891676
 20
2346.366293340296
 30
0.0
 40
48.0
 41
0.0
 71
     5
 72
     1
  1
\A1;φ605（直径）
 73
     1
 44
1.0
  0
POINT
  5
2DAC9
330
2D316
100
AcDbEntity
  8
Defpoints
 62
     0
100
AcDbPoint
 10
682.6455509891684
 20
2145.366293340293
 30
0.0
  0
POINT
  5
2DACA
330
2D316
100
AcDbEntity
  8
Defpoints
 62
     0
100
AcDbPoint
 10
1287.645550989165
 20
2145.366293340296
 30
0.0
  0
POINT
  5
2DACB
330
2D316
100
AcDbEntity
  8
Defpoints
 62
     0
100
AcDbPoint
 10
1287.645550989165
 20
2307.366293340296
 30
0.0
  0
ENDBLK
  5
2D321
330
2D316
100
AcDbEntity
  8
0
100
AcDbBlockEnd
  0
BLOCK
  5
2D59B
330
2D591
100
AcDbEntity
  8
0
100
AcDbBlockBegin
  2
*D16
 70
     1
 10
0.0
 20
0.0
 30
0.0
  3
*D16
  1

  0
ARC
  5
2DB4C
330
2D591
100
AcDbEntity
  8
DIM
 62
     0
370
    -2
100
AcDbCircle
 10
2421.928370516559
 20
2978.399429852529
 30
0.0
 40
150.8396731832274
100
AcDbArc
 50
347.1570805116178
 51
72.84291948838165
  0
INSERT
  5
2DB4D
330
2D591
100
AcDbEntity
  8
DIM
 62
     0
370
    -2
100
AcDbBlockReference
  2
_Open30
 10
2552.559359391779
 20
2902.979593260915
 30
0.0
 41
45.0
 42
45.0
 43
45.0
 50
248.5785402558088
  0
INSERT
  5
2DB4E
330
2D591
100
AcDbEntity
  8
DIM
 62
     0
370
    -2
100
AcDbBlockReference
  2
_Open30
 10
2421.92837051656
 20
3129.239103035756
 30
0.0
 41
45.0
 42
45.0
 43
45.0
 50
171.4214597441908
  0
MTEXT
  5
2DB4F
330
2D591
100
AcDbEntity
  8
DIM
 62
     0
370
    18
100
AcDbMText
 10
2586.334350139372
 20
3073.319266444143
 30
0.0
 40
48.0
 41
0.0
 71
     5
 72
     1
  1
\A1;120°
 11
0.4999999999999973
 21
-0.8660254037844403
 31
0.0
 73
     1
 44
1.0
  0
POINT
  5
2DB50
330
2D591
100
AcDbEntity
  8
Defpoints
 62
     0
100
AcDbPoint
 10
2570.476450129232
 20
3004.592464220671
 30
0.0
  0
POINT
  5
2DB51
330
2D591
100
AcDbEntity
  8
Defpoints
 62
     0
100
AcDbPoint
 10
2747.370656857166
 20
2790.505238228091
 30
0.0
  0
POINT
  5
2DB52
330
2D591
100
AcDbEntity
  8
Defpoints
 62
     0
100
AcDbPoint
 10
2421.928370516559
 20
2496.366833618837
 30
0.0
  0
POINT
  5
2DB53
330
2D591
100
AcDbEntity
  8
Defpoints
 62
     0
100
AcDbPoint
 10
2421.92837051656
 20
3378.399429852524
 30
0.0
  0
POINT
  5
2DB54
330
2D591
100
AcDbEntity
  8
Defpoints
 62
     0
100
AcDbPoint
 10
2421.928370516559
 20
2978.399429852529
 30
0.0
  0
ENDBLK
  5
2D59C
330
2D591
100
AcDbEntity
  8
0
100
AcDbBlockEnd
  0
BLOCK
  5
2D5A7
330
2D59D
100
AcDbEntity
  8
0
100
AcDbBlockBegin
  2
*D17
 70
     1
 10
0.0
 20
0.0
 30
0.0
  3
*D17
  1

  0
ARC
  5
2DB55
330
2D59D
100
AcDbEntity
  8
DIM
 62
     0
370
    -2
100
AcDbCircle
 10
2421.928370516559
 20
2978.399429852528
 30
0.0
 40
150.8396731832253
100
AcDbArc
 50
107.1570805116184
 51
192.8429194883815
  0
INSERT
  5
2DB56
330
2D59D
100
AcDbEntity
  8
DIM
 62
     0
370
    -2
100
AcDbBlockReference
  2
_Open30
 10
2421.928370516559
 20
3129.239103035754
 30
0.0
 41
45.0
 42
45.0
 43
45.0
 50
8.578540255809285
  0
INSERT
  5
2DB57
330
2D59D
100
AcDbEntity
  8
DIM
 62
     0
370
    -2
100
AcDbBlockReference
  2
_Open30
 10
2291.297381641346
 20
2902.979593260915
 30
0.0
 41
45.0
 42
45.0
 43
45.0
 50
291.4214597441908
  0
MTEXT
  5
2DB58
330
2D59D
100
AcDbEntity
  8
DIM
 62
     0
370
    18
100
AcDbMText
 10
2257.52239089375
 20
3073.319266444141
 30
0.0
 40
48.0
 41
0.0
 71
     5
 72
     1
  1
\A1;120°
 11
0.4999999999999984
 21
0.8660254037844396
 31
0.0
 73
     1
 44
1.0
  0
POINT
  5
2DB59
330
2D59D
100
AcDbEntity
  8
Defpoints
 62
     0
100
AcDbPoint
 10
2324.970497545217
 20
3093.949323296421
 30
0.0
  0
POINT
  5
2DB5A
330
2D59D
100
AcDbEntity
  8
Defpoints
 62
     0
100
AcDbPoint
 10
2096.486084175954
 20
2790.505238228089
 30
0.0
  0
POINT
  5
2DB5B
330
2D59D
100
AcDbEntity
  8
Defpoints
 62
     0
100
AcDbPoint
 10
2421.928370516559
 20
2496.366833618836
 30
0.0
  0
POINT
  5
2DB5C
330
2D59D
100
AcDbEntity
  8
Defpoints
 62
     0
100
AcDbPoint
 10
2421.928370516559
 20
3378.399429852523
 30
0.0
  0
POINT
  5
2DB5D
330
2D59D
100
AcDbEntity
  8
Defpoints
 62
     0
100
AcDbPoint
 10
2421.928370516559
 20
2978.399429852528
 30
0.0
  0
ENDBLK
  5
2D5A8
330
2D59D
100
AcDbEntity
  8
0
100
AcDbBlockEnd
  0
BLOCK
  5
2D5B3
330
2D5A9
100
AcDbEntity
  8
0
100
AcDbBlockBegin
  2
*D18
 70
     1
 10
0.0
 20
0.0
 30
0.0
  3
*D18
  1

  0
LINE
  5
2DB43
330
2D5A9
100
AcDbEntity
  8
DIM
 62
     0
370
    -2
100
AcDbLine
 10
2140.42837051656
 20
2845.875329075648
 30
0.0
 11
2140.42837051656
 21
3579.668391293538
 31
0.0
  0
LINE
  5
2DB44
330
2D5A9
100
AcDbEntity
  8
DIM
 62
     0
370
    -2
100
AcDbLine
 10
2703.428370516562
 20
2845.875329075648
 30
0.0
 11
2703.428370516562
 21
3579.668391293538
 31
0.0
  0
LINE
  5
2DB45
330
2D5A9
100
AcDbEntity
  8
DIM
 62
     0
370
    -2
100
AcDbLine
 10
2185.42837051656
 20
3549.668391293538
 30
0.0
 11
2658.428370516562
 21
3549.668391293538
 31
0.0
  0
INSERT
  5
2DB46
330
2D5A9
100
AcDbEntity
  8
DIM
 62
     0
370
    -2
100
AcDbBlockReference
  2
_Open30
 10
2140.42837051656
 20
3549.668391293538
 30
0.0
 41
45.0
 42
45.0
 43
45.0
 50
180.0
  0
INSERT
  5
2DB47
330
2D5A9
100
AcDbEntity
  8
DIM
 62
     0
370
    -2
100
AcDbBlockReference
  2
_Open30
 10
2703.428370516562
 20
3549.668391293538
 30
0.0
 41
45.0
 42
45.0
 43
45.0
  0
MTEXT
  5
2DB48
330
2D5A9
100
AcDbEntity
  8
DIM
 62
     0
370
    18
100
AcDbMText
 10
2421.928370516559
 20
3588.668391293538
 30
0.0
 40
48.0
 41
0.0
 71
     5
 72
     1
  1
\A1;563
 73
     1
 44
1.0
  0
POINT
  5
2DB49
330
2D5A9
100
AcDbEntity
  8
Defpoints
 62
     0
100
AcDbPoint
 10
2140.42837051656
 20
2815.875329075648
 30
0.0
  0
POINT
  5
2DB4A
330
2D5A9
100
AcDbEntity
  8
Defpoints
 62
     0
100
AcDbPoint
 10
2703.428370516562
 20
2815.875329075648
 30
0.0
  0
POINT
  5
2DB4B
330
2D5A9
100
AcDbEntity
  8
Defpoints
 62
     0
100
AcDbPoint
 10
2703.428370516562
 20
3549.668391293538
 30
0.0
  0
ENDBLK
  5
2D5B4
330
2D5A9
100
AcDbEntity
  8
0
100
AcDbBlockEnd
  0
BLOCK
  5
2D5C1
330
2D5B5
100
AcDbEntity
  8
0
100
AcDbBlockBegin
  2
*D19
 70
     1
 10
0.0
 20
0.0
 30
0.0
  3
*D19
  1

  0
LINE
  5
2DB38
330
2D5B5
100
AcDbEntity
  8
DIM
 62
     0
370
    -2
100
AcDbLine
 10
2451.928370516561
 20
3303.375329075648
 30
0.0
 11
2937.928370516555
 21
3303.375329075648
 31
0.0
  0
LINE
  5
2DB39
330
2D5B5
100
AcDbEntity
  8
DIM
 62
     0
370
    -2
100
AcDbLine
 10
2464.438099271681
 20
3318.375329075648
 30
0.0
 11
2937.928370516555
 21
3318.375329075648
 31
0.0
  0
LINE
  5
2DB3A
330
2D5B5
100
AcDbEntity
  8
DIM
 62
     0
370
    -2
100
AcDbLine
 10
2907.928370516556
 20
3258.375329075648
 30
0.0
 11
2907.928370516556
 21
3213.375329075648
 31
0.0
  0
LINE
  5
2DB3B
330
2D5B5
100
AcDbEntity
  8
DIM
 62
     0
370
    -2
100
AcDbLine
 10
2907.928370516556
 20
3363.375329075648
 30
0.0
 11
2907.928370516556
 21
3493.23247193279
 31
0.0
  0
LINE
  5
2DB3C
330
2D5B5
100
AcDbEntity
  8
DIM
 62
     0
370
    -2
100
AcDbLine
 10
2907.928370516556
 20
3303.375329075648
 30
0.0
 11
2907.928370516556
 21
3318.375329075648
 31
0.0
  0
INSERT
  5
2DB3D
330
2D5B5
100
AcDbEntity
  8
DIM
 62
     0
370
    -2
100
AcDbBlockReference
  2
_Open30
 10
2907.928370516556
 20
3303.375329075648
 30
0.0
 41
45.0
 42
45.0
 43
45.0
 50
90.0
  0
INSERT
  5
2DB3E
330
2D5B5
100
AcDbEntity
  8
DIM
 62
     0
370
    -2
100
AcDbBlockReference
  2
_Open30
 10
2907.928370516556
 20
3318.375329075648
 30
0.0
 41
45.0
 42
45.0
 43
45.0
 50
270.0
  0
MTEXT
  5
2DB3F
330
2D5B5
100
AcDbEntity
  8
DIM
 62
     0
370
    18
100
AcDbMText
 10
2868.928370516556
 20
3450.80390050422
 30
0.0
 40
48.0
 41
0.0
 71
     5
 72
     1
  1
\A1;15
 11
0.0000000000000001
 21
1.0
 31
0.0
 73
     1
 44
1.0
  0
POINT
  5
2DB40
330
2D5B5
100
AcDbEntity
  8
Defpoints
 62
     0
100
AcDbPoint
 10
2421.928370516559
 20
3303.375329075648
 30
0.0
  0
POINT
  5
2DB41
330
2D5B5
100
AcDbEntity
  8
Defpoints
 62
     0
100
AcDbPoint
 10
2434.438099271681
 20
3318.375329075648
 30
0.0
  0
POINT
  5
2DB42
330
2D5B5
100
AcDbEntity
  8
Defpoints
 62
     0
100
AcDbPoint
 10
2907.928370516556
 20
3318.375329075648
 30
0.0
  0
ENDBLK
  5
2D5C2
330
2D5B5
100
AcDbEntity
  8
0
100
AcDbBlockEnd
  0
BLOCK
  5
2D5CD
330
2D5C3
100
AcDbEntity
  8
0
100
AcDbBlockBegin
  2
*D20
 70
     1
 10
0.0
 20
0.0
 30
0.0
  3
*D20
  1

  0
LINE
  5
2DB2F
330
2D5C3
100
AcDbEntity
  8
DIM
 62
     0
370
    -2
100
AcDbLine
 10
2451.928370516561
 20
3303.375329075648
 30
0.0
 11
2937.928370516555
 21
3303.375329075648
 31
0.0
  0
LINE
  5
2DB30
330
2D5C3
100
AcDbEntity
  8
DIM
 62
     0
370
    -2
100
AcDbLine
 10
2733.42837051656
 20
2815.875329075648
 30
0.0
 11
2937.928370516555
 21
2815.875329075648
 31
0.0
  0
LINE
  5
2DB31
330
2D5C3
100
AcDbEntity
  8
DIM
 62
     0
370
    -2
100
AcDbLine
 10
2907.928370516556
 20
3258.375329075648
 30
0.0
 11
2907.928370516556
 21
2860.875329075648
 31
0.0
  0
INSERT
  5
2DB32
330
2D5C3
100
AcDbEntity
  8
DIM
 62
     0
370
    -2
100
AcDbBlockReference
  2
_Open30
 10
2907.928370516556
 20
3303.375329075648
 30
0.0
 41
45.0
 42
45.0
 43
45.0
 50
90.0
  0
INSERT
  5
2DB33
330
2D5C3
100
AcDbEntity
  8
DIM
 62
     0
370
    -2
100
AcDbBlockReference
  2
_Open30
 10
2907.928370516556
 20
2815.875329075648
 30
0.0
 41
45.0
 42
45.0
 43
45.0
 50
270.0
  0
MTEXT
  5
2DB34
330
2D5C3
100
AcDbEntity
  8
DIM
 62
     0
370
    18
100
AcDbMText
 10
2868.928370516556
 20
3059.625329075648
 30
0.0
 40
48.0
 41
0.0
 71
     5
 72
     1
  1
\A1;487.5
 11
0.0000000000000001
 21
1.0
 31
0.0
 73
     1
 44
1.0
  0
POINT
  5
2DB35
330
2D5C3
100
AcDbEntity
  8
Defpoints
 62
     0
100
AcDbPoint
 10
2421.928370516559
 20
3303.375329075648
 30
0.0
  0
POINT
  5
2DB36
330
2D5C3
100
AcDbEntity
  8
Defpoints
 62
     0
100
AcDbPoint
 10
2703.428370516562
 20
2815.875329075648
 30
0.0
  0
POINT
  5
2DB37
330
2D5C3
100
AcDbEntity
  8
Defpoints
 62
     0
100
AcDbPoint
 10
2907.928370516556
 20
2815.875329075648
 30
0.0
  0
ENDBLK
  5
2D5CE
330
2D5C3
100
AcDbEntity
  8
0
100
AcDbBlockEnd
  0
BLOCK
  5
2D9FC
330
2D9F3
100
AcDbEntity
  8
0
100
AcDbBlockBegin
  2
*D21
 70
     1
 10
0.0
 20
0.0
 30
0.0
  3
*D21
  1

  0
LINE
  5
2DB27
330
2D9F3
100
AcDbEntity
  8
DIM
 62
     0
370
    -2
100
AcDbLine
 10
2723.812214157139
 20
3471.868645346648
 30
0.0
 11
2615.013557227508
 21
3294.022798300581
 31
0.0
  0
LINE
  5
2DB28
330
2D9F3
100
AcDbEntity
  8
DIM
 62
     0
370
    -2
100
AcDbLine
 10
2228.843183857982
 20
2662.776061491875
 30
0.0
 11
2205.359850342266
 21
2624.389435604858
 31
0.0
  0
MTEXT
  5
2DB29
330
2D9F3
100
AcDbEntity
  8
DIM
 62
     0
100
AcDbMText
 10
2647.8861433481
 20
3422.491257147409
 30
0.0
 40
48.0
 41
0.0
 71
     5
 72
     1
  1
\A1;\U+2205650
 11
0.5218518559047657
 21
0.8530361308225764
 31
0.0
 73
     1
 44
1.0
  0
LINE
  5
2DB2A
330
2D9F3
100
AcDbEntity
  8
DIM
 62
     0
370
    -2
100
AcDbLine
 10
2252.326517373695
 20
2701.162687378889
 30
0.0
 11
2591.530223711794
 21
3255.636172413565
 31
0.0
  0
INSERT
  5
2DB2B
330
2D9F3
100
AcDbEntity
  8
DIM
 62
     0
370
    -2
100
AcDbBlockReference
  2
_Open30
 10
2252.326517373695
 20
2701.162687378889
 30
0.0
 41
45.0
 42
45.0
 43
45.0
 50
58.54344749796189
  0
INSERT
  5
2DB2C
330
2D9F3
100
AcDbEntity
  8
DIM
 62
     0
370
    -2
100
AcDbBlockReference
  2
_Open30
 10
2591.530223711794
 20
3255.636172413565
 30
0.0
 41
45.0
 42
45.0
 43
45.0
 50
238.5434474979618
  0
POINT
  5
2DB2D
330
2D9F3
100
AcDbEntity
  8
Defpoints
 62
     0
100
AcDbPoint
 10
2591.530223711794
 20
3255.636172413565
 30
0.0
  0
POINT
  5
2DB2E
330
2D9F3
100
AcDbEntity
  8
Defpoints
 62
     0
100
AcDbPoint
 10
2252.326517373695
 20
2701.162687378889
 30
0.0
  0
ENDBLK
  5
2D9FD
330
2D9F3
100
AcDbEntity
  8
0
100
AcDbBlockEnd
  0
BLOCK
  5
2DBA3
330
2DBA2
100
AcDbEntity
  8
0
100
AcDbBlockBegin
  2
_None
 70
     0
 10
0.0
 20
0.0
 30
0.0
  3
_None
  1

  0
ENDBLK
  5
2DBA4
330
2DBA2
100
AcDbEntity
  8
0
100
AcDbBlockEnd
  0
BLOCK
  5
2DBA9
330
2DBA6
100
AcDbEntity
  8
0
100
AcDbBlockBegin
  2
SSE_BALOON1
 70
     2
 10
0.0
 20
0.0
 30
0.0
  3
SSE_BALOON1
  1

  0
CIRCLE
  5
2DBA7
330
2DBA6
100
AcDbEntity
  8
0
  6
ByBlock
 62
     0
370
    -2
100
AcDbCircle
 10
0.0
 20
0.0
 30
0.0
 40
1.0
  0
ATTDEF
  5
2DBA8
330
2DBA6
100
AcDbEntity
  8
DIMTEXT
100
AcDbText
 10
0.0
 20
0.0
 30
0.0
 40
1.0
  1

 72
     4
 11
0.0
 21
0.0
 31
0.0
100
AcDbAttributeDefinition
  3
番号
  2
BAL_NUM
 70
     0
  0
ENDBLK
  5
2DBAA
330
2DBA6
100
AcDbEntity
  8
0
100
AcDbBlockEnd
  0
ENDSEC
  0
SECTION
  2
ENTITIES
  0
INSERT
  5
15497
330
17
100
AcDbEntity
  8
0
100
AcDbBlockReference
 66
     1
  2
dimstat2
 10
7723.001826654317
 20
1309.141213428434
 30
0.0
  0
ATTRIB
  5
15498
330
15497
100
AcDbEntity
  8
0
100
AcDbText
 10
7723.001826654317
 20
1309.141213428434
 30
0.0
 40
1.0
  1
(1.28 1.92 0 0 0 0 0 3.2 12 0 )
 41
0.7
100
AcDbAttribute
  2
DIMSIZ
 70
     1
  0
SEQEND
  5
15499
330
15497
100
AcDbEntity
  8
0
  0
INSERT
  5
1549A
330
17
100
AcDbEntity
  8
0
100
AcDbBlockReference
 66
     1
  2
dimstat
 10
7723.001826654317
 20
1309.141213428434
 30
0.0
  0
ATTRIB
  5
1549B
330
1549A
100
AcDbEntity
  8
0
100
AcDbText
 10
7723.001826654317
 20
1310.141213428434
 30
0.0
 40
1.0
  1
1
 41
0.7
 51
15.0
100
AcDbAttribute
  2
DIMEXT
 70
     1
  0
ATTRIB
  5
1549C
330
1549A
100
AcDbEntity
  8
0
100
AcDbText
 10
7723.001826654317
 20
1309.141213428434
 30
0.0
 40
1.0
  1
10 
 41
0.7
 51
15.0
100
AcDbAttribute
  2
DIMBAL
 70
     1
  0
ATTRIB
  5
1549D
330
1549A
100
AcDbEntity
  8
0
100
AcDbText
 10
7723.965683778214
 20
1308.229563439422
 30
0.0
 40
1.0
  1
4 
 41
0.7
 51
15.0
 72
     1
 11
7724.509017111548
 21
1308.229563439422
 31
0.0
100
AcDbAttribute
  2
SYMSCL
 70
     1
  0
SEQEND
  5
1549E
330
1549A
100
AcDbEntity
  8
0
  0
TEXT
  5
25323
330
17
100
AcDbEntity
  8
DIM
 62
     7
370
    18
100
AcDbText
 10
105.4854082039998
 20
4259.593765135567
 30
0.0
 40
80.0
  1
『給湯専用丸形３００Ｌ外形図』
 41
0.8
100
AcDbText
  0
INSERT
  5
2B9C7
330
17
100
AcDbEntity
  8
WAKU
 62
     7
100
AcDbBlockReference
  2
waku0
 10
0.0
 20
0.0
 30
0.0
 41
3150.0
 42
4455.0
 43
3150.0
  0
TEXT
  5
2CE38
330
17
100
AcDbEntity
  8
DIMTEXT
 62
     7
100
AcDbText
 10
2080.554279429074
 20
3970.593565558377
 30
0.0
 40
48.0
  1
質量
 41
0.8
 72
     1
 11
2121.514279429074
 21
3994.593565558377
 31
0.0
100
AcDbText
 73
     2
  0
TEXT
  5
2CE39
330
17
100
AcDbEntity
  8
DIMTEXT
 62
     7
100
AcDbText
 10
2050.729375192779
 20
3900.968900426484
 30
0.0
 40
48.0
  1
（kg）
 41
0.8
 72
     1
 11
2114.363660907065
 21
3924.968900426484
 31
0.0
100
AcDbText
 73
     2
  0
LINE
  5
2CE3A
330
17
100
AcDbEntity
  8
WAKU
 62
     7
100
AcDbLine
 10
3023.810957160204
 20
4193.303310843618
 30
0.0
 11
2223.810957160204
 21
4193.303310843618
 31
0.0
  0
LINE
  5
2CE3B
330
17
100
AcDbEntity
  8
WAKU
 62
     7
100
AcDbLine
 10
2023.810957160204
 20
3873.303310843619
 30
0.0
 11
3023.810957160204
 21
3873.303310843618
 31
0.0
  0
LINE
  5
2CE3C
330
17
100
AcDbEntity
  8
WAKU
 62
     7
100
AcDbLine
 10
2023.810957160204
 20
4353.303310843618
 30
0.0
 11
2023.810957160204
 21
3873.303310843618
 31
0.0
  0
LINE
  5
2CE3D
330
17
100
AcDbEntity
  8
WAKU
 62
     7
100
AcDbLine
 10
2223.810957160204
 20
4033.303310843618
 30
0.0
 11
3023.810957160204
 21
4033.303310843618
 31
0.0
  0
LINE
  5
2CE3E
330
17
100
AcDbEntity
  8
WAKU
 62
     7
100
AcDbLine
 10
2223.810957160204
 20
3953.303310843617
 30
0.0
 11
3023.810957160204
 21
3953.303310843618
 31
0.0
  0
LINE
  5
2CE3F
330
17
100
AcDbEntity
  8
WAKU
 62
     7
100
AcDbLine
 10
2223.810957160203
 20
4113.303310843618
 30
0.0
 11
3023.810957160204
 21
4113.303310843618
 31
0.0
  0
LINE
  5
2CE41
330
17
100
AcDbEntity
  8
WAKU
 62
     7
100
AcDbLine
 10
2473.810957160204
 20
4353.303310843618
 30
0.0
 11
2473.810957160203
 21
3873.303310843618
 31
0.0
  0
LINE
  5
2CE42
330
17
100
AcDbEntity
  8
WAKU
 62
     7
100
AcDbLine
 10
2223.810957160203
 20
4353.303310843618
 30
0.0
 11
2223.810957160204
 21
3873.303310843619
 31
0.0
  0
TEXT
  5
2CE43
330
17
100
AcDbEntity
  8
DIMTEXT
 62
     7
100
AcDbText
 10
2286.090957160205
 20
4049.303310843618
 30
0.0
 40
48.0
  1
圧　力
 41
0.8
 72
     1
 11
2348.810957160205
 21
4073.303310843618
 31
0.0
100
AcDbText
 73
     2
  0
TEXT
  5
2CE44
330
17
100
AcDbEntity
  8
DIMTEXT
 62
     7
100
AcDbText
 10
2284.810957160205
 20
3969.303310843618
 30
0.0
 40
48.0
  1
本　体
 41
0.8
 72
     1
 11
2348.810957160205
 21
3993.303310843618
 31
0.0
100
AcDbText
 73
     2
  0
TEXT
  5
2CE45
330
17
100
AcDbEntity
  8
DIMTEXT
 62
     7
100
AcDbText
 10
2284.810957160205
 20
3889.303310843619
 30
0.0
 40
48.0
  1
満水時
 41
0.8
 72
     1
 11
2348.810957160205
 21
3913.303310843619
 31
0.0
100
AcDbText
 73
     2
  0
LINE
  5
2CE47
330
17
100
AcDbEntity
  8
WAKU
 62
     7
100
AcDbLine
 10
2473.810957160206
 20
3883.303310843615
 30
0.0
 11
2473.810957160206
 21
3873.303310843618
 31
0.0
  0
TEXT
  5
2CE4A
330
17
100
AcDbEntity
  8
DIMTEXT
 62
     7
100
AcDbText
 10
2699.439528588777
 20
3889.303310843622
 30
0.0
 40
48.0
  1
347
 41
0.8
 72
     1
 11
2748.810957160205
 21
3913.303310843622
 31
0.0
100
AcDbText
 73
     2
  0
TEXT
  5
2CE4B
330
17
100
AcDbEntity
  8
DIMTEXT
 62
     7
100
AcDbText
 10
2717.725242874491
 20
3969.303310843621
 30
0.0
 40
48.0
  1
47
 41
0.8
 72
     1
 11
2748.810957160205
 21
3993.303310843621
 31
0.0
100
AcDbText
 73
     2
  0
TEXT
  5
2CE52
330
17
100
AcDbEntity
  8
DIMTEXT
 62
     7
100
AcDbText
 10
2544.010957160205
 20
4209.30331084362
 30
0.0
 40
48.0
  1
SM830BB-H18
 41
0.8
 72
     1
 11
2748.810957160205
 21
4233.30331084362
 31
0.0
100
AcDbText
 73
     2
  0
TEXT
  5
2CE81
330
17
100
AcDbEntity
  8
DIMTEXT
 62
     7
100
AcDbText
 10
2615.690957160205
 20
4049.303310843621
 30
0.0
 40
48.0
  1
標準圧タイプ
 41
0.8
 72
     1
 11
2748.810957160205
 21
4073.303310843621
 31
0.0
100
AcDbText
 73
     2
  0
TEXT
  5
2CE85
330
17
100
AcDbEntity
  8
DIMTEXT
 62
     7
100
AcDbText
 10
2259.210957160205
 20
4129.303310843618
 30
0.0
 40
48.0
  1
ヒータ数
 41
0.8
 72
     1
 11
2348.810957160205
 21
4153.303310843618
 31
0.0
100
AcDbText
 73
     2
  0
TEXT
  5
2CE86
330
17
100
AcDbEntity
  8
DIMTEXT
 62
     7
100
AcDbText
 10
2744.239528588777
 20
4129.30331084362
 30
0.0
 40
48.0
  1
1
 41
0.8
 72
     1
 11
2748.810957160205
 21
4153.30331084362
 31
0.0
100
AcDbText
 73
     2
  0
LINE
  5
2CE89
330
17
100
AcDbEntity
  8
WAKU
 62
     7
100
AcDbLine
 10
3023.810957160204
 20
4353.303310843618
 30
0.0
 11
3023.810957160204
 21
3873.303310843617
 31
0.0
  0
DIMENSION
  5
2D10E
330
17
100
AcDbEntity
  8
DIM
 62
     7
370
    18
100
AcDbDimension
  2
*D5
 10
985.1455509891684
 20
2656.373639567107
 30
0.0
 11
1148.412414157277
 21
2676.401619667541
 31
0.0
 70
    34
 71
     5
 42
0.6981317007977319
  3
STANDARD
100
AcDb2LineAngularDimension
 13
1097.398476851404
 23
2991.195811891572
 33
0.0
 14
1274.592759039115
 24
2780.023889507218
 34
0.0
 15
985.1455509891664
 25
3554.9736395671
 35
0.0
 16
1104.226448009711
 26
2622.531827315192
 36
0.0
1001
ACAD
1000
DSTYLE
1002
{
1070
    41
1040
3.0
1070
    42
1040
2.0
1070
    43
1040
10.0
1070
    44
1040
2.0
1070
    73
1070
     0
1070
    74
1070
     0
1070
    77
1070
     1
1070
    78
1070
     8
1070
    79
1070
     2
1070
   140
1040
3.2
1070
   147
1040
0.9999999999999996
1070
   172
1070
     1
1070
   179
1070
     8
1070
   271
1070
     8
1070
   272
1070
     8
1070
   341
1005
4A
1070
   342
1005
4A
1002
}
  0
DIMENSION
  5
2D10F
330
17
100
AcDbEntity
  8
DIM
 62
     7
370
    18
100
AcDbDimension
  2
*D6
 10
877.0584555335418
 20
2996.16045524478
 30
0.0
 11
822.3296513187367
 21
2676.181858695489
 31
0.0
 70
    34
 71
     5
 42
0.6947896420740527
  3
STANDARD
100
AcDb2LineAngularDimension
 13
985.1455509891664
 23
3554.9736395671
 33
0.0
 14
985.1455509891684
 24
2656.373639567107
 34
0.0
 15
707.5571051262767
 25
2792.780077515501
 35
0.0
 16
754.0399116853286
 26
2663.114463198993
 36
0.0
1001
ACAD
1000
DSTYLE
1002
{
1070
    41
1040
3.0
1070
    42
1040
2.0
1070
    43
1040
10.0
1070
    44
1040
2.0
1070
    73
1070
     0
1070
    74
1070
     0
1070
    77
1070
     1
1070
    78
1070
     8
1070
    79
1070
     2
1070
   140
1040
3.2
1070
   147
1040
0.9999999999999996
1070
   172
1070
     1
1070
   179
1070
     0
1070
   271
1070
     8
1070
   272
1070
     8
1070
   341
1005
4A
1070
   342
1005
4A
1002
}
  0
DIMENSION
  5
2D110
330
17
100
AcDbEntity
  8
DIM
 62
     7
370
    18
100
AcDbDimension
  2
*D7
 10
701.2197127214545
 20
2906.879192988991
 30
0.0
 11
783.3189391704608
 21
3065.949870415366
 31
0.0
 70
    33
  1
348
 71
     5
 42
349.4153024720666
  3
STANDARD
100
AcDbAlignedDimension
 13
985.1455509891684
 23
3124.973639567102
 33
0.0
 14
761.0932802045498
 24
2856.84748724715
 34
0.0
1001
ACAD
1000
DSTYLE
1002
{
1070
    41
1040
3.0
1070
    42
1040
2.0
1070
    43
1040
10.0
1070
    44
1040
2.0
1070
    73
1070
     0
1070
    74
1070
     0
1070
    77
1070
     1
1070
    78
1070
     8
1070
    79
1070
     2
1070
   140
1040
3.2
1070
   147
1040
0.9999999999999996
1070
   172
1070
     1
1070
   179
1070
     8
1070
   271
1070
     0
1070
   272
1070
     8
1070
   341
1005
4A
1070
   342
1005
4A
1002
}
  0
DIMENSION
  5
2D111
330
17
100
AcDbEntity
  8
DIM
 62
     7
370
    18
100
AcDbDimension
  2
*D8
 10
1583.465657489249
 20
2749.973639567099
 30
0.0
 11
1544.465657489249
 21
3107.673639567102
 31
0.0
 70
    32
  1
（<>）
 71
     5
 42
715.3999999999997
  3
STANDARD
100
AcDbAlignedDimension
 13
997.6552797442916
 23
3465.373639567101
 33
0.0
 14
985.1455509891682
 24
2749.973639567102
 34
0.0
 50
90.0
100
AcDbRotatedDimension
1001
ACAD
1000
DSTYLE
1002
{
1070
     3
1000
<>
1070
    41
1040
3.0
1070
    42
1040
2.0
1070
    43
1040
10.0
1070
    44
1040
2.0
1070
    73
1070
     0
1070
    74
1070
     0
1070
    77
1070
     1
1070
    78
1070
     8
1070
    79
1070
     2
1070
   140
1040
3.2
1070
   147
1040
0.9999999999999996
1070
   172
1070
     1
1070
   179
1070
     8
1070
   271
1070
     0
1070
   272
1070
     8
1070
   341
1005
4A
1070
   342
1005
4A
1002
}
  0
LINE
  5
2D112
330
17
100
AcDbEntity
  8
MCEN
 62
     7
370
    25
100
AcDbLine
 10
985.1455509891664
 20
3554.9736395671
 30
0.0
 11
985.1455509891684
 21
2656.373639567107
 31
0.0
  0
LINE
  5
2D113
330
17
100
AcDbEntity
  8
CEN
 62
     7
370
    25
100
AcDbLine
 10
707.5571051262767
 20
2792.780077515501
 30
0.0
 11
985.1455509891684
 21
3124.973639567102
 31
0.0
  0
LINE
  5
2D115
330
17
100
AcDbEntity
  8
CEN
 62
     7
370
    25
100
AcDbLine
 10
985.1455509891684
 20
3124.973639567102
 30
0.0
 11
1274.592759039115
 21
2780.023889507218
 31
0.0
  0
DIMENSION
  5
2D116
330
17
100
AcDbEntity
  8
DIM
 62
     7
370
    18
100
AcDbDimension
  2
*D9
 10
1472.245550989164
 20
2749.973639567102
 30
0.0
 11
1433.245550989165
 21
2937.473639567102
 31
0.0
 70
    32
 71
     5
 42
375.0000000000003
  3
STANDARD
100
AcDbAlignedDimension
 13
1376.245550989166
 23
3124.973639567102
 33
0.0
 14
985.1455509891627
 24
2749.973639567102
 34
0.0
 50
90.0
100
AcDbRotatedDimension
1001
ACAD
1000
DSTYLE
1002
{
1070
     3
1000
<>
1070
    41
1040
3.0
1070
    42
1040
2.0
1070
    43
1040
10.0
1070
    44
1040
2.0
1070
    73
1070
     0
1070
    74
1070
     0
1070
    77
1070
     1
1070
    78
1070
     8
1070
    79
1070
     2
1070
   140
1040
3.2
1070
   147
1040
0.9999999999999996
1070
   172
1070
     1
1070
   179
1070
     8
1070
   271
1070
     0
1070
   272
1070
     8
1070
   341
1005
4A
1070
   342
1005
4A
1002
}
  0
LEADER
  5
2D117
330
17
100
AcDbEntity
  8
DIM
 62
     7
370
    18
100
AcDbLeader
  3
STANDARD
 76
     2
 10
1245.009917363582
 20
484.946632108824
 30
0.0
 10
506.4327066421019
 20
336.2198915205171
 30
0.0
211
1.0
221
-0.0000000000000002
231
0.0
1001
ACAD
1000
DSTYLE
1002
{
1070
    41
1040
3.0
1070
    42
1040
2.0
1070
    43
1040
10.0
1070
    44
1040
2.0
1070
    73
1070
     0
1070
    74
1070
     0
1070
    77
1070
     1
1070
    78
1070
     8
1070
    79
1070
     2
1070
   140
1040
3.2
1070
   147
1040
0.9999999999999996
1070
   172
1070
     1
1070
   179
1070
     8
1070
   271
1070
     8
1070
   272
1070
     8
1070
   341
1005
5132
1070
   342
1005
4A
1002
}
  0
LEADER
  5
2D118
330
17
100
AcDbEntity
  8
DIM
 62
     7
370
    18
100
AcDbLeader
  3
STANDARD
 76
     2
 10
977.7377921736787
 20
483.6666626979035
 30
0.0
 10
506.4327066421019
 20
336.2198915205171
 30
0.0
211
1.0
221
-0.0000000000000002
231
0.0
1001
ACAD
1000
DSTYLE
1002
{
1070
    41
1040
3.0
1070
    42
1040
2.0
1070
    43
1040
10.0
1070
    44
1040
2.0
1070
    73
1070
     0
1070
    74
1070
     0
1070
    77
1070
     1
1070
    78
1070
     8
1070
    79
1070
     2
1070
   140
1040
3.2
1070
   147
1040
0.9999999999999996
1070
   172
1070
     1
1070
   179
1070
     8
1070
   271
1070
     8
1070
   272
1070
     8
1070
   341
1005
5132
1070
   342
1005
4A
1002
}
  0
LEADER
  5
2D119
330
17
100
AcDbEntity
  8
DIM
 62
     7
370
    18
100
AcDbLeader
  3
STANDARD
 76
     2
 10
716.2959289395637
 20
483.0717658929768
 30
0.0
 10
506.4327066421019
 20
336.2198915205171
 30
0.0
211
1.0
221
-0.0000000000000002
231
0.0
1001
ACAD
1000
DSTYLE
1002
{
1070
    41
1040
3.0
1070
    42
1040
2.0
1070
    43
1040
10.0
1070
    44
1040
2.0
1070
    73
1070
     0
1070
    74
1070
     0
1070
    77
1070
     1
1070
    78
1070
     8
1070
    79
1070
     2
1070
   140
1040
3.2
1070
   147
1040
0.9999999999999996
1070
   172
1070
     1
1070
   179
1070
     8
1070
   271
1070
     8
1070
   272
1070
     8
1070
   341
1005
5132
1070
   342
1005
4A
1002
}
  0
LEADER
  5
2D11A
330
17
100
AcDbEntity
  8
DIM
 62
     7
370
    18
100
AcDbLeader
  3
STANDARD
 76
     2
 10
793.7263949496355
 20
557.333219892406
 30
0.0
 10
600.6039622565097
 20
888.0874459873583
 30
0.0
211
1.0
221
-0.0000000000000002
231
0.0
1001
ACAD
1000
DSTYLE
1002
{
1070
    41
1040
3.0
1070
    42
1040
2.0
1070
    43
1040
10.0
1070
    44
1040
2.0
1070
    73
1070
     0
1070
    74
1070
     0
1070
    77
1070
     1
1070
    78
1070
     8
1070
    79
1070
     2
1070
   140
1040
3.2
1070
   147
1040
0.9999999999999996
1070
   172
1070
     1
1070
   179
1070
     8
1070
   271
1070
     8
1070
   272
1070
     8
1070
   341
1005
5132
1070
   342
1005
4A
1002
}
  0
LEADER
  5
2D11B
330
17
100
AcDbEntity
  8
DIM
 62
     7
370
    18
100
AcDbLeader
  3
STANDARD
 76
     2
 10
1179.888224602967
 20
558.4662933402918
 30
0.0
 10
600.6039622565097
 20
888.0874459873583
 30
0.0
211
1.0
221
-0.0000000000000002
231
0.0
1001
ACAD
1000
DSTYLE
1002
{
1070
    41
1040
3.0
1070
    42
1040
2.0
1070
    43
1040
10.0
1070
    44
1040
2.0
1070
    73
1070
     0
1070
    74
1070
     0
1070
    77
1070
     1
1070
    78
1070
     8
1070
    79
1070
     2
1070
   140
1040
3.2
1070
   147
1040
0.9999999999999996
1070
   172
1070
     1
1070
   179
1070
     8
1070
   271
1070
     8
1070
   272
1070
     8
1070
   341
1005
5132
1070
   342
1005
4A
1002
}
  0
LEADER
  5
2D11C
330
17
100
AcDbEntity
  8
DIM
 62
     7
370
    18
100
AcDbLeader
  3
STANDARD
 76
     2
 10
1178.645550989166
 20
749.4083332276399
 30
0.0
 10
600.6039622565097
 20
1007.270742782438
 30
0.0
211
1.0
221
-0.0000000000000002
231
0.0
1001
ACAD
1000
DSTYLE
1002
{
1070
    41
1040
3.0
1070
    42
1040
2.0
1070
    43
1040
10.0
1070
    44
1040
2.0
1070
    73
1070
     0
1070
    74
1070
     0
1070
    77
1070
     1
1070
    78
1070
     8
1070
    79
1070
     2
1070
   140
1040
3.2
1070
   147
1040
0.9999999999999996
1070
   172
1070
     1
1070
   179
1070
     8
1070
   271
1070
     8
1070
   272
1070
     8
1070
   341
1005
5132
1070
   342
1005
4A
1002
}
  0
LEADER
  5
2D11D
330
17
100
AcDbEntity
  8
DIM
 62
     7
370
    18
100
AcDbLeader
  3
STANDARD
 76
     2
 10
901.6455509891555
 20
1074.737134448771
 30
0.0
 10
600.6039622565097
 20
1126.454039577519
 30
0.0
211
1.0
221
-0.0000000000000002
231
0.0
1001
ACAD
1000
DSTYLE
1002
{
1070
    41
1040
3.0
1070
    42
1040
2.0
1070
    43
1040
10.0
1070
    44
1040
2.0
1070
    73
1070
     0
1070
    74
1070
     0
1070
    77
1070
     1
1070
    78
1070
     8
1070
    79
1070
     2
1070
   140
1040
3.2
1070
   147
1040
0.9999999999999996
1070
   172
1070
     1
1070
   179
1070
     8
1070
   271
1070
     8
1070
   272
1070
     8
1070
   341
1005
4A
1070
   342
1005
4A
1002
}
  0
LEADER
  5
2D11E
330
17
100
AcDbEntity
  8
DIM
 62
     7
370
    18
100
AcDbLeader
  3
STANDARD
 76
     2
 10
1010.145550989165
 20
1095.166293340295
 30
0.0
 10
600.6039622565097
 20
1379.115176047085
 30
0.0
211
1.0
221
-0.0000000000000002
231
0.0
1001
ACAD
1000
DSTYLE
1002
{
1070
    41
1040
3.0
1070
    42
1040
2.0
1070
    43
1040
10.0
1070
    44
1040
2.0
1070
    73
1070
     0
1070
    74
1070
     0
1070
    77
1070
     1
1070
    78
1070
     8
1070
    79
1070
     2
1070
   140
1040
3.2
1070
   147
1040
0.9999999999999996
1070
   172
1070
     1
1070
   179
1070
     8
1070
   271
1070
     8
1070
   272
1070
     8
1070
   341
1005
4A
1070
   342
1005
4A
1002
}
  0
LEADER
  5
2D11F
330
17
100
AcDbEntity
  8
DIM
 62
     7
370
    18
100
AcDbLeader
  3
STANDARD
 76
     2
 10
947.6455509891556
 20
1095.905173445715
 30
0.0
 10
600.6039622565097
 20
1245.765835267018
 30
0.0
211
1.0
221
-0.0000000000000002
231
0.0
1001
ACAD
1000
DSTYLE
1002
{
1070
    41
1040
3.0
1070
    42
1040
2.0
1070
    43
1040
10.0
1070
    44
1040
2.0
1070
    73
1070
     0
1070
    74
1070
     0
1070
    77
1070
     1
1070
    78
1070
     8
1070
    79
1070
     2
1070
   140
1040
3.2
1070
   147
1040
0.9999999999999996
1070
   172
1070
     1
1070
   179
1070
     8
1070
   271
1070
     8
1070
   272
1070
     8
1070
   341
1005
5132
1070
   342
1005
4A
1002
}
  0
LEADER
  5
2D120
330
17
100
AcDbEntity
  8
DIM
 62
     7
370
    18
100
AcDbLeader
  3
STANDARD
 76
     2
 10
985.1455509891676
 20
2186.213882634651
 30
0.0
 10
593.095241192679
 20
2274.364684423203
 30
0.0
211
1.0
221
-0.0000000000000002
231
0.0
1001
ACAD
1000
DSTYLE
1002
{
1070
    41
1040
3.0
1070
    42
1040
2.0
1070
    43
1040
10.0
1070
    44
1040
2.0
1070
    73
1070
     0
1070
    74
1070
     0
1070
    77
1070
     1
1070
    78
1070
     8
1070
    79
1070
     2
1070
   140
1040
3.2
1070
   147
1040
0.9999999999999996
1070
   172
1070
     1
1070
   179
1070
     8
1070
   271
1070
     8
1070
   272
1070
     8
1070
   341
1005
5132
1070
   342
1005
4A
1002
}
  0
DIMENSION
  5
2D121
330
17
100
AcDbEntity
  8
DIM
 62
     7
370
    18
100
AcDbDimension
  2
*D10
 10
565.2866596643317
 20
558.4662933402941
 30
0.0
 11
565.2866596643316
 21
511.816293340294
 31
0.0
 70
   160
 71
     5
 42
93.30000000000016
  3
STANDARD
100
AcDbAlignedDimension
 13
613.2866596643316
 23
465.1662933402938
 33
0.0
 14
759.0600672615884
 24
558.4662933402941
 34
0.0
 50
90.0
100
AcDbRotatedDimension
1001
ACAD
1000
DSTYLE
1002
{
1070
    45
1040
10.0
1070
    41
1040
3.0
1070
    42
1040
2.0
1070
    43
1040
10.0
1070
    44
1040
2.0
1070
    73
1070
     0
1070
    74
1070
     0
1070
    77
1070
     1
1070
    78
1070
     8
1070
    79
1070
     2
1070
   140
1040
3.2
1070
   147
1040
0.9999999999999996
1070
   172
1070
     1
1070
   179
1070
     8
1070
   271
1070
     0
1070
   272
1070
     8
1070
   341
1005
4A
1070
   342
1005
4A
1002
}
  0
LINE
  5
2D122
330
17
100
AcDbEntity
  8
0
 62
     7
370
    25
100
AcDbLine
 10
613.2866596643325
 20
465.1662933402938
 30
0.0
 11
1678.354233921597
 21
465.1662933402942
 31
0.0
  0
LINE
  5
2D123
330
17
100
AcDbEntity
  8
DIM
 62
     7
370
    18
100
AcDbLine
 10
506.4327066421019
 20
336.2198915205171
 30
0.0
 11
388.5599342867287
 21
336.2198915205171
 31
0.0
  0
TEXT
  5
2D124
330
17
100
AcDbEntity
  8
DIM
 62
     7
370
    18
100
AcDbText
 10
35.98144569713253
 20
897.7124459873584
 30
0.0
 40
48.0
  1
給排水口　R3／4（20A）
 41
0.8
 11
35.98144569713253
 21
921.7124459873584
 31
0.0
100
AcDbText
 73
     2
  0
LINE
  5
2D125
330
17
100
AcDbEntity
  8
DIM
 62
     7
370
    18
100
AcDbLine
 10
600.6039622565097
 20
888.0874459873583
 30
0.0
 11
28.82532527667267
 21
888.0874459873583
 31
0.0
  0
LINE
  5
2D126
330
17
100
AcDbEntity
  8
DIM
 62
     7
370
    18
100
AcDbLine
 10
600.6039622565097
 20
1007.270742782438
 30
0.0
 11
28.82532527667267
 21
1007.270742782438
 31
0.0
  0
LINE
  5
2D127
330
17
100
AcDbEntity
  8
DIM
 62
     7
370
    18
100
AcDbLine
 10
600.6039622565097
 20
1126.454039577519
 30
0.0
 11
28.82532527667268
 21
1126.454039577519
 31
0.0
  0
TEXT
  5
2D128
330
17
100
AcDbEntity
  8
DIM
 62
     7
370
    18
100
AcDbText
 10
35.98144569713253
 20
1016.895742782438
 30
0.0
 40
48.0
  1
型式銘板
 41
0.8
 11
35.98144569713253
 21
1040.895742782439
 31
0.0
100
AcDbText
 73
     2
  0
TEXT
  5
2D129
330
17
100
AcDbEntity
  8
DIM
 62
     7
370
    18
100
AcDbText
 10
405.3429196220393
 20
350.6448915205169
 30
0.0
 40
38.39999999999999
  1
脚
 41
0.8
 11
405.3429196220393
 21
369.8448915205169
 31
0.0
100
AcDbText
 73
     2
  0
LINE
  5
2D12A
330
17
100
AcDbEntity
  8
DIM
 62
     7
370
    18
100
AcDbLine
 10
600.6039622565097
 20
1245.765835267018
 30
0.0
 11
28.82532527667269
 21
1245.765835267018
 31
0.0
  0
TEXT
  5
2D12B
330
17
100
AcDbEntity
  8
DIM
 62
     7
370
    18
100
AcDbText
 10
35.98144569713253
 20
1255.390835267018
 30
0.0
 40
48.0
  1
漏電しゃ断器
 41
0.8
 11
35.98144569713253
 21
1279.390835267018
 31
0.0
100
AcDbText
 73
     2
  0
LINE
  5
2D12C
330
17
100
AcDbEntity
  8
DIM
 62
     7
370
    18
100
AcDbLine
 10
600.6039622565097
 20
1379.115176047085
 30
0.0
 11
28.8253252766727
 21
1379.115176047085
 31
0.0
  0
TEXT
  5
2D12D
330
17
100
AcDbEntity
  8
DIM
 62
     7
370
    18
100
AcDbText
 10
35.98144569713253
 20
1388.740176047085
 30
0.0
 40
48.0
  1
湯温設定スイッチ
 41
0.8
 11
35.98144569713253
 21
1412.740176047085
 31
0.0
100
AcDbText
 73
     2
  0
TEXT
  5
2D12E
330
17
100
AcDbEntity
  8
DIM
 62
     7
370
    18
100
AcDbText
 10
35.98144569713253
 20
1136.079039577519
 30
0.0
 40
48.0
  1
操作カバー
 41
0.8
 11
35.98144569713253
 21
1160.07903957752
 31
0.0
100
AcDbText
 73
     2
  0
LINE
  5
2D12F
330
17
100
AcDbEntity
  8
DIM
 62
     7
370
    18
100
AcDbLine
 10
593.095241192679
 20
2274.364684423203
 30
0.0
 11
28.47335959359796
 21
2274.364684423203
 31
0.0
  0
TEXT
  5
2D130
330
17
100
AcDbEntity
  8
DIM
 62
     7
370
    18
100
AcDbText
 10
35.98144569713253
 20
2283.989684423203
 30
0.0
 40
48.0
  1
給湯口　R3／4（20A）
 41
0.8
 11
35.98144569713253
 21
2307.989684423203
 31
0.0
100
AcDbText
 73
     2
  0
LINE
  5
2D131
330
17
100
AcDbEntity
  8
ZUKEI
 62
     7
370
    25
100
AcDbLine
 10
1068.645550989155
 20
1147.666293340295
 30
0.0
 11
1068.645550989155
 21
1053.666293340294
 31
0.0
  0
LINE
  5
2D132
330
17
100
AcDbEntity
  8
ZUKEI
 62
     7
370
    25
100
AcDbLine
 10
1057.645550989155
 20
1153.166293340295
 30
0.0
 11
1057.645550989155
 21
1048.166293340294
 31
0.0
  0
LINE
  5
2D133
330
17
100
AcDbEntity
  8
ZUKEI
 62
     7
370
    25
100
AcDbLine
 10
901.6455509891555
 20
1147.666293340295
 30
0.0
 11
901.6455509891555
 21
1053.666293340294
 31
0.0
  0
LINE
  5
2D134
330
17
100
AcDbEntity
  8
ZUKEI
 62
     7
370
    25
100
AcDbLine
 10
913.6455509891558
 20
1153.166293340295
 30
0.0
 11
913.6455509891558
 21
1048.166293340295
 31
0.0
  0
LINE
  5
2D135
330
17
100
AcDbEntity
  8
MCEN
 62
     7
370
    25
100
AcDbLine
 10
985.1455509891676
 20
2260.366293340296
 30
0.0
 11
985.1455509891664
 21
441.4733603756061
 31
0.0
  0
LINE
  5
2D136
330
17
100
AcDbEntity
  8
ZUKEI
 62
     7
370
    25
100
AcDbLine
 10
1287.045550989051
 20
2115.366293340294
 30
0.0
 11
1287.04555098905
 21
511.1662933402953
 31
0.0
  0
LINE
  5
2D137
330
17
100
AcDbEntity
  8
ZUKEI
 62
     7
370
    25
100
AcDbLine
 10
683.2455509893924
 20
2115.366293340299
 30
0.0
 11
683.2455509893924
 21
511.1662933402763
 31
0.0
  0
LINE
  5
2D138
330
17
100
AcDbEntity
  8
ZUKEI
 62
     7
370
    25
100
AcDbLine
 10
1116.145550989167
 20
2091.866293340303
 30
0.0
 11
1116.145550989166
 21
552.1662933402941
 31
0.0
  0
LINE
  5
2D139
330
17
100
AcDbEntity
  8
ZUKEI
 62
     7
370
    25
100
AcDbLine
 10
854.1455509891665
 20
2091.866293340303
 30
0.0
 11
854.1455509891665
 21
552.1662933402948
 31
0.0
  0
DIMENSION
  5
2D13A
330
17
100
AcDbEntity
  8
DIM
 62
     7
370
    18
100
AcDbDimension
  2
*D11
 10
1538.803824066762
 20
465.1662933402942
 30
0.0
 11
1499.803824066763
 21
1337.766293340294
 31
0.0
 70
    32
 71
     5
 42
1745.200000000001
  3
STANDARD
100
AcDbAlignedDimension
 13
998.7455509891679
 23
2210.366293340296
 33
0.0
 14
985.1455509891664
 24
465.1662933402943
 34
0.0
 50
90.0
100
AcDbRotatedDimension
1001
ACAD
1000
DSTYLE
1002
{
1070
    41
1040
3.0
1070
    42
1040
2.0
1070
    43
1040
10.0
1070
    44
1040
2.0
1070
    73
1070
     0
1070
    74
1070
     0
1070
    77
1070
     1
1070
    78
1070
     8
1070
    79
1070
     2
1070
   140
1040
3.2
1070
   147
1040
0.9999999999999996
1070
   172
1070
     1
1070
   179
1070
     8
1070
   271
1070
     0
1070
   272
1070
     8
1070
   341
1005
4A
1070
   342
1005
4A
1002
}
  0
DIMENSION
  5
2D13B
330
17
100
AcDbEntity
  8
DIM
 62
     7
370
    18
100
AcDbDimension
  2
*D12
 10
1421.356479507893
 20
505.1662933402954
 30
0.0
 11
1382.356479507893
 21
1327.766293340296
 31
0.0
 70
    32
 71
     5
 42
1645.200000000001
  3
STANDARD
100
AcDbAlignedDimension
 13
1282.645550989166
 23
2150.366293340296
 33
0.0
 14
1280.245572568237
 24
505.1662933402954
 34
0.0
 50
90.0
100
AcDbRotatedDimension
1001
ACAD
1000
DSTYLE
1002
{
1070
    41
1040
3.0
1070
    42
1040
2.0
1070
    43
1040
10.0
1070
    44
1040
2.0
1070
    73
1070
     0
1070
    74
1070
     0
1070
    77
1070
     1
1070
    78
1070
     8
1070
    79
1070
     2
1070
   140
1040
3.2
1070
   147
1040
0.9999999999999996
1070
   172
1070
     1
1070
   179
1070
     8
1070
   271
1070
     0
1070
   272
1070
     8
1070
   341
1005
4A
1070
   342
1005
4A
1002
}
  0
DIMENSION
  5
2D13C
330
17
100
AcDbEntity
  8
DIM
 62
     7
370
    18
100
AcDbDimension
  2
*D13
 10
1421.356479507893
 20
465.1662933402932
 30
0.0
 11
1382.356479507893
 21
329.0805790545793
 31
0.0
 70
    32
 71
     5
 42
40.00000000000182
  3
STANDARD
100
AcDbAlignedDimension
 13
1319.445572568352
 23
505.166293340295
 33
0.0
 14
1316.994795088375
 24
465.1662933402932
 34
0.0
 50
90.0
100
AcDbRotatedDimension
1001
ACAD
1000
DSTYLE
1002
{
1070
    41
1040
3.0
1070
    42
1040
2.0
1070
    43
1040
10.0
1070
    44
1040
2.0
1070
    73
1070
     0
1070
    74
1070
     0
1070
    77
1070
     1
1070
    78
1070
     8
1070
    79
1070
     2
1070
   140
1040
3.2
1070
   147
1040
0.9999999999999996
1070
   172
1070
     1
1070
   179
1070
     8
1070
   271
1070
     8
1070
   272
1070
     8
1070
   341
1005
4A
1070
   342
1005
4A
1002
}
  0
LINE
  5
2D13D
330
17
100
AcDbEntity
  8
DIM
 62
     7
370
    18
100
AcDbLine
 10
1348.845156833873
 20
465.1662933402932
 30
0.0
 11
1493.867802181913
 21
465.1662933402932
 31
0.0
  0
LINE
  5
2D13E
330
17
100
AcDbEntity
  8
DIM
 62
     7
370
    18
100
AcDbLine
 10
1350.695518579372
 20
465.1662933402932
 30
0.0
 11
1614.573846559254
 21
465.1662933402932
 31
0.0
  0
LINE
  5
2D13F
330
17
100
AcDbEntity
  8
ZUKEI
 62
     7
370
    25
100
AcDbLine
 10
918.6455509891557
 20
1036.666293340295
 30
0.0
 11
1051.645550989155
 21
1036.666293340294
 31
0.0
  0
LINE
  5
2D140
330
17
100
AcDbEntity
  8
ZUKEI
 62
     7
370
    25
100
AcDbLine
 10
913.6455509891558
 20
1048.166293340295
 30
0.0
 11
1057.645550989155
 21
1048.166293340294
 31
0.0
  0
LINE
  5
2D141
330
17
100
AcDbEntity
  8
ZUKEI
 62
     7
370
    25
100
AcDbLine
 10
690.0455509893927
 20
505.1662933402948
 30
0.0
 11
1280.245550989051
 21
505.1662933402943
 31
0.0
  0
LINE
  5
2D142
330
17
100
AcDbEntity
  8
ZUKEI
 62
     7
370
    25
100
AcDbLine
 10
852.1455509891664
 20
552.1662933402948
 30
0.0
 11
1118.145550989166
 21
552.1662933402941
 31
0.0
  0
LINE
  5
2D143
330
17
100
AcDbEntity
  8
ZUKEI
 62
     7
370
    25
100
AcDbLine
 10
852.1455509891664
 20
530.1662933402948
 30
0.0
 11
1118.145550989166
 21
530.1662933402941
 31
0.0
  0
LINE
  5
2D144
330
17
100
AcDbEntity
  8
ZUKEI
 62
     7
370
    25
100
AcDbLine
 10
852.1455509891664
 20
515.1662933402948
 30
0.0
 11
1118.145550989166
 21
515.1662933402944
 31
0.0
  0
LINE
  5
2D145
330
17
100
AcDbEntity
  8
ZUKEI
 62
     7
370
    25
100
AcDbLine
 10
774.3455509892815
 20
500.1662933402947
 30
0.0
 11
1195.945550989049
 21
500.1662933402942
 31
0.0
  0
LINE
  5
2D146
330
17
100
AcDbEntity
  8
ZUKEI
 62
     7
370
    25
100
AcDbLine
 10
683.2455509893926
 20
511.1662933402956
 30
0.0
 11
854.1455509891884
 21
511.1662933402956
 31
0.0
  0
LWPOLYLINE
  5
2D147
330
17
100
AcDbEntity
  8
ZUKEI
 62
     7
370
    25
100
AcDbPolyline
 90
       15
 70
     0
 43
0.0
 10
771.3333724827085
 20
544.8444873123333
 42
0.0699238280844273
 10
775.4607917512337
 20
537.2530899046977
 42
0.106239636795507
 10
783.5829530806718
 20
530.1078253338125
 42
0.1495559562006099
 10
791.1763360382416
 20
528.4662933402938
 42
0.1281482373363467
 10
799.3142061728255
 20
530.5868240605574
 42
0.1062396367955064
 10
806.8918803252497
 20
537.2530899046977
 42
0.0851721693417716
 10
811.6256539040772
 20
546.626021007064
 42
0.0745735507777748
 10
813.4014719090034
 20
558.4662933402941
 42
0.0745735507777815
 10
811.6256539040772
 20
570.3065656735251
 42
0.0851721693417771
 10
806.8918803252497
 20
579.6794967758905
 42
0.1062396367955404
 10
799.3142061728255
 20
586.3457626200305
 42
0.1281482373363777
 10
791.1763360382416
 20
588.4662933402941
 42
0.1281482373363703
 10
783.038465903656
 20
586.3457626200296
 42
0.106239636795517
 10
775.4607917512337
 20
579.6794967758905
 42
0.0702487340430201
 10
771.3193143811827
 20
572.0504914227957
 42
0.0745735507777661
  0
ARC
  5
2D14C
330
17
100
AcDbEntity
  8
ZUKEI
 62
     7
370
    25
100
AcDbCircle
 10
690.0455509893927
 20
510.9662933402936
 30
0.0
 40
5.799999999999998
100
AcDbArc
 50
180.0
 51
270.0
  0
LINE
  5
2D14D
330
17
100
AcDbEntity
  8
ZUKEI
 62
     7
370
    25
100
AcDbLine
 10
684.2455509893924
 20
510.9662933402936
 30
0.0
 11
684.2455509893924
 21
511.1662933402945
 31
0.0
  0
LINE
  5
2D157
330
17
100
AcDbEntity
  8
ZUKEI
 62
     7
370
    25
100
AcDbLine
 10
774.3455509892826
 20
500.1662933402933
 30
0.0
 11
769.3455509892826
 21
505.1662933402935
 31
0.0
  0
LWPOLYLINE
  5
2D15C
330
17
100
AcDbEntity
  8
ZUKEI
 62
     7
370
    25
100
AcDbPolyline
 90
       16
 70
     1
 43
0.0
 10
769.9480009941386
 20
558.4662933402941
 42
-0.0769657557824258
 10
769.1780866314899
 20
553.4942535549588
 42
-0.0868255636404355
 10
767.1558006418169
 20
549.6142962398248
 42
-0.1057457995553319
 10
763.7662122507814
 20
546.7220172729802
 42
-0.1481106049023757
 10
760.839760438134
 20
546.1239036574879
 42
-0.1265208152647925
 10
757.5491106678732
 20
546.9430902587353
 42
-0.1057457995553346
 10
754.4186073909227
 20
549.6142962398248
 42
-0.0868255636404375
 10
752.3963214012495
 20
553.4942535549588
 42
-0.0769657557824208
 10
751.6264070386011
 20
558.4662933402941
 42
-0.076965755782424
 10
752.3963214012495
 20
563.4383331256294
 42
-0.0868255636404604
 10
754.4186073909227
 20
567.318290440763
 42
-0.1057457995553532
 10
757.5491106678752
 20
569.9894964218525
 42
-0.1245603994657762
 10
760.7872040163697
 20
570.8088858916442
 42
-0.1245603994658014
 10
764.0252973648662
 20
569.9894964218525
 42
-0.1057457995553058
 10
767.1558006418169
 20
567.318290440763
 42
-0.0868255636404388
 10
769.1780866314899
 20
563.4383331256294
 42
-0.0769657557824121
  0
LWPOLYLINE
  5
2D15D
330
17
100
AcDbEntity
  8
ZUKEI
 62
     7
370
    25
100
AcDbPolyline
 90
       16
 70
     1
 43
0.0
 10
771.2054084427879
 20
558.4662933402941
 42
-0.0769657557824256
 10
770.376605512935
 20
553.1139563254945
 42
-0.0868255636404357
 10
768.1539870140773
 20
548.8496411161576
 42
-0.1057457995553347
 10
764.3642822952521
 20
545.615949592489
 42
-0.1455683687626903
 10
760.7872040163697
 20
544.8662933402946
 42
-0.1245603994657995
 10
756.9510406234045
 20
545.8370225782442
 42
-0.1057457995553349
 10
753.420421018662
 20
548.8496411161576
 42
-0.0868255636404369
 10
751.1978025198047
 20
553.1139563254945
 42
-0.0769657557824217
 10
750.3689995899517
 20
558.4662933402941
 42
-0.0769657557824225
 10
751.1978025198047
 20
563.8186303550927
 42
-0.086825563640458
 10
753.420421018662
 20
568.0829455644306
 42
-0.1057457995553575
 10
756.9510406234045
 20
571.0955641023446
 42
-0.1245603994657739
 10
760.7872040163697
 20
572.0662933402935
 42
-0.1245603994658063
 10
764.623367409337
 20
571.0955641023437
 42
-0.1057457995553055
 10
768.1539870140773
 20
568.0829455644315
 42
-0.0868255636404378
 10
770.376605512935
 20
563.8186303550935
 42
-0.0769657557824121
  0
LINE
  5
2D15E
330
17
100
AcDbEntity
  8
ZUKEI
 62
     7
370
    25
100
AcDbLine
 10
791.1763360382416
 20
544.8662933402697
 30
0.0
 11
760.3964863010776
 21
544.8662933403101
 31
0.0
  0
LINE
  5
2D15F
330
17
100
AcDbEntity
  8
ZUKEI
 62
     7
370
    25
100
AcDbLine
 10
791.1763360382416
 20
572.0662933402925
 30
0.0
 11
760.3964863010776
 21
572.0662933402961
 31
0.0
  0
LWPOLYLINE
  5
2D160
330
17
100
AcDbEntity
  8
ZUKEI
 62
     7
370
    25
100
AcDbPolyline
 90
        5
 70
     0
 43
0.0
 10
768.8735493706214
 20
572.0662933402935
 42
-0.1245603994658063
 10
772.7097127635885
 20
571.0955641023437
 42
-0.1057457995553055
 10
776.2403323683306
 20
568.0829455644315
 42
-0.0868255636404378
 10
778.4629508671883
 20
563.8186303550935
 42
-0.0769657557824121
 10
779.2917537970413
 20
558.4662933402941
 42
-0.0769657557824256
  0
LWPOLYLINE
  5
2D161
330
17
100
AcDbEntity
  8
ZUKEI
 62
     7
370
    25
100
AcDbPolyline
 90
        5
 70
     0
 43
0.0
 10
779.2917537970413
 20
558.4662933402941
 42
-0.0769657557824256
 10
778.4629508671883
 20
553.1139563254945
 42
-0.0868255636404357
 10
776.2403323683306
 20
548.8496411161576
 42
-0.1057457995553347
 10
772.4506276495036
 20
545.615949592489
 42
-0.1455683687624852
 10
768.8735493706214
 20
544.8662933403201
 42
-0.1245603994657995
  0
LWPOLYLINE
  5
2D162
330
17
100
AcDbEntity
  8
ZUKEI
 62
     7
370
    25
100
AcDbPolyline
 90
        5
 70
     0
 43
0.0
 10
791.1763360382416
 20
572.0662933402935
 42
-0.1245603994658063
 10
795.0124994312086
 20
571.0955641023437
 42
-0.1057457995553055
 10
798.5431190359491
 20
568.0829455644306
 42
-0.0868255636404378
 10
800.7657375348086
 20
563.8186303550927
 42
-0.0769657557824121
 10
801.5945404646597
 20
558.4662933402941
 42
-0.0769657557824256
  0
LWPOLYLINE
  5
2D163
330
17
100
AcDbEntity
  8
ZUKEI
 62
     7
370
    25
100
AcDbPolyline
 90
        5
 70
     0
 43
0.0
 10
801.5945404646597
 20
558.4662933402941
 42
-0.0769657557824256
 10
800.7657375348069
 20
553.1139563254945
 42
-0.0868255636404357
 10
798.5431190359507
 20
548.8496411161576
 42
-0.1057457995553347
 10
794.7534143171239
 20
545.6159495924882
 42
-0.1455683687624852
 10
791.1763360382416
 20
544.8662933403201
 42
-0.1245603994657995
  0
LINE
  5
2D164
330
17
100
AcDbEntity
  8
ZUKEI
 62
     7
370
    25
100
AcDbLine
 10
852.1455509891664
 20
552.1662933402948
 30
0.0
 11
852.1455509891664
 21
515.1662933402948
 31
0.0
  0
LINE
  5
2D165
330
17
100
AcDbEntity
  8
ZUKEI
 62
     7
370
    25
100
AcDbLine
 10
854.1455509891884
 20
515.1662933402948
 30
0.0
 11
854.1455509891884
 21
511.1662933402956
 31
0.0
  0
LINE
  5
2D166
330
17
100
AcDbEntity
  8
ZUKEI
 62
     7
370
    25
100
AcDbLine
 10
965.1504223147632
 20
505.1662933402943
 30
0.0
 11
1005.150422314763
 21
505.1662933402943
 31
0.0
  0
LINE
  5
2D167
330
17
100
AcDbEntity
  8
ZUKEI
 62
     7
370
    25
100
AcDbLine
 10
985.1455509891664
 20
469.1662933402943
 30
0.0
 11
947.6455509891664
 21
469.1662933402943
 31
0.0
  0
LINE
  5
2D168
330
17
100
AcDbEntity
  8
ZUKEI
 62
     7
370
    25
100
AcDbLine
 10
1019.150408418691
 20
465.1662933402943
 30
0.0
 11
971.1455509891663
 21
465.1662933402943
 31
0.0
  0
LINE
  5
2D169
330
17
100
AcDbEntity
  8
ZUKEI
 62
     7
370
    25
100
AcDbLine
 10
951.1406935596431
 20
465.1662933402943
 30
0.0
 11
971.1455509891663
 21
465.1662933402943
 31
0.0
  0
LINE
  5
2D16A
330
17
100
AcDbEntity
  8
ZUKEI
 62
     7
370
    25
100
AcDbLine
 10
947.6455509891664
 20
469.1662933402943
 30
0.0
 11
947.6455509891664
 21
468.4819609990021
 31
0.0
  0
ARC
  5
2D16B
330
17
100
AcDbEntity
  8
ZUKEI
 62
     7
370
    25
100
AcDbCircle
 10
951.1406935596415
 20
468.6662933402943
 30
0.0
 40
3.5
100
AcDbArc
 50
183.0189582176644
 51
270.0
  0
LINE
  5
2D16C
330
17
100
AcDbEntity
  8
ZUKEI
 62
     7
370
    25
100
AcDbLine
 10
955.1504223147631
 20
495.1662933402943
 30
0.0
 11
955.1504223147631
 21
469.1662933402943
 31
0.0
  0
ARC
  5
2D16D
330
17
100
AcDbEntity
  8
ZUKEI
 62
     7
370
    25
100
AcDbCircle
 10
965.1504223147632
 20
495.1662933402943
 30
0.0
 40
10.0
100
AcDbArc
 50
90.0
 51
180.0
  0
LINE
  5
2D16E
330
17
100
AcDbEntity
  8
ZUKEI
 62
     7
370
    25
100
AcDbLine
 10
1017.714520094691
 20
465.1662933402943
 30
0.0
 11
1001.816468974656
 21
465.1662933402943
 31
0.0
  0
LINE
  5
2D16F
330
17
100
AcDbEntity
  8
ZUKEI
 62
     7
370
    25
100
AcDbLine
 10
1017.714520094691
 20
465.1662933402943
 30
0.0
 11
1001.816468974656
 21
465.1662933402943
 31
0.0
  0
LINE
  5
2D170
330
17
100
AcDbEntity
  8
ZUKEI
 62
     7
370
    25
100
AcDbLine
 10
1022.650408418691
 20
468.6662933402943
 30
0.0
 11
1022.650408418691
 21
469.1662933402943
 31
0.0
  0
ARC
  5
2D171
330
17
100
AcDbEntity
  8
ZUKEI
 62
     7
370
    25
100
AcDbCircle
 10
1019.150408418689
 20
468.6662933402943
 30
0.0
 40
3.5
100
AcDbArc
 50
270.0
 51
0.0
  0
LINE
  5
2D172
330
17
100
AcDbEntity
  8
ZUKEI
 62
     7
370
    25
100
AcDbLine
 10
1022.650408418691
 20
469.1662933402943
 30
0.0
 11
985.1455509891684
 21
469.1662933402943
 31
0.0
  0
LINE
  5
2D173
330
17
100
AcDbEntity
  8
ZUKEI
 62
     7
370
    25
100
AcDbLine
 10
1015.14067966357
 20
495.1662933402943
 30
0.0
 11
1015.14067966357
 21
469.1662933402943
 31
0.0
  0
ARC
  5
2D174
330
17
100
AcDbEntity
  8
ZUKEI
 62
     7
370
    25
100
AcDbCircle
 10
1005.150422314763
 20
495.1662933402943
 30
0.0
 40
10.0
100
AcDbArc
 50
0.0
 51
90.0
  0
LINE
  5
2D175
330
17
100
AcDbEntity
  8
DASH
 62
     7
370
    18
100
AcDbLine
 10
931.1455509891557
 20
1128.666293340295
 30
0.0
 11
964.1455509891555
 21
1128.666293340294
 31
0.0
  0
LINE
  5
2D176
330
17
100
AcDbEntity
  8
DASH
 62
     7
370
    18
100
AcDbLine
 10
931.1455509891557
 20
1063.666293340294
 30
0.0
 11
964.1455509891555
 21
1063.666293340294
 31
0.0
  0
ARC
  5
2D177
330
17
100
AcDbEntity
  8
ZUKEI
 62
     7
370
    25
100
AcDbCircle
 10
918.6455509891541
 20
1053.666293340294
 30
0.0
 40
17.0
100
AcDbArc
 50
180.0
 51
270.0
  0
LINE
  5
2D178
330
17
100
AcDbEntity
  8
DASH
 62
     7
370
    18
100
AcDbLine
 10
931.1455509891557
 20
1128.666293340295
 30
0.0
 11
931.1455509891557
 21
1063.666293340294
 31
0.0
  0
LINE
  5
2D179
330
17
100
AcDbEntity
  8
DASH
 62
     7
370
    18
100
AcDbLine
 10
964.1455509891555
 20
1128.666293340294
 30
0.0
 11
964.1455509891555
 21
1063.666293340294
 31
0.0
  0
LINE
  5
2D17A
330
17
100
AcDbEntity
  8
ZUKEI
 62
     7
370
    25
100
AcDbLine
 10
1026.145550989165
 20
1095.166293340295
 30
0.0
 11
1026.145550989165
 21
1087.166293340295
 31
0.0
  0
LINE
  5
2D17B
330
17
100
AcDbEntity
  8
ZUKEI
 62
     7
370
    25
100
AcDbLine
 10
1026.145550989165
 20
1080.166293340295
 30
0.0
 11
1026.145550989165
 21
1072.166293340294
 31
0.0
  0
LINE
  5
2D17C
330
17
100
AcDbEntity
  8
ZUKEI
 62
     7
370
    25
100
AcDbLine
 10
1010.145550989165
 20
1080.166293340295
 30
0.0
 11
1010.145550989165
 21
1072.166293340294
 31
0.0
  0
LINE
  5
2D17D
330
17
100
AcDbEntity
  8
ZUKEI
 62
     7
370
    25
100
AcDbLine
 10
1010.145550989165
 20
1095.166293340295
 30
0.0
 11
1010.145550989165
 21
1087.166293340295
 31
0.0
  0
LINE
  5
2D17E
330
17
100
AcDbEntity
  8
ZUKEI
 62
     7
370
    25
100
AcDbLine
 10
1026.145550989165
 20
1072.166293340294
 30
0.0
 11
1010.145550989165
 21
1072.166293340294
 31
0.0
  0
LINE
  5
2D17F
330
17
100
AcDbEntity
  8
ZUKEI
 62
     7
370
    25
100
AcDbLine
 10
1010.145550989165
 20
1080.166293340295
 30
0.0
 11
1026.145550989165
 21
1080.166293340295
 31
0.0
  0
LINE
  5
2D180
330
17
100
AcDbEntity
  8
ZUKEI
 62
     7
370
    25
100
AcDbLine
 10
1010.145550989165
 20
1087.166293340295
 30
0.0
 11
1026.145550989165
 21
1087.166293340295
 31
0.0
  0
LINE
  5
2D181
330
17
100
AcDbEntity
  8
ZUKEI
 62
     7
370
    25
100
AcDbLine
 10
1010.145550989165
 20
1095.166293340295
 30
0.0
 11
1026.145550989165
 21
1095.166293340295
 31
0.0
  0
LINE
  5
2D182
330
17
100
AcDbEntity
  8
DIM
 62
     7
370
    18
100
AcDbLine
 10
1221.145550989165
 20
812.2427321892159
 30
0.0
 11
1221.145550989165
 21
682.2427321892156
 31
0.0
  0
LINE
  5
2D183
330
17
100
AcDbEntity
  8
DIM
 62
     7
370
    18
100
AcDbLine
 10
1136.145550989166
 20
812.2427321892159
 30
0.0
 11
1136.145550989166
 21
682.2427321892156
 31
0.0
  0
LINE
  5
2D184
330
17
100
AcDbEntity
  8
ZUKEI
 62
     7
370
    25
100
AcDbLine
 10
1176.60772881554
 20
505.1662933402943
 30
0.0
 11
1229.644625495857
 21
505.1662933402935
 31
0.0
  0
LINE
  5
2D185
330
17
100
AcDbEntity
  8
ZUKEI
 62
     7
370
    25
100
AcDbLine
 10
1190.655095913047
 20
505.1662933402943
 30
0.0
 11
1248.116858903031
 21
505.1662933402943
 31
0.0
  0
LWPOLYLINE
  5
2D186
330
17
100
AcDbEntity
  8
ZUKEI
 62
     7
370
    25
100
AcDbPolyline
 90
       16
 70
     1
 43
0.0
 10
1199.559730514801
 20
558.4662933402936
 42
0.0769657557824256
 10
1200.388533444654
 20
553.113956325494
 42
0.0868255636404357
 10
1202.611151943512
 20
548.849641116157
 42
0.1057457995553347
 10
1206.400856662339
 20
545.6159495924887
 42
0.1455683687626903
 10
1209.977934941219
 20
544.8662933402942
 42
0.1245603994657995
 10
1213.814098334186
 20
545.837022578244
 42
0.1057457995553349
 10
1217.344717938928
 20
548.849641116157
 42
0.0868255636404369
 10
1219.567336437786
 20
553.113956325494
 42
0.0769657557824217
 10
1220.396139367639
 20
558.4662933402936
 42
0.0769657557824225
 10
1219.567336437786
 20
563.8186303550923
 42
0.086825563640458
 10
1217.344717938928
 20
568.0829455644301
 42
0.1057457995553575
 10
1213.814098334184
 20
571.0955641023441
 42
0.1245603994657739
 10
1209.977934941221
 20
572.0662933402929
 42
0.1245603994658063
 10
1206.141771548254
 20
571.0955641023432
 42
0.1057457995553055
 10
1202.611151943512
 20
568.082945564431
 42
0.0868255636404378
 10
1200.388533444654
 20
563.8186303550932
 42
0.0769657557824121
  0
LWPOLYLINE
  5
2D187
330
17
100
AcDbEntity
  8
ZUKEI
 62
     7
370
    25
100
AcDbPolyline
 90
       16
 70
     1
 43
0.0
 10
1200.817137963452
 20
558.4662933402936
 42
0.0769657557824258
 10
1201.587052326101
 20
553.4942535549584
 42
0.0868255636404355
 10
1203.609338315774
 20
549.6142962398246
 42
0.1057457995553319
 10
1206.998926706809
 20
546.7220172729796
 42
0.1481106049023757
 10
1209.925378519455
 20
546.1239036574871
 42
0.1265208152647925
 10
1213.216028289715
 20
546.9430902587348
 42
0.1057457995553346
 10
1216.346531566666
 20
549.6142962398246
 42
0.0868255636404375
 10
1218.368817556338
 20
553.4942535549584
 42
0.0769657557824208
 10
1219.138731918988
 20
558.4662933402936
 42
0.076965755782424
 10
1218.36881755634
 20
563.4383331256286
 42
0.0868255636404604
 10
1216.346531566666
 20
567.3182904407624
 42
0.1057457995553532
 10
1213.216028289715
 20
569.9894964218522
 42
0.1245603994657762
 10
1209.977934941221
 20
570.8088858916437
 42
0.1245603994658014
 10
1206.739841592723
 20
569.9894964218522
 42
0.1057457995553058
 10
1203.609338315774
 20
567.3182904407624
 42
0.0868255636404388
 10
1201.587052326101
 20
563.4383331256286
 42
0.0769657557824121
  0
LINE
  5
2D188
330
17
100
AcDbEntity
  8
ZUKEI
 62
     7
370
    25
100
AcDbLine
 10
1179.588802919349
 20
544.8662933402696
 30
0.0
 11
1210.36865265651
 21
544.8662933403096
 31
0.0
  0
LINE
  5
2D189
330
17
100
AcDbEntity
  8
ZUKEI
 62
     7
370
    25
100
AcDbLine
 10
1179.588802919349
 20
572.0662933402921
 30
0.0
 11
1210.36865265651
 21
572.0662933402957
 31
0.0
  0
LINE
  5
2D18A
330
17
100
AcDbEntity
  8
ZUKEI
 62
     7
370
    25
100
AcDbLine
 10
1116.145550989166
 20
511.1662933402953
 30
0.0
 11
1287.04555098905
 21
511.1662933402943
 31
0.0
  0
LINE
  5
2D18B
330
17
100
AcDbEntity
  8
HOJO
 62
     7
370
    18
100
AcDbLine
 10
1156.349343052017
 20
465.1662933402936
 30
0.0
 11
1282.348587151226
 21
465.1662933402936
 31
0.0
  0
LINE
  5
2D18C
330
17
100
AcDbEntity
  8
ZUKEI
 62
     7
370
    25
100
AcDbLine
 10
1289.198417558824
 20
469.1662933402936
 30
0.0
 11
1156.349343052017
 21
469.1662933402936
 31
0.0
  0
LWPOLYLINE
  5
2D18D
330
17
100
AcDbEntity
  8
ZUKEI
 62
     7
370
    25
100
AcDbPolyline
 90
       15
 70
     0
 43
0.0
 10
1199.43176647488
 20
544.8444873123328
 42
-0.0699238280844273
 10
1195.304347206355
 20
537.2530899046974
 42
-0.106239636795507
 10
1187.182185876919
 20
530.1078253338122
 42
-0.1495559562006099
 10
1179.588802919349
 20
528.4662933402936
 42
-0.1281482373363467
 10
1171.450932784763
 20
530.5868240605572
 42
-0.1062396367955064
 10
1163.873258632341
 20
537.2530899046974
 42
-0.0851721693417716
 10
1159.139485053511
 20
546.6260210070635
 42
-0.0745735507777748
 10
1157.363667048587
 20
558.4662933402936
 42
-0.0745735507777815
 10
1159.139485053513
 20
570.3065656735248
 42
-0.0851721693417771
 10
1163.873258632341
 20
579.6794967758899
 42
-0.1062396367955404
 10
1171.450932784765
 20
586.3457626200299
 42
-0.1281482373363777
 10
1179.588802919349
 20
588.4662933402936
 42
-0.1281482373363703
 10
1187.726673053933
 20
586.3457626200291
 42
-0.106239636795517
 10
1195.304347206356
 20
579.6794967758899
 42
-0.0702487340430201
 10
1199.445824576407
 20
572.0504914227952
 42
-0.0745735507777661
  0
LINE
  5
2D18E
330
17
100
AcDbEntity
  8
ZUKEI
 62
     7
370
    25
100
AcDbLine
 10
1118.145550989166
 20
552.1662933402941
 30
0.0
 11
1118.145550989166
 21
515.1662933402944
 31
0.0
  0
LINE
  5
2D18F
330
17
100
AcDbEntity
  8
ZUKEI
 62
     7
370
    25
100
AcDbLine
 10
1116.145550989166
 20
515.1662933402944
 30
0.0
 11
1116.145550989166
 21
511.1662933402943
 31
0.0
  0
LINE
  5
2D190
330
17
100
AcDbEntity
  8
ZUKEI
 62
     7
370
    25
100
AcDbLine
 10
1166.16152087851
 20
469.1662933402936
 30
0.0
 11
1166.161520878508
 21
490.1662933402936
 31
0.0
  0
LINE
  5
2D191
330
17
100
AcDbEntity
  8
ZUKEI
 62
     7
370
    25
100
AcDbLine
 10
1160.949343052017
 20
465.1662933402936
 30
0.0
 11
1165.055513263935
 21
465.1662933402936
 31
0.0
  0
LINE
  5
2D192
330
17
100
AcDbEntity
  8
ZUKEI
 62
     7
370
    25
100
AcDbLine
 10
1156.349343052017
 20
469.1662933402936
 30
0.0
 11
1156.349343052017
 21
465.1662933402936
 31
0.0
  0
ARC
  5
2D193
330
17
100
AcDbEntity
  8
DIMTEXT
 62
     7
370
    18
100
AcDbCircle
 10
1181.161520878508
 20
490.1662933402936
 30
0.0
 40
15.0
100
AcDbArc
 50
90.0
 51
180.0
  0
LWPOLYLINE
  5
2D194
330
17
100
AcDbEntity
  8
ZUKEI
 62
     7
370
    25
100
AcDbPolyline
 90
        5
 70
     0
 43
0.0
 10
1201.891589586967
 20
572.0662933402929
 42
0.1245603994658063
 10
1198.055426194001
 20
571.0955641023432
 42
0.1057457995553055
 10
1194.524806589259
 20
568.082945564431
 42
0.0868255636404378
 10
1192.302188090402
 20
563.8186303550932
 42
0.0769657557824121
 10
1191.47338516055
 20
558.4662933402936
 42
0.0769657557824256
  0
LWPOLYLINE
  5
2D195
330
17
100
AcDbEntity
  8
ZUKEI
 62
     7
370
    25
100
AcDbPolyline
 90
        5
 70
     0
 43
0.0
 10
1191.47338516055
 20
558.4662933402936
 42
0.0769657557824256
 10
1192.302188090402
 20
553.113956325494
 42
0.0868255636404357
 10
1194.524806589259
 20
548.849641116157
 42
0.1057457995553347
 10
1198.314511308085
 20
545.6159495924887
 42
0.1455683687624852
 10
1201.891589586967
 20
544.8662933403197
 42
0.1245603994657995
  0
LWPOLYLINE
  5
2D196
330
17
100
AcDbEntity
  8
ZUKEI
 62
     7
370
    25
100
AcDbPolyline
 90
        5
 70
     0
 43
0.0
 10
1179.588802919349
 20
572.0662933402929
 42
0.1245603994658063
 10
1175.752639526381
 20
571.0955641023432
 42
0.1057457995553055
 10
1172.222019921639
 20
568.0829455644301
 42
0.0868255636404378
 10
1169.999401422782
 20
563.8186303550923
 42
0.0769657557824121
 10
1169.170598492929
 20
558.4662933402936
 42
0.0769657557824256
  0
LWPOLYLINE
  5
2D197
330
17
100
AcDbEntity
  8
ZUKEI
 62
     7
370
    25
100
AcDbPolyline
 90
        5
 70
     0
 43
0.0
 10
1169.170598492929
 20
558.4662933402936
 42
0.0769657557824256
 10
1169.999401422782
 20
553.113956325494
 42
0.0868255636404357
 10
1172.222019921639
 20
548.849641116157
 42
0.1057457995553347
 10
1176.011724640467
 20
545.6159495924878
 42
0.1455683687624852
 10
1179.588802919349
 20
544.8662933403197
 42
0.1245603994657995
  0
LINE
  5
2D198
330
17
100
AcDbEntity
  8
DIM
 62
     7
370
    18
100
AcDbLine
 10
1136.145550989166
 20
682.2427321892156
 30
0.0
 11
1221.145550989165
 21
682.2427321892156
 31
0.0
  0
ARC
  5
2D199
330
17
100
AcDbEntity
  8
ZUKEI
 62
     7
370
    25
100
AcDbCircle
 10
1240.524968894219
 20
485.1662933402935
 30
0.0
 40
20.0
100
AcDbArc
 50
0.0
 51
90.0
  0
LINE
  5
2D19A
330
17
100
AcDbEntity
  8
ZUKEI
 62
     7
370
    25
100
AcDbLine
 10
1235.971176831253
 20
505.1662933402935
 30
0.0
 11
1229.644625495857
 21
505.1662933402935
 31
0.0
  0
LINE
  5
2D19B
330
17
100
AcDbEntity
  8
ZUKEI
 62
     7
370
    25
100
AcDbLine
 10
1195.945550989049
 20
500.1662933402942
 30
0.0
 11
1200.94555098905
 21
505.1662933402943
 31
0.0
  0
LINE
  5
2D19C
330
17
100
AcDbEntity
  8
ZUKEI
 62
     7
370
    25
100
AcDbLine
 10
1253.010194995115
 20
511.1662933402945
 30
0.0
 11
1287.04555098905
 21
511.1662933402953
 31
0.0
  0
LINE
  5
2D19D
330
17
100
AcDbEntity
  8
ZUKEI
 62
     7
370
    25
100
AcDbLine
 10
1253.010194995115
 20
505.1662933402943
 30
0.0
 11
1280.245572568237
 21
505.1662933402954
 31
0.0
  0
ARC
  5
2D19E
330
17
100
AcDbEntity
  8
ZUKEI
 62
     7
370
    25
100
AcDbCircle
 10
1280.245550989051
 20
510.9662933402947
 30
0.0
 40
5.799999999999998
100
AcDbArc
 50
270.0
 51
0.0
  0
LINE
  5
2D19F
330
17
100
AcDbEntity
  8
ZUKEI
 62
     7
370
    25
100
AcDbLine
 10
1286.04555098905
 20
510.9662933402947
 30
0.0
 11
1286.04555098905
 21
511.1662933402945
 31
0.0
  0
ARC
  5
2D1A0
330
17
100
AcDbEntity
  8
ZUKEI
 62
     7
370
    25
100
AcDbCircle
 10
1270.524968894219
 20
476.7662933402938
 30
0.0
 40
10.0
100
AcDbArc
 50
180.0
 51
229.464197888662
  0
LINE
  5
2D1A1
330
17
100
AcDbEntity
  8
ZUKEI
 62
     7
370
    25
100
AcDbLine
 10
1260.524968894219
 20
476.7662933402938
 30
0.0
 11
1260.524968894219
 21
485.1662933402935
 31
0.0
  0
LINE
  5
2D1A2
330
17
100
AcDbEntity
  8
ZUKEI
 62
     7
370
    25
100
AcDbLine
 10
1289.198417558824
 20
468.1662933402935
 30
0.0
 11
1289.198417558824
 21
470.1662933402936
 31
0.0
  0
LINE
  5
2D1A3
330
17
100
AcDbEntity
  8
ZUKEI
 62
     7
370
    25
100
AcDbLine
 10
1289.198417558824
 20
468.1662933402935
 30
0.0
 11
1289.198417558824
 21
470.1662933402936
 31
0.0
  0
LINE
  5
2D1A4
330
17
100
AcDbEntity
  8
ZUKEI
 62
     7
370
    25
100
AcDbLine
 10
1287.598417558823
 20
469.1662933402936
 30
0.0
 11
1287.598417558823
 21
470.1662933402936
 31
0.0
  0
LINE
  5
2D1A5
330
17
100
AcDbEntity
  8
ZUKEI
 62
     7
370
    25
100
AcDbLine
 10
1282.348587151226
 20
465.1662933402936
 30
0.0
 11
1286.049310642223
 21
465.1662933402936
 31
0.0
  0
LINE
  5
2D1A6
330
17
100
AcDbEntity
  8
ZUKEI
 62
     7
370
    25
100
AcDbLine
 10
1289.198417558824
 20
470.1662933402936
 30
0.0
 11
1287.598417558823
 21
470.1662933402936
 31
0.0
  0
ARC
  5
2D1A7
330
17
100
AcDbEntity
  8
ZUKEI
 62
     7
370
    25
100
AcDbCircle
 10
1286.198417558822
 20
468.1662933402935
 30
0.0
 40
3.0
100
AcDbArc
 50
270.0
 51
0.0
  0
LINE
  5
2D1A8
330
17
100
AcDbEntity
  8
DIM
 62
     7
370
    18
100
AcDbLine
 10
1136.145550989166
 20
812.2427321892159
 30
0.0
 11
1221.145550989165
 21
812.2427321892159
 31
0.0
  0
ARC
  5
2D1A9
330
17
100
AcDbEntity
  8
ZUKEI
 62
     7
370
    25
100
AcDbCircle
 10
1051.645550989154
 20
1053.666293340294
 30
0.0
 40
17.0
100
AcDbArc
 50
270.0
 51
0.0
  0
CIRCLE
  5
2D1AA
330
17
100
AcDbEntity
  8
ZUKEI
 62
     7
370
    25
100
AcDbCircle
 10
1047.395550989153
 20
1100.666293340294
 30
0.0
 40
9.0
  0
TEXT
  5
2D1AB
330
17
100
AcDbEntity
  8
DIM
 62
     7
370
    18
100
AcDbText
 10
1592.028745319832
 20
487.6103102306646
 30
0.0
 40
51.2
  1
GL
 41
0.8
100
AcDbText
  0
DIMENSION
  5
2D1AC
330
17
100
AcDbEntity
  8
DIM
 62
     7
370
    18
100
AcDbDimension
  2
*D14
 10
1421.356479507894
 20
2210.366293340295
 30
0.0
 11
1382.356479507893
 21
2346.45200762601
 31
0.0
 70
    32
 71
     5
 42
59.99999999999953
  3
STANDARD
100
AcDbAlignedDimension
 13
1321.845550989168
 23
2150.366293340296
 33
0.0
 14
998.7455509891679
 24
2210.366293340296
 34
0.0
 50
90.0
100
AcDbRotatedDimension
1001
ACAD
1000
DSTYLE
1002
{
1070
    41
1040
3.0
1070
    42
1040
2.0
1070
    43
1040
10.0
1070
    44
1040
2.0
1070
    73
1070
     0
1070
    74
1070
     0
1070
    77
1070
     1
1070
    78
1070
     8
1070
    79
1070
     2
1070
   140
1040
3.2
1070
   147
1040
0.9999999999999996
1070
   172
1070
     1
1070
   179
1070
     8
1070
   271
1070
     8
1070
   272
1070
     8
1070
   341
1005
4A
1070
   342
1005
4A
1002
}
  0
LINE
  5
2D1AF
330
17
100
AcDbEntity
  8
ZUKEI
 62
     7
370
    25
100
AcDbLine
 10
918.6455509891557
 20
1164.666293340294
 30
0.0
 11
1051.645550989155
 21
1164.666293340294
 31
0.0
  0
LINE
  5
2D1B0
330
17
100
AcDbEntity
  8
ZUKEI
 62
     7
370
    25
100
AcDbLine
 10
913.6455509891558
 20
1153.166293340295
 30
0.0
 11
1057.645550989155
 21
1153.166293340295
 31
0.0
  0
ARC
  5
2D1B1
330
17
100
AcDbEntity
  8
ZUKEI
 62
     7
370
    25
100
AcDbCircle
 10
918.6455509891541
 20
1147.666293340295
 30
0.0
 40
17.0
100
AcDbArc
 50
90.0
 51
180.0
  0
ARC
  5
2D1B2
330
17
100
AcDbEntity
  8
ZUKEI
 62
     7
370
    25
100
AcDbCircle
 10
1051.645550989155
 20
1147.666293340295
 30
0.0
 40
17.0
100
AcDbArc
 50
0.0
 51
90.0
  0
DIMENSION
  5
2D1B3
330
17
100
AcDbEntity
  8
DIM
 62
     7
370
    18
100
AcDbDimension
  2
*D15
 10
1287.645550989165
 20
2307.366293340296
 30
0.0
 11
985.1455509891676
 21
2346.366293340296
 31
0.0
 70
    32
  1
φ<>（直径）
 71
     5
 42
604.9999999999982
  3
STANDARD
100
AcDbAlignedDimension
 13
682.6455509891684
 23
2145.366293340293
 33
0.0
 14
1287.645550989165
 24
2145.366293340296
 34
0.0
100
AcDbRotatedDimension
1001
ACAD
1000
DSTYLE
1002
{
1070
    41
1040
3.0
1070
    42
1040
2.0
1070
    43
1040
10.0
1070
    44
1040
2.0
1070
    73
1070
     0
1070
    74
1070
     0
1070
    77
1070
     1
1070
    78
1070
     8
1070
    79
1070
     2
1070
   140
1040
3.2
1070
   147
1040
0.9999999999999996
1070
   172
1070
     1
1070
   179
1070
     8
1070
   271
1070
     0
1070
   272
1070
     8
1070
   341
1005
4A
1070
   342
1005
4A
1002
}
  0
ARC
  5
2D1B4
330
17
100
AcDbEntity
  8
ZUKEI
 62
     7
370
    25
100
AcDbCircle
 10
1027.145550989167
 20
2152.366293340302
 30
0.0
 40
8.0
100
AcDbArc
 50
18.20995686399855
 51
90.0
  0
LINE
  5
2D1B5
330
17
100
AcDbEntity
  8
ZUKEI
 62
     7
370
    25
100
AcDbLine
 10
841.1455509891693
 20
2154.866293340303
 30
0.0
 11
1129.145550989167
 21
2154.866293340303
 31
0.0
  0
LINE
  5
2D1B6
330
17
100
AcDbEntity
  8
ZUKEI
 62
     7
370
    25
100
AcDbLine
 10
840.1455509891693
 20
2091.866293340303
 30
0.0
 11
1130.145550989167
 21
2091.866293340303
 31
0.0
  0
LINE
  5
2D1B7
330
17
100
AcDbEntity
  8
ZUKEI
 62
     7
370
    25
100
AcDbLine
 10
856.0221132451042
 20
2131.866293340303
 30
0.0
 11
1114.268988733231
 21
2131.866293340303
 31
0.0
  0
ARC
  5
2D1B8
330
17
100
AcDbEntity
  8
ZUKEI
 62
     7
370
    25
100
AcDbCircle
 10
985.1455509891735
 20
3164.973639567102
 30
0.0
 40
415.0
100
AcDbArc
 50
252.859831843952
 51
287.1401681560478
  0
LINE
  5
2D1B9
330
17
100
AcDbEntity
  8
ZUKEI
 62
     7
370
    25
100
AcDbLine
 10
840.1455509891738
 20
2879.473639567096
 30
0.0
 11
1130.145550989174
 21
2879.473639567097
 31
0.0
  0
ARC
  5
2D1BA
330
17
100
AcDbEntity
  8
ZUKEI
 62
     7
370
    25
100
AcDbCircle
 10
985.1455509891735
 20
3124.473639567102
 30
0.0
 40
315.5
100
AcDbArc
 50
242.6394777708873
 51
297.3605222291125
  0
LINE
  5
2D1BB
330
17
100
AcDbEntity
  8
ZUKEI
 62
     7
370
    25
100
AcDbLine
 10
785.9813068591845
 20
2180.366293340298
 30
0.0
 11
884.3098256367301
 21
2180.366293340298
 31
0.0
  0
LINE
  5
2D1BC
330
17
100
AcDbEntity
  8
ZUKEI
 62
     7
370
    25
100
AcDbLine
 10
787.4947932803697
 20
2178.366293340298
 30
0.0
 11
882.7963302771532
 21
2178.366293340298
 31
0.0
  0
LINE
  5
2D1BD
330
17
100
AcDbEntity
  8
ZUKEI
 62
     7
370
    25
100
AcDbLine
 10
788.8440355715738
 20
2176.366293340298
 30
0.0
 11
881.4471121831321
 21
2176.366293340298
 31
0.0
  0
LINE
  5
2D1BE
330
17
100
AcDbEntity
  8
ZUKEI
 62
     7
370
    25
100
AcDbLine
 10
840.1455509891693
 20
2150.366293340296
 30
0.0
 11
687.6455509891693
 21
2150.366293340296
 31
0.0
  0
LINE
  5
2D1BF
330
17
100
AcDbEntity
  8
ZUKEI
 62
     7
370
    25
100
AcDbLine
 10
840.1455509891693
 20
2115.366293340296
 30
0.0
 11
682.6455509891684
 21
2115.366293340295
 31
0.0
  0
LINE
  5
2D1C0
330
17
100
AcDbEntity
  8
ZUKEI
 62
     7
370
    25
100
AcDbLine
 10
682.6455509891684
 20
2145.366293340293
 30
0.0
 11
682.6455509891684
 21
2115.366293340295
 31
0.0
  0
ARC
  5
2D1C1
330
17
100
AcDbEntity
  8
ZUKEI
 62
     7
370
    25
100
AcDbCircle
 10
687.6455509891693
 20
2145.366293340293
 30
0.0
 40
5.0
100
AcDbArc
 50
90.0
 51
180.0
  0
ARC
  5
2D1C2
330
17
100
AcDbEntity
  8
ZUKEI
 62
     7
370
    25
100
AcDbCircle
 10
787.4947932803697
 20
2174.366293340298
 30
0.0
 40
4.000000000000047
100
AcDbArc
 50
90.0
 51
158.008870082853
  0
ARC
  5
2D1C3
330
17
100
AcDbEntity
  8
ZUKEI
 62
     7
370
    25
100
AcDbCircle
 10
788.8440355715703
 20
2172.366293340298
 30
0.0
 40
4.000000000000047
100
AcDbArc
 50
90.0
 51
158.0088700828588
  0
ARC
  5
2D1C4
330
17
100
AcDbEntity
  8
ZUKEI
 62
     7
370
    25
100
AcDbCircle
 10
785.9813068591828
 20
2176.366293340298
 30
0.0
 40
4.000000000000047
100
AcDbArc
 50
90.0
 51
139.304468960487
  0
ARC
  5
2D1C5
330
17
100
AcDbEntity
  8
ZUKEI
 62
     7
370
    25
100
AcDbCircle
 10
772.9470664067646
 20
2154.3662933403
 30
0.0
 40
4.000000000000047
100
AcDbArc
 50
269.9999999999478
 51
338.0088700827792
  0
ARC
  5
2D1C6
330
17
100
AcDbEntity
  8
ZUKEI
 62
     7
370
    25
100
AcDbCircle
 10
772.8093625771034
 20
2159.366293340303
 30
0.0
 40
4.000000000000047
100
AcDbArc
 50
270.0
 51
338.008870082853
  0
ARC
  5
2D1C7
330
17
100
AcDbEntity
  8
ZUKEI
 62
     7
370
    25
100
AcDbCircle
 10
761.268734086656
 20
2158.366293340298
 30
0.0
 40
3.00000000000005
100
AcDbArc
 50
270.0000000000521
 51
319.304468960487
  0
LINE
  5
2D1C8
330
17
100
AcDbEntity
  8
ZUKEI
 62
     7
370
    25
100
AcDbLine
 10
757.6455509891693
 20
2155.366293340298
 30
0.0
 11
757.6455509891693
 21
2150.366293340298
 31
0.0
  0
LINE
  5
2D1C9
330
17
100
AcDbEntity
  8
ZUKEI
 62
     7
370
    25
100
AcDbLine
 10
757.6455509891693
 20
2155.366293340298
 30
0.0
 11
773.1003829420024
 21
2155.366293340299
 31
0.0
  0
LINE
  5
2D1CA
330
17
100
AcDbEntity
  8
ZUKEI
 62
     7
370
    25
100
AcDbLine
 10
783.7858259319383
 20
2175.864145538703
 30
0.0
 11
776.5183299255368
 21
2157.868441141898
 31
0.0
  0
LINE
  5
2D1CB
330
17
100
AcDbEntity
  8
ZUKEI
 62
     7
370
    25
100
AcDbLine
 10
785.1350682231402
 20
2173.864145538701
 30
0.0
 11
776.6560337551982
 21
2152.868441141893
 31
0.0
  0
LINE
  5
2D1CC
330
17
100
AcDbEntity
  8
ZUKEI
 62
     7
370
    25
100
AcDbLine
 10
763.5432896755918
 20
2156.410175533812
 30
0.0
 11
782.9485660739374
 21
2178.97445041561
 31
0.0
  0
LINE
  5
2D1CD
330
17
100
AcDbEntity
  8
ZUKEI
 62
     7
370
    25
100
AcDbLine
 10
840.1455509891693
 20
2153.866293340302
 30
0.0
 11
840.1455509891693
 21
2091.866293340303
 31
0.0
  0
LINE
  5
2D1CE
330
17
100
AcDbEntity
  8
ZUKEI
 62
     7
370
    25
100
AcDbLine
 10
851.0236750130625
 20
2126.991254296103
 30
0.0
 11
850.1455509891693
 21
2091.866293340303
 31
0.0
  0
ARC
  5
2D1D0
330
17
100
AcDbEntity
  8
ZUKEI
 62
     7
370
    25
100
AcDbCircle
 10
943.1455509891677
 20
2152.366293340301
 30
0.0
 40
8.0
100
AcDbArc
 50
90.0
 51
161.7900431360014
  0
ARC
  5
2D1D1
330
17
100
AcDbEntity
  8
ZUKEI
 62
     7
370
    25
100
AcDbCircle
 10
882.7963086979652
 20
2174.366293340298
 30
0.0
 40
4.000000000000047
100
AcDbArc
 50
21.99112991714692
 51
90.0
  0
ARC
  5
2D1D2
330
17
100
AcDbEntity
  8
ZUKEI
 62
     7
370
    25
100
AcDbCircle
 10
884.3097951191522
 20
2176.366293340298
 30
0.0
 40
4.000000000000047
100
AcDbArc
 50
40.69553103951295
 51
90.0
  0
LINE
  5
2D1D3
330
17
100
AcDbEntity
  8
ZUKEI
 62
     7
370
    25
100
AcDbLine
 10
885.1560337551982
 20
2173.864145538701
 30
0.0
 11
892.828243296859
 21
2154.866293340303
 31
0.0
  0
ARC
  5
2D1D4
330
17
100
AcDbEntity
  8
ZUKEI
 62
     7
370
    25
100
AcDbCircle
 10
881.4470664067647
 20
2172.366293340298
 30
0.0
 40
4.000000000000047
100
AcDbArc
 50
21.99112991714089
 51
90.0
  0
ARC
  5
2D1D5
330
17
100
AcDbEntity
  8
ZUKEI
 62
     7
370
    25
100
AcDbCircle
 10
841.1455509891675
 20
2153.866293340302
 30
0.0
 40
1.0
100
AcDbArc
 50
90.0
 51
180.0
  0
ARC
  5
2D1D6
330
17
100
AcDbEntity
  8
ZUKEI
 62
     7
370
    25
100
AcDbCircle
 10
856.0221132451022
 20
2126.866293340303
 30
0.0
 40
5.0
100
AcDbArc
 50
90.0
 51
178.5679038158353
  0
LINE
  5
2D1D7
330
17
100
AcDbEntity
  8
ZUKEI
 62
     7
370
    25
100
AcDbLine
 10
912.6455725683536
 20
2155.366293340298
 30
0.0
 11
912.6455725683536
 21
2154.866293340303
 31
0.0
  0
LINE
  5
2D1D8
330
17
100
AcDbEntity
  8
ZUKEI
 62
     7
370
    25
100
AcDbLine
 10
912.6455509891693
 20
2155.366293340298
 30
0.0
 11
897.1907190363344
 21
2155.366293340299
 31
0.0
  0
ARC
  5
2D1D9
330
17
100
AcDbEntity
  8
ZUKEI
 62
     7
370
    25
100
AcDbCircle
 10
909.0223678916792
 20
2158.366293340298
 30
0.0
 40
3.00000000000005
100
AcDbArc
 50
220.6955310395128
 51
269.9999999999478
  0
ARC
  5
2D1DA
330
17
100
AcDbEntity
  8
ZUKEI
 62
     7
370
    25
100
AcDbCircle
 10
897.4817394012315
 20
2159.366293340303
 30
0.0
 40
4.000000000000047
100
AcDbArc
 50
201.9911299171468
 51
270.0
  0
LINE
  5
2D1DB
330
17
100
AcDbEntity
  8
ZUKEI
 62
     7
370
    25
100
AcDbLine
 10
886.5052760463987
 20
2175.864145538703
 30
0.0
 11
893.7727720528018
 21
2157.868441141898
 31
0.0
  0
LINE
  5
2D1DC
330
17
100
AcDbEntity
  8
ZUKEI
 62
     7
370
    25
100
AcDbLine
 10
906.7478123027449
 20
2156.410175533812
 30
0.0
 11
887.3425359043995
 21
2178.97445041561
 31
0.0
  0
LINE
  5
2D1DD
330
17
100
AcDbEntity
  8
ZUKEI
 62
     7
370
    25
100
AcDbLine
 10
968.1455509891677
 20
2172.366293340301
 30
0.0
 11
1002.145550989167
 21
2172.366293340302
 31
0.0
  0
LINE
  5
2D1DE
330
17
100
AcDbEntity
  8
ZUKEI
 62
     7
370
    25
100
AcDbLine
 10
971.545550989169
 20
2210.366293340296
 30
0.0
 11
998.7455509891679
 21
2210.366293340296
 31
0.0
  0
LINE
  5
2D1DF
330
17
100
AcDbEntity
  8
ZUKEI
 62
     7
370
    25
100
AcDbLine
 10
968.1455509891677
 20
2174.366293340303
 30
0.0
 11
1002.145550989167
 21
2174.366293340303
 31
0.0
  0
LINE
  5
2D1E0
330
17
100
AcDbEntity
  8
ZUKEI
 62
     7
370
    25
100
AcDbLine
 10
971.545550989169
 20
2195.836293340295
 30
0.0
 11
998.7455509891679
 21
2195.836293340295
 31
0.0
  0
ARC
  5
2D1E1
330
17
100
AcDbEntity
  8
ZUKEI
 62
     7
370
    25
100
AcDbCircle
 10
968.1455509891526
 20
2173.366293340599
 30
0.0
 40
1.000000000633004
100
AcDbArc
 50
90.00247279174109
 51
270.0000000008337
  0
ARC
  5
2D1E2
330
17
100
AcDbEntity
  8
BORDER
 62
     7
370
    18
100
AcDbCircle
 10
968.1455509891677
 20
2174.366293340303
 30
0.0
 40
0.0
100
AcDbArc
 50
180.0
 51
0.0
  0
LINE
  5
2D1E3
330
17
100
AcDbEntity
  8
ZUKEI
 62
     7
370
    25
100
AcDbLine
 10
971.545550989169
 20
2194.236293340293
 30
0.0
 11
973.1455509891711
 21
2195.836293340295
 31
0.0
  0
LINE
  5
2D1E4
330
17
100
AcDbEntity
  8
ZUKEI
 62
     7
370
    25
100
AcDbLine
 10
971.545550989169
 20
2210.366293340296
 30
0.0
 11
971.545550989169
 21
2174.366293340303
 31
0.0
  0
LINE
  5
2D1E5
330
17
100
AcDbEntity
  8
ZUKEI
 62
     7
370
    25
100
AcDbLine
 10
973.1455509891691
 20
2210.366293340298
 30
0.0
 11
973.1455509891675
 21
2195.836293340295
 31
0.0
  0
ARC
  5
2D1E6
330
17
100
AcDbEntity
  8
ZUKEI
 62
     7
370
    25
100
AcDbCircle
 10
966.1455509891693
 20
2162.366293340301
 30
0.0
 40
2.0
100
AcDbArc
 50
270.0
 51
0.0000000000065138
  0
LINE
  5
2D1E7
330
17
100
AcDbEntity
  8
ZUKEI
 62
     7
370
    25
100
AcDbLine
 10
943.1455509891693
 20
2160.366293340301
 30
0.0
 11
966.1455509891693
 21
2160.366293340301
 31
0.0
  0
LINE
  5
2D1E8
330
17
100
AcDbEntity
  8
ZUKEI
 62
     7
370
    25
100
AcDbLine
 10
968.1455509891677
 20
2172.366293340301
 30
0.0
 11
968.1455509891693
 21
2162.366293340301
 31
0.0
  0
ARC
  5
2D1E9
330
17
100
AcDbEntity
  8
ZUKEI
 62
     7
370
    25
100
AcDbCircle
 10
1002.145550989418
 20
2173.36629334052
 30
0.0
 40
0.99999999978354
100
AcDbArc
 50
269.9999999856696
 51
90.00000001433033
  0
LINE
  5
2D1EA
330
17
100
AcDbEntity
  8
ZUKEI
 62
     7
370
    25
100
AcDbLine
 10
998.7455509891679
 20
2194.236293340293
 30
0.0
 11
997.1455509891656
 21
2195.836293340295
 31
0.0
  0
LINE
  5
2D1EB
330
17
100
AcDbEntity
  8
ZUKEI
 62
     7
370
    25
100
AcDbLine
 10
998.7455509891679
 20
2210.366293340296
 30
0.0
 11
998.7455509891679
 21
2174.366293340303
 31
0.0
  0
LINE
  5
2D1EC
330
17
100
AcDbEntity
  8
ZUKEI
 62
     7
370
    25
100
AcDbLine
 10
997.1455509891676
 20
2210.366293340296
 30
0.0
 11
997.1455509891676
 21
2195.836293340295
 31
0.0
  0
ARC
  5
2D1ED
330
17
100
AcDbEntity
  8
ZUKEI
 62
     7
370
    25
100
AcDbCircle
 10
1004.145550989167
 20
2162.366293340303
 30
0.0
 40
2.0
100
AcDbArc
 50
180.0
 51
270.0
  0
LINE
  5
2D1EE
330
17
100
AcDbEntity
  8
ZUKEI
 62
     7
370
    25
100
AcDbLine
 10
1002.145550989167
 20
2172.366293340302
 30
0.0
 11
1002.145550989167
 21
2162.366293340303
 31
0.0
  0
LINE
  5
2D1EF
330
17
100
AcDbEntity
  8
ZUKEI
 62
     7
370
    25
100
AcDbLine
 10
1004.145550989167
 20
2160.366293340302
 30
0.0
 11
1027.145550989167
 21
2160.366293340302
 31
0.0
  0
ARC
  5
2D1F0
330
17
100
AcDbEntity
  8
ZUKEI
 62
     7
370
    25
100
AcDbCircle
 10
1027.920418594596
 20
3174.696945668237
 30
0.0
 40
415.0
100
AcDbArc
 50
228.1220189339868
 51
231.8779810659834
  0
ARC
  5
2D1F1
330
17
100
AcDbEntity
  8
ZUKEI
 62
     7
370
    25
100
AcDbCircle
 10
1027.920418594596
 20
3174.696945668237
 30
0.0
 40
400.47
100
AcDbArc
 50
228.1220189339868
 51
231.8779810659834
  0
LINE
  5
2D1F2
330
17
100
AcDbEntity
  8
ZUKEI
 62
     7
370
    25
100
AcDbLine
 10
750.8886355865048
 20
2865.701167050858
 30
0.0
 11
781.0538052011013
 21
2901.650616310269
 31
0.0
  0
LINE
  5
2D1F3
330
17
100
AcDbEntity
  8
ZUKEI
 62
     7
370
    25
100
AcDbLine
 10
752.0825703559311
 20
2864.634884978668
 30
0.0
 11
761.4263231587226
 21
2875.770335949705
 31
0.0
  0
LINE
  5
2D1F4
330
17
100
AcDbEntity
  8
ZUKEI
 62
     7
370
    25
100
AcDbLine
 10
770.4676369907864
 20
2849.207982346193
 30
0.0
 11
779.8113897935778
 21
2860.343433317233
 31
0.0
  0
LINE
  5
2D1F5
330
17
100
AcDbEntity
  8
ZUKEI
 62
     7
370
    25
100
AcDbLine
 10
771.7250444393481
 20
2848.217344067394
 30
0.0
 11
801.9356036372773
 21
2884.220886525805
 31
0.0
  0
ARC
  5
2D1F6
330
17
100
AcDbEntity
  8
ZUKEI
 62
     7
370
    25
100
AcDbCircle
 10
868.1455509891737
 20
2785.605744246478
 30
0.0
 40
18.0
100
AcDbArc
 50
180.0
 51
252.859831843952
  0
LINE
  5
2D1F7
330
17
100
AcDbEntity
  8
ZUKEI
 62
     7
370
    25
100
AcDbLine
 10
850.1455509891737
 20
2840.315350190833
 30
0.0
 11
850.1455509891737
 21
2785.605744246478
 31
0.0
  0
CIRCLE
  5
2D1F8
330
17
100
AcDbEntity
  8
ZUKEI
 62
     7
370
    25
100
AcDbCircle
 10
855.1455509891738
 20
2869.473639567096
 30
0.0
 40
3.0
  0
LINE
  5
2D1F9
330
17
100
AcDbEntity
  8
ZUKEI
 62
     7
370
    25
100
AcDbLine
 10
840.1455509891738
 20
2879.473639567096
 30
0.0
 11
840.1455509891738
 21
2844.267911574257
 31
0.0
  0
CIRCLE
  5
2D1FA
330
17
100
AcDbEntity
  8
ZUKEI
 62
     7
370
    25
100
AcDbCircle
 10
985.1455509891735
 20
2864.473639567096
 30
0.0
 40
3.0
  0
LINE
  5
2D1FB
330
17
100
AcDbEntity
  8
ZUKEI
 62
     7
370
    25
100
AcDbLine
 10
1130.145550989167
 20
2150.366293340296
 30
0.0
 11
1282.645550989166
 21
2150.366293340296
 31
0.0
  0
LINE
  5
2D1FC
330
17
100
AcDbEntity
  8
ZUKEI
 62
     7
370
    25
100
AcDbLine
 10
1130.145550989167
 20
2115.366293340296
 30
0.0
 11
1287.645550989167
 21
2115.366293340295
 31
0.0
  0
LINE
  5
2D1FD
330
17
100
AcDbEntity
  8
ZUKEI
 62
     7
370
    25
100
AcDbLine
 10
1130.145550989167
 20
2153.866293340302
 30
0.0
 11
1130.145550989167
 21
2091.866293340303
 31
0.0
  0
LINE
  5
2D1FE
330
17
100
AcDbEntity
  8
ZUKEI
 62
     7
370
    25
100
AcDbLine
 10
1119.267426965274
 20
2126.991254296103
 30
0.0
 11
1120.145550989167
 21
2091.866293340303
 31
0.0
  0
LINE
  5
2D1FF
330
17
100
AcDbEntity
  8
ZUKEI
 62
     7
370
    25
100
AcDbLine
 10
1184.309795119152
 20
2180.366293340298
 30
0.0
 11
1085.981276341606
 21
2180.366293340298
 31
0.0
  0
LINE
  5
2D200
330
17
100
AcDbEntity
  8
ZUKEI
 62
     7
370
    25
100
AcDbLine
 10
1181.447066406763
 20
2176.366293340298
 30
0.0
 11
1088.843989795204
 21
2176.366293340298
 31
0.0
  0
LINE
  5
2D201
330
17
100
AcDbEntity
  8
ZUKEI
 62
     7
370
    25
100
AcDbLine
 10
1182.796308697967
 20
2178.366293340298
 30
0.0
 11
1087.494771701183
 21
2178.366293340298
 31
0.0
  0
LINE
  5
2D202
330
17
100
AcDbEntity
  8
ZUKEI
 62
     7
370
    25
100
AcDbLine
 10
1083.785825931938
 20
2175.864145538703
 30
0.0
 11
1076.518329925534
 21
2157.868441141898
 31
0.0
  0
LINE
  5
2D203
330
17
100
AcDbEntity
  8
ZUKEI
 62
     7
370
    25
100
AcDbLine
 10
1085.135068223137
 20
2173.864145538701
 30
0.0
 11
1077.462858681478
 21
2154.866293340303
 31
0.0
  0
LINE
  5
2D204
330
17
100
AcDbEntity
  8
ZUKEI
 62
     7
370
    25
100
AcDbLine
 10
1063.543289675592
 20
2156.410175533812
 30
0.0
 11
1082.948566073937
 21
2178.97445041561
 31
0.0
  0
LINE
  5
2D205
330
17
100
AcDbEntity
  8
ZUKEI
 62
     7
370
    25
100
AcDbLine
 10
1057.645529409981
 20
2155.366293340298
 30
0.0
 11
1057.645529409981
 21
2154.866293340303
 31
0.0
  0
ARC
  5
2D206
330
17
100
AcDbEntity
  8
ZUKEI
 62
     7
370
    25
100
AcDbCircle
 10
1072.809362577103
 20
2159.366293340303
 30
0.0
 40
4.000000000000047
100
AcDbArc
 50
270.0
 51
338.008870082853
  0
ARC
  5
2D207
330
17
100
AcDbEntity
  8
ZUKEI
 62
     7
370
    25
100
AcDbCircle
 10
1061.268734086656
 20
2158.366293340298
 30
0.0
 40
3.00000000000005
100
AcDbArc
 50
270.0000000000521
 51
319.304468960487
  0
LINE
  5
2D208
330
17
100
AcDbEntity
  8
ZUKEI
 62
     7
370
    25
100
AcDbLine
 10
1057.645550989167
 20
2155.366293340298
 30
0.0
 11
1073.100382942002
 21
2155.366293340299
 31
0.0
  0
ARC
  5
2D209
330
17
100
AcDbEntity
  8
ZUKEI
 62
     7
370
    25
100
AcDbCircle
 10
1085.981306859183
 20
2176.366293340298
 30
0.0
 40
4.000000000000047
100
AcDbArc
 50
90.0
 51
139.304468960487
  0
ARC
  5
2D20A
330
17
100
AcDbEntity
  8
ZUKEI
 62
     7
370
    25
100
AcDbCircle
 10
1087.494793280368
 20
2174.366293340298
 30
0.0
 40
4.000000000000047
100
AcDbArc
 50
90.0
 51
158.008870082853
  0
ARC
  5
2D20B
330
17
100
AcDbEntity
  8
ZUKEI
 62
     7
370
    25
100
AcDbCircle
 10
1088.84403557157
 20
2172.366293340298
 30
0.0
 40
4.000000000000047
100
AcDbArc
 50
90.0
 51
158.0088700828588
  0
ARC
  5
2D20C
330
17
100
AcDbEntity
  8
ZUKEI
 62
     7
370
    25
100
AcDbCircle
 10
1129.145550989167
 20
2153.866293340302
 30
0.0
 40
1.0
100
AcDbArc
 50
0.0
 51
90.0
  0
ARC
  5
2D20D
330
17
100
AcDbEntity
  8
ZUKEI
 62
     7
370
    25
100
AcDbCircle
 10
1114.268988733231
 20
2126.866293340303
 30
0.0
 40
5.0
100
AcDbArc
 50
1.432096184164646
 51
90.0
  0
ARC
  5
2D20E
330
17
100
AcDbEntity
  8
ZUKEI
 62
     7
370
    25
100
AcDbCircle
 10
1129.145550989167
 20
2153.866293340302
 30
0.0
 40
1.0
100
AcDbArc
 50
0.0
 51
90.0
  0
ARC
  5
2D20F
330
17
100
AcDbEntity
  8
ZUKEI
 62
     7
370
    25
100
AcDbCircle
 10
1181.447066406764
 20
2172.366293340298
 30
0.0
 40
4.000000000000047
100
AcDbArc
 50
21.99112991714089
 51
90.0
  0
ARC
  5
2D210
330
17
100
AcDbEntity
  8
ZUKEI
 62
     7
370
    25
100
AcDbCircle
 10
1182.796308697964
 20
2174.366293340298
 30
0.0
 40
4.000000000000047
100
AcDbArc
 50
21.99112991714692
 51
90.0
  0
ARC
  5
2D211
330
17
100
AcDbEntity
  8
ZUKEI
 62
     7
370
    25
100
AcDbCircle
 10
1184.309795119152
 20
2176.366293340298
 30
0.0
 40
4.000000000000047
100
AcDbArc
 50
40.69553103951295
 51
90.0
  0
LINE
  5
2D212
330
17
100
AcDbEntity
  8
ZUKEI
 62
     7
370
    25
100
AcDbLine
 10
1212.645550989167
 20
2155.366293340298
 30
0.0
 11
1212.645550989167
 21
2150.366293340298
 31
0.0
  0
LINE
  5
2D213
330
17
100
AcDbEntity
  8
ZUKEI
 62
     7
370
    25
100
AcDbLine
 10
1212.645550989167
 20
2155.366293340298
 30
0.0
 11
1197.190719036334
 21
2155.366293340299
 31
0.0
  0
ARC
  5
2D214
330
17
100
AcDbEntity
  8
ZUKEI
 62
     7
370
    25
100
AcDbCircle
 10
1197.48173940123
 20
2159.366293340303
 30
0.0
 40
4.000000000000047
100
AcDbArc
 50
201.9911299171468
 51
270.0
  0
ARC
  5
2D215
330
17
100
AcDbEntity
  8
ZUKEI
 62
     7
370
    25
100
AcDbCircle
 10
1197.34403557157
 20
2154.3662933403
 30
0.0
 40
4.000000000000047
100
AcDbArc
 50
201.9911299172207
 51
270.0000000000521
  0
ARC
  5
2D216
330
17
100
AcDbEntity
  8
ZUKEI
 62
     7
370
    25
100
AcDbCircle
 10
1209.022367891678
 20
2158.366293340298
 30
0.0
 40
3.00000000000005
100
AcDbArc
 50
220.6955310395128
 51
269.9999999999478
  0
LINE
  5
2D217
330
17
100
AcDbEntity
  8
ZUKEI
 62
     7
370
    25
100
AcDbLine
 10
1185.156033755196
 20
2173.864145538701
 30
0.0
 11
1193.635068223138
 21
2152.868441141893
 31
0.0
  0
LINE
  5
2D218
330
17
100
AcDbEntity
  8
ZUKEI
 62
     7
370
    25
100
AcDbLine
 10
1186.505276046398
 20
2175.864145538703
 30
0.0
 11
1193.7727720528
 21
2157.868441141898
 31
0.0
  0
LINE
  5
2D219
330
17
100
AcDbEntity
  8
ZUKEI
 62
     7
370
    25
100
AcDbLine
 10
1206.747812302745
 20
2156.410175533812
 30
0.0
 11
1187.342535904399
 21
2178.97445041561
 31
0.0
  0
LINE
  5
2D21A
330
17
100
AcDbEntity
  8
ZUKEI
 62
     7
370
    25
100
AcDbLine
 10
1287.645550989167
 20
2145.366293340296
 30
0.0
 11
1287.645550989167
 21
2115.366293340296
 31
0.0
  0
ARC
  5
2D21B
330
17
100
AcDbEntity
  8
ZUKEI
 62
     7
370
    25
100
AcDbCircle
 10
1282.645550989166
 20
2145.366293340296
 30
0.0
 40
5.0
100
AcDbArc
 50
0.0
 51
90.0
  0
ARC
  5
2D21C
330
17
100
AcDbEntity
  8
ZUKEI
 62
     7
370
    25
100
AcDbCircle
 10
942.3101946981251
 20
3174.646294885155
 30
0.0
 40
400.47
100
AcDbArc
 50
308.1220189340164
 51
311.8779810660128
  0
ARC
  5
2D21D
330
17
100
AcDbEntity
  8
ZUKEI
 62
     7
370
    25
100
AcDbCircle
 10
942.3101946981251
 20
3174.646294885155
 30
0.0
 40
415.0
100
AcDbArc
 50
308.1220189340164
 51
311.8779810660128
  0
LINE
  5
2D21E
330
17
100
AcDbEntity
  8
ZUKEI
 62
     7
370
    25
100
AcDbLine
 10
1219.341977706217
 20
2865.650516267776
 30
0.0
 11
1189.176808091616
 21
2901.599965527189
 31
0.0
  0
LINE
  5
2D21F
330
17
100
AcDbEntity
  8
ZUKEI
 62
     7
370
    25
100
AcDbLine
 10
1120.145550989174
 20
2840.315350190833
 30
0.0
 11
1120.145550989174
 21
2785.605744246478
 31
0.0
  0
ARC
  5
2D220
330
17
100
AcDbEntity
  8
ZUKEI
 62
     7
370
    25
100
AcDbCircle
 10
1102.145550989173
 20
2785.605744246478
 30
0.0
 40
18.0
100
AcDbArc
 50
287.1401681560478
 51
0.0
  0
LINE
  5
2D221
330
17
100
AcDbEntity
  8
ZUKEI
 62
     7
370
    25
100
AcDbLine
 10
1130.145550989174
 20
2879.473639567097
 30
0.0
 11
1130.145550989174
 21
2844.267911574257
 31
0.0
  0
CIRCLE
  5
2D222
330
17
100
AcDbEntity
  8
ZUKEI
 62
     7
370
    25
100
AcDbCircle
 10
1115.145550989173
 20
2869.473639567096
 30
0.0
 40
3.0
  0
LINE
  5
2D223
330
17
100
AcDbEntity
  8
ZUKEI
 62
     7
370
    25
100
AcDbLine
 10
1199.762976301935
 20
2849.15733156311
 30
0.0
 11
1190.419223499143
 21
2860.29278253415
 31
0.0
  0
LINE
  5
2D224
330
17
100
AcDbEntity
  8
ZUKEI
 62
     7
370
    25
100
AcDbLine
 10
1198.505568853375
 20
2848.16669328431
 30
0.0
 11
1168.295009655446
 21
2884.170235742718
 31
0.0
  0
LINE
  5
2D225
330
17
100
AcDbEntity
  8
ZUKEI
 62
     7
370
    25
100
AcDbLine
 10
1218.14804293679
 20
2864.584234195586
 30
0.0
 11
1208.804290134
 21
2875.719685166624
 31
0.0
  0
LEADER
  5
2D226
330
17
100
AcDbEntity
  8
DIM
 62
     7
370
    18
100
AcDbLeader
  3
STANDARD
 76
     2
 10
1135.145550989168
 20
3234.973639567103
 30
0.0
 10
573.9434852359226
 20
3498.257768515568
 30
0.0
211
1.0
221
-0.0000000000000002
231
0.0
1001
ACAD
1000
DSTYLE
1002
{
1070
    41
1040
3.0
1070
    42
1040
2.0
1070
    43
1040
10.0
1070
    44
1040
2.0
1070
    73
1070
     0
1070
    74
1070
     0
1070
    77
1070
     1
1070
    78
1070
     8
1070
    79
1070
     2
1070
   140
1040
3.2
1070
   147
1040
0.9999999999999996
1070
   172
1070
     1
1070
   179
1070
     8
1070
   271
1070
     8
1070
   272
1070
     8
1070
   341
1005
4A
1070
   342
1005
4A
1002
}
  0
LEADER
  5
2D227
330
17
100
AcDbEntity
  8
DIM
 62
     7
370
    18
100
AcDbLeader
  3
STANDARD
 76
     2
 10
835.1455509891684
 20
3234.973639567103
 30
0.0
 10
573.9434852359226
 20
3498.257768515568
 30
0.0
211
1.0
221
-0.0000000000000002
231
0.0
1001
ACAD
1000
DSTYLE
1002
{
1070
    41
1040
3.0
1070
    42
1040
2.0
1070
    43
1040
10.0
1070
    44
1040
2.0
1070
    73
1070
     0
1070
    74
1070
     0
1070
    77
1070
     1
1070
    78
1070
     8
1070
    79
1070
     2
1070
   140
1040
3.2
1070
   147
1040
0.9999999999999996
1070
   172
1070
     1
1070
   179
1070
     8
1070
   271
1070
     8
1070
   272
1070
     8
1070
   341
1005
4A
1070
   342
1005
4A
1002
}
  0
LINE
  5
2D228
330
17
100
AcDbEntity
  8
MCEN
 62
     7
370
    25
100
AcDbLine
 10
594.0455509891672
 20
3124.973639567102
 30
0.0
 11
1376.245550989166
 21
3124.973639567102
 31
0.0
  0
LINE
  5
2D229
330
17
100
AcDbEntity
  8
DIM
 62
     7
370
    18
100
AcDbLine
 10
573.9434852359226
 20
3498.257768515569
 30
0.0
 11
388.5599342867287
 21
3498.257768515569
 31
0.0
  0
TEXT
  5
2D22A
330
17
100
AcDbEntity
  8
DIM
 62
     7
370
    18
100
AcDbText
 10
405.3429196220402
 20
3507.882768515568
 30
0.0
 40
48.0
  1
取　手
 41
0.8
 11
405.3429196220402
 21
3531.882768515568
 31
0.0
100
AcDbText
 73
     2
  0
CIRCLE
  5
2D22B
330
17
100
AcDbEntity
  8
ZUKEI
 62
     7
370
    25
100
AcDbCircle
 10
985.1455509891664
 20
3124.973639567099
 30
0.0
 40
50.0
  0
LINE
  5
2D22C
330
17
100
AcDbEntity
  8
ZUKEI
 62
     7
370
    25
100
AcDbLine
 10
757.6455509891684
 20
3216.973639567102
 30
0.0
 11
912.6455509891684
 21
3216.973639567102
 31
0.0
  0
LINE
  5
2D22D
330
17
100
AcDbEntity
  8
ZUKEI
 62
     7
370
    25
100
AcDbLine
 10
757.6455509891684
 20
3232.973639567102
 30
0.0
 11
912.6455509891684
 21
3232.973639567102
 31
0.0
  0
LINE
  5
2D22E
330
17
100
AcDbEntity
  8
ZUKEI
 62
     7
370
    25
100
AcDbLine
 10
757.6455509891684
 20
3214.973639567102
 30
0.0
 11
912.6455509891684
 21
3214.973639567102
 31
0.0
  0
LINE
  5
2D22F
330
17
100
AcDbEntity
  8
ZUKEI
 62
     7
370
    25
100
AcDbLine
 10
757.6455509891684
 20
3234.973639567102
 30
0.0
 11
912.6455509891684
 21
3234.973639567102
 31
0.0
  0
LINE
  5
2D230
330
17
100
AcDbEntity
  8
ZUKEI
 62
     7
370
    25
100
AcDbLine
 10
728.1613926734021
 20
2959.283258510334
 30
0.0
 11
713.1613926734011
 21
2985.264020623867
 31
0.0
  0
ARC
  5
2D231
330
17
100
AcDbEntity
  8
ZUKEI
 62
     7
370
    25
100
AcDbCircle
 10
724.2924671231016
 20
2948.966629533737
 30
0.0
 40
8.0
100
AcDbArc
 50
47.71893187343301
 51
120.0000000000005
  0
ARC
  5
2D232
330
17
100
AcDbEntity
  8
ZUKEI
 62
     7
370
    25
100
AcDbCircle
 10
718.6024131746312
 20
2956.639896670711
 30
0.0
 40
25.0
100
AcDbArc
 50
210.0000000000215
 51
298.4015084429243
  0
ARC
  5
2D233
330
17
100
AcDbEntity
  8
ZUKEI
 62
     7
370
    25
100
AcDbCircle
 10
718.6024131746312
 20
2956.639896670711
 30
0.0
 40
23.39999999999999
100
AcDbArc
 50
210.0000000000215
 51
298.347759035625
  0
ARC
  5
2D234
330
17
100
AcDbEntity
  8
ZUKEI
 62
     7
370
    25
100
AcDbCircle
 10
724.2924671231016
 20
2948.966629533737
 30
0.0
 40
9.599999999999999
100
AcDbArc
 50
47.71893187343301
 51
120.0000000000005
  0
LINE
  5
2D235
330
17
100
AcDbEntity
  8
ZUKEI
 62
     7
370
    25
100
AcDbLine
 10
726.7757520273455
 20
2958.483258510332
 30
0.0
 11
711.7757520273458
 21
2984.464020623866
 31
0.0
  0
ARC
  5
2D236
330
17
100
AcDbEntity
  8
ZUKEI
 62
     7
370
    25
100
AcDbCircle
 10
724.7661330841133
 20
2991.964020623864
 30
0.0
 40
15.0
100
AcDbArc
 50
158.3855019135608
 51
210.0000000000215
  0
ARC
  5
2D237
330
17
100
AcDbEntity
  8
ZUKEI
 62
     7
370
    25
100
AcDbCircle
 10
724.7661330841133
 20
2991.964020623864
 30
0.0
 40
13.4
100
AcDbArc
 50
165.2176477104218
 51
210.0000000000215
  0
ARC
  5
2D238
330
17
100
AcDbEntity
  8
ZUKEI
 62
     7
370
    25
100
AcDbCircle
 10
702.2924671231018
 20
2987.071747300253
 30
0.0
 40
9.599999999999999
100
AcDbArc
 50
300.0000000000005
 51
12.28106812660586
  0
ARC
  5
2D239
330
17
100
AcDbEntity
  8
ZUKEI
 62
     7
370
    25
100
AcDbCircle
 10
702.2924671231018
 20
2987.071747300253
 30
0.0
 40
8.0
100
AcDbArc
 50
300.0000000000005
 51
12.28106812660586
  0
LINE
  5
2D23A
330
17
100
AcDbEntity
  8
ZUKEI
 62
     7
370
    25
100
AcDbLine
 10
706.4436323580498
 20
3007.36628201098
 30
0.0
 11
692.9935973664765
 21
2999.600900687985
 31
0.0
  0
LINE
  5
2D23B
330
17
100
AcDbEntity
  8
ZUKEI
 62
     7
370
    25
100
AcDbLine
 10
707.0742715828122
 20
3005.882860875749
 30
0.0
 11
693.7935973664764
 21
2998.215260041931
 31
0.0
  0
LINE
  5
2D23C
330
17
100
AcDbEntity
  8
ZUKEI
 62
     7
370
    25
100
AcDbLine
 10
706.2924671231018
 20
2980.143544069977
 30
0.0
 11
685.3069796921886
 21
2968.027567252665
 31
0.0
  0
LINE
  5
2D23D
330
17
100
AcDbEntity
  8
ZUKEI
 62
     7
370
    25
100
AcDbLine
 10
707.0924671231018
 20
2978.757903423923
 30
0.0
 11
686.1069796921887
 21
2966.64192660661
 31
0.0
  0
ARC
  5
2D23E
330
17
100
AcDbEntity
  8
ZUKEI
 62
     7
370
    25
100
AcDbCircle
 10
706.0926844195096
 20
2978.307382463484
 30
0.0
 40
25.0
100
AcDbArc
 50
121.5984915570245
 51
210.0000000000215
  0
ARC
  5
2D23F
330
17
100
AcDbEntity
  8
ZUKEI
 62
     7
370
    25
100
AcDbCircle
 10
706.0926844195096
 20
2978.307382463484
 30
0.0
 40
23.39999999999999
100
AcDbArc
 50
121.6522409643405
 51
210.0000000000215
  0
LINE
  5
2D240
330
17
100
AcDbEntity
  8
ZUKEI
 62
     7
370
    25
100
AcDbLine
 10
696.9517780800193
 20
2944.139896670713
 30
0.0
 11
690.6969137024592
 21
2954.973639567099
 31
0.0
  0
LINE
  5
2D241
330
17
100
AcDbEntity
  8
ZUKEI
 62
     7
370
    25
100
AcDbLine
 10
698.3374187260745
 20
2944.939896670712
 30
0.0
 11
692.0825543485147
 21
2955.7736395671
 31
0.0
  0
LINE
  5
2D242
330
17
100
AcDbEntity
  8
ZUKEI
 62
     7
370
    25
100
AcDbLine
 10
719.4924671231023
 20
2957.28047341007
 30
0.0
 11
698.5069796921884
 21
2945.164496592755
 31
0.0
  0
LINE
  5
2D243
330
17
100
AcDbEntity
  8
ZUKEI
 62
     7
370
    25
100
AcDbLine
 10
720.2924671231023
 20
2955.894832764014
 30
0.0
 11
699.3069796921885
 21
2943.778855946701
 31
0.0
  0
LINE
  5
2D244
330
17
100
AcDbEntity
  8
ZUKEI
 62
     7
370
    25
100
AcDbLine
 10
684.4420493248994
 20
2965.807382463487
 30
0.0
 11
690.6969137024592
 21
2954.973639567099
 31
0.0
  0
LINE
  5
2D245
330
17
100
AcDbEntity
  8
ZUKEI
 62
     7
370
    25
100
AcDbLine
 10
685.8276899709538
 20
2966.607382463485
 30
0.0
 11
692.0825543485147
 21
2955.7736395671
 31
0.0
  0
CIRCLE
  5
2D246
330
17
100
AcDbEntity
  8
ZUKEI
 62
     7
370
    25
100
AcDbCircle
 10
703.6872947592261
 20
2962.473639567098
 30
0.0
 40
8.0
  0
LINE
  5
2D247
330
17
100
AcDbEntity
  8
ZUKEI
 62
     7
370
    25
100
AcDbLine
 10
743.9436323580498
 20
2942.414376727147
 30
0.0
 11
730.4935973664753
 21
2934.648995404152
 31
0.0
  0
LINE
  5
2D248
330
17
100
AcDbEntity
  8
ZUKEI
 62
     7
370
    25
100
AcDbLine
 10
742.9742715828122
 20
2943.702236884029
 30
0.0
 11
729.6935973664763
 21
2936.034636050206
 31
0.0
  0
ARC
  5
2D249
330
17
100
AcDbEntity
  8
ZUKEI
 62
     7
370
    25
100
AcDbCircle
 10
739.7661330841124
 20
2965.98325851033
 30
0.0
 40
15.0
100
AcDbArc
 50
210.0000000000215
 51
261.6144980864465
  0
ARC
  5
2D24A
330
17
100
AcDbEntity
  8
ZUKEI
 62
     7
370
    25
100
AcDbCircle
 10
739.7661330841124
 20
2965.98325851033
 30
0.0
 40
13.4
100
AcDbArc
 50
210.0000000000215
 51
254.7823522895874
  0
CIRCLE
  5
2D24B
330
17
100
AcDbEntity
  8
ZUKEI
 62
     7
370
    25
100
AcDbCircle
 10
767.6455509891684
 20
3224.973639567102
 30
0.0
 40
2.5
  0
LINE
  5
2D24C
330
17
100
AcDbEntity
  8
ZUKEI
 62
     7
370
    25
100
AcDbLine
 10
757.6455509891684
 20
3234.973639567102
 30
0.0
 11
757.6455509891684
 21
3214.973639567102
 31
0.0
  0
LINE
  5
2D24D
330
17
100
AcDbEntity
  8
ZUKEI
 62
     7
370
    25
100
AcDbLine
 10
789.1455509891684
 20
3234.973639567102
 30
0.0
 11
789.1455509891684
 21
3214.973639567102
 31
0.0
  0
LINE
  5
2D24E
330
17
100
AcDbEntity
  8
ZUKEI
 62
     7
370
    25
100
AcDbLine
 10
881.1455509891684
 20
3234.973639567102
 30
0.0
 11
881.1455509891684
 21
3214.973639567102
 31
0.0
  0
CIRCLE
  5
2D24F
330
17
100
AcDbEntity
  8
ZUKEI
 62
     7
370
    25
100
AcDbCircle
 10
902.6455509891684
 20
3224.9736395671
 30
0.0
 40
2.5
  0
LINE
  5
2D250
330
17
100
AcDbEntity
  8
ZUKEI
 62
     7
370
    25
100
AcDbLine
 10
912.6455509891684
 20
3234.973639567102
 30
0.0
 11
912.6455509891684
 21
3214.973639567102
 31
0.0
  0
CIRCLE
  5
2D251
330
17
100
AcDbEntity
  8
ZUKEI
 62
     7
370
    25
100
AcDbCircle
 10
985.1455509891684
 20
3124.973639567099
 30
0.0
 40
13.6
  0
CIRCLE
  5
2D252
330
17
100
AcDbEntity
  8
ZUKEI
 62
     7
370
    25
100
AcDbCircle
 10
985.1455509891684
 20
3124.973639567099
 30
0.0
 40
18.0
  0
ARC
  5
2D253
330
17
100
AcDbEntity
  8
ZUKEI
 62
     7
370
    25
100
AcDbCircle
 10
972.6358222340484
 20
3440.373639567099
 30
0.0
 40
25.0
100
AcDbArc
 50
90.0
 51
178.4015084429455
  0
ARC
  5
2D254
330
17
100
AcDbEntity
  8
ZUKEI
 62
     7
370
    25
100
AcDbCircle
 10
972.6358222340484
 20
3440.373639567099
 30
0.0
 40
23.39999999999999
100
AcDbArc
 50
90.0
 51
178.3477590356371
  0
LINE
  5
2D255
330
17
100
AcDbEntity
  8
ZUKEI
 62
     7
370
    25
100
AcDbLine
 10
971.1455509891719
 20
3439.282541867309
 30
0.0
 11
971.1455509891719
 21
3463.514495501935
 31
0.0
  0
LINE
  5
2D256
330
17
100
AcDbEntity
  8
ZUKEI
 62
     7
370
    25
100
AcDbLine
 10
972.7455509891704
 20
3439.282541867306
 30
0.0
 11
972.7455509891722
 21
3463.514495501935
 31
0.0
  0
CIRCLE
  5
2D257
330
17
100
AcDbEntity
  8
ZUKEI
 62
     7
370
    25
100
AcDbCircle
 10
985.14555098917
 20
3450.373639567099
 30
0.0
 40
8.0
  0
ARC
  5
2D258
330
17
100
AcDbEntity
  8
ZUKEI
 62
     7
370
    25
100
AcDbCircle
 10
997.65527974429
 20
3440.373639567099
 30
0.0
 40
25.0
100
AcDbArc
 50
1.598491557047823
 51
90.0
  0
ARC
  5
2D259
330
17
100
AcDbEntity
  8
ZUKEI
 62
     7
370
    25
100
AcDbCircle
 10
997.65527974429
 20
3440.373639567099
 30
0.0
 40
23.39999999999999
100
AcDbArc
 50
1.652240964362917
 51
90.0
  0
LINE
  5
2D25A
330
17
100
AcDbEntity
  8
ZUKEI
 62
     7
370
    25
100
AcDbLine
 10
999.1455509891718
 20
3439.282541867306
 30
0.0
 11
999.1455509891718
 21
3463.514495501935
 31
0.0
  0
LINE
  5
2D25B
330
17
100
AcDbEntity
  8
ZUKEI
 62
     7
370
    25
100
AcDbLine
 10
997.5455509891714
 20
3439.282541867306
 30
0.0
 11
997.5455509891714
 21
3463.514495501935
 31
0.0
  0
LINE
  5
2D25C
330
17
100
AcDbEntity
  8
ZUKEI
 62
     7
370
    25
100
AcDbLine
 10
1000.145550989171
 20
3432.373639567102
 30
0.0
 11
970.1455509891719
 21
3432.373639567102
 31
0.0
  0
LINE
  5
2D25D
330
17
100
AcDbEntity
  8
ZUKEI
 62
     7
370
    25
100
AcDbLine
 10
1000.145550989171
 20
3430.773639567101
 30
0.0
 11
970.1455509891719
 21
3430.773639567101
 31
0.0
  0
ARC
  5
2D25E
330
17
100
AcDbEntity
  8
ZUKEI
 62
     7
370
    25
100
AcDbCircle
 10
963.1455509891679
 20
3439.282541867306
 30
0.0
 40
9.599999999999999
100
AcDbArc
 50
287.7189318734098
 51
0.0
  0
ARC
  5
2D25F
330
17
100
AcDbEntity
  8
ZUKEI
 62
     7
370
    25
100
AcDbCircle
 10
970.145550989168
 20
3417.373639567099
 30
0.0
 40
15.0
100
AcDbArc
 50
90.0
 51
143.6774032197275
  0
ARC
  5
2D260
330
17
100
AcDbEntity
  8
ZUKEI
 62
     7
370
    25
100
AcDbCircle
 10
970.145550989168
 20
3417.373639567099
 30
0.0
 40
13.4
100
AcDbArc
 50
90.0
 51
137.3603487004293
  0
ARC
  5
2D261
330
17
100
AcDbEntity
  8
ZUKEI
 62
     7
370
    25
100
AcDbCircle
 10
963.1455509891679
 20
3439.282541867306
 30
0.0
 40
8.0
100
AcDbArc
 50
287.7189318734098
 51
0.0
  0
LINE
  5
2D262
330
17
100
AcDbEntity
  8
ZUKEI
 62
     7
370
    25
100
AcDbLine
 10
949.2455509891724
 20
3425.335820941522
 30
0.0
 11
949.2455509891724
 21
3441.071022609162
 31
0.0
  0
LINE
  5
2D263
330
17
100
AcDbEntity
  8
ZUKEI
 62
     7
370
    25
100
AcDbLine
 10
947.6455509891716
 20
3425.140259963173
 30
0.0
 11
947.6455509891719
 21
3441.071022609162
 31
0.0
  0
ARC
  5
2D264
330
17
100
AcDbEntity
  8
ZUKEI
 62
     7
370
    25
100
AcDbCircle
 10
1007.14555098917
 20
3439.282541867306
 30
0.0
 40
9.599999999999999
100
AcDbArc
 50
180.0
 51
252.2810681265899
  0
ARC
  5
2D265
330
17
100
AcDbEntity
  8
ZUKEI
 62
     7
370
    25
100
AcDbCircle
 10
1007.14555098917
 20
3439.282541867306
 30
0.0
 40
8.0
100
AcDbArc
 50
180.0
 51
252.2810681265899
  0
ARC
  5
2D266
330
17
100
AcDbEntity
  8
ZUKEI
 62
     7
370
    25
100
AcDbCircle
 10
1000.145550989169
 20
3417.373639567099
 30
0.0
 40
13.4
100
AcDbArc
 50
42.63965129956861
 51
90.0
  0
ARC
  5
2D267
330
17
100
AcDbEntity
  8
ZUKEI
 62
     7
370
    25
100
AcDbCircle
 10
1000.145550989169
 20
3417.373639567099
 30
0.0
 40
15.0
100
AcDbArc
 50
36.32259678027207
 51
90.0
  0
LINE
  5
2D268
330
17
100
AcDbEntity
  8
ZUKEI
 62
     7
370
    25
100
AcDbLine
 10
1021.045550989171
 20
3425.335820941521
 30
0.0
 11
1021.045550989171
 21
3441.071022609162
 31
0.0
  0
LINE
  5
2D269
330
17
100
AcDbEntity
  8
ZUKEI
 62
     7
370
    25
100
AcDbLine
 10
1022.64555098917
 20
3425.140259963173
 30
0.0
 11
1022.64555098917
 21
3441.071022609162
 31
0.0
  0
LINE
  5
2D26A
330
17
100
AcDbEntity
  8
ZUKEI
 62
     7
370
    25
100
AcDbLine
 10
972.6358222340502
 20
3465.373639567101
 30
0.0
 11
985.1455509891719
 21
3465.373639567101
 31
0.0
  0
LINE
  5
2D26B
330
17
100
AcDbEntity
  8
ZUKEI
 62
     7
370
    25
100
AcDbLine
 10
972.635822234052
 20
3463.773639567101
 30
0.0
 11
985.1455509891719
 21
3463.773639567101
 31
0.0
  0
LINE
  5
2D26C
330
17
100
AcDbEntity
  8
ZUKEI
 62
     7
370
    25
100
AcDbLine
 10
997.6552797442916
 20
3465.373639567101
 30
0.0
 11
985.1455509891719
 21
3465.373639567101
 31
0.0
  0
LINE
  5
2D26D
330
17
100
AcDbEntity
  8
ZUKEI
 62
     7
370
    25
100
AcDbLine
 10
997.6552797442916
 20
3463.773639567101
 30
0.0
 11
985.1455509891719
 21
3463.773639567101
 31
0.0
  0
LINE
  5
2D26E
330
17
100
AcDbEntity
  8
ZUKEI
 62
     7
370
    25
100
AcDbLine
 10
1212.645550989168
 20
3216.973639567102
 30
0.0
 11
1057.645550989168
 21
3216.973639567102
 31
0.0
  0
LINE
  5
2D26F
330
17
100
AcDbEntity
  8
ZUKEI
 62
     7
370
    25
100
AcDbLine
 10
1212.645550989168
 20
3232.973639567102
 30
0.0
 11
1057.645550989168
 21
3232.973639567102
 31
0.0
  0
LINE
  5
2D270
330
17
100
AcDbEntity
  8
ZUKEI
 62
     7
370
    25
100
AcDbLine
 10
1212.645550989168
 20
3214.973639567102
 30
0.0
 11
1057.645550989168
 21
3214.973639567102
 31
0.0
  0
LINE
  5
2D271
330
17
100
AcDbEntity
  8
ZUKEI
 62
     7
370
    25
100
AcDbLine
 10
1212.645550989168
 20
3234.973639567102
 30
0.0
 11
1057.645550989168
 21
3234.973639567102
 31
0.0
  0
CIRCLE
  5
2D272
330
17
100
AcDbEntity
  8
ZUKEI
 62
     7
370
    25
100
AcDbCircle
 10
1067.645550989168
 20
3224.973639567102
 30
0.0
 40
2.5
  0
LINE
  5
2D273
330
17
100
AcDbEntity
  8
ZUKEI
 62
     7
370
    25
100
AcDbLine
 10
1057.645550989168
 20
3234.973639567102
 30
0.0
 11
1057.645550989168
 21
3214.973639567102
 31
0.0
  0
LINE
  5
2D274
330
17
100
AcDbEntity
  8
ZUKEI
 62
     7
370
    25
100
AcDbLine
 10
1089.145550989168
 20
3234.973639567102
 30
0.0
 11
1089.145550989168
 21
3214.973639567102
 31
0.0
  0
LINE
  5
2D275
330
17
100
AcDbEntity
  8
ZUKEI
 62
     7
370
    25
100
AcDbLine
 10
1181.145550989168
 20
3234.973639567102
 30
0.0
 11
1181.145550989168
 21
3214.973639567102
 31
0.0
  0
CIRCLE
  5
2D276
330
17
100
AcDbEntity
  8
ZUKEI
 62
     7
370
    25
100
AcDbCircle
 10
1202.645550989168
 20
3224.973639567103
 30
0.0
 40
2.5
  0
LINE
  5
2D277
330
17
100
AcDbEntity
  8
ZUKEI
 62
     7
370
    25
100
AcDbLine
 10
1212.645550989168
 20
3234.973639567102
 30
0.0
 11
1212.645550989168
 21
3214.973639567102
 31
0.0
  0
LINE
  5
2D278
330
17
100
AcDbEntity
  8
ZUKEI
 62
     7
370
    25
100
AcDbLine
 10
1242.129709304933
 20
2959.283258510335
 30
0.0
 11
1257.129709304932
 21
2985.264020623868
 31
0.0
  0
ARC
  5
2D279
330
17
100
AcDbEntity
  8
ZUKEI
 62
     7
370
    25
100
AcDbCircle
 10
1245.998634855232
 20
2948.966629533738
 30
0.0
 40
8.0
100
AcDbArc
 50
59.99999999999944
 51
132.2810681265669
  0
ARC
  5
2D27A
330
17
100
AcDbEntity
  8
ZUKEI
 62
     7
370
    25
100
AcDbCircle
 10
1251.688688803704
 20
2956.639896670712
 30
0.0
 40
25.0
100
AcDbArc
 50
241.5984915570757
 51
329.9999999999783
  0
ARC
  5
2D27B
330
17
100
AcDbEntity
  8
ZUKEI
 62
     7
370
    25
100
AcDbCircle
 10
1251.688688803704
 20
2956.639896670712
 30
0.0
 40
23.39999999999999
100
AcDbArc
 50
241.6522409643749
 51
329.9999999999783
  0
ARC
  5
2D27C
330
17
100
AcDbEntity
  8
ZUKEI
 62
     7
370
    25
100
AcDbCircle
 10
1245.998634855232
 20
2948.966629533738
 30
0.0
 40
9.599999999999999
100
AcDbArc
 50
59.99999999999944
 51
132.2810681265669
  0
LINE
  5
2D27D
330
17
100
AcDbEntity
  8
ZUKEI
 62
     7
370
    25
100
AcDbLine
 10
1243.515349950989
 20
2958.483258510334
 30
0.0
 11
1258.515349950989
 21
2984.464020623867
 31
0.0
  0
ARC
  5
2D27E
330
17
100
AcDbEntity
  8
ZUKEI
 62
     7
370
    25
100
AcDbCircle
 10
1230.524968894222
 20
2965.983258510333
 30
0.0
 40
15.0
100
AcDbArc
 50
278.3855019135651
 51
329.9999999999783
  0
LINE
  5
2D27F
330
17
100
AcDbEntity
  8
ZUKEI
 62
     7
370
    25
100
AcDbLine
 10
1226.347469620287
 20
2942.414376727148
 30
0.0
 11
1239.797504611859
 21
2934.648995404153
 31
0.0
  0
LINE
  5
2D280
330
17
100
AcDbEntity
  8
ZUKEI
 62
     7
370
    25
100
AcDbLine
 10
1227.316830395525
 20
2943.702236884029
 30
0.0
 11
1240.59750461186
 21
2936.034636050208
 31
0.0
  0
ARC
  5
2D281
330
17
100
AcDbEntity
  8
ZUKEI
 62
     7
370
    25
100
AcDbCircle
 10
1230.524968894222
 20
2965.983258510333
 30
0.0
 40
13.4
100
AcDbArc
 50
285.2176477104277
 51
329.9999999999783
  0
ARC
  5
2D282
330
17
100
AcDbEntity
  8
ZUKEI
 62
     7
370
    25
100
AcDbCircle
 10
1264.198417558824
 20
2978.307382463487
 30
0.0
 40
25.0
100
AcDbArc
 50
329.9999999999783
 51
58.40150844297548
  0
ARC
  5
2D283
330
17
100
AcDbEntity
  8
ZUKEI
 62
     7
370
    25
100
AcDbCircle
 10
1264.198417558824
 20
2978.307382463487
 30
0.0
 40
23.39999999999999
100
AcDbArc
 50
329.9999999999783
 51
58.34775903565938
  0
ARC
  5
2D284
330
17
100
AcDbEntity
  8
ZUKEI
 62
     7
370
    25
100
AcDbCircle
 10
1245.524968894222
 20
2991.964020623866
 30
0.0
 40
15.0
100
AcDbArc
 50
329.9999999999783
 51
21.61449808643145
  0
ARC
  5
2D285
330
17
100
AcDbEntity
  8
ZUKEI
 62
     7
370
    25
100
AcDbCircle
 10
1245.524968894222
 20
2991.964020623866
 30
0.0
 40
13.4
100
AcDbArc
 50
329.9999999999783
 51
14.78235228956966
  0
ARC
  5
2D286
330
17
100
AcDbEntity
  8
ZUKEI
 62
     7
370
    25
100
AcDbCircle
 10
1267.998634855232
 20
2987.071747300253
 30
0.0
 40
9.599999999999999
100
AcDbArc
 50
167.7189318733941
 51
239.9999999999994
  0
ARC
  5
2D287
330
17
100
AcDbEntity
  8
ZUKEI
 62
     7
370
    25
100
AcDbCircle
 10
1267.998634855232
 20
2987.071747300253
 30
0.0
 40
8.0
100
AcDbArc
 50
167.7189318733941
 51
239.9999999999994
  0
LINE
  5
2D288
330
17
100
AcDbEntity
  8
ZUKEI
 62
     7
370
    25
100
AcDbLine
 10
1263.847469620287
 20
3007.36628201098
 30
0.0
 11
1277.297504611859
 21
2999.600900687986
 31
0.0
  0
LINE
  5
2D289
330
17
100
AcDbEntity
  8
ZUKEI
 62
     7
370
    25
100
AcDbLine
 10
1263.216830395524
 20
3005.882860875749
 30
0.0
 11
1276.497504611858
 21
2998.215260041932
 31
0.0
  0
LINE
  5
2D28A
330
17
100
AcDbEntity
  8
ZUKEI
 62
     7
370
    25
100
AcDbLine
 10
1263.998634855234
 20
2980.143544069981
 30
0.0
 11
1284.984122286147
 21
2968.027567252668
 31
0.0
  0
LINE
  5
2D28B
330
17
100
AcDbEntity
  8
ZUKEI
 62
     7
370
    25
100
AcDbLine
 10
1263.198634855233
 20
2978.757903423925
 30
0.0
 11
1284.184122286148
 21
2966.641926606611
 31
0.0
  0
LINE
  5
2D28C
330
17
100
AcDbEntity
  8
ZUKEI
 62
     7
370
    25
100
AcDbLine
 10
1273.339323898315
 20
2944.139896670713
 30
0.0
 11
1279.594188275876
 21
2954.9736395671
 31
0.0
  0
LINE
  5
2D28D
330
17
100
AcDbEntity
  8
ZUKEI
 62
     7
370
    25
100
AcDbLine
 10
1271.953683252261
 20
2944.939896670714
 30
0.0
 11
1278.208547629821
 21
2955.773639567102
 31
0.0
  0
LINE
  5
2D28E
330
17
100
AcDbEntity
  8
ZUKEI
 62
     7
370
    25
100
AcDbLine
 10
1249.998634855234
 20
2955.894832764015
 30
0.0
 11
1270.984122286147
 21
2943.778855946702
 31
0.0
  0
LINE
  5
2D28F
330
17
100
AcDbEntity
  8
ZUKEI
 62
     7
370
    25
100
AcDbLine
 10
1250.798634855233
 20
2957.280473410071
 30
0.0
 11
1271.784122286146
 21
2945.164496592757
 31
0.0
  0
CIRCLE
  5
2D290
330
17
100
AcDbEntity
  8
ZUKEI
 62
     7
370
    25
100
AcDbCircle
 10
1266.603807219107
 20
2962.473639567098
 30
0.0
 40
8.0
  0
LINE
  5
2D291
330
17
100
AcDbEntity
  8
ZUKEI
 62
     7
370
    25
100
AcDbLine
 10
1285.849052653436
 20
2965.807382463488
 30
0.0
 11
1279.594188275876
 21
2954.9736395671
 31
0.0
  0
LINE
  5
2D292
330
17
100
AcDbEntity
  8
ZUKEI
 62
     7
370
    25
100
AcDbLine
 10
1284.463412007381
 20
2966.607382463485
 30
0.0
 11
1278.208547629821
 21
2955.773639567102
 31
0.0
  0
MTEXT
  5
2D293
330
17
100
AcDbEntity
  8
DIM
 62
     7
370
    18
100
AcDbMText
 10
1616.476832930168
 20
3116.697436055438
 30
0.0
 40
48.0
 41
0.0
 71
     5
 72
     1
  1
（最大奥行き寸法）
 11
-0.0000000000000003
 21
1.0
 31
0.0
 73
     1
 44
1.0
  0
LEADER
  5
2D4B4
330
17
100
AcDbEntity
  8
DIM
 62
     7
370
    18
100
AcDbLeader
  3
STANDARD
 74
     0
 40
51.2
 41
245.7599999999998
 76
     2
 10
2140.470114325176
 20
2815.899429874792
 30
0.0
 10
2105.430432961393
 20
2605.756649768129
 30
0.0
211
1.0
221
-0.0000000000000002
231
0.0
1001
ACAD
1000
DSTYLE
1002
{
1070
    41
1040
3.0
1070
    42
1040
2.0
1070
    43
1040
10.0
1070
    44
1040
2.0
1070
    73
1070
     0
1070
    74
1070
     0
1070
    77
1070
     1
1070
    78
1070
     8
1070
    79
1070
     2
1070
   140
1040
3.2
1070
   147
1040
0.9999999999999996
1070
   172
1070
     1
1070
   179
1070
     8
1070
   271
1070
     8
1070
   272
1070
     8
1070
   341
1005
5132
1070
   342
1005
4A
1002
}
  0
DIMENSION
  5
2D4B5
330
17
100
AcDbEntity
  8
DIM
 62
     7
370
    18
100
AcDbDimension
  2
*D16
 10
2421.928370516559
 20
2978.399429852529
 30
0.0
 11
2586.334350139372
 21
3073.319266444143
 31
0.0
 70
    34
 71
     5
 42
2.0943951023932
  3
STANDARD
100
AcDb2LineAngularDimension
 13
2421.928370516559
 23
2496.366833618837
 33
0.0
 14
2421.928370516559
 24
3378.399429852523
 34
0.0
 15
2747.370656857166
 25
2790.505238228089
 35
0.0
 16
2570.476450129232
 26
3004.592464220671
 36
0.0
1001
ACAD
1000
DSTYLE
1002
{
1070
    41
1040
3.0
1070
    42
1040
2.0
1070
    43
1040
10.0
1070
    44
1040
2.0
1070
    73
1070
     0
1070
    74
1070
     0
1070
    77
1070
     1
1070
    78
1070
     8
1070
    79
1070
     2
1070
   140
1040
3.2
1070
   147
1040
0.9999999999999996
1070
   172
1070
     1
1070
   179
1070
     8
1070
   271
1070
     8
1070
   272
1070
     8
1070
   341
1005
4A
1070
   342
1005
4A
1002
}
  0
DIMENSION
  5
2D4B6
330
17
100
AcDbEntity
  8
DIM
 62
     7
370
    18
100
AcDbDimension
  2
*D17
 10
2421.928370516559
 20
2978.399429852529
 30
0.0
 11
2257.522390893753
 21
3073.319266444141
 31
0.0
 70
    34
 71
     5
 42
2.094395102393197
  3
STANDARD
100
AcDb2LineAngularDimension
 13
2421.928370516559
 23
2496.366833618837
 33
0.0
 14
2421.928370516559
 24
3378.399429852523
 34
0.0
 15
2096.486084175954
 25
2790.505238228089
 35
0.0
 16
2324.970497545217
 26
3093.949323296421
 36
0.0
1001
ACAD
1000
DSTYLE
1002
{
1070
    41
1040
3.0
1070
    42
1040
2.0
1070
    43
1040
10.0
1070
    44
1040
2.0
1070
    73
1070
     0
1070
    74
1070
     0
1070
    77
1070
     1
1070
    78
1070
     8
1070
    79
1070
     2
1070
   140
1040
3.2
1070
   147
1040
0.9999999999999996
1070
   172
1070
     1
1070
   179
1070
     8
1070
   271
1070
     8
1070
   272
1070
     8
1070
   341
1005
4A
1070
   342
1005
4A
1002
}
  0
LINE
  5
2D4B7
330
17
100
AcDbEntity
  8
MCEN
 62
     7
370
    25
100
AcDbLine
 10
2421.928370516559
 20
2496.366833618837
 30
0.0
 11
2421.928370516559
 21
3408.399429852529
 31
0.0
  0
ARC
  5
2D4B9
330
17
100
AcDbEntity
  8
ZUKEI
 62
     7
370
    25
100
AcDbCircle
 10
2421.928370516559
 20
3012.673602045577
 30
0.0
 40
411.9999999999997
100
AcDbArc
 50
252.922145010765
 51
287.0778549892349
  0
ARC
  5
2D4BA
330
17
100
AcDbEntity
  8
ZUKEI
 62
     7
370
    25
100
AcDbCircle
 10
2421.928370516559
 20
2974.173602045572
 30
0.0
 40
302.5000000000001
100
AcDbArc
 50
243.9172091667248
 51
296.0827908332751
  0
LINE
  5
2D4BC
330
17
100
AcDbEntity
  8
DIM
 62
     7
370
    18
100
AcDbLine
 10
1966.445405156662
 20
2203.700605046592
 30
0.0
 11
2886.07057383763
 21
2203.700605046591
 31
0.0
  0
TEXT
  5
2D4BE
330
17
100
AcDbEntity
  8
DIM
 62
     7
370
    18
100
AcDbText
 10
1972.648370516559
 20
2219.446899300189
 30
0.0
 40
54.0
  1
基礎ボルトおよび配管位置図（上空図）
 41
0.8
 72
     1
 11
2421.928370516559
 21
2219.446899300189
 31
0.0
100
AcDbText
  0
LINE
  5
2D4BF
330
17
100
AcDbEntity
  8
DIM
 62
     7
370
    18
100
AcDbLine
 10
2105.430432961393
 20
2605.756649768129
 30
0.0
 11
1588.173858619028
 21
2605.75664976813
 31
0.0
  0
TEXT
  5
2D4C0
330
17
100
AcDbEntity
  8
DIM
 62
     7
370
    18
100
AcDbText
 10
1598.306489395158
 20
2615.38164976813
 30
0.0
 40
48.0
  1
3-M12アンカーボルト
 41
0.8
 11
1598.306489395158
 21
2639.38164976813
 31
0.0
100
AcDbText
 73
     2
  0
TEXT
  5
2D4C5
330
17
100
AcDbEntity
  8
DIM
 62
     7
370
    18
100
AcDbText
 10
1656.354026239628
 20
2547.260903452701
 30
0.0
 40
48.0
  1
（3-φ17穴）
 41
0.8
 11
1656.354026239628
 21
2571.260903452701
 31
0.0
100
AcDbText
 73
     2
  0
LINE
  5
2D4C6
330
17
100
AcDbEntity
  8
ZUKEI
 62
     7
370
    25
100
AcDbLine
 10
2188.473761607391
 20
2717.606022306422
 30
0.0
 11
2197.817514410181
 21
2728.741473277461
 31
0.0
  0
ARC
  5
2D4C7
330
17
100
AcDbEntity
  8
ZUKEI
 62
     7
370
    25
100
AcDbCircle
 10
2464.311609846056
 20
3027.668082995991
 30
0.0
 40
415.0
100
AcDbArc
 50
228.122018933978
 51
231.8779810660445
  0
LINE
  5
2D4C8
330
17
100
AcDbEntity
  8
ZUKEI
 62
     7
370
    25
100
AcDbLine
 10
2187.279826837963
 20
2718.672304378613
 30
0.0
 11
2217.830937731393
 21
2755.081700543603
 31
0.0
  0
LINE
  5
2D4CA
330
17
100
AcDbEntity
  8
ZUKEI
 62
     7
370
    25
100
AcDbLine
 10
2208.116235690805
 20
2701.188481395147
 30
0.0
 11
2238.712816277432
 21
2737.652066230356
 31
0.0
  0
LINE
  5
2D4CB
330
17
100
AcDbEntity
  8
ZUKEI
 62
     7
370
    25
100
AcDbLine
 10
2206.858828242246
 20
2702.179119673945
 30
0.0
 11
2216.202581045036
 21
2713.314570644985
 31
0.0
  0
ARC
  5
2D4CC
330
17
100
AcDbEntity
  8
ZUKEI
 62
     7
370
    25
100
AcDbCircle
 10
2464.311609846056
 20
3027.668082995991
 30
0.0
 40
400.47
100
AcDbArc
 50
228.122018933978
 51
231.8779810660445
  0
LINE
  5
2D4CD
330
17
100
AcDbEntity
  8
ZUKEI
 62
     7
370
    25
100
AcDbLine
 10
2288.928370516559
 20
2635.09049861005
 30
0.0
 11
2288.928370516559
 21
2702.480300692747
 31
0.0
  0
ARC
  5
2D4CE
330
17
100
AcDbEntity
  8
ZUKEI
 62
     7
370
    25
100
AcDbCircle
 10
2305.928370516562
 20
2635.09049861005
 30
0.0
 40
17.0
100
AcDbArc
 50
180.0
 51
252.922145010765
  0
CIRCLE
  5
2D4CF
330
17
100
AcDbEntity
  8
ZUKEI
 62
     7
370
    25
100
AcDbCircle
 10
2331.92837051656
 20
2650.673602045577
 30
0.0
 40
15.5
  0
CIRCLE
  5
2D4D0
330
17
100
AcDbEntity
  8
ZUKEI
 62
     7
370
    25
100
AcDbCircle
 10
2331.92837051656
 20
2650.673602045577
 30
0.0
 40
9.5
  0
CIRCLE
  5
2D4D4
330
17
100
AcDbEntity
  8
ZUKEI
 62
     7
370
    25
100
AcDbCircle
 10
2421.928370516559
 20
2635.673602045577
 30
0.0
 40
15.5
  0
CIRCLE
  5
2D4D5
330
17
100
AcDbEntity
  8
ZUKEI
 62
     7
370
    25
100
AcDbCircle
 10
2421.928370516559
 20
2635.673602045577
 30
0.0
 40
9.5
  0
LINE
  5
2D4D6
330
17
100
AcDbEntity
  8
ZUKEI
 62
     7
370
    25
100
AcDbLine
 10
2554.928370516559
 20
2635.090498610054
 30
0.0
 11
2554.928370516559
 21
2702.480300692751
 31
0.0
  0
CIRCLE
  5
2D4D7
330
17
100
AcDbEntity
  8
ZUKEI
 62
     7
370
    25
100
AcDbCircle
 10
2511.928370516562
 20
2650.673602045577
 30
0.0
 40
9.5
  0
CIRCLE
  5
2D4D8
330
17
100
AcDbEntity
  8
ZUKEI
 62
     7
370
    25
100
AcDbCircle
 10
2511.928370516562
 20
2650.673602045577
 30
0.0
 40
15.5
  0
ARC
  5
2D4D9
330
17
100
AcDbEntity
  8
ZUKEI
 62
     7
370
    25
100
AcDbCircle
 10
2537.92837051656
 20
2635.090498610054
 30
0.0
 40
17.0
100
AcDbArc
 50
287.0778549892349
 51
0.0
  0
LINE
  5
2D4DA
330
17
100
AcDbEntity
  8
ZUKEI
 62
     7
370
    25
100
AcDbLine
 10
2635.740505342318
 20
2701.188481395146
 30
0.0
 11
2605.143924755691
 21
2737.652066230356
 31
0.0
  0
ARC
  5
2D4DB
330
17
100
AcDbEntity
  8
ZUKEI
 62
     7
370
    25
100
AcDbCircle
 10
2379.545131187068
 20
3027.66808299599
 30
0.0
 40
400.47
100
AcDbArc
 50
308.1220189339552
 51
311.8779810660218
  0
LINE
  5
2D4DC
330
17
100
AcDbEntity
  8
ZUKEI
 62
     7
370
    25
100
AcDbLine
 10
2636.99791279088
 20
2702.179119673945
 30
0.0
 11
2627.654159988088
 21
2713.314570644985
 31
0.0
  0
LINE
  5
2D4DD
330
17
100
AcDbEntity
  8
ZUKEI
 62
     7
370
    25
100
AcDbLine
 10
2656.576914195161
 20
2718.672304378612
 30
0.0
 11
2626.025803301737
 21
2755.081700543595
 31
0.0
  0
ARC
  5
2D4DE
330
17
100
AcDbEntity
  8
ZUKEI
 62
     7
370
    25
100
AcDbCircle
 10
2379.545131187068
 20
3027.66808299599
 30
0.0
 40
415.0
100
AcDbArc
 50
308.1220189339552
 51
311.8779810660218
  0
LINE
  5
2D4DF
330
17
100
AcDbEntity
  8
ZUKEI
 62
     7
370
    25
100
AcDbLine
 10
2655.382979425735
 20
2717.606022306422
 30
0.0
 11
2646.039226622943
 21
2728.74147327746
 31
0.0
  0
DIMENSION
  5
2D4E1
330
17
100
AcDbEntity
  8
DIM
 62
     7
370
    18
100
AcDbDimension
  2
*D18
 10
2703.428370516562
 20
3549.668391293538
 30
0.0
 11
2421.928370516559
 21
3549.668391293538
 31
0.0
 70
   160
 71
     5
 42
563.0
  3
STANDARD
100
AcDbAlignedDimension
 13
2140.42837051656
 23
2815.875329075648
 33
0.0
 14
2703.428370516562
 24
2815.875329075648
 34
0.0
100
AcDbRotatedDimension
1001
ACAD
1000
DSTYLE
1002
{
1070
    41
1040
3.0
1070
    42
1040
2.0
1070
    43
1040
10.0
1070
    44
1040
2.0
1070
    73
1070
     0
1070
    74
1070
     0
1070
    77
1070
     1
1070
    78
1070
     8
1070
    79
1070
     2
1070
   140
1040
3.2
1070
   147
1040
0.9999999999999996
1070
   172
1070
     1
1070
   179
1070
     8
1070
   271
1070
     0
1070
   272
1070
     8
1070
   341
1005
4A
1070
   342
1005
4A
1002
}
  0
LINE
  5
2D4E2
330
17
100
AcDbEntity
  8
CEN
 62
     7
370
    25
100
AcDbLine
 10
2070.274902612935
 20
2775.372205496901
 30
0.0
 11
2421.928370516559
 21
2978.399429852529
 31
0.0
  0
LINE
  5
2D4E3
330
17
100
AcDbEntity
  8
MCEN
 62
     7
370
    25
100
AcDbLine
 10
2031.928370516554
 20
2978.399429852529
 30
0.0
 11
2811.928370516556
 21
2978.399429852529
 31
0.0
  0
LINE
  5
2D4E4
330
17
100
AcDbEntity
  8
DASH
 62
     7
370
    18
100
AcDbLine
 10
2243.182834683651
 20
2831.899376433729
 30
0.0
 11
2182.430313887969
 21
2796.823892198395
 31
0.0
  0
LINE
  5
2D4E5
330
17
100
AcDbEntity
  8
DASH
 62
     7
370
    18
100
AcDbLine
 10
2242.850623101323
 20
2833.555094848651
 30
0.0
 11
2181.459808900941
 21
2798.111091744289
 31
0.0
  0
LINE
  5
2D4E6
330
17
100
AcDbEntity
  8
DASH
 62
     7
370
    18
100
AcDbLine
 10
2233.370656857161
 20
2834.894566962113
 30
0.0
 11
2184.007208841449
 21
2806.394566962114
 31
0.0
  0
LINE
  5
2D4E7
330
17
100
AcDbEntity
  8
DASH
 62
     7
370
    18
100
AcDbLine
 10
2232.570656857161
 20
2836.280207608169
 30
0.0
 11
2183.207208841448
 21
2807.780207608169
 31
0.0
  0
CIRCLE
  5
2D4E8
330
17
100
AcDbEntity
  8
DASH
 62
     7
370
    18
100
AcDbCircle
 10
2205.380275800393
 20
2853.375329075648
 30
0.0
 40
5.5
  0
LINE
  5
2D4E9
330
17
100
AcDbEntity
  8
DASH
 62
     7
370
    18
100
AcDbLine
 10
2205.682834683651
 20
2896.851281717562
 30
0.0
 11
2144.930313887969
 21
2861.775797482227
 31
0.0
  0
LINE
  5
2D4EA
330
17
100
AcDbEntity
  8
DASH
 62
     7
370
    18
100
AcDbLine
 10
2206.950623101322
 20
2895.735718840374
 30
0.0
 11
2145.55980890094
 21
2860.291715736013
 31
0.0
  0
LINE
  5
2D4EB
330
17
100
AcDbEntity
  8
DASH
 62
     7
370
    18
100
AcDbLine
 10
2203.370656857161
 20
2886.85609118918
 30
0.0
 11
2154.007208841449
 21
2858.35609118918
 31
0.0
  0
LINE
  5
2D4EC
330
17
100
AcDbEntity
  8
DASH
 62
     7
370
    18
100
AcDbLine
 10
2204.170656857161
 20
2885.470450543126
 30
0.0
 11
2154.807208841448
 21
2856.970450543126
 31
0.0
  0
LINE
  5
2D4ED
330
17
100
AcDbEntity
  8
ZUKEI
 62
     7
370
    25
100
AcDbLine
 10
2164.902468430736
 20
2812.684948018881
 30
0.0
 11
2149.902468430737
 21
2838.665710132414
 31
0.0
  0
LINE
  5
2D4EE
330
17
100
AcDbEntity
  8
ZUKEI
 62
     7
370
    25
100
AcDbLine
 10
2163.516827784682
 20
2811.88494801888
 30
0.0
 11
2148.516827784682
 21
2837.865710132414
 31
0.0
  0
LINE
  5
2D4EF
330
17
100
AcDbEntity
  8
ZUKEI
 62
     7
370
    25
100
AcDbLine
 10
2157.033542880439
 20
2809.296522272562
 30
0.0
 11
2136.048055449524
 21
2797.180545455248
 31
0.0
  0
ARC
  5
2D4F0
330
17
100
AcDbEntity
  8
ZUKEI
 62
     7
370
    25
100
AcDbCircle
 10
2155.343488931965
 20
2810.04158617926
 30
0.0
 40
23.39999999999999
100
AcDbArc
 50
210.0000000000103
 51
298.347759035622
  0
ARC
  5
2D4F1
330
17
100
AcDbEntity
  8
ZUKEI
 62
     7
370
    25
100
AcDbCircle
 10
2155.343488931965
 20
2810.04158617926
 30
0.0
 40
25.0
100
AcDbArc
 50
210.0000000000103
 51
298.4015084429366
  0
LINE
  5
2D4F2
330
17
100
AcDbEntity
  8
ZUKEI
 62
     7
370
    25
100
AcDbLine
 10
2156.233542880438
 20
2810.682162918617
 30
0.0
 11
2135.248055449523
 21
2798.566186101303
 31
0.0
  0
ARC
  5
2D4F3
330
17
100
AcDbEntity
  8
DASH
 62
     7
370
    18
100
AcDbCircle
 10
2161.507208841449
 20
2845.365710132413
 30
0.0
 40
15.0
100
AcDbArc
 50
119.9999999999973
 51
148.5832703310939
  0
ARC
  5
2D4F4
330
17
100
AcDbEntity
  8
DASH
 62
     7
370
    18
100
AcDbCircle
 10
2161.507208841449
 20
2845.365710132413
 30
0.0
 40
13.4
100
AcDbArc
 50
119.9999999999973
 51
153.2933140377809
  0
ARC
  5
2D4F5
330
17
100
AcDbEntity
  8
ZUKEI
 62
     7
370
    25
100
AcDbCircle
 10
2139.033542880437
 20
2840.473436808802
 30
0.0
 40
8.0
100
AcDbArc
 50
299.9999999999971
 51
12.2810681265804
  0
ARC
  5
2D4F6
330
17
100
AcDbEntity
  8
ZUKEI
 62
     7
370
    25
100
AcDbCircle
 10
2139.033542880437
 20
2840.473436808802
 30
0.0
 40
9.599999999999999
100
AcDbArc
 50
299.9999999999971
 51
12.2810681265804
  0
ARC
  5
2D4F7
330
17
100
AcDbEntity
  8
ZUKEI
 62
     7
370
    25
100
AcDbCircle
 10
2142.833760176845
 20
2831.709071972035
 30
0.0
 40
23.39999999999999
100
AcDbArc
 50
121.6522409643473
 51
210.0000000000103
  0
ARC
  5
2D4F8
330
17
100
AcDbEntity
  8
ZUKEI
 62
     7
370
    25
100
AcDbCircle
 10
2142.833760176845
 20
2831.709071972035
 30
0.0
 40
25.0
100
AcDbArc
 50
121.5984915570723
 51
210.0000000000103
  0
LINE
  5
2D4F9
330
17
100
AcDbEntity
  8
ZUKEI
 62
     7
370
    25
100
AcDbLine
 10
2143.833542880438
 20
2832.15959293247
 30
0.0
 11
2122.848055449525
 21
2820.043616115158
 31
0.0
  0
LINE
  5
2D4FA
330
17
100
AcDbEntity
  8
ZUKEI
 62
     7
370
    25
100
AcDbLine
 10
2143.033542880437
 20
2833.545233578526
 30
0.0
 11
2122.048055449524
 21
2821.429256761212
 31
0.0
  0
ARC
  5
2D4FB
330
17
100
AcDbEntity
  8
ZUKEI
 62
     7
370
    25
100
AcDbCircle
 10
2161.507208841449
 20
2845.365710132413
 30
0.0
 40
13.4
100
AcDbArc
 50
153.2933140377809
 51
210.0000000000103
  0
ARC
  5
2D4FC
330
17
100
AcDbEntity
  8
ZUKEI
 62
     7
370
    25
100
AcDbCircle
 10
2161.507208841449
 20
2845.365710132413
 30
0.0
 40
15.0
100
AcDbArc
 50
148.5832703310939
 51
210.0000000000103
  0
LINE
  5
2D4FD
330
17
100
AcDbEntity
  8
ZUKEI
 62
     7
370
    25
100
AcDbLine
 10
2135.07849448341
 20
2798.34158617926
 30
0.0
 11
2128.823630105849
 21
2809.175329075645
 31
0.0
  0
LINE
  5
2D4FE
330
17
100
AcDbEntity
  8
ZUKEI
 62
     7
370
    25
100
AcDbLine
 10
2133.692853837354
 20
2797.54158617926
 30
0.0
 11
2127.437989459795
 21
2808.375329075647
 31
0.0
  0
CIRCLE
  5
2D4FF
330
17
100
AcDbEntity
  8
ZUKEI
 62
     7
370
    25
100
AcDbCircle
 10
2140.42837051656
 20
2815.875329075648
 30
0.0
 40
8.0
  0
LINE
  5
2D500
330
17
100
AcDbEntity
  8
ZUKEI
 62
     7
370
    25
100
AcDbLine
 10
2122.568765728289
 20
2820.009071972032
 30
0.0
 11
2128.823630105849
 21
2809.175329075645
 31
0.0
  0
LINE
  5
2D501
330
17
100
AcDbEntity
  8
ZUKEI
 62
     7
370
    25
100
AcDbLine
 10
2121.183125082236
 20
2819.209071972035
 30
0.0
 11
2127.437989459795
 21
2808.375329075647
 31
0.0
  0
LINE
  5
2D502
330
17
100
AcDbEntity
  8
ZUKEI
 62
     7
370
    25
100
AcDbLine
 10
2145.55980890094
 20
2860.291715736013
 30
0.0
 11
2130.534673123813
 21
2851.616949550478
 31
0.0
  0
LINE
  5
2D503
330
17
100
AcDbEntity
  8
ZUKEI
 62
     7
370
    25
100
AcDbLine
 10
2144.930313887969
 20
2861.775797482227
 30
0.0
 11
2129.734673123812
 21
2853.002590196533
 31
0.0
  0
ARC
  5
2D504
330
17
100
AcDbEntity
  8
ZUKEI
 62
     7
370
    25
100
AcDbCircle
 10
2176.507208841448
 20
2819.384948018881
 30
0.0
 40
13.4
100
AcDbArc
 50
210.0000000000103
 51
266.7066859622378
  0
ARC
  5
2D505
330
17
100
AcDbEntity
  8
ZUKEI
 62
     7
370
    25
100
AcDbCircle
 10
2176.507208841448
 20
2819.384948018881
 30
0.0
 40
15.0
100
AcDbArc
 50
210.0000000000103
 51
271.416729668902
  0
ARC
  5
2D506
330
17
100
AcDbEntity
  8
ZUKEI
 62
     7
370
    25
100
AcDbCircle
 10
2161.033542880437
 20
2802.368319042285
 30
0.0
 40
8.0
100
AcDbArc
 50
47.7189318733813
 51
119.9999999999973
  0
ARC
  5
2D507
330
17
100
AcDbEntity
  8
ZUKEI
 62
     7
370
    25
100
AcDbCircle
 10
2161.033542880437
 20
2802.368319042285
 30
0.0
 40
9.599999999999999
100
AcDbArc
 50
47.7189318733813
 51
119.9999999999973
  0
ARC
  5
2D508
330
17
100
AcDbEntity
  8
DASH
 62
     7
370
    18
100
AcDbCircle
 10
2176.507208841448
 20
2819.384948018881
 30
0.0
 40
15.0
100
AcDbArc
 50
271.416729668902
 51
299.9999999999971
  0
ARC
  5
2D509
330
17
100
AcDbEntity
  8
DASH
 62
     7
370
    18
100
AcDbCircle
 10
2176.507208841448
 20
2819.384948018881
 30
0.0
 40
13.4
100
AcDbArc
 50
266.7066859622378
 51
299.9999999999971
  0
CIRCLE
  5
2D50A
330
17
100
AcDbEntity
  8
DASH
 62
     7
370
    18
100
AcDbCircle
 10
2182.569386667938
 20
2822.884948018881
 30
0.0
 40
1.5
  0
LINE
  5
2D50B
330
17
100
AcDbEntity
  8
ZUKEI
 62
     7
370
    25
100
AcDbLine
 10
2181.459808900941
 20
2798.111091744289
 30
0.0
 11
2166.434673123811
 21
2789.436325558754
 31
0.0
  0
LINE
  5
2D50C
330
17
100
AcDbEntity
  8
ZUKEI
 62
     7
370
    25
100
AcDbLine
 10
2182.430313887969
 20
2796.823892198395
 30
0.0
 11
2167.23467312381
 21
2788.0506849127
 31
0.0
  0
LINE
  5
2D50D
330
17
100
AcDbEntity
  8
DASH
 62
     7
370
    18
100
AcDbLine
 10
2238.861037913927
 20
2855.38494801888
 30
0.0
 11
2223.861037913926
 21
2881.365710132413
 31
0.0
  0
LINE
  5
2D50E
330
17
100
AcDbEntity
  8
DASH
 62
     7
370
    18
100
AcDbLine
 10
2248.673215740418
 20
2852.389757490497
 30
0.0
 11
2226.173215740418
 21
2891.360900660797
 31
0.0
  0
LINE
  5
2D50F
330
17
100
AcDbEntity
  8
DASH
 62
     7
370
    18
100
AcDbLine
 10
2237.475397267871
 20
2854.584948018881
 30
0.0
 11
2222.475397267873
 21
2880.565710132414
 31
0.0
  0
LINE
  5
2D510
330
17
100
AcDbEntity
  8
DASH
 62
     7
370
    18
100
AcDbLine
 10
2224.787575094364
 20
2890.560900660797
 30
0.0
 11
2247.287575094364
 21
2851.589757490498
 31
0.0
  0
ARC
  5
2D511
330
17
100
AcDbEntity
  8
DASH
 62
     7
370
    18
100
AcDbCircle
 10
2235.682834683652
 20
2844.889757490498
 30
0.0
 40
15.0
100
AcDbArc
 50
299.9999999999971
 51
30.00000000001032
  0
ARC
  5
2D512
330
17
100
AcDbEntity
  8
DASH
 62
     7
370
    18
100
AcDbCircle
 10
2235.682834683652
 20
2844.889757490498
 30
0.0
 40
13.4
100
AcDbArc
 50
299.9999999999971
 51
30.00000000001032
  0
ARC
  5
2D513
330
17
100
AcDbEntity
  8
DASH
 62
     7
370
    18
100
AcDbCircle
 10
2225.870656857161
 20
2847.884948018881
 30
0.0
 40
13.4
100
AcDbArc
 50
299.9999999999971
 51
30.00000000001032
  0
ARC
  5
2D514
330
17
100
AcDbEntity
  8
DASH
 62
     7
370
    18
100
AcDbCircle
 10
2225.870656857161
 20
2847.884948018881
 30
0.0
 40
15.0
100
AcDbArc
 50
299.9999999999971
 51
30.00000000001032
  0
ARC
  5
2D515
330
17
100
AcDbEntity
  8
DASH
 62
     7
370
    18
100
AcDbCircle
 10
2213.182834683652
 20
2883.860900660797
 30
0.0
 40
13.4
100
AcDbArc
 50
30.00000000001032
 51
119.9999999999973
  0
ARC
  5
2D516
330
17
100
AcDbEntity
  8
DASH
 62
     7
370
    18
100
AcDbCircle
 10
2210.870656857161
 20
2873.865710132414
 30
0.0
 40
13.4
100
AcDbArc
 50
30.00000000001032
 51
119.9999999999973
  0
ARC
  5
2D517
330
17
100
AcDbEntity
  8
DASH
 62
     7
370
    18
100
AcDbCircle
 10
2210.870656857161
 20
2873.865710132414
 30
0.0
 40
15.0
100
AcDbArc
 50
30.00000000001032
 51
119.9999999999973
  0
ARC
  5
2D518
330
17
100
AcDbEntity
  8
DASH
 62
     7
370
    18
100
AcDbCircle
 10
2213.182834683652
 20
2883.860900660797
 30
0.0
 40
15.0
100
AcDbArc
 50
30.00000000001032
 51
119.9999999999973
  0
DIMENSION
  5
2D51B
330
17
100
AcDbEntity
  8
DIM
 62
     7
370
    18
100
AcDbDimension
  2
*D19
 10
2907.928370516556
 20
3318.375329075648
 30
0.0
 11
2868.928370516556
 21
3450.80390050422
 31
0.0
 70
    32
 71
     5
 42
15.0
  3
STANDARD
100
AcDbAlignedDimension
 13
2421.928370516559
 23
3303.375329075648
 33
0.0
 14
2434.438099271681
 24
3318.375329075648
 34
0.0
 50
90.0
100
AcDbRotatedDimension
1001
ACAD
1000
DSTYLE
1002
{
1070
    41
1040
3.0
1070
    42
1040
2.0
1070
    43
1040
10.0
1070
    44
1040
2.0
1070
    73
1070
     0
1070
    74
1070
     0
1070
    77
1070
     1
1070
    78
1070
     8
1070
    79
1070
     2
1070
   140
1040
3.2
1070
   147
1040
0.9999999999999996
1070
   172
1070
     1
1070
   179
1070
     8
1070
   271
1070
     8
1070
   272
1070
     8
1070
   341
1005
4A
1070
   342
1005
4A
1002
}
  0
DIMENSION
  5
2D51C
330
17
100
AcDbEntity
  8
DIM
 62
     7
370
    18
100
AcDbDimension
  2
*D20
 10
2907.928370516556
 20
2815.875329075648
 30
0.0
 11
2868.928370516556
 21
3059.625329075648
 31
0.0
 70
    32
 71
     5
 42
487.5
  3
STANDARD
100
AcDbAlignedDimension
 13
2421.928370516559
 23
3303.375329075648
 33
0.0
 14
2703.428370516562
 24
2815.875329075648
 34
0.0
 50
90.0
100
AcDbRotatedDimension
1001
ACAD
1000
DSTYLE
1002
{
1070
    41
1040
3.0
1070
    42
1040
2.0
1070
    43
1040
10.0
1070
    44
1040
2.0
1070
    73
1070
     0
1070
    74
1070
     0
1070
    77
1070
     1
1070
    78
1070
     8
1070
    79
1070
     2
1070
   140
1040
3.2
1070
   147
1040
0.9999999999999996
1070
   172
1070
     1
1070
   179
1070
     8
1070
   271
1070
     1
1070
   272
1070
     8
1070
   341
1005
4A
1070
   342
1005
4A
1002
}
  0
LINE
  5
2D51D
330
17
100
AcDbEntity
  8
CEN
 62
     7
370
    25
100
AcDbLine
 10
2421.928370516555
 20
2978.399429852529
 30
0.0
 11
2794.319294143869
 21
2763.399429852528
 31
0.0
  0
ARC
  5
2D551
330
17
100
AcDbEntity
  8
ZUKEI
 62
     7
370
    25
100
AcDbCircle
 10
2409.418641761439
 20
3293.375329075648
 30
0.0
 40
23.39999999999999
100
AcDbArc
 50
90.0
 51
178.3477590356238
  0
ARC
  5
2D552
330
17
100
AcDbEntity
  8
ZUKEI
 62
     7
370
    25
100
AcDbCircle
 10
2409.418641761439
 20
3293.375329075648
 30
0.0
 40
25.0
100
AcDbArc
 50
90.0
 51
178.4015084429455
  0
LINE
  5
2D553
330
17
100
AcDbEntity
  8
ZUKEI
 62
     7
370
    25
100
AcDbLine
 10
2434.328370516559
 20
3292.284231375855
 30
0.0
 11
2434.328370516561
 21
3316.516185010481
 31
0.0
  0
LINE
  5
2D554
330
17
100
AcDbEntity
  8
ZUKEI
 62
     7
370
    25
100
AcDbLine
 10
2435.928370516561
 20
3292.284231375855
 30
0.0
 11
2435.928370516561
 21
3316.516185010482
 31
0.0
  0
ARC
  5
2D555
330
17
100
AcDbEntity
  8
ZUKEI
 62
     7
370
    25
100
AcDbCircle
 10
2434.438099271681
 20
3293.375329075648
 30
0.0
 40
23.39999999999999
100
AcDbArc
 50
1.652240964375939
 51
90.0
  0
ARC
  5
2D556
330
17
100
AcDbEntity
  8
ZUKEI
 62
     7
370
    25
100
AcDbCircle
 10
2434.438099271681
 20
3293.375329075648
 30
0.0
 40
25.0
100
AcDbArc
 50
1.598491557054332
 51
90.0
  0
CIRCLE
  5
2D557
330
17
100
AcDbEntity
  8
ZUKEI
 62
     7
370
    25
100
AcDbCircle
 10
2421.928370516559
 20
3303.375329075648
 30
0.0
 40
8.0
  0
LINE
  5
2D558
330
17
100
AcDbEntity
  8
ZUKEI
 62
     7
370
    25
100
AcDbLine
 10
2409.528370516559
 20
3292.284231375855
 30
0.0
 11
2409.528370516559
 21
3316.516185010481
 31
0.0
  0
LINE
  5
2D559
330
17
100
AcDbEntity
  8
ZUKEI
 62
     7
370
    25
100
AcDbLine
 10
2407.928370516561
 20
3292.284231375855
 30
0.0
 11
2407.928370516561
 21
3316.516185010481
 31
0.0
  0
ARC
  5
2D55A
330
17
100
AcDbEntity
  8
DASH
 62
     7
370
    18
100
AcDbCircle
 10
2399.428370516559
 20
3206.375329075648
 30
0.0
 40
13.4
100
AcDbArc
 50
180.0
 51
270.0
  0
ARC
  5
2D55B
330
17
100
AcDbEntity
  8
DASH
 62
     7
370
    18
100
AcDbCircle
 10
2399.428370516559
 20
3206.375329075648
 30
0.0
 40
15.0
100
AcDbArc
 50
180.0
 51
270.0
  0
ARC
  5
2D55C
330
17
100
AcDbEntity
  8
DASH
 62
     7
370
    18
100
AcDbCircle
 10
2444.428370516559
 20
3206.375329075648
 30
0.0
 40
13.4
100
AcDbArc
 50
270.0
 51
0.0
  0
ARC
  5
2D55D
330
17
100
AcDbEntity
  8
DASH
 62
     7
370
    18
100
AcDbCircle
 10
2444.428370516559
 20
3206.375329075648
 30
0.0
 40
15.0
100
AcDbArc
 50
270.0
 51
0.0
  0
ARC
  5
2D55E
330
17
100
AcDbEntity
  8
DASH
 62
     7
370
    18
100
AcDbCircle
 10
2436.92837051656
 20
3213.375329075647
 30
0.0
 40
15.0
100
AcDbArc
 50
270.0
 51
0.0
  0
ARC
  5
2D55F
330
17
100
AcDbEntity
  8
DASH
 62
     7
370
    18
100
AcDbCircle
 10
2436.92837051656
 20
3213.375329075647
 30
0.0
 40
13.4
100
AcDbArc
 50
270.0
 51
0.0
  0
ARC
  5
2D560
330
17
100
AcDbEntity
  8
DASH
 62
     7
370
    18
100
AcDbCircle
 10
2406.928370516562
 20
3213.375329075647
 30
0.0
 40
15.0
100
AcDbArc
 50
180.0
 51
270.0
  0
ARC
  5
2D561
330
17
100
AcDbEntity
  8
DASH
 62
     7
370
    18
100
AcDbCircle
 10
2406.928370516562
 20
3213.375329075647
 30
0.0
 40
13.4
100
AcDbArc
 50
180.0
 51
270.0
  0
LINE
  5
2D562
330
17
100
AcDbEntity
  8
DASH
 62
     7
370
    18
100
AcDbLine
 10
2436.92837051656
 20
3199.975329075648
 30
0.0
 11
2406.928370516562
 21
3199.975329075649
 31
0.0
  0
LINE
  5
2D563
330
17
100
AcDbEntity
  8
DASH
 62
     7
370
    18
100
AcDbLine
 10
2436.92837051656
 20
3198.375329075649
 30
0.0
 11
2406.928370516562
 21
3198.375329075649
 31
0.0
  0
LINE
  5
2D564
330
17
100
AcDbEntity
  8
DASH
 62
     7
370
    18
100
AcDbLine
 10
2444.428370516559
 20
3191.375329075649
 30
0.0
 11
2399.428370516559
 21
3191.375329075649
 31
0.0
  0
LINE
  5
2D565
330
17
100
AcDbEntity
  8
DASH
 62
     7
370
    18
100
AcDbLine
 10
2399.428370516559
 20
3192.975329075649
 30
0.0
 11
2444.428370516559
 21
3192.975329075649
 31
0.0
  0
LINE
  5
2D566
330
17
100
AcDbEntity
  8
ZUKEI
 62
     7
370
    25
100
AcDbLine
 10
2436.92837051656
 20
3283.775329075647
 30
0.0
 11
2406.928370516562
 21
3283.775329075647
 31
0.0
  0
LINE
  5
2D567
330
17
100
AcDbEntity
  8
ZUKEI
 62
     7
370
    25
100
AcDbLine
 10
2436.92837051656
 20
3285.375329075648
 30
0.0
 11
2406.928370516562
 21
3285.375329075648
 31
0.0
  0
ARC
  5
2D568
330
17
100
AcDbEntity
  8
DASH
 62
     7
370
    18
100
AcDbCircle
 10
2406.92837051656
 20
3270.375329075648
 30
0.0
 40
13.4
100
AcDbArc
 50
146.7066859622127
 51
180.0
  0
ARC
  5
2D569
330
17
100
AcDbEntity
  8
DASH
 62
     7
370
    18
100
AcDbCircle
 10
2406.92837051656
 20
3270.375329075648
 30
0.0
 40
15.0
100
AcDbArc
 50
151.4167296688953
 51
180.0
  0
LINE
  5
2D56A
330
17
100
AcDbEntity
  8
ZUKEI
 62
     7
370
    25
100
AcDbLine
 10
2384.428370516562
 20
3276.52629754632
 30
0.0
 11
2384.428370516562
 21
3294.072712117709
 31
0.0
  0
LINE
  5
2D56B
330
17
100
AcDbEntity
  8
ZUKEI
 62
     7
370
    25
100
AcDbLine
 10
2386.028370516562
 20
3276.723179746638
 30
0.0
 11
2386.028370516562
 21
3294.072712117709
 31
0.0
  0
ARC
  5
2D56C
330
17
100
AcDbEntity
  8
ZUKEI
 62
     7
370
    25
100
AcDbCircle
 10
2399.92837051656
 20
3292.284231375855
 30
0.0
 40
8.0
100
AcDbArc
 50
287.7189318734078
 51
0.0
  0
ARC
  5
2D56D
330
17
100
AcDbEntity
  8
ZUKEI
 62
     7
370
    25
100
AcDbCircle
 10
2399.92837051656
 20
3292.284231375855
 30
0.0
 40
9.599999999999999
100
AcDbArc
 50
287.7189318734078
 51
0.0
  0
ARC
  5
2D56E
330
17
100
AcDbEntity
  8
ZUKEI
 62
     7
370
    25
100
AcDbCircle
 10
2406.92837051656
 20
3270.375329075648
 30
0.0
 40
13.4
100
AcDbArc
 50
90.0
 51
146.7066859622127
  0
ARC
  5
2D56F
330
17
100
AcDbEntity
  8
ZUKEI
 62
     7
370
    25
100
AcDbCircle
 10
2406.92837051656
 20
3270.375329075648
 30
0.0
 40
15.0
100
AcDbArc
 50
90.0
 51
151.4167296688953
  0
LINE
  5
2D570
330
17
100
AcDbEntity
  8
DASH
 62
     7
370
    18
100
AcDbLine
 10
2386.02837051656
 20
3205.835173537915
 30
0.0
 11
2386.028370516562
 21
3276.723179746638
 31
0.0
  0
LINE
  5
2D571
330
17
100
AcDbEntity
  8
DASH
 62
     7
370
    18
100
AcDbLine
 10
2393.528370516559
 20
3213.375329075649
 30
0.0
 11
2393.528370516559
 21
3270.375329075648
 31
0.0
  0
LINE
  5
2D572
330
17
100
AcDbEntity
  8
DASH
 62
     7
370
    18
100
AcDbLine
 10
2391.928370516561
 20
3213.375329075649
 30
0.0
 11
2391.928370516561
 21
3270.375329075648
 31
0.0
  0
LINE
  5
2D573
330
17
100
AcDbEntity
  8
DASH
 62
     7
370
    18
100
AcDbLine
 10
2384.428370516562
 20
3206.375329075649
 30
0.0
 11
2384.428370516562
 21
3276.52629754632
 31
0.0
  0
ARC
  5
2D574
330
17
100
AcDbEntity
  8
DASH
 62
     7
370
    18
100
AcDbCircle
 10
2436.92837051656
 20
3270.375329075648
 30
0.0
 40
13.4
100
AcDbArc
 50
0.0
 51
33.29331403778716
  0
ARC
  5
2D575
330
17
100
AcDbEntity
  8
DASH
 62
     7
370
    18
100
AcDbCircle
 10
2436.92837051656
 20
3270.375329075648
 30
0.0
 40
15.0
100
AcDbArc
 50
0.0
 51
28.58327033110471
  0
LINE
  5
2D576
330
17
100
AcDbEntity
  8
ZUKEI
 62
     7
370
    25
100
AcDbLine
 10
2459.42837051656
 20
3276.526297546319
 30
0.0
 11
2459.42837051656
 21
3294.072712117711
 31
0.0
  0
LINE
  5
2D577
330
17
100
AcDbEntity
  8
ZUKEI
 62
     7
370
    25
100
AcDbLine
 10
2457.828370516561
 20
3276.723179746638
 30
0.0
 11
2457.828370516561
 21
3294.072712117711
 31
0.0
  0
ARC
  5
2D578
330
17
100
AcDbEntity
  8
ZUKEI
 62
     7
370
    25
100
AcDbCircle
 10
2436.92837051656
 20
3270.375329075648
 30
0.0
 40
15.0
100
AcDbArc
 50
28.58327033110471
 51
90.0
  0
ARC
  5
2D579
330
17
100
AcDbEntity
  8
ZUKEI
 62
     7
370
    25
100
AcDbCircle
 10
2436.92837051656
 20
3270.375329075648
 30
0.0
 40
13.4
100
AcDbArc
 50
33.29331403778716
 51
90.0
  0
ARC
  5
2D57A
330
17
100
AcDbEntity
  8
ZUKEI
 62
     7
370
    25
100
AcDbCircle
 10
2443.928370516561
 20
3292.284231375855
 30
0.0
 40
8.0
100
AcDbArc
 50
180.0
 51
252.2810681265921
  0
ARC
  5
2D57B
330
17
100
AcDbEntity
  8
ZUKEI
 62
     7
370
    25
100
AcDbCircle
 10
2443.928370516561
 20
3292.284231375855
 30
0.0
 40
9.599999999999999
100
AcDbArc
 50
180.0
 51
252.2810681265921
  0
CIRCLE
  5
2D57C
330
17
100
AcDbEntity
  8
DASH
 62
     7
370
    18
100
AcDbCircle
 10
2421.928370516559
 20
3228.375329075647
 30
0.0
 40
5.5
  0
CIRCLE
  5
2D57D
330
17
100
AcDbEntity
  8
DASH
 62
     7
370
    18
100
AcDbCircle
 10
2436.92837051656
 20
3263.375329075648
 30
0.0
 40
1.5
  0
LINE
  5
2D57E
330
17
100
AcDbEntity
  8
DASH
 62
     7
370
    18
100
AcDbLine
 10
2450.328370516561
 20
3213.375329075649
 30
0.0
 11
2450.328370516561
 21
3270.375329075648
 31
0.0
  0
LINE
  5
2D57F
330
17
100
AcDbEntity
  8
DASH
 62
     7
370
    18
100
AcDbLine
 10
2451.928370516561
 20
3213.375329075649
 30
0.0
 11
2451.928370516561
 21
3270.375329075648
 31
0.0
  0
LINE
  5
2D580
330
17
100
AcDbEntity
  8
DASH
 62
     7
370
    18
100
AcDbLine
 10
2457.828370516561
 20
3205.835173537917
 30
0.0
 11
2457.828370516561
 21
3276.723179746638
 31
0.0
  0
LINE
  5
2D581
330
17
100
AcDbEntity
  8
DASH
 62
     7
370
    18
100
AcDbLine
 10
2459.42837051656
 20
3206.375329075649
 30
0.0
 11
2459.42837051656
 21
3276.526297546319
 31
0.0
  0
LINE
  5
2D582
330
17
100
AcDbEntity
  8
ZUKEI
 62
     7
370
    25
100
AcDbLine
 10
2409.418641761439
 20
3316.775329075646
 30
0.0
 11
2421.928370516559
 21
3316.775329075646
 31
0.0
  0
LINE
  5
2D583
330
17
100
AcDbEntity
  8
ZUKEI
 62
     7
370
    25
100
AcDbLine
 10
2409.418641761439
 20
3318.375329075648
 30
0.0
 11
2421.928370516559
 21
3318.375329075648
 31
0.0
  0
LINE
  5
2D584
330
17
100
AcDbEntity
  8
ZUKEI
 62
     7
370
    25
100
AcDbLine
 10
2434.438099271681
 20
3316.775329075646
 30
0.0
 11
2421.928370516559
 21
3316.775329075646
 31
0.0
  0
LINE
  5
2D585
330
17
100
AcDbEntity
  8
ZUKEI
 62
     7
370
    25
100
AcDbLine
 10
2434.438099271681
 20
3318.375329075648
 30
0.0
 11
2421.928370516559
 21
3318.375329075648
 31
0.0
  0
ARC
  5
2D8C0
330
17
100
AcDbEntity
  8
ZUKEI
 62
     7
100
AcDbCircle
 10
985.1455509891684
 20
3124.973639567099
 30
0.0
 40
302.4999999999999
100
AcDbArc
 50
298.6422297083183
 51
241.3577702916814
  0
LINE
  5
2D917
330
17
100
AcDbEntity
  8
ZUKEI
 62
     7
370
    25
100
AcDbLine
 10
779.6360060652857
 20
505.1662933402947
 30
0.0
 11
722.1742430753018
 21
505.1662933402948
 31
0.0
  0
LINE
  5
2D918
330
17
100
AcDbEntity
  8
ZUKEI
 62
     7
370
    25
100
AcDbLine
 10
793.683373162792
 20
505.1662933402947
 30
0.0
 11
740.6464764824759
 21
505.1662933402938
 31
0.0
  0
LINE
  5
2D919
330
17
100
AcDbEntity
  8
ZUKEI
 62
     7
370
    25
100
AcDbLine
 10
734.3199251470796
 20
505.1662933402938
 30
0.0
 11
740.6464764824759
 21
505.1662933402938
 31
0.0
  0
ARC
  5
2D91A
330
17
100
AcDbEntity
  8
DIMTEXT
 62
     7
370
    18
100
AcDbCircle
 10
789.1295810998248
 20
490.1662933402938
 30
0.0
 40
15.0
100
AcDbArc
 50
359.9999999999997
 51
89.99999999999994
  0
LINE
  5
2D91B
330
17
100
AcDbEntity
  8
ZUKEI
 62
     7
370
    25
100
AcDbLine
 10
804.1295810998231
 20
469.1662933402938
 30
0.0
 11
804.1295810998246
 21
490.1662933402938
 31
0.0
  0
ARC
  5
2D91C
330
17
100
AcDbEntity
  8
ZUKEI
 62
     7
370
    25
100
AcDbCircle
 10
729.7661330841124
 20
485.1662933402939
 30
0.0
 40
20.0
100
AcDbArc
 50
89.99999999999994
 51
179.9999999999998
  0
LINE
  5
2D91D
330
17
100
AcDbEntity
  8
ZUKEI
 62
     7
370
    25
100
AcDbLine
 10
709.7661330841124
 20
476.7662933402942
 30
0.0
 11
709.7661330841124
 21
485.1662933402939
 31
0.0
  0
ARC
  5
2D91E
330
17
100
AcDbEntity
  8
ZUKEI
 62
     7
370
    25
100
AcDbCircle
 10
699.7661330841124
 20
476.7662933402942
 30
0.0
 40
10.0
100
AcDbArc
 50
310.5358021113377
 51
359.9999999999997
  0
LINE
  5
2D91F
330
17
100
AcDbEntity
  8
ZUKEI
 62
     7
370
    25
100
AcDbLine
 10
681.0926844195087
 20
469.1662933402938
 30
0.0
 11
813.9417589263153
 21
469.1662933402936
 31
0.0
  0
LINE
  5
2D920
330
17
100
AcDbEntity
  8
HOJO
 62
     7
370
    18
100
AcDbLine
 10
813.9417589263153
 20
465.1662933402938
 30
0.0
 11
687.9425148271069
 21
465.1662933402938
 31
0.0
  0
LINE
  5
2D921
330
17
100
AcDbEntity
  8
ZUKEI
 62
     7
370
    25
100
AcDbLine
 10
813.9417589263153
 20
469.1662933402936
 30
0.0
 11
813.9417589263153
 21
465.1662933402938
 31
0.0
  0
LINE
  5
2D922
330
17
100
AcDbEntity
  8
ZUKEI
 62
     7
370
    25
100
AcDbLine
 10
809.3417589263149
 20
465.1662933402938
 30
0.0
 11
805.2355887143981
 21
465.1662933402938
 31
0.0
  0
ARC
  5
2D923
330
17
100
AcDbEntity
  8
ZUKEI
 62
     7
370
    25
100
AcDbCircle
 10
684.0926844195105
 20
468.1662933402939
 30
0.0
 40
3.0
100
AcDbArc
 50
179.9999999999998
 51
269.9999999999997
  0
LINE
  5
2D924
330
17
100
AcDbEntity
  8
ZUKEI
 62
     7
370
    25
100
AcDbLine
 10
681.0926844195087
 20
470.1662933402937
 30
0.0
 11
682.692684419509
 21
470.1662933402937
 31
0.0
  0
LINE
  5
2D925
330
17
100
AcDbEntity
  8
ZUKEI
 62
     7
370
    25
100
AcDbLine
 10
687.9425148271069
 20
465.1662933402938
 30
0.0
 11
684.2417913361091
 21
465.1662933402938
 31
0.0
  0
LINE
  5
2D926
330
17
100
AcDbEntity
  8
ZUKEI
 62
     7
370
    25
100
AcDbLine
 10
682.692684419509
 20
469.1662933402938
 30
0.0
 11
682.692684419509
 21
470.1662933402937
 31
0.0
  0
LINE
  5
2D927
330
17
100
AcDbEntity
  8
ZUKEI
 62
     7
370
    25
100
AcDbLine
 10
681.0926844195087
 20
468.1662933402939
 30
0.0
 11
681.0926844195087
 21
470.1662933402937
 31
0.0
  0
LINE
  5
2D928
330
17
100
AcDbEntity
  8
ZUKEI
 62
     7
370
    25
100
AcDbLine
 10
681.0926844195087
 20
468.1662933402939
 30
0.0
 11
681.0926844195087
 21
470.1662933402937
 31
0.0
  0
LINE
  5
2D983
330
17
100
AcDbEntity
  8
DASH
 62
     7
370
    18
100
AcDbLine
 10
2636.906117931799
 20
2895.735718840374
 30
0.0
 11
2698.296932132183
 21
2860.291715736013
 31
0.0
  0
LINE
  5
2D984
330
17
100
AcDbEntity
  8
DASH
 62
     7
370
    18
100
AcDbLine
 10
2638.173906349471
 20
2896.851281717562
 30
0.0
 11
2698.926427145154
 21
2861.775797482227
 31
0.0
  0
LINE
  5
2D985
330
17
100
AcDbEntity
  8
DASH
 62
     7
370
    18
100
AcDbLine
 10
2639.686084175961
 20
2885.470450543126
 30
0.0
 11
2689.049532191675
 21
2856.970450543126
 31
0.0
  0
LINE
  5
2D986
330
17
100
AcDbEntity
  8
DASH
 62
     7
370
    18
100
AcDbLine
 10
2640.48608417596
 20
2886.85609118918
 30
0.0
 11
2689.849532191673
 21
2858.35609118918
 31
0.0
  0
LINE
  5
2D987
330
17
100
AcDbEntity
  8
DASH
 62
     7
370
    18
100
AcDbLine
 10
2611.286084175961
 20
2836.280207608169
 30
0.0
 11
2660.649532191674
 21
2807.780207608169
 31
0.0
  0
LINE
  5
2D988
330
17
100
AcDbEntity
  8
DASH
 62
     7
370
    18
100
AcDbLine
 10
2610.486084175962
 20
2834.894566962113
 30
0.0
 11
2659.849532191674
 21
2806.394566962114
 31
0.0
  0
LINE
  5
2D989
330
17
100
AcDbEntity
  8
DASH
 62
     7
370
    18
100
AcDbLine
 10
2601.0061179318
 20
2833.555094848651
 30
0.0
 11
2662.396932132182
 21
2798.111091744289
 31
0.0
  0
LINE
  5
2D98A
330
17
100
AcDbEntity
  8
DASH
 62
     7
370
    18
100
AcDbLine
 10
2600.673906349471
 20
2831.899376433729
 30
0.0
 11
2661.426427145153
 21
2796.823892198395
 31
0.0
  0
ARC
  5
2D98B
330
17
100
AcDbEntity
  8
ZUKEI
 62
     7
370
    25
100
AcDbCircle
 10
2701.022980856278
 20
2831.709071972035
 30
0.0
 40
25.0
100
AcDbArc
 50
329.9999999999897
 51
58.40150844292772
  0
ARC
  5
2D98C
330
17
100
AcDbEntity
  8
ZUKEI
 62
     7
370
    25
100
AcDbCircle
 10
2701.022980856278
 20
2831.709071972035
 30
0.0
 40
23.39999999999999
100
AcDbArc
 50
329.9999999999897
 51
58.34775903565252
  0
LINE
  5
2D98D
330
17
100
AcDbEntity
  8
ZUKEI
 62
     7
370
    25
100
AcDbLine
 10
2721.287975304833
 20
2820.009071972032
 30
0.0
 11
2715.033110927274
 21
2809.175329075645
 31
0.0
  0
LINE
  5
2D98E
330
17
100
AcDbEntity
  8
ZUKEI
 62
     7
370
    25
100
AcDbLine
 10
2710.163887195768
 20
2797.54158617926
 30
0.0
 11
2716.418751573328
 21
2808.375329075647
 31
0.0
  0
LINE
  5
2D98F
330
17
100
AcDbEntity
  8
ZUKEI
 62
     7
370
    25
100
AcDbLine
 10
2700.823198152686
 20
2833.545233578526
 30
0.0
 11
2721.808685583599
 21
2821.429256761212
 31
0.0
  0
LINE
  5
2D990
330
17
100
AcDbEntity
  8
ZUKEI
 62
     7
370
    25
100
AcDbLine
 10
2700.023198152685
 20
2832.15959293247
 30
0.0
 11
2721.008685583598
 21
2820.043616115158
 31
0.0
  0
LINE
  5
2D991
330
17
100
AcDbEntity
  8
ZUKEI
 62
     7
370
    25
100
AcDbLine
 10
2722.673615950887
 20
2819.209071972035
 30
0.0
 11
2716.418751573328
 21
2808.375329075647
 31
0.0
  0
ARC
  5
2D992
330
17
100
AcDbEntity
  8
ZUKEI
 62
     7
370
    25
100
AcDbCircle
 10
2704.823198152686
 20
2840.473436808802
 30
0.0
 40
9.599999999999999
100
AcDbArc
 50
167.7189318734195
 51
240.0000000000026
  0
ARC
  5
2D993
330
17
100
AcDbEntity
  8
ZUKEI
 62
     7
370
    25
100
AcDbCircle
 10
2704.823198152686
 20
2840.473436808802
 30
0.0
 40
8.0
100
AcDbArc
 50
167.7189318734195
 51
240.0000000000026
  0
LINE
  5
2D994
330
17
100
AcDbEntity
  8
ZUKEI
 62
     7
370
    25
100
AcDbLine
 10
2680.339913248441
 20
2811.88494801888
 30
0.0
 11
2695.339913248441
 21
2837.865710132414
 31
0.0
  0
LINE
  5
2D995
330
17
100
AcDbEntity
  8
ZUKEI
 62
     7
370
    25
100
AcDbLine
 10
2678.954272602386
 20
2812.684948018881
 30
0.0
 11
2693.954272602386
 21
2838.665710132414
 31
0.0
  0
ARC
  5
2D996
330
17
100
AcDbEntity
  8
ZUKEI
 62
     7
370
    25
100
AcDbCircle
 10
2688.513252101158
 20
2810.04158617926
 30
0.0
 40
25.0
100
AcDbArc
 50
241.5984915570631
 51
329.9999999999897
  0
ARC
  5
2D997
330
17
100
AcDbEntity
  8
ZUKEI
 62
     7
370
    25
100
AcDbCircle
 10
2688.513252101158
 20
2810.04158617926
 30
0.0
 40
23.39999999999999
100
AcDbArc
 50
241.6522409643778
 51
329.9999999999897
  0
ARC
  5
2D998
330
17
100
AcDbEntity
  8
ZUKEI
 62
     7
370
    25
100
AcDbCircle
 10
2682.823198152686
 20
2802.368319042285
 30
0.0
 40
9.599999999999999
100
AcDbArc
 50
60.0000000000027
 51
132.2810681266186
  0
ARC
  5
2D999
330
17
100
AcDbEntity
  8
ZUKEI
 62
     7
370
    25
100
AcDbCircle
 10
2682.823198152686
 20
2802.368319042285
 30
0.0
 40
8.0
100
AcDbArc
 50
60.0000000000027
 51
132.2810681266186
  0
LINE
  5
2D99A
330
17
100
AcDbEntity
  8
ZUKEI
 62
     7
370
    25
100
AcDbLine
 10
2687.623198152685
 20
2810.682162918617
 30
0.0
 11
2708.6086855836
 21
2798.566186101303
 31
0.0
  0
LINE
  5
2D99B
330
17
100
AcDbEntity
  8
ZUKEI
 62
     7
370
    25
100
AcDbLine
 10
2686.823198152684
 20
2809.296522272562
 30
0.0
 11
2707.808685583599
 21
2797.180545455248
 31
0.0
  0
CIRCLE
  5
2D99C
330
17
100
AcDbEntity
  8
ZUKEI
 62
     7
370
    25
100
AcDbCircle
 10
2703.428370516562
 20
2815.875329075648
 30
0.0
 40
8.0
  0
LINE
  5
2D99D
330
17
100
AcDbEntity
  8
ZUKEI
 62
     7
370
    25
100
AcDbLine
 10
2708.778246549713
 20
2798.34158617926
 30
0.0
 11
2715.033110927274
 21
2809.175329075645
 31
0.0
  0
ARC
  5
2D99E
330
17
100
AcDbEntity
  8
ZUKEI
 62
     7
370
    25
100
AcDbCircle
 10
2667.349532191674
 20
2819.384948018881
 30
0.0
 40
13.4
100
AcDbArc
 50
273.293314037762
 51
329.9999999999897
  0
LINE
  5
2D99F
330
17
100
AcDbEntity
  8
ZUKEI
 62
     7
370
    25
100
AcDbLine
 10
2661.426427145153
 20
2796.823892198395
 30
0.0
 11
2676.622067909313
 21
2788.0506849127
 31
0.0
  0
LINE
  5
2D9A0
330
17
100
AcDbEntity
  8
ZUKEI
 62
     7
370
    25
100
AcDbLine
 10
2662.396932132182
 20
2798.111091744289
 30
0.0
 11
2677.422067909311
 21
2789.436325558754
 31
0.0
  0
ARC
  5
2D9A1
330
17
100
AcDbEntity
  8
DASH
 62
     7
370
    18
100
AcDbCircle
 10
2667.349532191674
 20
2819.384948018881
 30
0.0
 40
13.4
100
AcDbArc
 50
240.0000000000026
 51
273.293314037762
  0
ARC
  5
2D9A2
330
17
100
AcDbEntity
  8
DASH
 62
     7
370
    18
100
AcDbCircle
 10
2667.349532191674
 20
2819.384948018881
 30
0.0
 40
15.0
100
AcDbArc
 50
240.0000000000026
 51
268.583270331098
  0
CIRCLE
  5
2D9A3
330
17
100
AcDbEntity
  8
DASH
 62
     7
370
    18
100
AcDbCircle
 10
2661.287354365184
 20
2822.884948018881
 30
0.0
 40
1.5
  0
ARC
  5
2D9A4
330
17
100
AcDbEntity
  8
ZUKEI
 62
     7
370
    25
100
AcDbCircle
 10
2667.349532191674
 20
2819.384948018881
 30
0.0
 40
15.0
100
AcDbArc
 50
268.583270331098
 51
329.9999999999897
  0
ARC
  5
2D9A5
330
17
100
AcDbEntity
  8
ZUKEI
 62
     7
370
    25
100
AcDbCircle
 10
2682.349532191674
 20
2845.365710132413
 30
0.0
 40
13.4
100
AcDbArc
 50
329.9999999999897
 51
26.70668596221871
  0
ARC
  5
2D9A6
330
17
100
AcDbEntity
  8
ZUKEI
 62
     7
370
    25
100
AcDbCircle
 10
2682.349532191674
 20
2845.365710132413
 30
0.0
 40
15.0
100
AcDbArc
 50
329.9999999999897
 51
31.4167296689061
  0
ARC
  5
2D9A7
330
17
100
AcDbEntity
  8
DASH
 62
     7
370
    18
100
AcDbCircle
 10
2682.349532191674
 20
2845.365710132413
 30
0.0
 40
15.0
100
AcDbArc
 50
31.4167296689061
 51
60.0000000000027
  0
LINE
  5
2D9A8
330
17
100
AcDbEntity
  8
ZUKEI
 62
     7
370
    25
100
AcDbLine
 10
2698.926427145154
 20
2861.775797482227
 30
0.0
 11
2714.122067909309
 21
2853.002590196533
 31
0.0
  0
LINE
  5
2D9A9
330
17
100
AcDbEntity
  8
ZUKEI
 62
     7
370
    25
100
AcDbLine
 10
2698.296932132183
 20
2860.291715736013
 30
0.0
 11
2713.32206790931
 21
2851.616949550478
 31
0.0
  0
ARC
  5
2D9AA
330
17
100
AcDbEntity
  8
DASH
 62
     7
370
    18
100
AcDbCircle
 10
2682.349532191674
 20
2845.365710132413
 30
0.0
 40
13.4
100
AcDbArc
 50
26.70668596221871
 51
60.0000000000027
  0
ARC
  5
2D9AB
330
17
100
AcDbEntity
  8
DASH
 62
     7
370
    18
100
AcDbCircle
 10
2608.173906349471
 20
2844.889757490498
 30
0.0
 40
15.0
100
AcDbArc
 50
149.9999999999896
 51
240.0000000000026
  0
ARC
  5
2D9AC
330
17
100
AcDbEntity
  8
DASH
 62
     7
370
    18
100
AcDbCircle
 10
2617.986084175961
 20
2847.884948018881
 30
0.0
 40
15.0
100
AcDbArc
 50
149.9999999999896
 51
240.0000000000026
  0
ARC
  5
2D9AD
330
17
100
AcDbEntity
  8
DASH
 62
     7
370
    18
100
AcDbCircle
 10
2617.986084175961
 20
2847.884948018881
 30
0.0
 40
13.4
100
AcDbArc
 50
149.9999999999896
 51
240.0000000000026
  0
ARC
  5
2D9AE
330
17
100
AcDbEntity
  8
DASH
 62
     7
370
    18
100
AcDbCircle
 10
2608.173906349471
 20
2844.889757490498
 30
0.0
 40
13.4
100
AcDbArc
 50
149.9999999999896
 51
240.0000000000026
  0
ARC
  5
2D9AF
330
17
100
AcDbEntity
  8
DASH
 62
     7
370
    18
100
AcDbCircle
 10
2632.986084175962
 20
2873.865710132414
 30
0.0
 40
13.4
100
AcDbArc
 50
60.0000000000027
 51
149.9999999999896
  0
ARC
  5
2D9B0
330
17
100
AcDbEntity
  8
DASH
 62
     7
370
    18
100
AcDbCircle
 10
2630.673906349471
 20
2883.860900660797
 30
0.0
 40
15.0
100
AcDbArc
 50
60.0000000000027
 51
149.9999999999896
  0
ARC
  5
2D9B1
330
17
100
AcDbEntity
  8
DASH
 62
     7
370
    18
100
AcDbCircle
 10
2632.986084175962
 20
2873.865710132414
 30
0.0
 40
15.0
100
AcDbArc
 50
60.0000000000027
 51
149.9999999999896
  0
ARC
  5
2D9B2
330
17
100
AcDbEntity
  8
DASH
 62
     7
370
    18
100
AcDbCircle
 10
2630.673906349471
 20
2883.860900660797
 30
0.0
 40
13.4
100
AcDbArc
 50
60.0000000000027
 51
149.9999999999896
  0
CIRCLE
  5
2D9B3
330
17
100
AcDbEntity
  8
DASH
 62
     7
370
    18
100
AcDbCircle
 10
2638.476465232728
 20
2853.375329075648
 30
0.0
 40
5.5
  0
LINE
  5
2D9B4
330
17
100
AcDbEntity
  8
DASH
 62
     7
370
    18
100
AcDbLine
 10
2595.183525292704
 20
2852.389757490497
 30
0.0
 11
2617.683525292703
 21
2891.360900660797
 31
0.0
  0
LINE
  5
2D9B5
330
17
100
AcDbEntity
  8
DASH
 62
     7
370
    18
100
AcDbLine
 10
2619.069165938759
 20
2890.560900660797
 30
0.0
 11
2596.569165938759
 21
2851.589757490498
 31
0.0
  0
LINE
  5
2D9B6
330
17
100
AcDbEntity
  8
DASH
 62
     7
370
    18
100
AcDbLine
 10
2606.381343765248
 20
2854.584948018881
 30
0.0
 11
2621.38134376525
 21
2880.565710132414
 31
0.0
  0
LINE
  5
2D9B7
330
17
100
AcDbEntity
  8
DASH
 62
     7
370
    18
100
AcDbLine
 10
2604.995703119195
 20
2855.38494801888
 30
0.0
 11
2619.995703119195
 21
2881.365710132413
 31
0.0
  0
ARC
  5
2D9C2
330
17
100
AcDbEntity
  8
CEN
 62
     7
100
AcDbCircle
 10
2421.928370542745
 20
2978.399429896226
 30
0.0
 40
325.0
100
AcDbArc
 50
194.0992026495738
 51
243.2261593682524
  0
ARC
  5
2D9C3
330
17
100
AcDbEntity
  8
CEN
 62
     7
100
AcDbCircle
 10
2421.928370542745
 20
2978.399429896226
 30
0.0
 40
325.0
100
AcDbArc
 50
56.77384063074164
 51
105.9007973634326
  0
ARC
  5
2D9C4
330
17
100
AcDbEntity
  8
CEN
 62
     7
100
AcDbCircle
 10
2421.928370542745
 20
2978.399429896226
 30
0.0
 40
325.0
100
AcDbArc
 50
314.0992026345368
 51
345.9007973481655
  0
CIRCLE
  5
2D9C6
330
17
100
AcDbEntity
  8
ZUKEI
 62
     7
100
AcDbCircle
 10
2421.92837051656
 20
2978.399429852526
 30
0.0
 40
302.4999999999999
  0
DIMENSION
  5
2D9F2
330
17
100
AcDbEntity
  8
DIM
 62
     7
100
AcDbDimension
  2
*D21
 10
2252.326517373695
 20
2701.162687378889
 30
0.0
 11
2647.8861433481
 21
3422.491257147409
 31
0.0
 70
    35
 71
     5
 42
650.0
  3
STANDARD
100
AcDbDiametricDimension
 15
2591.530223711794
 25
3255.636172413565
 35
0.0
 40
0.0
1001
ACAD
1000
DSTYLE
1002
{
1070
    41
1040
3.0
1070
    42
1040
2.0
1070
    43
1040
10.0
1070
    44
1040
2.0
1070
    73
1070
     0
1070
    74
1070
     0
1070
    77
1070
     1
1070
    78
1070
     8
1070
    79
1070
     2
1070
   140
1040
3.2
1070
   147
1040
0.9999999999999996
1070
   172
1070
     1
1070
   179
1070
     4
1070
   271
1070
     2
1070
   272
1070
     2
1070
   288
1070
     1
1070
   341
1005
4A
1070
   342
1005
4A
1002
}
  0
HATCH
  5
2DA54
330
17
100
AcDbEntity
  8
0
 62
     7
100
AcDbHatch
 10
0.0
 20
0.0
 30
0.0
210
0.0
220
0.0
230
1.0
  2
ANSI31
 70
     0
 71
     1
 91
        1
 92
        1
 93
       12
 72
     2
 10
972.904350989169
 20
1980.332293340294
 40
1.853999999999996
 50
90.0
 51
180.0
 73
     1
 72
     1
 10
971.0503509891692
 20
1980.332293340294
 11
971.0503509891692
 21
1963.646293340294
 72
     1
 10
971.0503509891692
 20
1963.646293340294
 11
975.1291509891686
 21
1963.646293340294
 72
     1
 10
975.1291509891686
 20
1963.646293340294
 11
975.1291509891686
 21
1976.995093340293
 72
     2
 10
976.2415509891685
 20
1976.995093340293
 40
1.112399999999998
 50
180.0
 51
270.0
 73
     0
 72
     1
 10
976.2415509891685
 20
1978.107493340294
 11
978.8371509891687
 21
1978.107493340294
 72
     2
 10
978.8371509891687
 20
1976.995093340293
 40
1.112399999999998
 50
270.0
 51
360.0
 73
     0
 72
     1
 10
979.949550989169
 20
1976.995093340293
 11
979.949550989169
 21
1963.646293340294
 72
     1
 10
979.949550989169
 20
1963.646293340294
 11
984.0283509891687
 21
1963.646293340294
 72
     1
 10
984.0283509891687
 20
1963.646293340294
 11
984.0283509891687
 21
1980.332293340294
 72
     2
 10
982.1743509891687
 20
1980.332293340294
 40
1.853999999999996
 50
0.0
 51
90.0
 73
     1
 72
     1
 10
982.1743509891687
 20
1982.186293340293
 11
972.904350989169
 21
1982.186293340293
 97
       12
330
2DAAE
330
2DA5E
330
2DA83
330
2DA85
330
2DA60
330
2DAB0
330
2DA61
330
2DA88
330
2DA87
330
2DA65
330
2DAB1
330
2DAA7
 75
     0
 76
     1
 52
0.0
 41
0.05
 77
     0
 78
     1
 53
45.0
 43
886.5646248728735
 44
1770.775311847593
 45
-0.1122532015133644
 46
0.1122532015133644
 79
     0
 98
        1
 10
886.5646248728735
 20
1770.775311847593
  0
HATCH
  5
2DA55
330
17
100
AcDbEntity
  8
0
 62
     7
100
AcDbHatch
 10
0.0
 20
0.0
 30
0.0
210
0.0
220
0.0
230
1.0
  2
ANSI31
 70
     0
 71
     0
 91
        2
 92
        1
 93
       14
 72
     1
 10
941.3863509891688
 20
1995.164293340293
 11
945.4651509891691
 21
1995.164293340293
 72
     1
 10
945.4651509891691
 20
1995.164293340293
 11
945.4651509891691
 21
1978.107493340294
 72
     2
 10
946.5775509891694
 20
1978.107493340294
 40
1.112399999999998
 50
180.0
 51
270.0
 73
     1
 72
     1
 10
946.5775509891694
 20
1976.995093340293
 11
950.2855509891691
 21
1976.995093340293
 72
     1
 10
950.2855509891686
 20
1976.995093340293
 11
950.2855509891686
 21
1995.164293340295
 72
     1
 10
950.2855509891686
 20
1995.164293340293
 11
954.364350989169
 21
1995.164293340293
 72
     1
 10
954.364350989169
 20
1995.164293340293
 11
954.364350989169
 21
1964.758693340292
 72
     1
 10
954.364350989169
 20
1964.758693340292
 11
954.364350989169
 21
1964.697334454893
 72
     2
 10
939.532350989169
 20
1964.697334454893
 40
14.832
 50
360.0
 51
398.1572265873694
 73
     0
 72
     1
 10
951.1950245905833
 20
1955.533805196639
 11
950.2855509891691
 21
1954.376293340293
 72
     1
 10
950.2855509891686
 20
1954.376293340293
 11
950.2855509891686
 21
1972.916293340293
 72
     1
 10
950.2855509891686
 20
1972.916293340293
 11
943.2403509891686
 21
1972.916293340293
 72
     2
 10
943.2403509891694
 20
1974.770293340293
 40
1.853999999999996
 50
90.0
 51
180.0
 73
     0
 72
     1
 10
941.3863509891688
 20
1974.770293340293
 11
941.3863509891688
 21
1995.164293340293
 97
        0
 92
       48
 93
        1
 72
     1
 10
954.364350989169
 20
1964.758693340292
 11
954.364350989169
 21
1964.697334454893
 97
        0
 75
     0
 76
     1
 52
0.0
 41
0.05
 77
     0
 78
     1
 53
45.0
 43
886.5646248728735
 44
1770.775311847593
 45
-0.1122532015133644
 46
0.1122532015133644
 79
     0
 98
        1
 10
886.5646248728735
 20
1770.775311847593
  0
LINE
  5
2DA56
330
17
100
AcDbEntity
  8
0
 62
     7
100
AcDbLine
 10
941.3863509891688
 20
1995.164293340293
 30
0.0
 11
941.3863509891688
 21
1974.770293340293
 31
0.0
  0
ARC
  5
2DA57
330
17
100
AcDbEntity
  8
0
 62
     7
100
AcDbCircle
 10
946.5775509891694
 20
1978.107493340294
 30
0.0
 40
1.112399999999998
100
AcDbArc
 50
180.0
 51
270.0
  0
HATCH
  5
2DA58
330
17
100
AcDbEntity
  8
0
 62
     7
100
AcDbHatch
 10
0.0
 20
0.0
 30
0.0
210
0.0
220
0.0
230
1.0
  2
ANSI31
 70
     0
 71
     1
 91
        1
 92
        1
 93
       12
 72
     1
 10
956.2183509891688
 20
1982.186293340293
 11
960.2971509891686
 21
1982.186293340293
 72
     1
 10
960.2971509891686
 20
1982.186293340293
 11
960.2971509891686
 21
1968.837493340293
 72
     2
 10
961.409550989169
 20
1968.837493340293
 40
1.112399999999998
 50
180.0
 51
270.0
 73
     1
 72
     1
 10
961.409550989169
 20
1967.725093340292
 11
964.0051509891693
 21
1967.725093340292
 72
     2
 10
964.0051509891693
 20
1968.837493340293
 40
1.112399999999998
 50
270.0
 51
360.0
 73
     1
 72
     1
 10
965.1175509891691
 20
1968.837493340293
 11
965.1175509891691
 21
1982.186293340293
 72
     1
 10
965.1175509891691
 20
1982.186293340293
 11
969.1963509891687
 21
1982.186293340293
 72
     1
 10
969.1963509891687
 20
1982.186293340293
 11
969.1963509891687
 21
1965.500293340294
 72
     2
 10
967.3423509891691
 20
1965.500293340294
 40
1.853999999999996
 50
360.0
 51
450.0
 73
     0
 72
     1
 10
967.3423509891691
 20
1963.646293340294
 11
958.072350989169
 21
1963.646293340294
 72
     2
 10
958.072350989169
 20
1965.500293340294
 40
1.853999999999996
 50
90.0
 51
180.0
 73
     0
 72
     1
 10
956.2183509891688
 20
1965.500293340294
 11
956.2183509891688
 21
1982.186293340293
 97
       12
330
2DAAC
330
2DA5C
330
2DA81
330
2DA82
330
2DA7F
330
2DA5F
330
2DAAD
330
2DA5D
330
2DA84
330
2DA7E
330
2DA80
330
2DA5B
 75
     0
 76
     1
 52
0.0
 41
0.05
 77
     0
 78
     1
 53
45.0
 43
886.5646248728735
 44
1770.775311847593
 45
-0.1122532015133644
 46
0.1122532015133644
 79
     0
 98
        1
 10
886.5646248728735
 20
1770.775311847593
  0
LINE
  5
2DA59
330
17
100
AcDbEntity
  8
0
 62
     7
100
AcDbLine
 10
954.364350989169
 20
1995.164293340293
 30
0.0
 11
954.364350989169
 21
1964.758693340292
 31
0.0
  0
LINE
  5
2DA5A
330
17
100
AcDbEntity
  8
0
 62
     7
100
AcDbLine
 10
950.2855509891686
 20
1995.164293340293
 30
0.0
 11
950.2855509891686
 21
1976.995093340293
 31
0.0
  0
LINE
  5
2DA5B
102
{ACAD_REACTORS
330
2DA58
102
}
330
17
100
AcDbEntity
  8
0
 62
     7
100
AcDbLine
 10
956.2183509891688
 20
1982.186293340293
 30
0.0
 11
956.2183509891688
 21
1965.500293340294
 31
0.0
  0
LINE
  5
2DA5C
102
{ACAD_REACTORS
330
2DA58
102
}
330
17
100
AcDbEntity
  8
0
 62
     7
100
AcDbLine
 10
960.2971509891686
 20
1982.186293340293
 30
0.0
 11
960.2971509891686
 21
1968.837493340293
 31
0.0
  0
LINE
  5
2DA5D
102
{ACAD_REACTORS
330
2DA58
102
}
330
17
100
AcDbEntity
  8
0
 62
     7
100
AcDbLine
 10
969.1963509891687
 20
1982.186293340293
 30
0.0
 11
969.1963509891687
 21
1965.500293340294
 31
0.0
  0
LINE
  5
2DA5E
102
{ACAD_REACTORS
330
2DA54
102
}
330
17
100
AcDbEntity
  8
0
 62
     7
100
AcDbLine
 10
971.0503509891692
 20
1963.646293340294
 30
0.0
 11
971.0503509891692
 21
1980.332293340294
 31
0.0
  0
LINE
  5
2DA5F
102
{ACAD_REACTORS
330
2DA58
102
}
330
17
100
AcDbEntity
  8
0
 62
     7
100
AcDbLine
 10
965.1175509891691
 20
1982.186293340293
 30
0.0
 11
965.1175509891691
 21
1968.837493340293
 31
0.0
  0
ARC
  5
2DA60
102
{ACAD_REACTORS
330
2DA54
102
}
330
17
100
AcDbEntity
  8
0
 62
     7
100
AcDbCircle
 10
976.2415509891685
 20
1976.995093340293
 30
0.0
 40
1.112399999999998
100
AcDbArc
 50
90.0
 51
180.0
  0
ARC
  5
2DA61
102
{ACAD_REACTORS
330
2DA54
102
}
330
17
100
AcDbEntity
  8
0
 62
     7
100
AcDbCircle
 10
978.8371509891687
 20
1976.995093340293
 30
0.0
 40
1.112399999999998
100
AcDbArc
 50
0.0
 51
90.0
  0
HATCH
  5
2DA62
330
17
100
AcDbEntity
  8
0
 62
     7
100
AcDbHatch
 10
0.0
 20
0.0
 30
0.0
210
0.0
220
0.0
230
1.0
  2
ANSI31
 70
     0
 71
     1
 91
        1
 92
        1
 93
       15
 72
     1
 10
1014.433950989167
 20
1982.186293340293
 11
1009.242750989169
 21
1982.186293340293
 72
     1
 10
1009.242750989169
 20
1982.186293340293
 11
1004.793150989166
 21
1974.770293340293
 72
     1
 10
1004.793150989166
 20
1974.770293340293
 11
1004.793150989166
 21
1995.164293340293
 72
     1
 10
1004.793150989166
 20
1995.164293340293
 11
1000.714350989168
 21
1995.164293340293
 72
     1
 10
1000.714350989168
 20
1995.164293340293
 11
1000.714350989168
 21
1963.646293340294
 72
     1
 10
1000.714350989168
 20
1963.646293340294
 11
1004.793150989166
 21
1963.646293340294
 72
     1
 10
1004.793150989166
 20
1963.646293340294
 11
1004.793150989166
 21
1970.691493340293
 72
     1
 10
1004.793150989166
 20
1970.691493340293
 11
1008.871950989169
 21
1970.691493340293
 72
     2
 10
1008.871950989169
 20
1969.579093340293
 40
1.112399999999998
 50
270.0
 51
360.0
 73
     0
 72
     1
 10
1009.984350989169
 20
1969.579093340293
 11
1009.984350989169
 21
1963.646293340294
 72
     1
 10
1009.984350989169
 20
1963.646293340294
 11
1014.063150989169
 21
1963.646293340294
 72
     1
 10
1014.063150989169
 20
1963.646293340294
 11
1014.063150989169
 21
1972.916293340293
 72
     2
 10
1012.209150989167
 20
1972.916293340293
 40
1.853999999999996
 50
0.0
 51
90.0
 73
     1
 72
     1
 10
1012.209150989167
 20
1974.770293340293
 11
1009.984350989169
 21
1974.770293340293
 72
     1
 10
1009.984350989169
 20
1974.770293340293
 11
1014.433950989167
 21
1982.186293340293
 97
       15
330
2DAB4
330
2DA6B
330
2DA6A
330
2DAB6
330
2DA69
330
2DA92
330
2DA93
330
2DA91
330
2DA96
330
2DA97
330
2DA95
330
2DA94
330
2DA8F
330
2DA98
330
2DA63
 75
     0
 76
     1
 52
0.0
 41
0.05
 77
     0
 78
     1
 53
45.0
 43
886.5646248728735
 44
1770.775311847593
 45
-0.1122532015133644
 46
0.1122532015133644
 79
     0
 98
        1
 10
886.5646248728735
 20
1770.775311847593
  0
LINE
  5
2DA63
102
{ACAD_REACTORS
330
2DA62
102
}
330
17
100
AcDbEntity
  8
0
 62
     7
100
AcDbLine
 10
1014.433950989167
 20
1982.186293340293
 30
0.0
 11
1009.984350989169
 21
1974.770293340293
 31
0.0
  0
HATCH
  5
2DA64
330
17
100
AcDbEntity
  8
0
 62
     7
100
AcDbHatch
 10
0.0
 20
0.0
 30
0.0
210
0.0
220
0.0
230
1.0
  2
ANSI31
 70
     0
 71
     1
 91
        2
 92
        1
 93
        8
 72
     1
 10
997.0063509891687
 20
1982.186293340293
 11
987.7363509891686
 21
1982.186293340293
 72
     2
 10
987.7363509891686
 20
1980.332293340294
 40
1.853999999999996
 50
90.0
 51
180.0
 73
     1
 72
     1
 10
985.882350989169
 20
1980.332293340294
 11
985.882350989169
 21
1965.500293340294
 72
     2
 10
987.7363509891686
 20
1965.500293340294
 40
1.853999999999996
 50
180.0
 51
270.0
 73
     1
 72
     1
 10
987.7363509891686
 20
1963.646293340294
 11
997.0063509891687
 21
1963.646293340294
 72
     2
 10
997.0063509891687
 20
1965.500293340294
 40
1.853999999999996
 50
270.0
 51
360.0
 73
     1
 72
     1
 10
998.8603509891687
 20
1965.500293340294
 11
998.8603509891687
 21
1980.332293340294
 72
     2
 10
997.0063509891687
 20
1980.332293340294
 40
1.853999999999996
 50
0.0
 51
90.0
 73
     1
 97
        8
330
2DAAF
330
2DAB2
330
2DA66
330
2DA89
330
2DA86
330
2DA90
330
2DA6C
330
2DAB5
 92
       16
 93
        8
 72
     2
 10
993.6691509891684
 20
1976.995093340293
 40
1.112399999999998
 50
0.0
 51
90.0
 73
     1
 72
     1
 10
993.6691509891684
 20
1978.107493340294
 11
991.0735509891685
 21
1978.107493340294
 72
     2
 10
991.0735509891685
 20
1976.995093340293
 40
1.112399999999998
 50
90.0
 51
180.0
 73
     1
 72
     1
 10
989.9611509891686
 20
1976.995093340293
 11
989.9611509891686
 21
1968.837493340293
 72
     2
 10
991.0735509891685
 20
1968.837493340293
 40
1.112399999999998
 50
180.0
 51
270.0
 73
     1
 72
     1
 10
991.0735509891685
 20
1967.725093340292
 11
993.6691509891684
 21
1967.725093340292
 72
     2
 10
993.6691509891684
 20
1968.837493340293
 40
1.112399999999998
 50
270.0
 51
360.0
 73
     1
 72
     1
 10
994.7815509891688
 20
1968.837493340293
 11
994.7815509891688
 21
1976.995093340293
 97
        8
330
2DA68
330
2DAB3
330
2DA67
330
2DA8A
330
2DA8D
330
2DA8C
330
2DA8E
330
2DA8B
 75
     0
 76
     1
 52
0.0
 41
0.05
 77
     0
 78
     1
 53
45.0
 43
886.5646248728735
 44
1770.775311847593
 45
-0.1122532015133644
 46
0.1122532015133644
 79
     0
 98
        1
 10
886.5646248728735
 20
1770.775311847593
  0
LINE
  5
2DA65
102
{ACAD_REACTORS
330
2DA54
102
}
330
17
100
AcDbEntity
  8
0
 62
     7
100
AcDbLine
 10
984.0283509891687
 20
1963.646293340294
 30
0.0
 11
984.0283509891687
 21
1980.332293340294
 31
0.0
  0
LINE
  5
2DA66
102
{ACAD_REACTORS
330
2DA64
102
}
330
17
100
AcDbEntity
  8
0
 62
     7
100
AcDbLine
 10
985.882350989169
 20
1965.500293340294
 30
0.0
 11
985.882350989169
 21
1980.332293340294
 31
0.0
  0
ARC
  5
2DA67
102
{ACAD_REACTORS
330
2DA64
102
}
330
17
100
AcDbEntity
  8
0
 62
     7
100
AcDbCircle
 10
991.0735509891685
 20
1976.995093340293
 30
0.0
 40
1.112399999999998
100
AcDbArc
 50
90.0
 51
180.0
  0
ARC
  5
2DA68
102
{ACAD_REACTORS
330
2DA64
102
}
330
17
100
AcDbEntity
  8
0
 62
     7
100
AcDbCircle
 10
993.6691509891684
 20
1976.995093340293
 30
0.0
 40
1.112399999999998
100
AcDbArc
 50
0.0
 51
90.0
  0
LINE
  5
2DA69
102
{ACAD_REACTORS
330
2DA62
102
}
330
17
100
AcDbEntity
  8
0
 62
     7
100
AcDbLine
 10
1000.714350989168
 20
1963.646293340294
 30
0.0
 11
1000.714350989168
 21
1995.164293340293
 31
0.0
  0
LINE
  5
2DA6A
102
{ACAD_REACTORS
330
2DA62
102
}
330
17
100
AcDbEntity
  8
0
 62
     7
100
AcDbLine
 10
1004.793150989166
 20
1974.770293340293
 30
0.0
 11
1004.793150989166
 21
1995.164293340293
 31
0.0
  0
LINE
  5
2DA6B
102
{ACAD_REACTORS
330
2DA62
102
}
330
17
100
AcDbEntity
  8
0
 62
     7
100
AcDbLine
 10
1009.242750989169
 20
1982.186293340293
 30
0.0
 11
1004.793150989166
 21
1974.770293340293
 31
0.0
  0
LINE
  5
2DA6C
102
{ACAD_REACTORS
330
2DA64
102
}
330
17
100
AcDbEntity
  8
0
 62
     7
100
AcDbLine
 10
998.8603509891687
 20
1965.500293340294
 30
0.0
 11
998.8603509891687
 21
1980.332293340294
 31
0.0
  0
LINE
  5
2DA6D
330
17
100
AcDbEntity
  8
0
 62
     7
100
AcDbLine
 10
1032.645550989168
 20
1955.166293340294
 30
0.0
 11
1032.645550989168
 21
1995.166293340294
 31
0.0
  0
HATCH
  5
2DA6E
330
17
100
AcDbEntity
  8
0
 62
     7
100
AcDbHatch
 10
0.0
 20
0.0
 30
0.0
210
0.0
220
0.0
230
1.0
  2
ANSI31
 70
     0
 71
     1
 91
        2
 92
        1
 93
       12
 72
     1
 10
1027.041150989169
 20
1982.186293340293
 11
1015.917150989168
 21
1982.186293340293
 72
     1
 10
1015.917150989168
 20
1982.186293340293
 11
1015.917150989168
 21
1978.107493340294
 72
     1
 10
1015.917150989168
 20
1978.107493340294
 11
1024.816350989167
 21
1978.107493340294
 72
     1
 10
1024.816350989167
 20
1978.107493340294
 11
1024.816350989167
 21
1974.770293340293
 72
     1
 10
1024.816350989167
 20
1974.770293340293
 11
1017.771150989168
 21
1974.770293340293
 72
     2
 10
1017.771150989168
 20
1972.916293340293
 40
1.853999999999996
 50
90.0
 51
180.0
 73
     1
 72
     1
 10
1015.917150989168
 20
1972.916293340293
 11
1015.917150989168
 21
1965.500293340294
 72
     2
 10
1017.771150989168
 20
1965.500293340294
 40
1.853999999999996
 50
180.0
 51
270.0
 73
     1
 72
     1
 10
1017.771150989168
 20
1963.646293340294
 11
1027.041150989169
 21
1963.646293340294
 72
     2
 10
1027.041150989169
 20
1965.500293340294
 40
1.853999999999996
 50
270.0
 51
360.0
 73
     1
 72
     1
 10
1028.895150989169
 20
1965.500293340294
 11
1028.895150989169
 21
1980.332293340294
 72
     2
 10
1027.041150989169
 20
1980.332293340294
 40
1.853999999999996
 50
0.0
 51
90.0
 73
     1
 97
       12
330
2DAA5
330
2DAB7
330
2DAA6
330
2DA70
330
2DA9C
330
2DA74
330
2DA99
330
2DA73
330
2DA9B
330
2DAA3
330
2DA6F
330
2DAB8
 92
       16
 93
        6
 72
     2
 10
1021.108350989166
 20
1969.579093340293
 40
1.112399999999998
 50
90.0
 51
180.0
 73
     1
 72
     1
 10
1019.995950989168
 20
1969.579093340293
 11
1019.995950989168
 21
1968.837493340293
 72
     2
 10
1021.108350989166
 20
1968.837493340293
 40
1.112399999999998
 50
180.0
 51
270.0
 73
     1
 72
     1
 10
1021.108350989166
 20
1967.725093340292
 11
1024.816350989167
 21
1967.725093340292
 72
     1
 10
1024.816350989167
 20
1967.725093340292
 11
1024.816350989167
 21
1970.691493340293
 72
     1
 10
1024.816350989167
 20
1970.691493340293
 11
1021.108350989166
 21
1970.691493340293
 97
        6
330
2DA9F
330
2DAA1
330
2DAA0
330
2DA9D
330
2DAA2
330
2DA9E
 75
     0
 76
     1
 52
0.0
 41
0.05
 77
     0
 78
     1
 53
45.0
 43
886.5646248728735
 44
1770.775311847593
 45
-0.1122532015133644
 46
0.1122532015133644
 79
     0
 98
        1
 10
886.5646248728735
 20
1770.775311847593
  0
LINE
  5
2DA6F
102
{ACAD_REACTORS
330
2DA6E
102
}
330
17
100
AcDbEntity
  8
0
 62
     7
100
AcDbLine
 10
1028.895150989169
 20
1980.332293340294
 30
0.0
 11
1028.895150989169
 21
1965.500293340294
 31
0.0
  0
LINE
  5
2DA70
102
{ACAD_REACTORS
330
2DA6E
102
}
330
17
100
AcDbEntity
  8
0
 62
     7
100
AcDbLine
 10
1024.816350989167
 20
1978.107493340294
 30
0.0
 11
1024.816350989167
 21
1974.770293340293
 31
0.0
  0
LINE
  5
2DA71
330
17
100
AcDbEntity
  8
0
 62
     7
100
AcDbLine
 10
937.6455509891686
 20
1995.166293340294
 30
0.0
 11
937.6455509891686
 21
1955.166293340294
 31
0.0
  0
LINE
  5
2DA72
330
17
100
AcDbEntity
  8
0
 62
     7
100
AcDbLine
 10
939.6455509891687
 20
1953.166293340294
 30
0.0
 11
1030.645550989168
 21
1953.166293340294
 31
0.0
  0
ARC
  5
2DA73
102
{ACAD_REACTORS
330
2DA6E
102
}
330
17
100
AcDbEntity
  8
0
 62
     7
100
AcDbCircle
 10
1017.771150989168
 20
1965.500293340294
 30
0.0
 40
1.853999999999996
100
AcDbArc
 50
180.0
 51
270.0
  0
ARC
  5
2DA74
102
{ACAD_REACTORS
330
2DA6E
102
}
330
17
100
AcDbEntity
  8
0
 62
     7
100
AcDbCircle
 10
1017.771150989168
 20
1972.916293340293
 30
0.0
 40
1.853999999999996
100
AcDbArc
 50
90.0
 51
180.0
  0
ARC
  5
2DA75
330
17
100
AcDbEntity
  8
0
 62
     7
100
AcDbCircle
 10
939.532350989169
 20
1964.697334454893
 30
0.0
 40
14.832
100
AcDbArc
 50
321.8427734126485
 51
0.0
  0
LINE
  5
2DA76
330
17
100
AcDbEntity
  8
0
 62
     7
100
AcDbLine
 10
943.2403509891694
 20
1972.916293340293
 30
0.0
 11
950.2855509891686
 21
1972.916293340293
 31
0.0
  0
LINE
  5
2DA77
330
17
100
AcDbEntity
  8
0
 62
     7
100
AcDbLine
 10
946.5775509891694
 20
1976.995093340293
 30
0.0
 11
950.2855509891686
 21
1976.995093340293
 31
0.0
  0
ARC
  5
2DA78
330
17
100
AcDbEntity
  8
0
 62
     7
100
AcDbCircle
 10
943.2403509891694
 20
1974.770293340293
 30
0.0
 40
1.853999999999996
100
AcDbArc
 50
180.0
 51
270.0
  0
LINE
  5
2DA79
330
17
100
AcDbEntity
  8
0
 62
     7
100
AcDbLine
 10
950.2855509891686
 20
1972.916293340293
 30
0.0
 11
950.2855509891686
 21
1954.376293340293
 31
0.0
  0
LINE
  5
2DA7A
330
17
100
AcDbEntity
  8
0
 62
     7
100
AcDbLine
 10
951.1950245905833
 20
1955.533805196639
 30
0.0
 11
950.2855509891686
 21
1954.376293340293
 31
0.0
  0
LINE
  5
2DA7B
330
17
100
AcDbEntity
  8
0
 62
     7
100
AcDbLine
 10
954.364350989169
 20
1964.758693340292
 30
0.0
 11
954.364350989169
 21
1964.697334454893
 31
0.0
  0
LINE
  5
2DA7C
330
17
100
AcDbEntity
  8
0
 62
     7
100
AcDbLine
 10
954.364350989169
 20
1964.758693340292
 30
0.0
 11
954.364350989169
 21
1964.697334454893
 31
0.0
  0
ARC
  5
2DA7D
330
17
100
AcDbEntity
  8
0
 62
     7
100
AcDbCircle
 10
939.6455509891687
 20
1955.166293340294
 30
0.0
 40
2.0
100
AcDbArc
 50
180.0
 51
270.0
  0
LINE
  5
2DA7E
102
{ACAD_REACTORS
330
2DA58
102
}
330
17
100
AcDbEntity
  8
0
 62
     7
100
AcDbLine
 10
958.072350989169
 20
1963.646293340294
 30
0.0
 11
967.3423509891691
 21
1963.646293340294
 31
0.0
  0
ARC
  5
2DA7F
102
{ACAD_REACTORS
330
2DA58
102
}
330
17
100
AcDbEntity
  8
0
 62
     7
100
AcDbCircle
 10
964.0051509891693
 20
1968.837493340293
 30
0.0
 40
1.112399999999998
100
AcDbArc
 50
270.0
 51
0.0
  0
ARC
  5
2DA80
102
{ACAD_REACTORS
330
2DA58
102
}
330
17
100
AcDbEntity
  8
0
 62
     7
100
AcDbCircle
 10
958.072350989169
 20
1965.500293340294
 30
0.0
 40
1.853999999999996
100
AcDbArc
 50
180.0
 51
270.0
  0
ARC
  5
2DA81
102
{ACAD_REACTORS
330
2DA58
102
}
330
17
100
AcDbEntity
  8
0
 62
     7
100
AcDbCircle
 10
961.409550989169
 20
1968.837493340293
 30
0.0
 40
1.112399999999998
100
AcDbArc
 50
180.0
 51
270.0
  0
LINE
  5
2DA82
102
{ACAD_REACTORS
330
2DA58
102
}
330
17
100
AcDbEntity
  8
0
 62
     7
100
AcDbLine
 10
961.409550989169
 20
1967.725093340292
 30
0.0
 11
964.0051509891693
 21
1967.725093340292
 31
0.0
  0
LINE
  5
2DA83
102
{ACAD_REACTORS
330
2DA54
102
}
330
17
100
AcDbEntity
  8
0
 62
     7
100
AcDbLine
 10
971.0503509891692
 20
1963.646293340294
 30
0.0
 11
975.1291509891686
 21
1963.646293340294
 31
0.0
  0
ARC
  5
2DA84
102
{ACAD_REACTORS
330
2DA58
102
}
330
17
100
AcDbEntity
  8
0
 62
     7
100
AcDbCircle
 10
967.3423509891691
 20
1965.500293340294
 30
0.0
 40
1.853999999999996
100
AcDbArc
 50
270.0
 51
0.0
  0
LINE
  5
2DA85
102
{ACAD_REACTORS
330
2DA54
102
}
330
17
100
AcDbEntity
  8
0
 62
     7
100
AcDbLine
 10
975.1291509891686
 20
1963.646293340294
 30
0.0
 11
975.1291509891686
 21
1976.995093340293
 31
0.0
  0
LINE
  5
2DA86
102
{ACAD_REACTORS
330
2DA64
102
}
330
17
100
AcDbEntity
  8
0
 62
     7
100
AcDbLine
 10
997.0063509891687
 20
1963.646293340294
 30
0.0
 11
987.7363509891686
 21
1963.646293340294
 31
0.0
  0
LINE
  5
2DA87
102
{ACAD_REACTORS
330
2DA54
102
}
330
17
100
AcDbEntity
  8
0
 62
     7
100
AcDbLine
 10
979.949550989169
 20
1963.646293340294
 30
0.0
 11
984.0283509891687
 21
1963.646293340294
 31
0.0
  0
LINE
  5
2DA88
102
{ACAD_REACTORS
330
2DA54
102
}
330
17
100
AcDbEntity
  8
0
 62
     7
100
AcDbLine
 10
979.949550989169
 20
1963.646293340294
 30
0.0
 11
979.949550989169
 21
1976.995093340293
 31
0.0
  0
ARC
  5
2DA89
102
{ACAD_REACTORS
330
2DA64
102
}
330
17
100
AcDbEntity
  8
0
 62
     7
100
AcDbCircle
 10
987.7363509891686
 20
1965.500293340294
 30
0.0
 40
1.853999999999996
100
AcDbArc
 50
180.0
 51
270.0
  0
LINE
  5
2DA8A
102
{ACAD_REACTORS
330
2DA64
102
}
330
17
100
AcDbEntity
  8
0
 62
     7
100
AcDbLine
 10
989.9611509891686
 20
1968.837493340293
 30
0.0
 11
989.9611509891686
 21
1976.995093340293
 31
0.0
  0
LINE
  5
2DA8B
102
{ACAD_REACTORS
330
2DA64
102
}
330
17
100
AcDbEntity
  8
0
 62
     7
100
AcDbLine
 10
994.7815509891688
 20
1968.837493340293
 30
0.0
 11
994.7815509891688
 21
1976.995093340293
 31
0.0
  0
LINE
  5
2DA8C
102
{ACAD_REACTORS
330
2DA64
102
}
330
17
100
AcDbEntity
  8
0
 62
     7
100
AcDbLine
 10
993.6691509891684
 20
1967.725093340292
 30
0.0
 11
991.0735509891685
 21
1967.725093340292
 31
0.0
  0
ARC
  5
2DA8D
102
{ACAD_REACTORS
330
2DA64
102
}
330
17
100
AcDbEntity
  8
0
 62
     7
100
AcDbCircle
 10
991.0735509891685
 20
1968.837493340293
 30
0.0
 40
1.112399999999998
100
AcDbArc
 50
180.0
 51
270.0
  0
ARC
  5
2DA8E
102
{ACAD_REACTORS
330
2DA64
102
}
330
17
100
AcDbEntity
  8
0
 62
     7
100
AcDbCircle
 10
993.6691509891684
 20
1968.837493340293
 30
0.0
 40
1.112399999999998
100
AcDbArc
 50
270.0
 51
0.0
  0
ARC
  5
2DA8F
102
{ACAD_REACTORS
330
2DA62
102
}
330
17
100
AcDbEntity
  8
0
 62
     7
100
AcDbCircle
 10
1012.209150989167
 20
1972.916293340293
 30
0.0
 40
1.853999999999996
100
AcDbArc
 50
0.0
 51
90.0
  0
ARC
  5
2DA90
102
{ACAD_REACTORS
330
2DA64
102
}
330
17
100
AcDbEntity
  8
0
 62
     7
100
AcDbCircle
 10
997.0063509891687
 20
1965.500293340294
 30
0.0
 40
1.853999999999996
100
AcDbArc
 50
270.0
 51
0.0
  0
LINE
  5
2DA91
102
{ACAD_REACTORS
330
2DA62
102
}
330
17
100
AcDbEntity
  8
0
 62
     7
100
AcDbLine
 10
1004.793150989166
 20
1970.691493340293
 30
0.0
 11
1008.871950989169
 21
1970.691493340293
 31
0.0
  0
LINE
  5
2DA92
102
{ACAD_REACTORS
330
2DA62
102
}
330
17
100
AcDbEntity
  8
0
 62
     7
100
AcDbLine
 10
1004.793150989166
 20
1963.646293340294
 30
0.0
 11
1000.714350989168
 21
1963.646293340294
 31
0.0
  0
LINE
  5
2DA93
102
{ACAD_REACTORS
330
2DA62
102
}
330
17
100
AcDbEntity
  8
0
 62
     7
100
AcDbLine
 10
1004.793150989166
 20
1963.646293340294
 30
0.0
 11
1004.793150989166
 21
1970.691493340293
 31
0.0
  0
LINE
  5
2DA94
102
{ACAD_REACTORS
330
2DA62
102
}
330
17
100
AcDbEntity
  8
0
 62
     7
100
AcDbLine
 10
1014.063150989169
 20
1972.916293340293
 30
0.0
 11
1014.063150989169
 21
1963.646293340294
 31
0.0
  0
LINE
  5
2DA95
102
{ACAD_REACTORS
330
2DA62
102
}
330
17
100
AcDbEntity
  8
0
 62
     7
100
AcDbLine
 10
1014.063150989169
 20
1963.646293340294
 30
0.0
 11
1009.984350989169
 21
1963.646293340294
 31
0.0
  0
ARC
  5
2DA96
102
{ACAD_REACTORS
330
2DA62
102
}
330
17
100
AcDbEntity
  8
0
 62
     7
100
AcDbCircle
 10
1008.871950989169
 20
1969.579093340293
 30
0.0
 40
1.112399999999998
100
AcDbArc
 50
0.0
 51
90.0
  0
LINE
  5
2DA97
102
{ACAD_REACTORS
330
2DA62
102
}
330
17
100
AcDbEntity
  8
0
 62
     7
100
AcDbLine
 10
1009.984350989169
 20
1969.579093340293
 30
0.0
 11
1009.984350989169
 21
1963.646293340294
 31
0.0
  0
LINE
  5
2DA98
102
{ACAD_REACTORS
330
2DA62
102
}
330
17
100
AcDbEntity
  8
0
 62
     7
100
AcDbLine
 10
1009.984350989169
 20
1974.770293340293
 30
0.0
 11
1012.209150989167
 21
1974.770293340293
 31
0.0
  0
LINE
  5
2DA99
102
{ACAD_REACTORS
330
2DA6E
102
}
330
17
100
AcDbEntity
  8
0
 62
     7
100
AcDbLine
 10
1015.917150989168
 20
1972.916293340293
 30
0.0
 11
1015.917150989168
 21
1965.500293340294
 31
0.0
  0
ARC
  5
2DA9A
330
17
100
AcDbEntity
  8
0
 62
     7
100
AcDbCircle
 10
1030.645550989168
 20
1955.166293340294
 30
0.0
 40
2.0
100
AcDbArc
 50
270.0
 51
0.0
  0
LINE
  5
2DA9B
102
{ACAD_REACTORS
330
2DA6E
102
}
330
17
100
AcDbEntity
  8
0
 62
     7
100
AcDbLine
 10
1027.041150989169
 20
1963.646293340294
 30
0.0
 11
1017.771150989168
 21
1963.646293340294
 31
0.0
  0
LINE
  5
2DA9C
102
{ACAD_REACTORS
330
2DA6E
102
}
330
17
100
AcDbEntity
  8
0
 62
     7
100
AcDbLine
 10
1017.771150989168
 20
1974.770293340293
 30
0.0
 11
1024.816350989167
 21
1974.770293340293
 31
0.0
  0
LINE
  5
2DA9D
102
{ACAD_REACTORS
330
2DA6E
102
}
330
17
100
AcDbEntity
  8
0
 62
     7
100
AcDbLine
 10
1024.816350989167
 20
1967.725093340292
 30
0.0
 11
1021.108350989166
 21
1967.725093340292
 31
0.0
  0
LINE
  5
2DA9E
102
{ACAD_REACTORS
330
2DA6E
102
}
330
17
100
AcDbEntity
  8
0
 62
     7
100
AcDbLine
 10
1021.108350989166
 20
1970.691493340293
 30
0.0
 11
1024.816350989167
 21
1970.691493340293
 31
0.0
  0
ARC
  5
2DA9F
102
{ACAD_REACTORS
330
2DA6E
102
}
330
17
100
AcDbEntity
  8
0
 62
     7
100
AcDbCircle
 10
1021.108350989166
 20
1969.579093340293
 30
0.0
 40
1.112399999999998
100
AcDbArc
 50
90.0
 51
180.0
  0
ARC
  5
2DAA0
102
{ACAD_REACTORS
330
2DA6E
102
}
330
17
100
AcDbEntity
  8
0
 62
     7
100
AcDbCircle
 10
1021.108350989166
 20
1968.837493340293
 30
0.0
 40
1.112399999999998
100
AcDbArc
 50
180.0
 51
270.0
  0
LINE
  5
2DAA1
102
{ACAD_REACTORS
330
2DA6E
102
}
330
17
100
AcDbEntity
  8
0
 62
     7
100
AcDbLine
 10
1019.995950989168
 20
1969.579093340293
 30
0.0
 11
1019.995950989168
 21
1968.837493340293
 31
0.0
  0
LINE
  5
2DAA2
102
{ACAD_REACTORS
330
2DA6E
102
}
330
17
100
AcDbEntity
  8
0
 62
     7
100
AcDbLine
 10
1024.816350989167
 20
1970.691493340293
 30
0.0
 11
1024.816350989167
 21
1967.725093340292
 31
0.0
  0
ARC
  5
2DAA3
102
{ACAD_REACTORS
330
2DA6E
102
}
330
17
100
AcDbEntity
  8
0
 62
     7
100
AcDbCircle
 10
1027.041150989169
 20
1965.500293340294
 30
0.0
 40
1.853999999999996
100
AcDbArc
 50
270.0
 51
0.0
  0
LINE
  5
2DAA4
330
17
100
AcDbEntity
  8
0
 62
     7
100
AcDbLine
 10
1030.645550989168
 20
1997.166293340294
 30
0.0
 11
939.6455509891687
 21
1997.166293340294
 31
0.0
  0
LINE
  5
2DAA5
102
{ACAD_REACTORS
330
2DA6E
102
}
330
17
100
AcDbEntity
  8
0
 62
     7
100
AcDbLine
 10
1027.041150989169
 20
1982.186293340293
 30
0.0
 11
1015.917150989168
 21
1982.186293340293
 31
0.0
  0
LINE
  5
2DAA6
102
{ACAD_REACTORS
330
2DA6E
102
}
330
17
100
AcDbEntity
  8
0
 62
     7
100
AcDbLine
 10
1024.816350989167
 20
1978.107493340294
 30
0.0
 11
1015.917150989168
 21
1978.107493340294
 31
0.0
  0
LINE
  5
2DAA7
102
{ACAD_REACTORS
330
2DA54
102
}
330
17
100
AcDbEntity
  8
0
 62
     7
100
AcDbLine
 10
972.904350989169
 20
1982.186293340293
 30
0.0
 11
982.1743509891687
 21
1982.186293340293
 31
0.0
  0
LINE
  5
2DAA8
330
17
100
AcDbEntity
  8
0
 62
     7
100
AcDbLine
 10
945.4651509891691
 20
1995.164293340293
 30
0.0
 11
945.4651509891691
 21
1978.107493340294
 31
0.0
  0
LINE
  5
2DAA9
330
17
100
AcDbEntity
  8
0
 62
     7
100
AcDbLine
 10
941.3863509891688
 20
1995.164293340293
 30
0.0
 11
945.4651509891691
 21
1995.164293340293
 31
0.0
  0
LINE
  5
2DAAA
330
17
100
AcDbEntity
  8
0
 62
     7
100
AcDbLine
 10
950.2855509891686
 20
1995.164293340293
 30
0.0
 11
954.364350989169
 21
1995.164293340293
 31
0.0
  0
ARC
  5
2DAAB
330
17
100
AcDbEntity
  8
0
 62
     7
100
AcDbCircle
 10
939.6455509891687
 20
1995.166293340294
 30
0.0
 40
2.0
100
AcDbArc
 50
90.0
 51
180.0
  0
LINE
  5
2DAAC
102
{ACAD_REACTORS
330
2DA58
102
}
330
17
100
AcDbEntity
  8
0
 62
     7
100
AcDbLine
 10
956.2183509891688
 20
1982.186293340293
 30
0.0
 11
960.2971509891686
 21
1982.186293340293
 31
0.0
  0
LINE
  5
2DAAD
102
{ACAD_REACTORS
330
2DA58
102
}
330
17
100
AcDbEntity
  8
0
 62
     7
100
AcDbLine
 10
965.1175509891691
 20
1982.186293340293
 30
0.0
 11
969.1963509891687
 21
1982.186293340293
 31
0.0
  0
ARC
  5
2DAAE
102
{ACAD_REACTORS
330
2DA54
102
}
330
17
100
AcDbEntity
  8
0
 62
     7
100
AcDbCircle
 10
972.904350989169
 20
1980.332293340294
 30
0.0
 40
1.853999999999996
100
AcDbArc
 50
90.0
 51
180.0
  0
LINE
  5
2DAAF
102
{ACAD_REACTORS
330
2DA64
102
}
330
17
100
AcDbEntity
  8
0
 62
     7
100
AcDbLine
 10
997.0063509891687
 20
1982.186293340293
 30
0.0
 11
987.7363509891686
 21
1982.186293340293
 31
0.0
  0
LINE
  5
2DAB0
102
{ACAD_REACTORS
330
2DA54
102
}
330
17
100
AcDbEntity
  8
0
 62
     7
100
AcDbLine
 10
976.2415509891685
 20
1978.107493340294
 30
0.0
 11
978.8371509891687
 21
1978.107493340294
 31
0.0
  0
ARC
  5
2DAB1
102
{ACAD_REACTORS
330
2DA54
102
}
330
17
100
AcDbEntity
  8
0
 62
     7
100
AcDbCircle
 10
982.1743509891687
 20
1980.332293340294
 30
0.0
 40
1.853999999999996
100
AcDbArc
 50
0.0
 51
90.0
  0
ARC
  5
2DAB2
102
{ACAD_REACTORS
330
2DA64
102
}
330
17
100
AcDbEntity
  8
0
 62
     7
100
AcDbCircle
 10
987.7363509891686
 20
1980.332293340294
 30
0.0
 40
1.853999999999996
100
AcDbArc
 50
90.0
 51
180.0
  0
LINE
  5
2DAB3
102
{ACAD_REACTORS
330
2DA64
102
}
330
17
100
AcDbEntity
  8
0
 62
     7
100
AcDbLine
 10
993.6691509891684
 20
1978.107493340294
 30
0.0
 11
991.0735509891685
 21
1978.107493340294
 31
0.0
  0
LINE
  5
2DAB4
102
{ACAD_REACTORS
330
2DA62
102
}
330
17
100
AcDbEntity
  8
0
 62
     7
100
AcDbLine
 10
1014.433950989167
 20
1982.186293340293
 30
0.0
 11
1009.242750989169
 21
1982.186293340293
 31
0.0
  0
ARC
  5
2DAB5
102
{ACAD_REACTORS
330
2DA64
102
}
330
17
100
AcDbEntity
  8
0
 62
     7
100
AcDbCircle
 10
997.0063509891687
 20
1980.332293340294
 30
0.0
 40
1.853999999999996
100
AcDbArc
 50
0.0
 51
90.0
  0
LINE
  5
2DAB6
102
{ACAD_REACTORS
330
2DA62
102
}
330
17
100
AcDbEntity
  8
0
 62
     7
100
AcDbLine
 10
1000.714350989168
 20
1995.164293340293
 30
0.0
 11
1004.793150989166
 21
1995.164293340293
 31
0.0
  0
LINE
  5
2DAB7
102
{ACAD_REACTORS
330
2DA6E
102
}
330
17
100
AcDbEntity
  8
0
 62
     7
100
AcDbLine
 10
1015.917150989168
 20
1982.186293340293
 30
0.0
 11
1015.917150989168
 21
1978.107493340294
 31
0.0
  0
ARC
  5
2DAB8
102
{ACAD_REACTORS
330
2DA6E
102
}
330
17
100
AcDbEntity
  8
0
 62
     7
100
AcDbCircle
 10
1027.041150989169
 20
1980.332293340294
 30
0.0
 40
1.853999999999996
100
AcDbArc
 50
0.0
 51
90.0
  0
ARC
  5
2DAB9
330
17
100
AcDbEntity
  8
0
 62
     7
100
AcDbCircle
 10
1030.645550989168
 20
1995.166293340294
 30
0.0
 40
2.0
100
AcDbArc
 50
0.0
 51
90.0
  0
TEXT
  5
2DB8E
330
17
100
AcDbEntity
  8
DIMTEXT
 62
     7
100
AcDbText
 10
2090.037366255288
 20
1985.657256898843
 30
0.0
 40
48.0
  1
1
 41
0.8
 72
     1
 11
2094.608794826716
 21
2009.657256898842
 31
0.0
100
AcDbText
 73
     2
  0
TEXT
  5
2DB8F
330
17
100
AcDbEntity
  8
0
 62
     7
370
    18
100
AcDbText
 10
2171.399726771646
 20
1989.77901855991
 30
0.0
 40
48.0
  1
200V電源引込口
 41
0.8
100
AcDbText
  0
LINE
  5
2DB90
330
17
100
AcDbEntity
  8
WAKU
 62
     7
100
AcDbLine
 10
2030.815193317476
 20
1970.570252123029
 30
0.0
 11
2830.815193317478
 21
1970.570252123029
 31
0.0
  0
LINE
  5
2DB91
330
17
100
AcDbEntity
  8
WAKU
 62
     7
100
AcDbLine
 10
2030.815193317476
 20
1890.570252123028
 30
0.0
 11
2830.815193317478
 21
1890.570252123028
 31
0.0
  0
LINE
  5
2DB92
330
17
100
AcDbEntity
  8
WAKU
 62
     7
100
AcDbLine
 10
2030.815193317476
 20
1810.57025212303
 30
0.0
 11
2830.815193317478
 21
1810.57025212303
 31
0.0
  0
TEXT
  5
2DB95
330
17
100
AcDbEntity
  8
DIMTEXT
 62
     7
100
AcDbText
 10
2081.808794826716
 20
1825.657256898842
 30
0.0
 40
48.0
  1
3
 41
0.8
 72
     1
 11
2094.608794826716
 21
1849.657256898842
 31
0.0
100
AcDbText
 73
     2
  0
TEXT
  5
2DB96
330
17
100
AcDbEntity
  8
DIMTEXT
 62
     7
100
AcDbText
 10
2081.808794826716
 20
1905.657256898843
 30
0.0
 40
48.0
  1
2
 41
0.8
 72
     1
 11
2094.608794826716
 21
1929.657256898843
 31
0.0
100
AcDbText
 73
     2
  0
TEXT
  5
2DB97
330
17
100
AcDbEntity
  8
DIMTEXT
 62
     7
100
AcDbText
 10
2340.520099535667
 20
2066.570252123029
 30
0.0
 40
48.0
  1
名      称
 41
0.8
 72
     1
 11
2450.600099535667
 21
2090.570252123029
 31
0.0
100
AcDbText
 73
     2
  0
LINE
  5
2DB98
330
17
100
AcDbEntity
  8
WAKU
 62
     7
100
AcDbLine
 10
2030.815193317476
 20
2050.570252123029
 30
0.0
 11
2830.815193317478
 21
2050.570252123029
 31
0.0
  0
LINE
  5
2DB99
330
17
100
AcDbEntity
  8
WAKU
 62
     7
100
AcDbLine
 10
2830.815193317478
 20
2130.570252123029
 30
0.0
 11
2030.815193317476
 21
2130.570252123029
 31
0.0
  0
TEXT
  5
2DB9A
330
17
100
AcDbEntity
  8
DIMTEXT
 62
     7
100
AcDbText
 10
2053.648794826716
 20
2066.570252123029
 30
0.0
 40
48.0
  1
番号
 41
0.8
 72
     1
 11
2094.608794826716
 21
2090.570252123029
 31
0.0
100
AcDbText
 73
     2
  0
LINE
  5
2DB9B
330
17
100
AcDbEntity
  8
WAKU
 62
     7
100
AcDbLine
 10
2030.815193317476
 20
2130.570252123029
 30
0.0
 11
2030.815193317476
 21
1810.57025212303
 31
0.0
  0
LINE
  5
2DB9C
330
17
100
AcDbEntity
  8
WAKU
 62
     7
100
AcDbLine
 10
2155.905677560175
 20
2130.570252123029
 30
0.0
 11
2155.905677560175
 21
1810.57025212303
 31
0.0
  0
LINE
  5
2DB9D
330
17
100
AcDbEntity
  8
WAKU
 62
     7
100
AcDbLine
 10
2830.815193317478
 20
2130.570252123029
 30
0.0
 11
2830.815193317478
 21
1810.57025212303
 31
0.0
  0
TEXT
  5
2DB9E
330
17
100
AcDbEntity
  8
0
 62
     7
370
    18
100
AcDbText
 10
2171.399726771646
 20
1909.779018559909
 30
0.0
 40
48.0
  1
100・200V補助電源引込口
 41
0.8
100
AcDbText
  0
TEXT
  5
2DB9F
330
17
100
AcDbEntity
  8
0
 62
     7
370
    18
100
AcDbText
 10
2171.399726771646
 20
1829.77901855991
 30
0.0
 40
48.0
  1
リモコンケーブル引込口
 41
0.8
100
AcDbText
  0
LEADER
  5
2DBA1
330
17
100
AcDbEntity
  8
DIM
100
AcDbLeader
  3
STANDARD
 76
     2
 10
2331.92837051656
 20
2650.673602045577
 30
0.0
 10
2181.394664561309
 20
2524.954910119401
 30
0.0
1001
SSE_BALOON
1005
2DBAB
1001
ACAD
1000
DSTYLE
1002
{
1070
    41
1040
3.0
1070
    42
1040
2.0
1070
    43
1040
10.0
1070
    44
1040
2.0
1070
    73
1070
     0
1070
    74
1070
     0
1070
    77
1070
     1
1070
    78
1070
     8
1070
    79
1070
     2
1070
   140
1040
3.2
1070
   147
1040
0.9999999999999996
1070
   172
1070
     1
1070
   179
1070
     4
1070
   271
1070
     2
1070
   272
1070
     2
1070
   341
1005
5132
1070
   342
1005
4A
1002
}
  0
INSERT
  5
2DBAB
330
17
100
AcDbEntity
  8
DIM
100
AcDbBlockReference
 66
     1
  2
SSE_BALOON1
 10
2146.8556382602
 20
2496.109535062535
 30
0.0
 41
45.0
 42
45.0
 43
45.0
1001
SSE_BALOON
1005
2DBA1
  0
ATTRIB
  5
2DBAC
330
2DBAB
100
AcDbEntity
  8
DIMTEXT
100
AcDbText
 10
2143.284209688771
 20
2481.109535062535
 30
0.0
 40
30.0
  1
1
 72
     4
 11
2146.8556382602
 21
2496.109535062535
 31
0.0
100
AcDbAttribute
  2
BAL_NUM
 70
     0
  0
SEQEND
  5
2DBAD
330
2DBAB
100
AcDbEntity
  8
DIM
  0
LEADER
  5
2DBB0
330
17
100
AcDbEntity
  8
DIM
100
AcDbLeader
  3
STANDARD
 76
     2
 10
2421.928370516559
 20
2635.673602045577
 30
0.0
 10
2349.687225153101
 20
2532.92188483043
 30
0.0
1001
SSE_BALOON
1005
2DBB1
1001
ACAD
1000
DSTYLE
1002
{
1070
    41
1040
3.0
1070
    42
1040
2.0
1070
    43
1040
10.0
1070
    44
1040
2.0
1070
    73
1070
     0
1070
    74
1070
     0
1070
    77
1070
     1
1070
    78
1070
     8
1070
    79
1070
     2
1070
   140
1040
3.2
1070
   147
1040
0.9999999999999996
1070
   172
1070
     1
1070
   179
1070
     4
1070
   271
1070
     2
1070
   272
1070
     2
1070
   341
1005
5132
1070
   342
1005
4A
1002
}
  0
INSERT
  5
2DBB1
330
17
100
AcDbEntity
  8
DIM
100
AcDbBlockReference
 66
     1
  2
SSE_BALOON1
 10
2323.805747131818
 20
2496.109535062535
 30
0.0
 41
45.0
 42
45.0
 43
45.0
1001
SSE_BALOON
1005
2DBB0
  0
ATTRIB
  5
2DBB2
330
2DBB1
100
AcDbEntity
  8
DIMTEXT
100
AcDbText
 10
2313.805747131818
 20
2481.109535062535
 30
0.0
 40
30.0
  1
2
 72
     4
 11
2323.805747131818
 21
2496.109535062535
 31
0.0
100
AcDbAttribute
  2
BAL_NUM
 70
     0
  0
SEQEND
  5
2DBB3
330
2DBB1
100
AcDbEntity
  8
DIM
  0
LEADER
  5
2DBB6
330
17
100
AcDbEntity
  8
DIM
100
AcDbLeader
  3
STANDARD
 76
     2
 10
2511.928370516562
 20
2650.673602045577
 30
0.0
 10
2608.229798412905
 20
2537.156911809125
 30
0.0
1001
ACAD
1000
DSTYLE
1002
{
1070
    41
1040
3.0
1070
    42
1040
2.0
1070
    43
1040
10.0
1070
    44
1040
2.0
1070
    73
1070
     0
1070
    74
1070
     0
1070
    77
1070
     1
1070
    78
1070
     8
1070
    79
1070
     2
1070
   140
1040
3.2
1070
   147
1040
0.9999999999999996
1070
   172
1070
     1
1070
   179
1070
     4
1070
   271
1070
     2
1070
   272
1070
     2
1070
   341
1005
4A
1070
   342
1005
4A
1002
}
1001
SSE_BALOON
1005
2DBB7
  0
INSERT
  5
2DBB7
330
17
100
AcDbEntity
  8
DIM
100
AcDbBlockReference
 66
     1
  2
SSE_BALOON1
 10
2637.341012852829
 20
2502.841649988286
 30
0.0
 41
45.0
 42
45.0
 43
45.0
1001
SSE_BALOON
1005
2DBB6
  0
ATTRIB
  5
2DBB8
330
2DBB7
100
AcDbEntity
  8
DIMTEXT
100
AcDbText
 10
2627.341012852828
 20
2487.841649988286
 30
0.0
 40
30.0
  1
3
 72
     4
 11
2637.341012852829
 21
2502.841649988286
 31
0.0
100
AcDbAttribute
  2
BAL_NUM
 70
     0
  0
SEQEND
  5
2DBB9
330
2DBB7
100
AcDbEntity
  8
DIM
  0
LINE
  5
2DBC3
330
17
100
AcDbEntity
  8
WAKU
 62
     7
100
AcDbLine
 10
3023.810957160204
 20
4353.303310843618
 30
0.0
 11
2023.810957160204
 21
4353.303310843618
 31
0.0
  0
TEXT
  5
2DBC4
330
17
100
AcDbEntity
  8
DIMTEXT
 62
     7
100
AcDbText
 10
2559.553814303063
 20
4289.30331084362
 30
0.0
 40
48.0
  1
SM830B-H08
 41
0.8
 72
     1
 11
2748.810957160205
 21
4313.30331084362
 31
0.0
100
AcDbText
 73
     2
  0
ENDSEC
  0
SECTION
  2
OBJECTS
  0
DICTIONARY
  5
C
330
0
100
AcDbDictionary
281
     1
  3
ACAD_GROUP
350
D
  3
ACAD_LAYOUT
350
34
  3
ACAD_MLINESTYLE
350
1A
  3
ACAD_PLOTSETTINGS
350
35
  3
ACAD_PLOTSTYLENAME
350
32
  3
AcadDim
350
2DBA0
  3
AcDbVariableDictionary
350
44
  0
DICTIONARY
  5
2C31C
330
2
100
AcDbDictionary
280
     1
281
     1
  3
ACAD_LAYERSTATES
360
2C31D
  0
DICTIONARY
  5
D
102
{ACAD_REACTORS
330
C
102
}
330
C
100
AcDbDictionary
281
     1
  3
*A1
350
3917
  3
*A10
350
14DF3
  3
*A2
350
14E80
  3
*A3
350
14E82
  3
*A4
350
17876
  3
*A5
350
3E2F
  3
*A6
350
14154
  3
*A7
350
14C46
  3
*A8
350
14C48
  3
*A9
350
14DF1
  0
DICTIONARY
  5
34
102
{ACAD_REACTORS
330
C
102
}
330
C
100
AcDbDictionary
281
     1
  3
Model
350
36
  3
ﾚｲｱｳﾄ1
350
37
  0
DICTIONARY
  5
1A
102
{ACAD_REACTORS
330
C
102
}
330
C
100
AcDbDictionary
281
     1
  3
STANDARD
350
1B
  0
DICTIONARY
  5
35
102
{ACAD_REACTORS
330
C
102
}
330
C
100
AcDbDictionary
281
     1
  0
ACDBDICTIONARYWDFLT
  5
32
102
{ACAD_REACTORS
330
C
102
}
330
C
100
AcDbDictionary
281
     1
  3
Normal
350
33
100
AcDbDictionaryWithDefault
340
33
  0
XRECORD
  5
2DBA0
102
{ACAD_REACTORS
330
C
102
}
330
C
100
AcDbXrecord
280
     1
 90
   990106
  3

 60
     0
 61
     0
 62
     4
 63
     4
 64
     1
 65
     0
 66
     0
 67
     2
 68
     1
 69
     0
 70
     0
 71
     0
 72
     0
 40
0.0
170
     2
  0
DICTIONARY
  5
44
102
{ACAD_REACTORS
330
C
102
}
330
C
100
AcDbDictionary
281
     1
  3
DIMASSOC
350
45
  3
SORTENTS
350
6F8C
  0
DICTIONARY
  5
2C31D
102
{ACAD_REACTORS
330
2C31C
102
}
330
2C31C
100
AcDbDictionary
281
     1
  0
GROUP
  5
3917
102
{ACAD_REACTORS
330
D
102
}
330
D
100
AcDbGroup
300
SSE_Dim15
 70
     1
 71
     1
  0
GROUP
  5
14DF3
102
{ACAD_REACTORS
330
D
102
}
330
D
100
AcDbGroup
300

 70
     1
 71
     1
  0
GROUP
  5
14E80
102
{ACAD_REACTORS
330
D
102
}
330
D
100
AcDbGroup
300

 70
     1
 71
     1
  0
GROUP
  5
14E82
102
{ACAD_REACTORS
330
D
102
}
330
D
100
AcDbGroup
300

 70
     1
 71
     1
  0
GROUP
  5
17876
102
{ACAD_REACTORS
330
D
102
}
330
D
100
AcDbGroup
300

 70
     1
 71
     1
  0
GROUP
  5
3E2F
102
{ACAD_REACTORS
330
D
102
}
330
D
100
AcDbGroup
300

 70
     1
 71
     1
  0
GROUP
  5
14154
102
{ACAD_REACTORS
330
D
102
}
330
D
100
AcDbGroup
300

 70
     1
 71
     1
  0
GROUP
  5
14C46
102
{ACAD_REACTORS
330
D
102
}
330
D
100
AcDbGroup
300

 70
     1
 71
     1
  0
GROUP
  5
14C48
102
{ACAD_REACTORS
330
D
102
}
330
D
100
AcDbGroup
300

 70
     1
 71
     1
  0
GROUP
  5
14DF1
102
{ACAD_REACTORS
330
D
102
}
330
D
100
AcDbGroup
300

 70
     1
 71
     1
  0
LAYOUT
  5
36
102
{ACAD_REACTORS
330
34
102
}
330
34
100
AcDbPlotSettings
  1

  2
DocuPrint 360 - 技術開発部 熱利用技術Ｇ.pc3
  4
A4
  6

 40
0.0
 41
0.0
 42
0.97332763671875
 43
0.96832275390625
 44
209.9733276367186
 45
296.9683227539062
 46
0.0
 47
0.21
 48
-146.8466723106355
 49
-64.40253034048168
140
6384.6204135816
141
4550.539056607019
142
1.0
143
15.07177033492822
 70
 11956
 72
     1
 73
     0
 74
     2
  7
monochrome.ctb
 75
     0
147
0.0663492063492064
148
0.0
149
0.0
100
AcDbLayout
  1
Model
 70
     1
 71
     0
 10
0.0
 20
0.0
 11
12.0
 21
9.0
 12
0.0
 22
0.0
 32
0.0
 14
0.0
 24
0.0
 34
0.0
 15
0.0
 25
0.0
 35
0.0
146
0.0
 13
0.0
 23
0.0
 33
0.0
 16
1.0
 26
0.0
 36
0.0
 17
0.0
 27
1.0
 37
0.0
 76
     0
330
17
  0
LAYOUT
  5
37
102
{ACAD_REACTORS
330
34
102
}
330
34
100
AcDbPlotSettings
  1

  2
EPSON LP-8300C
  4

  6

 40
0.0
 41
0.0
 42
0.0
 43
0.0
 44
0.0
 45
0.0
 46
0.0
 47
0.0
 48
0.0
 49
0.0
140
0.0
141
0.0
142
1.0
143
1.0
 70
   688
 72
     0
 73
     0
 74
     5
  7
monochrome.ctb
 75
    16
147
1.0
148
0.0
149
0.0
100
AcDbLayout
  1
ﾚｲｱｳﾄ1
 70
     0
 71
     1
 10
0.0
 20
0.0
 11
12.0
 21
9.0
 12
0.0
 22
0.0
 32
0.0
 14
1.000000000000000E+20
 24
1.000000000000000E+20
 34
1.000000000000000E+20
 15
-1.000000000000000E+20
 25
-1.000000000000000E+20
 35
-1.000000000000000E+20
146
0.0
 13
0.0
 23
0.0
 33
0.0
 16
1.0
 26
0.0
 36
0.0
 17
0.0
 27
1.0
 37
0.0
 76
     0
330
14
  0
MLINESTYLE
  5
1B
102
{ACAD_REACTORS
330
1A
102
}
330
1A
100
AcDbMlineStyle
  2
STANDARD
 70
     0
  3

 62
   256
 51
90.0
 52
90.0
 71
     2
 49
0.5
 62
   256
  6
BYLAYER
 49
-0.5
 62
   256
  6
BYLAYER
  0
ACDBPLACEHOLDER
  5
33
102
{ACAD_REACTORS
330
32
102
}
330
32
  0
DICTIONARYVAR
  5
45
102
{ACAD_REACTORS
330
44
102
}
330
44
100
DictionaryVariables
280
     0
  1
1
  0
DICTIONARYVAR
  5
6F8C
102
{ACAD_REACTORS
330
44
102
}
330
44
100
DictionaryVariables
280
     0
  1
96
  0
ENDSEC
  0
EOF
