  0
SECTION
  2
HEADER
  9
$ACADVER
  1
AC1021
  9
$ACADMAINTVER
 70
    26
  9
$DWGCODEPAGE
  3
ANSI_932
  9
$LASTSAVEDBY
  1
yoshino
  9
$INSBASE
 10
0.0
 20
0.0
 30
0.0
  9
$EXTMIN
 10
-0.1089394419789227
 20
-0.1540714965132919
 30
-0.0015258207003612
  9
$EXTMAX
 10
3570.108956066087
 20
5049.154095007751
 30
0.0000000349246008
  9
$LIMMIN
 10
0.0
 20
0.0
  9
$LIMMAX
 10
3570.0
 20
5049.0
  9
$ORTHOMODE
 70
     0
  9
$REGENMODE
 70
     1
  9
$FILLMODE
 70
     1
  9
$QTEXTMODE
 70
     0
  9
$MIRRTEXT
 70
     0
  9
$LTSCALE
 40
17.0
  9
$ATTMODE
 70
     1
  9
$TEXTSIZE
 40
16.0
  9
$TRACEWID
 40
0.05
  9
$TEXTSTYLE
  7
STANDARD
  9
$CLAYER
  8
0
  9
$CELTYPE
  6
BYLAYER
  9
$CECOLOR
 62
   256
  9
$CELTSCALE
 40
1.0
  9
$DISPSILH
 70
     0
  9
$DIMSCALE
 40
17.0
  9
$DIMASZ
 40
3.0
  9
$DIMEXO
 40
2.0
  9
$DIMDLI
 40
6.0
  9
$DIMRND
 40
0.0
  9
$DIMDLE
 40
0.0
  9
$DIMEXE
 40
2.0
  9
$DIMTP
 40
0.0
  9
$DIMTM
 40
0.0
  9
$DIMTXT
 40
3.2
  9
$DIMCEN
 40
0.09
  9
$DIMTSZ
 40
0.0
  9
$DIMTOL
 70
     0
  9
$DIMLIM
 70
     0
  9
$DIMTIH
 70
     0
  9
$DIMTOH
 70
     0
  9
$DIMSE1
 70
     0
  9
$DIMSE2
 70
     0
  9
$DIMTAD
 70
     1
  9
$DIMZIN
 70
     8
  9
$DIMBLK
  1
Open30
  9
$DIMASO
 70
     1
  9
$DIMSHO
 70
     0
  9
$DIMPOST
  1

  9
$DIMAPOST
  1

  9
$DIMALT
 70
     0
  9
$DIMALTD
 70
     2
  9
$DIMALTF
 40
25.4
  9
$DIMLFAC
 40
1.0
  9
$DIMTOFL
 70
     1
  9
$DIMTVP
 40
0.0
  9
$DIMTIX
 70
     0
  9
$DIMSOXD
 70
     0
  9
$DIMSAH
 70
     0
  9
$DIMBLK1
  1

  9
$DIMBLK2
  1

  9
$DIMSTYLE
  2
STANDARD
  9
$DIMCLRD
 70
     0
  9
$DIMCLRE
 70
     0
  9
$DIMCLRT
 70
     0
  9
$DIMTFAC
 40
1.0
  9
$DIMGAP
 40
0.9999999999999996
  9
$DIMJUST
 70
     0
  9
$DIMSD1
 70
     0
  9
$DIMSD2
 70
     0
  9
$DIMTOLJ
 70
     1
  9
$DIMTZIN
 70
     0
  9
$DIMALTZ
 70
     0
  9
$DIMALTTZ
 70
     0
  9
$DIMUPT
 70
     0
  9
$DIMDEC
 70
     2
  9
$DIMTDEC
 70
     2
  9
$DIMALTU
 70
     2
  9
$DIMALTTD
 70
     2
  9
$DIMTXSTY
  7
STANDARD
  9
$DIMAUNIT
 70
     0
  9
$DIMADEC
 70
     4
  9
$DIMALTRND
 40
0.0
  9
$DIMAZIN
 70
     2
  9
$DIMDSEP
 70
    46
  9
$DIMATFIT
 70
     3
  9
$DIMFRAC
 70
     0
  9
$DIMLDRBLK
  1
Open30
  9
$DIMLUNIT
 70
     2
  9
$DIMLWD
 70
    -2
  9
$DIMLWE
 70
    -2
  9
$DIMTMOVE
 70
     0
  9
$DIMFXL
 40
1.0
  9
$DIMFXLON
 70
     0
  9
$DIMJOGANG
 40
0.7853981633974483
  9
$DIMTFILL
 70
     0
  9
$DIMTFILLCLR
 70
     0
  9
$DIMARCSYM
 70
     0
  9
$DIMLTYPE
  6

  9
$DIMLTEX1
  6

  9
$DIMLTEX2
  6

  9
$LUNITS
 70
     2
  9
$LUPREC
 70
     2
  9
$SKETCHINC
 40
0.1
  9
$FILLETRAD
 40
20.0
  9
$AUNITS
 70
     0
  9
$AUPREC
 70
     2
  9
$MENU
  1
dash
  9
$ELEVATION
 40
0.0
  9
$PELEVATION
 40
0.0
  9
$THICKNESS
 40
0.0
  9
$LIMCHECK
 70
     0
  9
$CHAMFERA
 40
0.0
  9
$CHAMFERB
 40
0.0
  9
$CHAMFERC
 40
0.0
  9
$CHAMFERD
 40
0.0
  9
$SKPOLY
 70
     0
  9
$TDCREATE
 40
2453136.600744352
  9
$TDUCREATE
 40
2453136.225744352
  9
$TDUPDATE
 40
2454838.821185972
  9
$TDUUPDATE
 40
2454838.446185972
  9
$TDINDWG
 40
7.1476226389
  9
$TDUSRTIMER
 40
7.1476208218
  9
$USRTIMER
 70
     1
  9
$ANGBASE
 50
0.0
  9
$ANGDIR
 70
     0
  9
$PDMODE
 70
    35
  9
$PDSIZE
 40
1.0
  9
$PLINEWID
 40
0.0
  9
$SPLFRAME
 70
     0
  9
$SPLINETYPE
 70
     6
  9
$SPLINESEGS
 70
     8
  9
$HANDSEED
  5
2F833
  9
$SURFTAB1
 70
     6
  9
$SURFTAB2
 70
     6
  9
$SURFTYPE
 70
     6
  9
$SURFU
 70
     6
  9
$SURFV
 70
     6
  9
$UCSBASE
  2

  9
$UCSNAME
  2

  9
$UCSORG
 10
0.0
 20
0.0
 30
0.0
  9
$UCSXDIR
 10
1.0
 20
0.0
 30
0.0
  9
$UCSYDIR
 10
0.0
 20
1.0
 30
0.0
  9
$UCSORTHOREF
  2

  9
$UCSORTHOVIEW
 70
     0
  9
$UCSORGTOP
 10
0.0
 20
0.0
 30
0.0
  9
$UCSORGBOTTOM
 10
0.0
 20
0.0
 30
0.0
  9
$UCSORGLEFT
 10
0.0
 20
0.0
 30
0.0
  9
$UCSORGRIGHT
 10
0.0
 20
0.0
 30
0.0
  9
$UCSORGFRONT
 10
0.0
 20
0.0
 30
0.0
  9
$UCSORGBACK
 10
0.0
 20
0.0
 30
0.0
  9
$PUCSBASE
  2

  9
$PUCSNAME
  2

  9
$PUCSORG
 10
0.0
 20
0.0
 30
0.0
  9
$PUCSXDIR
 10
1.0
 20
0.0
 30
0.0
  9
$PUCSYDIR
 10
0.0
 20
1.0
 30
0.0
  9
$PUCSORTHOREF
  2

  9
$PUCSORTHOVIEW
 70
     0
  9
$PUCSORGTOP
 10
0.0
 20
0.0
 30
0.0
  9
$PUCSORGBOTTOM
 10
0.0
 20
0.0
 30
0.0
  9
$PUCSORGLEFT
 10
0.0
 20
0.0
 30
0.0
  9
$PUCSORGRIGHT
 10
0.0
 20
0.0
 30
0.0
  9
$PUCSORGFRONT
 10
0.0
 20
0.0
 30
0.0
  9
$PUCSORGBACK
 10
0.0
 20
0.0
 30
0.0
  9
$USERI1
 70
     0
  9
$USERI2
 70
     0
  9
$USERI3
 70
     0
  9
$USERI4
 70
     0
  9
$USERI5
 70
     0
  9
$USERR1
 40
0.0
  9
$USERR2
 40
3.2
  9
$USERR3
 40
0.0
  9
$USERR4
 40
0.0
  9
$USERR5
 40
0.0
  9
$WORLDVIEW
 70
     1
  9
$SHADEDGE
 70
     3
  9
$SHADEDIF
 70
    70
  9
$TILEMODE
 70
     1
  9
$MAXACTVP
 70
    48
  9
$PINSBASE
 10
0.0
 20
0.0
 30
0.0
  9
$PLIMCHECK
 70
     0
  9
$PEXTMIN
 10
1.000000000000000E+20
 20
1.000000000000000E+20
 30
1.000000000000000E+20
  9
$PEXTMAX
 10
-1.000000000000000E+20
 20
-1.000000000000000E+20
 30
-1.000000000000000E+20
  9
$PLIMMIN
 10
0.0
 20
0.0
  9
$PLIMMAX
 10
12.0
 20
9.0
  9
$UNITMODE
 70
     0
  9
$VISRETAIN
 70
     0
  9
$PLINEGEN
 70
     0
  9
$PSLTSCALE
 70
     0
  9
$TREEDEPTH
 70
  3020
  9
$CMLSTYLE
  2
STANDARD
  9
$CMLJUST
 70
     0
  9
$CMLSCALE
 40
1.0
  9
$PROXYGRAPHICS
 70
     1
  9
$MEASUREMENT
 70
     1
  9
$CELWEIGHT
370
    -1
  9
$ENDCAPS
280
     0
  9
$JOINSTYLE
280
     0
  9
$LWDISPLAY
290
     0
  9
$INSUNITS
 70
     0
  9
$HYPERLINKBASE
  1

  9
$STYLESHEET
  1
MONOCHROME.CTB
  9
$XEDIT
290
     1
  9
$CEPSNTYPE
380
     0
  9
$PSTYLEMODE
290
     1
  9
$FINGERPRINTGUID
  2
{F2A97C53-EF7E-49C1-956A-0F2CE1E6DF2C}
  9
$VERSIONGUID
  2
{3283CADB-F8D5-4265-AAFE-004C69AB21FC}
  9
$EXTNAMES
290
     1
  9
$PSVPSCALE
 40
0.0
  9
$OLESTARTUP
290
     0
  9
$SORTENTS
280
    96
  9
$INDEXCTL
280
     0
  9
$HIDETEXT
280
     0
  9
$XCLIPFRAME
290
     0
  9
$HALOGAP
280
     0
  9
$OBSCOLOR
 70
   257
  9
$OBSLTYPE
280
     0
  9
$INTERSECTIONDISPLAY
280
     0
  9
$INTERSECTIONCOLOR
 70
   257
  9
$DIMASSOC
280
     1
  9
$PROJECTNAME
  1

  9
$CAMERADISPLAY
290
     0
  9
$LENSLENGTH
 40
50.0
  9
$CAMERAHEIGHT
 40
0.0
  9
$STEPSPERSEC
 40
2.0
  9
$STEPSIZE
 40
6.0
  9
$3DDWFPREC
 40
2.0
  9
$PSOLWIDTH
 40
0.25
  9
$PSOLHEIGHT
 40
4.0
  9
$LOFTANG1
 40
1.570796326794895
  9
$LOFTANG2
 40
1.570796326794895
  9
$LOFTMAG1
 40
0.0
  9
$LOFTMAG2
 40
0.0
  9
$LOFTPARAM
 70
     7
  9
$LOFTNORMALS
280
     1
  9
$LATITUDE
 40
37.795
  9
$LONGITUDE
 40
-122.394
  9
$NORTHDIRECTION
 40
0.0
  9
$TIMEZONE
 70
 -8000
  9
$LIGHTGLYPHDISPLAY
280
     1
  9
$TILEMODELIGHTSYNCH
280
     1
  9
$CMATERIAL
347
2AAF4
  9
$SOLIDHIST
280
     1
  9
$SHOWHIST
280
     1
  9
$DWFFRAME
280
     2
  9
$DGNFRAME
280
     0
  9
$REALWORLDSCALE
290
     1
  9
$INTERFERECOLOR
 62
     1
  9
$INTERFEREOBJVS
345
2AB16
  9
$INTERFEREVPVS
346
2AB13
  9
$CSHADOW
280
     0
  9
$SHADOWPLANELOCATION
 40
0.0
  0
ENDSEC
  0
SECTION
  2
CLASSES
  0
CLASS
  1
ACDBDICTIONARYWDFLT
  2
AcDbDictionaryWithDefault
  3
ObjectDBX Classes
 90
        0
 91
        1
280
     0
281
     0
  0
CLASS
  1
DICTIONARYVAR
  2
AcDbDictionaryVar
  3
ObjectDBX Classes
 90
        0
 91
        7
280
     0
281
     0
  0
CLASS
  1
MATERIAL
  2
AcDbMaterial
  3
ObjectDBX Classes
 90
     1153
 91
        3
280
     0
281
     0
  0
CLASS
  1
VISUALSTYLE
  2
AcDbVisualStyle
  3
ObjectDBX Classes
 90
     4095
 91
       16
280
     0
281
     0
  0
CLASS
  1
TABLESTYLE
  2
AcDbTableStyle
  3
ObjectDBX Classes
 90
     4095
 91
        1
280
     0
281
     0
  0
CLASS
  1
SCALE
  2
AcDbScale
  3
ObjectDBX Classes
 90
     1153
 91
       33
280
     0
281
     0
  0
CLASS
  1
MLEADERSTYLE
  2
AcDbMLeaderStyle
  3
ACDB_MLEADERSTYLE_CLASS
 90
     4095
 91
        1
280
     0
281
     0
  0
CLASS
  1
CELLSTYLEMAP
  2
AcDbCellStyleMap
  3
ObjectDBX Classes
 90
     1152
 91
        2
280
     0
281
     0
  0
CLASS
  1
SORTENTSTABLE
  2
AcDbSortentsTable
  3
ObjectDBX Classes
 90
        0
 91
        1
280
     0
281
     0
  0
ENDSEC
  0
SECTION
  2
TABLES
  0
TABLE
  2
VPORT
  5
8
330
0
100
AcDbSymbolTable
 70
     1
  0
VPORT
  5
2AAEE
330
8
100
AcDbSymbolTableRecord
100
AcDbViewportTableRecord
  2
*Active
 70
     0
 10
0.0
 20
0.0
 11
1.0
 21
1.0
 12
1785.000008312054
 22
2524.500011755619
 13
0.0
 23
0.0
 14
1.0
 24
1.0
 15
0.0
 25
0.0
 16
0.0
 26
0.0
 36
1.0
 17
0.0
 27
0.0
 37
0.0
 40
5089.066498523983
 41
1.565045992115637
 42
50.0
 43
0.0
 44
0.0
 50
0.0
 51
0.0
 71
     0
 72
  2000
 73
     1
 74
     3
 75
     0
 76
     0
 77
     0
 78
     0
281
     0
 65
     1
110
0.0
120
0.0
130
0.0
111
1.0
121
0.0
131
0.0
112
0.0
122
1.0
132
0.0
 79
     0
146
0.0
348
2AB12
 60
     3
 61
     5
292
     1
282
     1
141
0.0
142
0.0
 63
   250
421
  3355443
  0
ENDTAB
  0
TABLE
  2
LTYPE
  5
5
330
0
100
AcDbSymbolTable
 70
     3
  0
LTYPE
  5
11
330
5
100
AcDbSymbolTableRecord
100
AcDbLinetypeTableRecord
  2
BYBLOCK
 70
     0
  3

 72
    65
 73
     0
 40
0.0
  0
LTYPE
  5
12
330
5
100
AcDbSymbolTableRecord
100
AcDbLinetypeTableRecord
  2
BYLAYER
 70
     0
  3

 72
    65
 73
     0
 40
0.0
  0
LTYPE
  5
13
330
5
100
AcDbSymbolTableRecord
100
AcDbLinetypeTableRecord
  2
CONTINUOUS
 70
     0
  3
Solid line
 72
    65
 73
     0
 40
0.0
  0
LTYPE
  5
1C
330
5
100
AcDbSymbolTableRecord
100
AcDbLinetypeTableRecord
  2
DASHED
 70
     0
  3
__ __ __ __ __ __ __ __ __ __ __ __ __ __ __
 72
    65
 73
     2
 40
3.0
 49
2.0
 74
     0
 49
-1.0
 74
     0
  0
LTYPE
  5
1D
330
5
100
AcDbSymbolTableRecord
100
AcDbLinetypeTableRecord
  2
CENTER
 70
     0
  3
____ _ ____ _ ____ _ ____ _ ____ _ ____ _ ____
 72
    65
 73
     4
 40
12.0
 49
9.0
 74
     0
 49
-1.0
 74
     0
 49
1.0
 74
     0
 49
-1.0
 74
     0
  0
ENDTAB
  0
TABLE
  2
LAYER
  5
2
102
{ACAD_XDICTIONARY
360
299D4
102
}
330
0
100
AcDbSymbolTable
 70
     8
  0
LAYER
  5
E
102
{ACAD_XDICTIONARY
360
2AB46
102
}
330
2
100
AcDbSymbolTableRecord
100
AcDbLayerTableRecord
  2
0
 70
     0
 62
     3
  6
CONTINUOUS
370
    25
390
33
347
2AB04
  0
LAYER
  5
21
102
{ACAD_XDICTIONARY
360
2AB48
102
}
330
2
100
AcDbSymbolTableRecord
100
AcDbLayerTableRecord
  2
CEN
 70
     0
 62
     4
  6
CENTER
370
    18
390
33
347
2AB04
  0
LAYER
  5
22
102
{ACAD_XDICTIONARY
360
2AB4A
102
}
330
2
100
AcDbSymbolTableRecord
100
AcDbLayerTableRecord
  2
HID
 70
     0
 62
     2
  6
DASHED
370
    18
390
33
347
2AB04
  0
LAYER
  5
23
102
{ACAD_XDICTIONARY
360
2AB4C
102
}
330
2
100
AcDbSymbolTableRecord
100
AcDbLayerTableRecord
  2
DIM
 70
     0
 62
     7
  6
CONTINUOUS
370
    18
390
33
347
2AB04
  0
LAYER
  5
24
102
{ACAD_XDICTIONARY
360
2AB4E
102
}
330
2
100
AcDbSymbolTableRecord
100
AcDbLayerTableRecord
  2
WAKU
 70
     0
 62
     3
  6
CONTINUOUS
370
    25
390
33
347
2AB04
  0
LAYER
  5
27
102
{ACAD_XDICTIONARY
360
2AB50
102
}
330
2
100
AcDbSymbolTableRecord
100
AcDbLayerTableRecord
  2
DIMTEXT
 70
     0
 62
     7
  6
CONTINUOUS
370
    18
390
33
347
2AB04
  0
LAYER
  5
42A
330
2
100
AcDbSymbolTableRecord
100
AcDbLayerTableRecord
  2
Defpoints
 70
     0
 62
     7
  6
CONTINUOUS
290
     0
370
    -3
390
33
347
2AB04
  0
LAYER
  5
1FD1
102
{ACAD_XDICTIONARY
360
2AB52
102
}
330
2
100
AcDbSymbolTableRecord
100
AcDbLayerTableRecord
  2
ZUKEI
 70
     0
 62
     2
  6
CONTINUOUS
370
    -3
390
33
347
2AB04
  0
ENDTAB
  0
TABLE
  2
STYLE
  5
3
330
0
100
AcDbSymbolTable
 70
     1
  0
STYLE
  5
F
330
3
100
AcDbSymbolTableRecord
100
AcDbTextStyleTableRecord
  2
STANDARD
 70
     0
 40
0.0
 41
0.8
 50
0.0
 71
     0
 42
16.0
  3
sse
  4
bigfont
  0
ENDTAB
  0
TABLE
  2
VIEW
  5
6
330
0
100
AcDbSymbolTable
 70
     0
  0
ENDTAB
  0
TABLE
  2
UCS
  5
7
330
0
100
AcDbSymbolTable
 70
     0
  0
ENDTAB
  0
TABLE
  2
APPID
  5
9
330
0
100
AcDbSymbolTable
 70
    19
  0
APPID
  5
10
330
9
100
AcDbSymbolTableRecord
100
AcDbRegAppTableRecord
  2
ACAD
 70
     0
  0
APPID
  5
91
330
9
100
AcDbSymbolTableRecord
100
AcDbRegAppTableRecord
  2
SSE
 70
     0
  0
APPID
  5
92
330
9
100
AcDbSymbolTableRecord
100
AcDbRegAppTableRecord
  2
SSE_DIMTEXT
 70
     0
  0
APPID
  5
6B32
330
9
100
AcDbSymbolTableRecord
100
AcDbRegAppTableRecord
  2
GENIUS_GENODEF_13
 70
     0
  0
APPID
  5
6B33
330
9
100
AcDbSymbolTableRecord
100
AcDbRegAppTableRecord
  2
GENIUS_GENOBJ-N-CEN_13
 70
     0
  0
APPID
  5
6B34
330
9
100
AcDbSymbolTableRecord
100
AcDbRegAppTableRecord
  2
GENIUS_GENOBJ-N-FIL_13
 70
     0
  0
APPID
  5
B60B
330
9
100
AcDbSymbolTableRecord
100
AcDbRegAppTableRecord
  2
SSE_BALOON
 70
     0
  0
APPID
  5
1414F
330
9
100
AcDbSymbolTableRecord
100
AcDbRegAppTableRecord
  2
TYP
 70
     0
  0
APPID
  5
14150
330
9
100
AcDbSymbolTableRecord
100
AcDbRegAppTableRecord
  2
BNO
 70
     0
  0
APPID
  5
14151
330
9
100
AcDbSymbolTableRecord
100
AcDbRegAppTableRecord
  2
BLN
 70
     0
  0
APPID
  5
14152
330
9
100
AcDbSymbolTableRecord
100
AcDbRegAppTableRecord
  2
ETC
 70
     0
  0
APPID
  5
14153
330
9
100
AcDbSymbolTableRecord
100
AcDbRegAppTableRecord
  2
DEF
 70
     0
  0
APPID
  5
2AB44
330
9
100
AcDbSymbolTableRecord
100
AcDbRegAppTableRecord
  2
ACAD_MLEADERVER
 70
     0
  0
APPID
  5
2AF8C
330
9
100
AcDbSymbolTableRecord
100
AcDbRegAppTableRecord
  2
ACAD_PSEXT
 70
     0
  0
APPID
  5
2E966
330
9
100
AcDbSymbolTableRecord
100
AcDbRegAppTableRecord
  2
GENIUS_GENOREF_13
 70
     0
  0
APPID
  5
2E967
330
9
100
AcDbSymbolTableRecord
100
AcDbRegAppTableRecord
  2
GENIUS_GENFIL_13
 70
     0
  0
APPID
  5
2E968
330
9
100
AcDbSymbolTableRecord
100
AcDbRegAppTableRecord
  2
GENIUS_GENOBJ-N-CHA_13
 70
     0
  0
APPID
  5
2E969
330
9
100
AcDbSymbolTableRecord
100
AcDbRegAppTableRecord
  2
Sigma
 70
     0
  0
APPID
  5
2EDE4
330
9
100
AcDbSymbolTableRecord
100
AcDbRegAppTableRecord
  2
ACAD_EXEMPT_FROM_CAD_STANDARDS
 70
     0
  0
ENDTAB
  0
TABLE
  2
DIMSTYLE
  5
A
330
0
100
AcDbSymbolTable
 70
     1
100
AcDbDimStyleTable
 71
     1
340
2C
  0
DIMSTYLE
105
2C
102
{ACAD_REACTORS
330
2C190
330
2C193
330
2C197
330
2C19B
330
2C1A3
330
2C19F
330
2C1A7
330
2C191
330
2C1AF
330
2C188
330
2C183
330
2C181
330
2C187
330
2C182
330
2C189
330
2C18A
330
2C18B
330
2C192
330
2C18C
330
2C18D
330
2C18F
330
2C18E
330
2EC70
330
2EC54
330
2EC57
330
2CB6F
330
2CDF4
330
2CDF3
330
2EE19
330
2EDF8
330
2CB70
102
}
330
A
100
AcDbSymbolTableRecord
100
AcDbDimStyleTableRecord
  2
STANDARD
 70
     0
 40
17.0
340
F
  0
ENDTAB
  0
TABLE
  2
BLOCK_RECORD
  5
1
330
0
100
AcDbSymbolTable
 70
    31
  0
BLOCK_RECORD
  5
17
102
{ACAD_XDICTIONARY
360
2D2B3
102
}
330
1
100
AcDbSymbolTableRecord
100
AcDbBlockTableRecord
  2
*MODEL_SPACE
340
36
 70
     0
280
     1
281
     0
  0
BLOCK_RECORD
  5
14
330
1
100
AcDbSymbolTableRecord
100
AcDbBlockTableRecord
  2
*PAPER_SPACE
340
37
 70
     0
280
     1
281
     0
  0
BLOCK_RECORD
  5
4A
330
1
100
AcDbSymbolTableRecord
100
AcDbBlockTableRecord
  2
_Open30
340
0
102
{BLKREFS
331
2F516
331
2F517
331
2F51F
331
2F520
331
2F52A
331
2F52B
331
2F535
331
2F536
331
2F540
331
2F541
331
2F54B
331
2F54C
331
2F554
331
2F555
331
2F581
331
2F582
331
2F58A
331
2F58B
331
2F593
331
2F594
331
2F59E
331
2F59F
331
2F5A7
331
2F5A8
331
2F5B0
331
2F5B1
331
2F5C4
331
2F5C5
331
2F5CF
331
2F5D0
331
2F5D8
331
2F5D9
331
2F6AB
331
2F6AC
331
2F6B6
331
2F6B7
331
2F6BF
331
2F6C0
331
2F6C9
331
2F6CA
331
2F71C
331
2F71D
331
2F725
331
2F726
331
2F72E
331
2F72F
331
2F737
331
2F738
331
2F741
331
2F742
102
}
 70
     0
280
     1
281
     0
  0
BLOCK_RECORD
  5
2C2
330
1
100
AcDbSymbolTableRecord
100
AcDbBlockTableRecord
  2
dimstat
340
0
102
{BLKREFS
331
1549A
102
}
 70
     0
280
     1
281
     0
  0
BLOCK_RECORD
  5
2CD
330
1
100
AcDbSymbolTableRecord
100
AcDbBlockTableRecord
  2
dimstat2
340
0
102
{BLKREFS
331
15497
102
}
 70
     0
280
     1
281
     0
  0
BLOCK_RECORD
  5
5132
330
1
100
AcDbSymbolTableRecord
100
AcDbBlockTableRecord
  2
_DotSmall
340
0
 70
     0
280
     1
281
     0
  0
BLOCK_RECORD
  5
192FE
330
1
100
AcDbSymbolTableRecord
100
AcDbBlockTableRecord
  2
waku0
340
0
102
{BLKREFS
331
2F391
102
}
 70
     0
280
     1
281
     0
  0
BLOCK_RECORD
  5
2A76B
330
1
100
AcDbSymbolTableRecord
100
AcDbBlockTableRecord
  2
SSE_BALOON1
340
0
102
{BLKREFS
331
2C194
331
2C198
331
2C19C
331
2C1A0
331
2C1A4
331
2C1A8
102
}
 70
     0
280
     1
281
     0
  0
BLOCK_RECORD
  5
2C1B0
330
1
100
AcDbSymbolTableRecord
100
AcDbBlockTableRecord
  2
*D6
340
0
 70
     0
280
     1
281
     0
  0
BLOCK_RECORD
  5
2C1BC
330
1
100
AcDbSymbolTableRecord
100
AcDbBlockTableRecord
  2
*D7
340
0
 70
     0
280
     1
281
     0
  0
BLOCK_RECORD
  5
2C1C8
330
1
100
AcDbSymbolTableRecord
100
AcDbBlockTableRecord
  2
*D8
340
0
 70
     0
280
     1
281
     0
  0
BLOCK_RECORD
  5
2C1D4
330
1
100
AcDbSymbolTableRecord
100
AcDbBlockTableRecord
  2
*D9
340
0
 70
     0
280
     1
281
     0
  0
BLOCK_RECORD
  5
2C1E0
330
1
100
AcDbSymbolTableRecord
100
AcDbBlockTableRecord
  2
*D10
340
0
 70
     0
280
     1
281
     0
  0
BLOCK_RECORD
  5
2C1EC
330
1
100
AcDbSymbolTableRecord
100
AcDbBlockTableRecord
  2
*D11
340
0
 70
     0
280
     1
281
     0
  0
BLOCK_RECORD
  5
2C1F8
330
1
100
AcDbSymbolTableRecord
100
AcDbBlockTableRecord
  2
*D12
340
0
 70
     0
280
     1
281
     0
  0
BLOCK_RECORD
  5
2C204
330
1
100
AcDbSymbolTableRecord
100
AcDbBlockTableRecord
  2
*D13
340
0
 70
     0
280
     1
281
     0
  0
BLOCK_RECORD
  5
2C211
330
1
100
AcDbSymbolTableRecord
100
AcDbBlockTableRecord
  2
*D14
340
0
 70
     0
280
     1
281
     0
  0
BLOCK_RECORD
  5
2C21D
330
1
100
AcDbSymbolTableRecord
100
AcDbBlockTableRecord
  2
*D15
340
0
 70
     0
280
     1
281
     0
  0
BLOCK_RECORD
  5
2C22B
330
1
100
AcDbSymbolTableRecord
100
AcDbBlockTableRecord
  2
*D16
340
0
 70
     0
280
     1
281
     0
  0
BLOCK_RECORD
  5
2C237
330
1
100
AcDbSymbolTableRecord
100
AcDbBlockTableRecord
  2
*D17
340
0
 70
     0
280
     1
281
     0
  0
BLOCK_RECORD
  5
2C245
330
1
100
AcDbSymbolTableRecord
100
AcDbBlockTableRecord
  2
*D18
340
0
 70
     0
280
     1
281
     0
  0
BLOCK_RECORD
  5
2C252
330
1
100
AcDbSymbolTableRecord
100
AcDbBlockTableRecord
  2
*D19
340
0
 70
     0
280
     1
281
     0
  0
BLOCK_RECORD
  5
2C25F
330
1
100
AcDbSymbolTableRecord
100
AcDbBlockTableRecord
  2
*D20
340
0
 70
     0
280
     1
281
     0
  0
BLOCK_RECORD
  5
2C286
330
1
100
AcDbSymbolTableRecord
100
AcDbBlockTableRecord
  2
*D21
340
0
 70
     0
280
     1
281
     0
  0
BLOCK_RECORD
  5
2CE64
330
1
100
AcDbSymbolTableRecord
100
AcDbBlockTableRecord
  2
*D22
340
0
 70
     0
280
     1
281
     0
  0
BLOCK_RECORD
  5
2CE70
330
1
100
AcDbSymbolTableRecord
100
AcDbBlockTableRecord
  2
*D23
340
0
 70
     0
280
     1
281
     0
  0
BLOCK_RECORD
  5
2CEA2
330
1
100
AcDbSymbolTableRecord
100
AcDbBlockTableRecord
  2
*D24
340
0
 70
     0
280
     1
281
     0
  0
BLOCK_RECORD
  5
2CEAE
330
1
100
AcDbSymbolTableRecord
100
AcDbBlockTableRecord
  2
*D25
340
0
 70
     0
280
     1
281
     0
  0
BLOCK_RECORD
  5
2EC71
330
1
100
AcDbSymbolTableRecord
100
AcDbBlockTableRecord
  2
*D26
340
0
 70
     0
280
     1
281
     0
  0
BLOCK_RECORD
  5
2EC7D
330
1
100
AcDbSymbolTableRecord
100
AcDbBlockTableRecord
  2
*D27
340
0
 70
     0
280
     1
281
     0
  0
BLOCK_RECORD
  5
2EC8C
330
1
100
AcDbSymbolTableRecord
100
AcDbBlockTableRecord
  2
*D28
340
0
 70
     0
280
     1
281
     0
  0
BLOCK_RECORD
  5
2EDF9
330
1
100
AcDbSymbolTableRecord
100
AcDbBlockTableRecord
  2
*D29
340
0
 70
     0
280
     1
281
     0
  0
BLOCK_RECORD
  5
2EE1A
330
1
100
AcDbSymbolTableRecord
100
AcDbBlockTableRecord
  2
*D30
340
0
 70
     0
280
     1
281
     0
  0
ENDTAB
  0
ENDSEC
  0
SECTION
  2
BLOCKS
  0
BLOCK
  5
2A
330
17
100
AcDbEntity
  8
0
100
AcDbBlockBegin
  2
*MODEL_SPACE
 70
     0
 10
0.0
 20
0.0
 30
0.0
  3
*MODEL_SPACE
  1

  0
ENDBLK
  5
2B
330
17
100
AcDbEntity
  8
0
100
AcDbBlockEnd
  0
BLOCK
  5
28
330
14
100
AcDbEntity
 67
     1
  8
0
100
AcDbBlockBegin
  2
*PAPER_SPACE
 70
     0
 10
0.0
 20
0.0
 30
0.0
  3
*PAPER_SPACE
  1

  0
ENDBLK
  5
29
330
14
100
AcDbEntity
 67
     1
  8
0
100
AcDbBlockEnd
  0
BLOCK
  5
4E
330
4A
100
AcDbEntity
  8
0
100
AcDbBlockBegin
  2
_Open30
 70
     0
 10
0.0
 20
0.0
 30
0.0
  3
_Open30
  1

  0
LINE
  5
4B
330
4A
100
AcDbEntity
  8
0
  6
ByBlock
 62
     0
370
    -2
100
AcDbLine
 10
-1.0
 20
0.26794919
 30
0.0
 11
0.0
 21
0.0
 31
0.0
  0
LINE
  5
4C
330
4A
100
AcDbEntity
  8
0
  6
ByBlock
 62
     0
370
    -2
100
AcDbLine
 10
0.0
 20
0.0
 30
0.0
 11
-1.0
 21
-0.26794919
 31
0.0
  0
LINE
  5
4D
330
4A
100
AcDbEntity
  8
0
  6
ByBlock
 62
     0
370
    -2
100
AcDbLine
 10
0.0
 20
0.0
 30
0.0
 11
-1.0
 21
0.0
 31
0.0
  0
ENDBLK
  5
4F
330
4A
100
AcDbEntity
  8
0
100
AcDbBlockEnd
  0
BLOCK
  5
2C6
330
2C2
100
AcDbEntity
  8
0
100
AcDbBlockBegin
  2
dimstat
 70
     2
 10
0.0
 20
0.0
 30
0.0
  3
dimstat
  1

  0
ATTDEF
  5
2C3
330
2C2
100
AcDbEntity
  8
0
100
AcDbText
 10
0.0
 20
1.0
 30
0.0
 40
1.0
  1

 41
0.7
 51
15.0
100
AcDbAttributeDefinition
  3

  2
DIMEXT
 70
     1
280
     0
  0
ATTDEF
  5
2C4
330
2C2
100
AcDbEntity
  8
0
100
AcDbText
 10
0.0
 20
0.0
 30
0.0
 40
1.0
  1

 41
0.7
 51
15.0
100
AcDbAttributeDefinition
  3

  2
DIMBAL
 70
     1
280
     0
  0
ATTDEF
  5
2C5
330
2C2
100
AcDbEntity
  8
0
100
AcDbText
 10
1.50719045723035
 20
-0.911649989012119
 30
0.0
 40
1.0
  1

 41
0.7
 51
15.0
 72
     1
 11
1.50719045723035
 21
-0.911649989012119
 31
0.0
100
AcDbAttributeDefinition
  3

  2
SYMSCL
 70
     1
280
     0
  0
ENDBLK
  5
2C7
330
2C2
100
AcDbEntity
  8
0
100
AcDbBlockEnd
  0
BLOCK
  5
2CF
330
2CD
100
AcDbEntity
  8
0
100
AcDbBlockBegin
  2
dimstat2
 70
     2
 10
0.0
 20
0.0
 30
0.0
  3
dimstat2
  1

  0
ATTDEF
  5
2CE
330
2CD
100
AcDbEntity
  8
0
100
AcDbText
 10
0.0
 20
0.0
 30
0.0
 40
1.0
  1

 41
0.7
100
AcDbAttributeDefinition
  3

  2
DIMSIZ
 70
     1
280
     0
  0
ENDBLK
  5
2D0
330
2CD
100
AcDbEntity
  8
0
100
AcDbBlockEnd
  0
BLOCK
  5
5134
330
5132
100
AcDbEntity
  8
0
100
AcDbBlockBegin
  2
_DotSmall
 70
     0
 10
0.0
 20
0.0
 30
0.0
  3
_DotSmall
  1

  0
LWPOLYLINE
  5
5133
330
5132
100
AcDbEntity
  8
0
  6
ByBlock
 62
     0
100
AcDbPolyline
 90
        2
 70
     1
 43
0.5
 10
-0.0625
 20
0.0
 42
1.0
 10
0.0625
 20
0.0
 42
1.0
  0
ENDBLK
  5
5135
330
5132
100
AcDbEntity
  8
0
100
AcDbBlockEnd
  0
BLOCK
  5
19303
330
192FE
100
AcDbEntity
  8
0
100
AcDbBlockBegin
  2
waku0
 70
     0
 10
0.0
 20
0.0
 30
0.0
  3
waku0
  1

  0
LINE
  5
192FF
330
192FE
100
AcDbEntity
  8
0
100
AcDbLine
 10
0.0
 20
1.0
 30
0.0
 11
0.0
 21
0.0
 31
0.0
  0
LINE
  5
19300
330
192FE
100
AcDbEntity
  8
0
100
AcDbLine
 10
1.0
 20
1.0
 30
0.0
 11
0.0
 21
1.0
 31
0.0
  0
LINE
  5
19301
330
192FE
100
AcDbEntity
  8
0
100
AcDbLine
 10
1.0
 20
0.0
 30
0.0
 11
1.0
 21
1.0
 31
0.0
  0
LINE
  5
19302
330
192FE
100
AcDbEntity
  8
0
100
AcDbLine
 10
0.0
 20
0.0
 30
0.0
 11
1.0
 21
0.0
 31
0.0
  0
ENDBLK
  5
19304
330
192FE
100
AcDbEntity
  8
0
100
AcDbBlockEnd
  0
BLOCK
  5
2A76E
330
2A76B
100
AcDbEntity
  8
0
100
AcDbBlockBegin
  2
SSE_BALOON1
 70
     2
 10
0.0
 20
0.0
 30
0.0
  3
SSE_BALOON1
  1

  0
CIRCLE
  5
2A76C
330
2A76B
100
AcDbEntity
  8
0
  6
ByBlock
 62
     0
370
    -2
100
AcDbCircle
 10
0.0
 20
0.0
 30
0.0
 40
1.0
  0
ATTDEF
  5
2A76D
330
2A76B
100
AcDbEntity
  8
DIMTEXT
100
AcDbText
 10
0.0
 20
0.0
 30
0.0
 40
1.0
  1

 72
     4
 11
0.0
 21
0.0
 31
0.0
100
AcDbAttributeDefinition
  3
番号
  2
BAL_NUM
 70
     0
280
     0
  0
ENDBLK
  5
2A76F
330
2A76B
100
AcDbEntity
  8
0
100
AcDbBlockEnd
  0
BLOCK
  5
2C1B1
330
2C1B0
100
AcDbEntity
  8
0
100
AcDbBlockBegin
  2
*D6
 70
     1
 10
0.0
 20
0.0
 30
0.0
  3
*D6
  1

  0
LINE
  5
2F546
330
2C1B0
100
AcDbEntity
  8
DIM
 62
     0
370
    -2
100
AcDbLine
 10
2542.680185473576
 20
3285.724456378988
 30
0.0
 11
2542.680185473576
 21
3115.603883478846
 31
0.0
  0
LINE
  5
2F547
330
2C1B0
100
AcDbEntity
  8
DIM
 62
     0
370
    -2
100
AcDbLine
 10
2636.680185473578
 20
3230.892216328097
 30
0.0
 11
2636.680185473578
 21
3115.603883478846
 31
0.0
  0
LINE
  5
2F548
330
2C1B0
100
AcDbEntity
  8
DIM
 62
     0
370
    -2
100
AcDbLine
 10
2491.680185473577
 20
3149.603883478846
 30
0.0
 11
2440.680185473576
 21
3149.603883478846
 31
0.0
  0
LINE
  5
2F549
330
2C1B0
100
AcDbEntity
  8
DIM
 62
     0
370
    -2
100
AcDbLine
 10
2687.680185473579
 20
3149.603883478846
 30
0.0
 11
2738.680185473578
 21
3149.603883478846
 31
0.0
  0
LINE
  5
2F54A
330
2C1B0
100
AcDbEntity
  8
DIM
 62
     0
370
    -2
100
AcDbLine
 10
2542.680185473576
 20
3149.603883478846
 30
0.0
 11
2636.680185473578
 21
3149.603883478846
 31
0.0
  0
INSERT
  5
2F54B
330
2C1B0
100
AcDbEntity
  8
DIM
 62
     0
370
    -2
100
AcDbBlockReference
  2
_Open30
 10
2542.680185473576
 20
3149.603883478846
 30
0.0
 41
51.0
 42
51.0
 43
51.0
  0
INSERT
  5
2F54C
330
2C1B0
100
AcDbEntity
  8
DIM
 62
     0
370
    -2
100
AcDbBlockReference
  2
_Open30
 10
2636.680185473578
 20
3149.603883478846
 30
0.0
 41
51.0
 42
51.0
 43
51.0
 50
180.0
  0
MTEXT
  5
2F54D
330
2C1B0
100
AcDbEntity
  8
DIM
 62
     0
100
AcDbMText
 10
2589.680185473577
 20
3187.853883478846
 30
0.0
 40
42.5
 41
0.0
 46
0.0
 71
     5
 72
     1
  1
\A1;94
 73
     1
 44
1.0
  0
POINT
  5
2F54E
330
2C1B0
100
AcDbEntity
  8
Defpoints
 62
     0
100
AcDbPoint
 10
2542.680185473576
 20
3319.724456378988
 30
0.0
  0
POINT
  5
2F54F
330
2C1B0
100
AcDbEntity
  8
Defpoints
 62
     0
100
AcDbPoint
 10
2636.680185473578
 20
3264.892216328096
 30
0.0
  0
POINT
  5
2F550
330
2C1B0
100
AcDbEntity
  8
Defpoints
 62
     0
100
AcDbPoint
 10
2636.680185473578
 20
3149.603883478846
 30
0.0
  0
ENDBLK
  5
2C1B2
330
2C1B0
100
AcDbEntity
  8
0
100
AcDbBlockEnd
  0
BLOCK
  5
2C1BD
330
2C1BC
100
AcDbEntity
  8
0
100
AcDbBlockBegin
  2
*D7
 70
     1
 10
0.0
 20
0.0
 30
0.0
  3
*D7
  1

  0
LINE
  5
2F57E
330
2C1BC
100
AcDbEntity
  8
DIM
 62
     0
370
    -2
100
AcDbLine
 10
2636.680185473578
 20
3230.892216328097
 30
0.0
 11
2636.680185473578
 21
2960.07440482931
 31
0.0
  0
LINE
  5
2F57F
330
2C1BC
100
AcDbEntity
  8
DIM
 62
     0
370
    -2
100
AcDbLine
 10
2492.180185473576
 20
3268.724456378989
 30
0.0
 11
2492.180185473576
 21
2960.07440482931
 31
0.0
  0
LINE
  5
2F580
330
2C1BC
100
AcDbEntity
  8
DIM
 62
     0
370
    -2
100
AcDbLine
 10
2585.680185473578
 20
2994.074404829309
 30
0.0
 11
2543.180185473576
 21
2994.074404829309
 31
0.0
  0
INSERT
  5
2F581
330
2C1BC
100
AcDbEntity
  8
DIM
 62
     0
370
    -2
100
AcDbBlockReference
  2
_Open30
 10
2636.680185473578
 20
2994.074404829309
 30
0.0
 41
51.0
 42
51.0
 43
51.0
  0
INSERT
  5
2F582
330
2C1BC
100
AcDbEntity
  8
DIM
 62
     0
370
    -2
100
AcDbBlockReference
  2
_Open30
 10
2492.180185473576
 20
2994.074404829309
 30
0.0
 41
51.0
 42
51.0
 43
51.0
 50
180.0
  0
MTEXT
  5
2F583
330
2C1BC
100
AcDbEntity
  8
DIM
 62
     0
100
AcDbMText
 10
2564.430185473578
 20
3032.32440482931
 30
0.0
 40
42.5
 41
0.0
 46
0.0
 71
     5
 72
     1
  1
\A1;144.5
 73
     1
 44
1.0
  0
POINT
  5
2F584
330
2C1BC
100
AcDbEntity
  8
Defpoints
 62
     0
100
AcDbPoint
 10
2636.680185473578
 20
3264.892216328096
 30
0.0
  0
POINT
  5
2F585
330
2C1BC
100
AcDbEntity
  8
Defpoints
 62
     0
100
AcDbPoint
 10
2492.180185473576
 20
3302.724456378988
 30
0.0
  0
POINT
  5
2F586
330
2C1BC
100
AcDbEntity
  8
Defpoints
 62
     0
100
AcDbPoint
 10
2492.180185473576
 20
2994.074404829309
 30
0.0
  0
ENDBLK
  5
2C1BE
330
2C1BC
100
AcDbEntity
  8
0
100
AcDbBlockEnd
  0
BLOCK
  5
2C1C9
330
2C1C8
100
AcDbEntity
  8
0
100
AcDbBlockBegin
  2
*D8
 70
     1
 10
0.0
 20
0.0
 30
0.0
  3
*D8
  1

  0
LINE
  5
2F53B
330
2C1C8
100
AcDbEntity
  8
DIM
 62
     0
370
    -2
100
AcDbLine
 10
2636.680185473578
 20
3230.892216328097
 30
0.0
 11
2636.680185473578
 21
3115.603883478846
 31
0.0
  0
LINE
  5
2F53C
330
2C1C8
100
AcDbEntity
  8
DIM
 62
     0
370
    -2
100
AcDbLine
 10
2759.680185473576
 20
3268.724456378953
 30
0.0
 11
2759.680185473576
 21
3115.603883478846
 31
0.0
  0
LINE
  5
2F53D
330
2C1C8
100
AcDbEntity
  8
DIM
 62
     0
370
    -2
100
AcDbLine
 10
2585.680185473578
 20
3149.603883478846
 30
0.0
 11
2534.680185473578
 21
3149.603883478846
 31
0.0
  0
LINE
  5
2F53E
330
2C1C8
100
AcDbEntity
  8
DIM
 62
     0
370
    -2
100
AcDbLine
 10
2810.680185473577
 20
3149.603883478846
 30
0.0
 11
2861.680185473577
 21
3149.603883478846
 31
0.0
  0
LINE
  5
2F53F
330
2C1C8
100
AcDbEntity
  8
DIM
 62
     0
370
    -2
100
AcDbLine
 10
2636.680185473578
 20
3149.603883478846
 30
0.0
 11
2759.680185473576
 21
3149.603883478846
 31
0.0
  0
INSERT
  5
2F540
330
2C1C8
100
AcDbEntity
  8
DIM
 62
     0
370
    -2
100
AcDbBlockReference
  2
_Open30
 10
2636.680185473578
 20
3149.603883478846
 30
0.0
 41
51.0
 42
51.0
 43
51.0
  0
INSERT
  5
2F541
330
2C1C8
100
AcDbEntity
  8
DIM
 62
     0
370
    -2
100
AcDbBlockReference
  2
_Open30
 10
2759.680185473576
 20
3149.603883478846
 30
0.0
 41
51.0
 42
51.0
 43
51.0
 50
180.0
  0
MTEXT
  5
2F542
330
2C1C8
100
AcDbEntity
  8
DIM
 62
     0
100
AcDbMText
 10
2698.180185473578
 20
3187.853883478846
 30
0.0
 40
42.5
 41
0.0
 46
0.0
 71
     5
 72
     1
  1
\A1;123
 73
     1
 44
1.0
  0
POINT
  5
2F543
330
2C1C8
100
AcDbEntity
  8
Defpoints
 62
     0
100
AcDbPoint
 10
2636.680185473578
 20
3264.892216328096
 30
0.0
  0
POINT
  5
2F544
330
2C1C8
100
AcDbEntity
  8
Defpoints
 62
     0
100
AcDbPoint
 10
2759.680185473576
 20
3302.724456378953
 30
0.0
  0
POINT
  5
2F545
330
2C1C8
100
AcDbEntity
  8
Defpoints
 62
     0
100
AcDbPoint
 10
2759.680185473576
 20
3149.603883478846
 30
0.0
  0
ENDBLK
  5
2C1CA
330
2C1C8
100
AcDbEntity
  8
0
100
AcDbBlockEnd
  0
BLOCK
  5
2C1D5
330
2C1D4
100
AcDbEntity
  8
0
100
AcDbBlockBegin
  2
*D9
 70
     1
 10
0.0
 20
0.0
 30
0.0
  3
*D9
  1

  0
LINE
  5
2F551
330
2C1D4
100
AcDbEntity
  8
DIM
 62
     0
370
    -2
100
AcDbLine
 10
2636.680185473578
 20
3230.892216328097
 30
0.0
 11
2636.680185473578
 21
2960.07440482931
 31
0.0
  0
LINE
  5
2F552
330
2C1D4
100
AcDbEntity
  8
DIM
 62
     0
370
    -2
100
AcDbLine
 10
2816.680185473575
 20
3293.254456378996
 30
0.0
 11
2816.680185473575
 21
2960.07440482931
 31
0.0
  0
LINE
  5
2F553
330
2C1D4
100
AcDbEntity
  8
DIM
 62
     0
370
    -2
100
AcDbLine
 10
2687.680185473579
 20
2994.074404829309
 30
0.0
 11
2765.680185473575
 21
2994.074404829309
 31
0.0
  0
INSERT
  5
2F554
330
2C1D4
100
AcDbEntity
  8
DIM
 62
     0
370
    -2
100
AcDbBlockReference
  2
_Open30
 10
2636.680185473578
 20
2994.074404829309
 30
0.0
 41
51.0
 42
51.0
 43
51.0
 50
180.0
  0
INSERT
  5
2F555
330
2C1D4
100
AcDbEntity
  8
DIM
 62
     0
370
    -2
100
AcDbBlockReference
  2
_Open30
 10
2816.680185473575
 20
2994.074404829309
 30
0.0
 41
51.0
 42
51.0
 43
51.0
  0
MTEXT
  5
2F556
330
2C1D4
100
AcDbEntity
  8
DIM
 62
     0
100
AcDbMText
 10
2726.680185473576
 20
3032.32440482931
 30
0.0
 40
42.5
 41
0.0
 46
0.0
 71
     5
 72
     1
  1
\A1;180
 73
     1
 44
1.0
  0
POINT
  5
2F557
330
2C1D4
100
AcDbEntity
  8
Defpoints
 62
     0
100
AcDbPoint
 10
2636.680185473578
 20
3264.892216328096
 30
0.0
  0
POINT
  5
2F558
330
2C1D4
100
AcDbEntity
  8
Defpoints
 62
     0
100
AcDbPoint
 10
2816.680185473575
 20
3327.254456378996
 30
0.0
  0
POINT
  5
2F559
330
2C1D4
100
AcDbEntity
  8
Defpoints
 62
     0
100
AcDbPoint
 10
2816.680185473575
 20
2994.074404829309
 30
0.0
  0
ENDBLK
  5
2C1D6
330
2C1D4
100
AcDbEntity
  8
0
100
AcDbBlockEnd
  0
BLOCK
  5
2C1E1
330
2C1E0
100
AcDbEntity
  8
0
100
AcDbBlockBegin
  2
*D10
 70
     1
 10
0.0
 20
0.0
 30
0.0
  3
*D10
  1

  0
LINE
  5
2F530
330
2C1E0
100
AcDbEntity
  8
DIM
 62
     0
370
    -2
100
AcDbLine
 10
2816.680185473575
 20
3293.254456378996
 30
0.0
 11
2816.680185473575
 21
2960.07440482931
 31
0.0
  0
LINE
  5
2F531
330
2C1E0
100
AcDbEntity
  8
DIM
 62
     0
370
    -2
100
AcDbLine
 10
2938.68018547358
 20
3266.174456379063
 30
0.0
 11
2938.68018547358
 21
2960.07440482931
 31
0.0
  0
LINE
  5
2F532
330
2C1E0
100
AcDbEntity
  8
DIM
 62
     0
370
    -2
100
AcDbLine
 10
2765.680185473575
 20
2994.074404829309
 30
0.0
 11
2714.680185473575
 21
2994.074404829309
 31
0.0
  0
LINE
  5
2F533
330
2C1E0
100
AcDbEntity
  8
DIM
 62
     0
370
    -2
100
AcDbLine
 10
2989.68018547358
 20
2994.074404829309
 30
0.0
 11
3221.96818547358
 21
2994.074404829309
 31
0.0
  0
LINE
  5
2F534
330
2C1E0
100
AcDbEntity
  8
DIM
 62
     0
370
    -2
100
AcDbLine
 10
2816.680185473575
 20
2994.074404829309
 30
0.0
 11
2938.68018547358
 21
2994.074404829309
 31
0.0
  0
INSERT
  5
2F535
330
2C1E0
100
AcDbEntity
  8
DIM
 62
     0
370
    -2
100
AcDbBlockReference
  2
_Open30
 10
2816.680185473575
 20
2994.074404829309
 30
0.0
 41
51.0
 42
51.0
 43
51.0
  0
INSERT
  5
2F536
330
2C1E0
100
AcDbEntity
  8
DIM
 62
     0
370
    -2
100
AcDbBlockReference
  2
_Open30
 10
2938.68018547358
 20
2994.074404829309
 30
0.0
 41
51.0
 42
51.0
 43
51.0
 50
180.0
  0
MTEXT
  5
2F537
330
2C1E0
100
AcDbEntity
  8
DIM
 62
     0
100
AcDbMText
 10
3140.36818547358
 20
3032.32440482931
 30
0.0
 40
42.5
 41
0.0
 46
0.0
 71
     5
 72
     1
  1
\A1;（122）
 73
     1
 44
1.0
  0
POINT
  5
2F538
330
2C1E0
100
AcDbEntity
  8
Defpoints
 62
     0
100
AcDbPoint
 10
2816.680185473575
 20
3327.254456378996
 30
0.0
  0
POINT
  5
2F539
330
2C1E0
100
AcDbEntity
  8
Defpoints
 62
     0
100
AcDbPoint
 10
2938.68018547358
 20
3300.174456379063
 30
0.0
  0
POINT
  5
2F53A
330
2C1E0
100
AcDbEntity
  8
Defpoints
 62
     0
100
AcDbPoint
 10
2938.68018547358
 20
2994.074404829309
 30
0.0
  0
ENDBLK
  5
2C1E2
330
2C1E0
100
AcDbEntity
  8
0
100
AcDbBlockEnd
  0
BLOCK
  5
2C1ED
330
2C1EC
100
AcDbEntity
  8
0
100
AcDbBlockBegin
  2
*D11
 70
     1
 10
0.0
 20
0.0
 30
0.0
  3
*D11
  1

  0
LINE
  5
2F587
330
2C1EC
100
AcDbEntity
  8
DIM
 62
     0
370
    -2
100
AcDbLine
 10
2636.680185473578
 20
3230.892216328097
 30
0.0
 11
2636.680185473578
 21
2834.278058025107
 31
0.0
  0
LINE
  5
2F588
330
2C1EC
100
AcDbEntity
  8
DIM
 62
     0
370
    -2
100
AcDbLine
 10
2433.180185473577
 20
3285.724456379004
 30
0.0
 11
2433.180185473577
 21
2834.278058025107
 31
0.0
  0
LINE
  5
2F589
330
2C1EC
100
AcDbEntity
  8
DIM
 62
     0
370
    -2
100
AcDbLine
 10
2585.680185473578
 20
2868.278058025107
 30
0.0
 11
2484.180185473576
 21
2868.278058025107
 31
0.0
  0
INSERT
  5
2F58A
330
2C1EC
100
AcDbEntity
  8
DIM
 62
     0
370
    -2
100
AcDbBlockReference
  2
_Open30
 10
2636.680185473578
 20
2868.278058025107
 30
0.0
 41
51.0
 42
51.0
 43
51.0
  0
INSERT
  5
2F58B
330
2C1EC
100
AcDbEntity
  8
DIM
 62
     0
370
    -2
100
AcDbBlockReference
  2
_Open30
 10
2433.180185473577
 20
2868.278058025107
 30
0.0
 41
51.0
 42
51.0
 43
51.0
 50
180.0
  0
MTEXT
  5
2F58C
330
2C1EC
100
AcDbEntity
  8
DIM
 62
     0
100
AcDbMText
 10
2534.930185473577
 20
2906.528058025107
 30
0.0
 40
42.5
 41
0.0
 46
0.0
 71
     5
 72
     1
  1
\A1;203.5
 73
     1
 44
1.0
  0
POINT
  5
2F58D
330
2C1EC
100
AcDbEntity
  8
Defpoints
 62
     0
100
AcDbPoint
 10
2636.680185473578
 20
3264.892216328096
 30
0.0
  0
POINT
  5
2F58E
330
2C1EC
100
AcDbEntity
  8
Defpoints
 62
     0
100
AcDbPoint
 10
2433.180185473577
 20
3319.724456379004
 30
0.0
  0
POINT
  5
2F58F
330
2C1EC
100
AcDbEntity
  8
Defpoints
 62
     0
100
AcDbPoint
 10
2433.180185473577
 20
2868.278058025107
 30
0.0
  0
ENDBLK
  5
2C1EE
330
2C1EC
100
AcDbEntity
  8
0
100
AcDbBlockEnd
  0
BLOCK
  5
2C1F9
330
2C1F8
100
AcDbEntity
  8
0
100
AcDbBlockBegin
  2
*D12
 70
     1
 10
0.0
 20
0.0
 30
0.0
  3
*D12
  1

  0
LINE
  5
2F590
330
2C1F8
100
AcDbEntity
  8
DIM
 62
     0
370
    -2
100
AcDbLine
 10
2636.680185473578
 20
3230.892216328097
 30
0.0
 11
2636.680185473578
 21
2697.533874581374
 31
0.0
  0
LINE
  5
2F591
330
2C1F8
100
AcDbEntity
  8
DIM
 62
     0
370
    -2
100
AcDbLine
 10
2371.180185473576
 20
3285.724456378988
 30
0.0
 11
2371.180185473576
 21
2697.533874581374
 31
0.0
  0
LINE
  5
2F592
330
2C1F8
100
AcDbEntity
  8
DIM
 62
     0
370
    -2
100
AcDbLine
 10
2585.680185473578
 20
2731.533874581375
 30
0.0
 11
2422.180185473576
 21
2731.533874581375
 31
0.0
  0
INSERT
  5
2F593
330
2C1F8
100
AcDbEntity
  8
DIM
 62
     0
370
    -2
100
AcDbBlockReference
  2
_Open30
 10
2636.680185473578
 20
2731.533874581375
 30
0.0
 41
51.0
 42
51.0
 43
51.0
  0
INSERT
  5
2F594
330
2C1F8
100
AcDbEntity
  8
DIM
 62
     0
370
    -2
100
AcDbBlockReference
  2
_Open30
 10
2371.180185473576
 20
2731.533874581375
 30
0.0
 41
51.0
 42
51.0
 43
51.0
 50
180.0
  0
MTEXT
  5
2F595
330
2C1F8
100
AcDbEntity
  8
DIM
 62
     0
100
AcDbMText
 10
2503.930185473577
 20
2769.783874581374
 30
0.0
 40
42.5
 41
0.0
 46
0.0
 71
     5
 72
     1
  1
\A1;265.5
 73
     1
 44
1.0
  0
POINT
  5
2F596
330
2C1F8
100
AcDbEntity
  8
Defpoints
 62
     0
100
AcDbPoint
 10
2636.680185473578
 20
3264.892216328096
 30
0.0
  0
POINT
  5
2F597
330
2C1F8
100
AcDbEntity
  8
Defpoints
 62
     0
100
AcDbPoint
 10
2371.180185473576
 20
3319.724456378988
 30
0.0
  0
POINT
  5
2F598
330
2C1F8
100
AcDbEntity
  8
Defpoints
 62
     0
100
AcDbPoint
 10
2371.180185473576
 20
2731.533874581375
 30
0.0
  0
ENDBLK
  5
2C1FA
330
2C1F8
100
AcDbEntity
  8
0
100
AcDbBlockEnd
  0
BLOCK
  5
2C205
330
2C204
100
AcDbEntity
  8
0
100
AcDbBlockBegin
  2
*D13
 70
     1
 10
0.0
 20
0.0
 30
0.0
  3
*D13
  1

  0
LINE
  5
2F599
330
2C204
100
AcDbEntity
  8
DIM
 62
     0
370
    -2
100
AcDbLine
 10
2371.180185473576
 20
3285.724456378988
 30
0.0
 11
2371.180185473576
 21
2697.533874581374
 31
0.0
  0
LINE
  5
2F59A
330
2C204
100
AcDbEntity
  8
DIM
 62
     0
370
    -2
100
AcDbLine
 10
2334.680185473578
 20
3266.174456379063
 30
0.0
 11
2334.680185473578
 21
2697.533874581374
 31
0.0
  0
LINE
  5
2F59B
330
2C204
100
AcDbEntity
  8
DIM
 62
     0
370
    -2
100
AcDbLine
 10
2422.180185473576
 20
2731.533874581375
 30
0.0
 11
2473.180185473577
 21
2731.533874581375
 31
0.0
  0
LINE
  5
2F59C
330
2C204
100
AcDbEntity
  8
DIM
 62
     0
370
    -2
100
AcDbLine
 10
2283.680185473578
 20
2731.533874581375
 30
0.0
 11
2046.813518806912
 21
2731.533874581375
 31
0.0
  0
LINE
  5
2F59D
330
2C204
100
AcDbEntity
  8
DIM
 62
     0
370
    -2
100
AcDbLine
 10
2371.180185473576
 20
2731.533874581375
 30
0.0
 11
2334.680185473578
 21
2731.533874581375
 31
0.0
  0
INSERT
  5
2F59E
330
2C204
100
AcDbEntity
  8
DIM
 62
     0
370
    -2
100
AcDbBlockReference
  2
_Open30
 10
2371.180185473576
 20
2731.533874581375
 30
0.0
 41
51.0
 42
51.0
 43
51.0
 50
180.0
  0
INSERT
  5
2F59F
330
2C204
100
AcDbEntity
  8
DIM
 62
     0
370
    -2
100
AcDbBlockReference
  2
_Open30
 10
2334.680185473578
 20
2731.533874581375
 30
0.0
 41
51.0
 42
51.0
 43
51.0
  0
MTEXT
  5
2F5A0
330
2C204
100
AcDbEntity
  8
DIM
 62
     0
100
AcDbMText
 10
2139.746852140245
 20
2769.783874581374
 30
0.0
 40
42.5
 41
0.0
 46
0.0
 71
     5
 72
     1
  1
\A1;（36.5）
 73
     1
 44
1.0
  0
POINT
  5
2F5A1
330
2C204
100
AcDbEntity
  8
Defpoints
 62
     0
100
AcDbPoint
 10
2371.180185473576
 20
3319.724456378988
 30
0.0
  0
POINT
  5
2F5A2
330
2C204
100
AcDbEntity
  8
Defpoints
 62
     0
100
AcDbPoint
 10
2334.680185473578
 20
3300.174456379063
 30
0.0
  0
POINT
  5
2F5A3
330
2C204
100
AcDbEntity
  8
Defpoints
 62
     0
100
AcDbPoint
 10
2334.680185473578
 20
2731.533874581375
 30
0.0
  0
ENDBLK
  5
2C206
330
2C204
100
AcDbEntity
  8
0
100
AcDbBlockEnd
  0
BLOCK
  5
2C212
330
2C211
100
AcDbEntity
  8
0
100
AcDbBlockBegin
  2
*D14
 70
     1
 10
0.0
 20
0.0
 30
0.0
  3
*D14
  1

  0
LINE
  5
2F5AD
330
2C211
100
AcDbEntity
  8
DIM
 62
     0
370
    -2
100
AcDbLine
 10
2602.68018547358
 20
3909.174456379063
 30
0.0
 11
1992.701491412143
 21
3909.174456379063
 31
0.0
  0
LINE
  5
2F5AE
330
2C211
100
AcDbEntity
  8
DIM
 62
     0
370
    -2
100
AcDbLine
 10
2345.470640549596
 20
3483.524456379058
 30
0.0
 11
1992.701491412143
 21
3483.524456379058
 31
0.0
  0
LINE
  5
2F5AF
330
2C211
100
AcDbEntity
  8
DIM
 62
     0
370
    -2
100
AcDbLine
 10
2026.701491412143
 20
3858.174456379063
 30
0.0
 11
2026.701491412143
 21
3534.524456379058
 31
0.0
  0
INSERT
  5
2F5B0
330
2C211
100
AcDbEntity
  8
DIM
 62
     0
370
    -2
100
AcDbBlockReference
  2
_Open30
 10
2026.701491412143
 20
3909.174456379063
 30
0.0
 41
51.0
 42
51.0
 43
51.0
 50
90.0
  0
INSERT
  5
2F5B1
330
2C211
100
AcDbEntity
  8
DIM
 62
     0
370
    -2
100
AcDbBlockReference
  2
_Open30
 10
2026.701491412143
 20
3483.524456379058
 30
0.0
 41
51.0
 42
51.0
 43
51.0
 50
270.0
  0
MTEXT
  5
2F5B2
330
2C211
100
AcDbEntity
  8
DIM
 62
     0
100
AcDbMText
 10
1988.451491412143
 20
3696.349456379061
 30
0.0
 40
42.5
 41
0.0
 46
0.0
 71
     5
 72
     1
  1
\A1;426
 11
0.0000000000000001
 21
1.0
 31
0.0
 73
     1
 44
1.0
  0
POINT
  5
2F5B3
330
2C211
100
AcDbEntity
  8
Defpoints
 62
     0
100
AcDbPoint
 10
2636.68018547358
 20
3909.174456379063
 30
0.0
  0
POINT
  5
2F5B4
330
2C211
100
AcDbEntity
  8
Defpoints
 62
     0
100
AcDbPoint
 10
2379.470640549596
 20
3483.524456379058
 30
0.0
  0
POINT
  5
2F5B5
330
2C211
100
AcDbEntity
  8
Defpoints
 62
     0
100
AcDbPoint
 10
2026.701491412143
 20
3483.524456379058
 30
0.0
  0
ENDBLK
  5
2C213
330
2C211
100
AcDbEntity
  8
0
100
AcDbBlockEnd
  0
BLOCK
  5
2C21E
330
2C21D
100
AcDbEntity
  8
0
100
AcDbBlockBegin
  2
*D15
 70
     1
 10
0.0
 20
0.0
 30
0.0
  3
*D15
  1

  0
LINE
  5
2F5BF
330
2C21D
100
AcDbEntity
  8
DIM
 62
     0
370
    -2
100
AcDbLine
 10
2602.680185473578
 20
3909.174456379063
 30
0.0
 11
1992.701491412145
 21
3909.174456379063
 31
0.0
  0
LINE
  5
2F5C0
330
2C21D
100
AcDbEntity
  8
DIM
 62
     0
370
    -2
100
AcDbLine
 10
2307.280185473577
 20
3938.174456379063
 30
0.0
 11
1992.701491412145
 21
3938.174456379063
 31
0.0
  0
LINE
  5
2F5C1
330
2C21D
100
AcDbEntity
  8
DIM
 62
     0
370
    -2
100
AcDbLine
 10
2026.701491412145
 20
3858.174456379063
 30
0.0
 11
2026.701491412145
 21
3807.174456379063
 31
0.0
  0
LINE
  5
2F5C2
330
2C21D
100
AcDbEntity
  8
DIM
 62
     0
370
    -2
100
AcDbLine
 10
2026.701491412145
 20
3989.174456379063
 30
0.0
 11
2026.701491412145
 21
4127.603027807634
 31
0.0
  0
LINE
  5
2F5C3
330
2C21D
100
AcDbEntity
  8
DIM
 62
     0
370
    -2
100
AcDbLine
 10
2026.701491412145
 20
3909.174456379063
 30
0.0
 11
2026.701491412145
 21
3938.174456379063
 31
0.0
  0
INSERT
  5
2F5C4
330
2C21D
100
AcDbEntity
  8
DIM
 62
     0
370
    -2
100
AcDbBlockReference
  2
_Open30
 10
2026.701491412145
 20
3909.174456379063
 30
0.0
 41
51.0
 42
51.0
 43
51.0
 50
90.0
  0
INSERT
  5
2F5C5
330
2C21D
100
AcDbEntity
  8
DIM
 62
     0
370
    -2
100
AcDbBlockReference
  2
_Open30
 10
2026.701491412145
 20
3938.174456379063
 30
0.0
 41
51.0
 42
51.0
 43
51.0
 50
270.0
  0
MTEXT
  5
2F5C6
330
2C21D
100
AcDbEntity
  8
DIM
 62
     0
100
AcDbMText
 10
1988.451491412145
 20
4083.888742093349
 30
0.0
 40
42.5
 41
0.0
 46
0.0
 71
     5
 72
     1
  1
\A1;29
 11
0.0000000000000001
 21
1.0
 31
0.0
 73
     1
 44
1.0
  0
POINT
  5
2F5C7
330
2C21D
100
AcDbEntity
  8
Defpoints
 62
     0
100
AcDbPoint
 10
2636.680185473578
 20
3909.174456379063
 30
0.0
  0
POINT
  5
2F5C8
330
2C21D
100
AcDbEntity
  8
Defpoints
 62
     0
100
AcDbPoint
 10
2341.280185473577
 20
3938.174456379063
 30
0.0
  0
POINT
  5
2F5C9
330
2C21D
100
AcDbEntity
  8
Defpoints
 62
     0
100
AcDbPoint
 10
2026.701491412145
 20
3938.174456379063
 30
0.0
  0
ENDBLK
  5
2C21F
330
2C21D
100
AcDbEntity
  8
0
100
AcDbBlockEnd
  0
BLOCK
  5
2C22C
330
2C22B
100
AcDbEntity
  8
0
100
AcDbBlockBegin
  2
*D16
 70
     1
 10
0.0
 20
0.0
 30
0.0
  3
*D16
  1

  0
LINE
  5
2F5D5
330
2C22B
100
AcDbEntity
  8
DIM
 62
     0
370
    -2
100
AcDbLine
 10
2893.889730397563
 20
3517.524456379058
 30
0.0
 11
2893.889730397563
 21
4122.058455226554
 31
0.0
  0
LINE
  5
2F5D6
330
2C22B
100
AcDbEntity
  8
DIM
 62
     0
370
    -2
100
AcDbLine
 10
2379.470640549596
 20
3517.524456379058
 30
0.0
 11
2379.470640549596
 21
4122.058455226554
 31
0.0
  0
LINE
  5
2F5D7
330
2C22B
100
AcDbEntity
  8
DIM
 62
     0
370
    -2
100
AcDbLine
 10
2842.889730397562
 20
4088.058455226553
 30
0.0
 11
2430.470640549596
 21
4088.058455226553
 31
0.0
  0
INSERT
  5
2F5D8
330
2C22B
100
AcDbEntity
  8
DIM
 62
     0
370
    -2
100
AcDbBlockReference
  2
_Open30
 10
2893.889730397563
 20
4088.058455226553
 30
0.0
 41
51.0
 42
51.0
 43
51.0
  0
INSERT
  5
2F5D9
330
2C22B
100
AcDbEntity
  8
DIM
 62
     0
370
    -2
100
AcDbBlockReference
  2
_Open30
 10
2379.470640549596
 20
4088.058455226553
 30
0.0
 41
51.0
 42
51.0
 43
51.0
 50
180.0
  0
MTEXT
  5
2F5DA
330
2C22B
100
AcDbEntity
  8
DIM
 62
     0
100
AcDbMText
 10
2636.680185473579
 20
4126.308455226553
 30
0.0
 40
42.5
 41
0.0
 46
0.0
 71
     5
 72
     1
  1
\A1;514
 73
     1
 44
1.0
  0
POINT
  5
2F5DB
330
2C22B
100
AcDbEntity
  8
Defpoints
 62
     0
100
AcDbPoint
 10
2893.889730397563
 20
3483.524456379058
 30
0.0
  0
POINT
  5
2F5DC
330
2C22B
100
AcDbEntity
  8
Defpoints
 62
     0
100
AcDbPoint
 10
2379.470640549596
 20
3483.524456379058
 30
0.0
  0
POINT
  5
2F5DD
330
2C22B
100
AcDbEntity
  8
Defpoints
 62
     0
100
AcDbPoint
 10
2379.470640549596
 20
4088.058455226553
 30
0.0
  0
ENDBLK
  5
2C22D
330
2C22B
100
AcDbEntity
  8
0
100
AcDbBlockEnd
  0
BLOCK
  5
2C238
330
2C237
100
AcDbEntity
  8
0
100
AcDbBlockBegin
  2
*D17
 70
     1
 10
0.0
 20
0.0
 30
0.0
  3
*D17
  1

  0
LINE
  5
2F5CA
330
2C237
100
AcDbEntity
  8
DIM
 62
     0
370
    -2
100
AcDbLine
 10
2629.68018547358
 20
3958.174456379063
 30
0.0
 11
2629.68018547358
 21
4047.391788559886
 31
0.0
  0
LINE
  5
2F5CB
330
2C237
100
AcDbEntity
  8
DIM
 62
     0
370
    -2
100
AcDbLine
 10
2643.68018547358
 20
3958.174456379063
 30
0.0
 11
2643.68018547358
 21
4047.391788559886
 31
0.0
  0
LINE
  5
2F5CC
330
2C237
100
AcDbEntity
  8
DIM
 62
     0
370
    -2
100
AcDbLine
 10
2578.68018547358
 20
4013.391788559886
 30
0.0
 11
2527.68018547358
 21
4013.391788559886
 31
0.0
  0
LINE
  5
2F5CD
330
2C237
100
AcDbEntity
  8
DIM
 62
     0
370
    -2
100
AcDbLine
 10
2694.68018547358
 20
4013.391788559886
 30
0.0
 11
2829.870661664056
 21
4013.391788559886
 31
0.0
  0
LINE
  5
2F5CE
330
2C237
100
AcDbEntity
  8
DIM
 62
     0
370
    -2
100
AcDbLine
 10
2629.68018547358
 20
4013.391788559886
 30
0.0
 11
2643.68018547358
 21
4013.391788559886
 31
0.0
  0
INSERT
  5
2F5CF
330
2C237
100
AcDbEntity
  8
DIM
 62
     0
370
    -2
100
AcDbBlockReference
  2
_Open30
 10
2629.68018547358
 20
4013.391788559886
 30
0.0
 41
51.0
 42
51.0
 43
51.0
  0
INSERT
  5
2F5D0
330
2C237
100
AcDbEntity
  8
DIM
 62
     0
370
    -2
100
AcDbBlockReference
  2
_Open30
 10
2643.68018547358
 20
4013.391788559886
 30
0.0
 41
51.0
 42
51.0
 43
51.0
 50
180.0
  0
MTEXT
  5
2F5D1
330
2C237
100
AcDbEntity
  8
DIM
 62
     0
100
AcDbMText
 10
2787.775423568818
 20
4051.641788559886
 30
0.0
 40
42.5
 41
0.0
 46
0.0
 71
     5
 72
     1
  1
\A1;14
 73
     1
 44
1.0
  0
POINT
  5
2F5D2
330
2C237
100
AcDbEntity
  8
Defpoints
 62
     0
100
AcDbPoint
 10
2629.68018547358
 20
3924.174456379063
 30
0.0
  0
POINT
  5
2F5D3
330
2C237
100
AcDbEntity
  8
Defpoints
 62
     0
100
AcDbPoint
 10
2643.68018547358
 20
3924.174456379063
 30
0.0
  0
POINT
  5
2F5D4
330
2C237
100
AcDbEntity
  8
Defpoints
 62
     0
100
AcDbPoint
 10
2643.68018547358
 20
4013.391788559886
 30
0.0
  0
ENDBLK
  5
2C239
330
2C237
100
AcDbEntity
  8
0
100
AcDbBlockEnd
  0
BLOCK
  5
2C246
330
2C245
100
AcDbEntity
  8
0
100
AcDbBlockBegin
  2
*D18
 70
     1
 10
0.0
 20
0.0
 30
0.0
  3
*D18
  1

  0
LINE
  5
2F513
330
2C245
100
AcDbEntity
  8
DIM
 62
     0
370
    -2
100
AcDbLine
 10
2966.080185473582
 20
3938.174456379063
 30
0.0
 11
3195.685116295801
 21
3938.174456379063
 31
0.0
  0
LINE
  5
2F514
330
2C245
100
AcDbEntity
  8
DIM
 62
     0
370
    -2
100
AcDbLine
 10
2873.180185473589
 20
3349.754456378981
 30
0.0
 11
3195.685116295801
 21
3349.754456378981
 31
0.0
  0
LINE
  5
2F515
330
2C245
100
AcDbEntity
  8
DIM
 62
     0
370
    -2
100
AcDbLine
 10
3161.685116295802
 20
3887.174456379063
 30
0.0
 11
3161.685116295801
 21
3400.754456378981
 31
0.0
  0
INSERT
  5
2F516
330
2C245
100
AcDbEntity
  8
DIM
 62
     0
370
    -2
100
AcDbBlockReference
  2
_Open30
 10
3161.685116295802
 20
3938.174456379063
 30
0.0
 41
51.0
 42
51.0
 43
51.0
 50
90.0
  0
INSERT
  5
2F517
330
2C245
100
AcDbEntity
  8
DIM
 62
     0
370
    -2
100
AcDbBlockReference
  2
_Open30
 10
3161.685116295801
 20
3349.754456378981
 30
0.0
 41
51.0
 42
51.0
 43
51.0
 50
270.0
  0
MTEXT
  5
2F518
330
2C245
100
AcDbEntity
  8
DIM
 62
     0
100
AcDbMText
 10
3123.435116295801
 20
3643.964456379023
 30
0.0
 40
42.5
 41
0.0
 46
0.0
 71
     5
 72
     1
  1
\A1;588
 11
0.0000000000000001
 21
1.0
 31
0.0
 73
     1
 44
1.0
  0
POINT
  5
2F519
330
2C245
100
AcDbEntity
  8
Defpoints
 62
     0
100
AcDbPoint
 10
2932.080185473582
 20
3938.174456379063
 30
0.0
  0
POINT
  5
2F51A
330
2C245
100
AcDbEntity
  8
Defpoints
 62
     0
100
AcDbPoint
 10
2839.180185473589
 20
3349.754456378981
 30
0.0
  0
POINT
  5
2F51B
330
2C245
100
AcDbEntity
  8
Defpoints
 62
     0
100
AcDbPoint
 10
3161.685116295801
 20
3349.754456378981
 30
0.0
  0
ENDBLK
  5
2C247
330
2C245
100
AcDbEntity
  8
0
100
AcDbBlockEnd
  0
BLOCK
  5
2C253
330
2C252
100
AcDbEntity
  8
0
100
AcDbBlockBegin
  2
*D19
 70
     1
 10
0.0
 20
0.0
 30
0.0
  3
*D19
  1

  0
LINE
  5
2F51C
330
2C252
100
AcDbEntity
  8
DIM
 62
     0
370
    -2
100
AcDbLine
 10
2966.080185473582
 20
3938.174456379063
 30
0.0
 11
3358.655994413124
 21
3938.174456379063
 31
0.0
  0
LINE
  5
2F51D
330
2C252
100
AcDbEntity
  8
DIM
 62
     0
370
    -2
100
AcDbLine
 10
2833.180185473576
 20
3342.224456378954
 30
0.0
 11
3358.655994413124
 21
3342.224456378954
 31
0.0
  0
LINE
  5
2F51E
330
2C252
100
AcDbEntity
  8
DIM
 62
     0
370
    -2
100
AcDbLine
 10
3324.655994413123
 20
3887.174456379063
 30
0.0
 11
3324.655994413122
 21
3393.224456378953
 31
0.0
  0
INSERT
  5
2F51F
330
2C252
100
AcDbEntity
  8
DIM
 62
     0
370
    -2
100
AcDbBlockReference
  2
_Open30
 10
3324.655994413123
 20
3938.174456379063
 30
0.0
 41
51.0
 42
51.0
 43
51.0
 50
90.0
  0
INSERT
  5
2F520
330
2C252
100
AcDbEntity
  8
DIM
 62
     0
370
    -2
100
AcDbBlockReference
  2
_Open30
 10
3324.655994413122
 20
3342.224456378954
 30
0.0
 41
51.0
 42
51.0
 43
51.0
 50
270.0
  0
MTEXT
  5
2F521
330
2C252
100
AcDbEntity
  8
DIM
 62
     0
100
AcDbMText
 10
3286.405994413122
 20
3640.199456379009
 30
0.0
 40
42.5
 41
0.0
 46
0.0
 71
     5
 72
     1
  1
\A1;596
 11
0.0000000000000001
 21
1.0
 31
0.0
 73
     1
 44
1.0
  0
POINT
  5
2F522
330
2C252
100
AcDbEntity
  8
Defpoints
 62
     0
100
AcDbPoint
 10
2932.080185473582
 20
3938.174456379063
 30
0.0
  0
POINT
  5
2F523
330
2C252
100
AcDbEntity
  8
Defpoints
 62
     0
100
AcDbPoint
 10
2799.180185473576
 20
3342.224456378954
 30
0.0
  0
POINT
  5
2F524
330
2C252
100
AcDbEntity
  8
Defpoints
 62
     0
100
AcDbPoint
 10
3324.655994413122
 20
3342.224456378954
 30
0.0
  0
ENDBLK
  5
2C254
330
2C252
100
AcDbEntity
  8
0
100
AcDbBlockEnd
  0
BLOCK
  5
2C260
330
2C25F
100
AcDbEntity
  8
0
100
AcDbBlockBegin
  2
*D20
 70
     1
 10
0.0
 20
0.0
 30
0.0
  3
*D20
  1

  0
LINE
  5
2F5A4
330
2C25F
100
AcDbEntity
  8
DIM
 62
     0
370
    -2
100
AcDbLine
 10
2345.470640549596
 20
3483.524456379058
 30
0.0
 11
1992.701491412141
 21
3483.524456379058
 31
0.0
  0
LINE
  5
2F5A5
330
2C25F
100
AcDbEntity
  8
DIM
 62
     0
370
    -2
100
AcDbLine
 10
2307.280185473576
 20
3294.174456379063
 30
0.0
 11
1992.701491412141
 21
3294.174456379063
 31
0.0
  0
LINE
  5
2F5A6
330
2C25F
100
AcDbEntity
  8
DIM
 62
     0
370
    -2
100
AcDbLine
 10
2026.701491412142
 20
3432.524456379058
 30
0.0
 11
2026.701491412142
 21
3345.174456379063
 31
0.0
  0
INSERT
  5
2F5A7
330
2C25F
100
AcDbEntity
  8
DIM
 62
     0
370
    -2
100
AcDbBlockReference
  2
_Open30
 10
2026.701491412142
 20
3483.524456379058
 30
0.0
 41
51.0
 42
51.0
 43
51.0
 50
90.0
  0
INSERT
  5
2F5A8
330
2C25F
100
AcDbEntity
  8
DIM
 62
     0
370
    -2
100
AcDbBlockReference
  2
_Open30
 10
2026.701491412142
 20
3294.174456379063
 30
0.0
 41
51.0
 42
51.0
 43
51.0
 50
270.0
  0
MTEXT
  5
2F5A9
330
2C25F
100
AcDbEntity
  8
DIM
 62
     0
100
AcDbMText
 10
1988.451491412141
 20
3388.849456379061
 30
0.0
 40
42.5
 41
0.0
 46
0.0
 71
     5
 72
     1
  1
\A1;（189）
 11
0.0000000000000001
 21
1.0
 31
0.0
 73
     1
 44
1.0
  0
POINT
  5
2F5AA
330
2C25F
100
AcDbEntity
  8
Defpoints
 62
     0
100
AcDbPoint
 10
2379.470640549596
 20
3483.524456379058
 30
0.0
  0
POINT
  5
2F5AB
330
2C25F
100
AcDbEntity
  8
Defpoints
 62
     0
100
AcDbPoint
 10
2341.280185473576
 20
3294.174456379063
 30
0.0
  0
POINT
  5
2F5AC
330
2C25F
100
AcDbEntity
  8
Defpoints
 62
     0
100
AcDbPoint
 10
2026.701491412142
 20
3294.174456379063
 30
0.0
  0
ENDBLK
  5
2C261
330
2C25F
100
AcDbEntity
  8
0
100
AcDbBlockEnd
  0
BLOCK
  5
2C287
330
2C286
100
AcDbEntity
  8
0
100
AcDbBlockBegin
  2
*D21
 70
     1
 10
0.0
 20
0.0
 30
0.0
  3
*D21
  1

  0
LINE
  5
2F525
330
2C286
100
AcDbEntity
  8
DIM
 62
     0
370
    -2
100
AcDbLine
 10
2833.180185473576
 20
3342.224456378954
 30
0.0
 11
3358.65599441312
 21
3342.224456378954
 31
0.0
  0
LINE
  5
2F526
330
2C286
100
AcDbEntity
  8
DIM
 62
     0
370
    -2
100
AcDbLine
 10
2966.080185473581
 20
3294.174456379063
 30
0.0
 11
3358.65599441312
 21
3294.174456379063
 31
0.0
  0
LINE
  5
2F527
330
2C286
100
AcDbEntity
  8
DIM
 62
     0
370
    -2
100
AcDbLine
 10
3324.655994413121
 20
3393.224456378953
 30
0.0
 11
3324.655994413121
 21
3444.224456378953
 31
0.0
  0
LINE
  5
2F528
330
2C286
100
AcDbEntity
  8
DIM
 62
     0
370
    -2
100
AcDbLine
 10
3324.655994413121
 20
3243.174456379063
 30
0.0
 11
3324.655994413121
 21
3054.879218283825
 31
0.0
  0
LINE
  5
2F529
330
2C286
100
AcDbEntity
  8
DIM
 62
     0
370
    -2
100
AcDbLine
 10
3324.655994413121
 20
3342.224456378954
 30
0.0
 11
3324.655994413121
 21
3294.174456379063
 31
0.0
  0
INSERT
  5
2F52A
330
2C286
100
AcDbEntity
  8
DIM
 62
     0
370
    -2
100
AcDbBlockReference
  2
_Open30
 10
3324.655994413121
 20
3342.224456378954
 30
0.0
 41
51.0
 42
51.0
 43
51.0
 50
270.0
  0
INSERT
  5
2F52B
330
2C286
100
AcDbEntity
  8
DIM
 62
     0
370
    -2
100
AcDbBlockReference
  2
_Open30
 10
3324.655994413121
 20
3294.174456379063
 30
0.0
 41
51.0
 42
51.0
 43
51.0
 50
90.0
  0
MTEXT
  5
2F52C
330
2C286
100
AcDbEntity
  8
DIM
 62
     0
100
AcDbMText
 10
3286.40599441312
 20
3123.526837331445
 30
0.0
 40
42.5
 41
0.0
 46
0.0
 71
     5
 72
     1
  1
\A1;（48）
 11
0.0000000000000001
 21
1.0
 31
0.0
 73
     1
 44
1.0
  0
POINT
  5
2F52D
330
2C286
100
AcDbEntity
  8
Defpoints
 62
     0
100
AcDbPoint
 10
2799.180185473576
 20
3342.224456378954
 30
0.0
  0
POINT
  5
2F52E
330
2C286
100
AcDbEntity
  8
Defpoints
 62
     0
100
AcDbPoint
 10
2932.080185473581
 20
3294.174456379063
 30
0.0
  0
POINT
  5
2F52F
330
2C286
100
AcDbEntity
  8
Defpoints
 62
     0
100
AcDbPoint
 10
3324.655994413121
 20
3294.174456379063
 30
0.0
  0
ENDBLK
  5
2C288
330
2C286
100
AcDbEntity
  8
0
100
AcDbBlockEnd
  0
BLOCK
  5
2CE65
330
2CE64
100
AcDbEntity
  8
0
100
AcDbBlockBegin
  2
*D22
 70
     1
 10
0.0
 20
0.0
 30
0.0
  3
*D22
  1

  0
LINE
  5
2F734
330
2CE64
100
AcDbEntity
  8
DIM
 62
     0
370
    -2
100
AcDbLine
 10
1378.631505057291
 20
532.0832989535017
 30
0.0
 11
1780.00831746913
 21
532.0832989535017
 31
0.0
  0
LINE
  5
2F735
330
2CE64
100
AcDbEntity
  8
DIM
 62
     0
370
    -2
100
AcDbLine
 10
936.5213250386933
 20
1442.083298953502
 30
0.0
 11
1780.00831746913
 21
1442.083298953501
 31
0.0
  0
LINE
  5
2F736
330
2CE64
100
AcDbEntity
  8
DIM
 62
     0
370
    -2
100
AcDbLine
 10
1746.00831746913
 20
583.0832989535017
 30
0.0
 11
1746.00831746913
 21
1391.083298953501
 31
0.0
  0
INSERT
  5
2F737
330
2CE64
100
AcDbEntity
  8
DIM
 62
     0
370
    -2
100
AcDbBlockReference
  2
_Open30
 10
1746.00831746913
 20
532.0832989535017
 30
0.0
 41
51.0
 42
51.0
 43
51.0
 50
270.0
  0
INSERT
  5
2F738
330
2CE64
100
AcDbEntity
  8
DIM
 62
     0
370
    -2
100
AcDbBlockReference
  2
_Open30
 10
1746.00831746913
 20
1442.083298953501
 30
0.0
 41
51.0
 42
51.0
 43
51.0
 50
90.0
  0
MTEXT
  5
2F739
330
2CE64
100
AcDbEntity
  8
DIM
 62
     0
100
AcDbMText
 10
1707.75831746913
 20
987.0832989535019
 30
0.0
 40
42.5
 41
0.0
 46
0.0
 71
     5
 72
     1
  1
\A1;（910）
 11
0.0000000000000001
 21
1.0
 31
0.0
 73
     1
 44
1.0
  0
POINT
  5
2F73A
330
2CE64
100
AcDbEntity
  8
Defpoints
 62
     0
100
AcDbPoint
 10
1344.631505057291
 20
532.0832989535017
 30
0.0
  0
POINT
  5
2F73B
330
2CE64
100
AcDbEntity
  8
Defpoints
 62
     0
100
AcDbPoint
 10
902.5213250386933
 20
1442.083298953502
 30
0.0
  0
POINT
  5
2F73C
330
2CE64
100
AcDbEntity
  8
Defpoints
 62
     0
100
AcDbPoint
 10
1746.00831746913
 20
1442.083298953501
 30
0.0
  0
ENDBLK
  5
2CE66
330
2CE64
100
AcDbEntity
  8
0
100
AcDbBlockEnd
  0
BLOCK
  5
2CE71
330
2CE70
100
AcDbEntity
  8
0
100
AcDbBlockBegin
  2
*D23
 70
     1
 10
0.0
 20
0.0
 30
0.0
  3
*D23
  1

  0
LINE
  5
2F72B
330
2CE70
100
AcDbEntity
  8
DIM
 62
     0
370
    -2
100
AcDbLine
 10
1378.631505057291
 20
532.0832989535017
 30
0.0
 11
1863.071719505684
 21
532.0832989535017
 31
0.0
  0
LINE
  5
2F72C
330
2CE70
100
AcDbEntity
  8
DIM
 62
     0
370
    -2
100
AcDbLine
 10
1204.021325038693
 20
2080.083298953502
 30
0.0
 11
1863.071719505684
 21
2080.083298953502
 31
0.0
  0
LINE
  5
2F72D
330
2CE70
100
AcDbEntity
  8
DIM
 62
     0
370
    -2
100
AcDbLine
 10
1829.071719505684
 20
583.0832989535017
 30
0.0
 11
1829.071719505684
 21
2029.083298953501
 31
0.0
  0
INSERT
  5
2F72E
330
2CE70
100
AcDbEntity
  8
DIM
 62
     0
370
    -2
100
AcDbBlockReference
  2
_Open30
 10
1829.071719505684
 20
532.0832989535017
 30
0.0
 41
51.0
 42
51.0
 43
51.0
 50
270.0
  0
INSERT
  5
2F72F
330
2CE70
100
AcDbEntity
  8
DIM
 62
     0
370
    -2
100
AcDbBlockReference
  2
_Open30
 10
1829.071719505684
 20
2080.083298953502
 30
0.0
 41
51.0
 42
51.0
 43
51.0
 50
90.0
  0
MTEXT
  5
2F730
330
2CE70
100
AcDbEntity
  8
DIM
 62
     0
100
AcDbMText
 10
1790.821719505684
 20
1306.083298953501
 30
0.0
 40
42.5
 41
0.0
 46
0.0
 71
     5
 72
     1
  1
\A1;（1548）
 11
0.0000000000000001
 21
1.0
 31
0.0
 73
     1
 44
1.0
  0
POINT
  5
2F731
330
2CE70
100
AcDbEntity
  8
Defpoints
 62
     0
100
AcDbPoint
 10
1344.631505057291
 20
532.0832989535017
 30
0.0
  0
POINT
  5
2F732
330
2CE70
100
AcDbEntity
  8
Defpoints
 62
     0
100
AcDbPoint
 10
1170.021325038693
 20
2080.083298953502
 30
0.0
  0
POINT
  5
2F733
330
2CE70
100
AcDbEntity
  8
Defpoints
 62
     0
100
AcDbPoint
 10
1829.071719505684
 20
2080.083298953502
 30
0.0
  0
ENDBLK
  5
2CE72
330
2CE70
100
AcDbEntity
  8
0
100
AcDbBlockEnd
  0
BLOCK
  5
2CEA3
330
2CEA2
100
AcDbEntity
  8
0
100
AcDbBlockBegin
  2
*D24
 70
     1
 10
0.0
 20
0.0
 30
0.0
  3
*D24
  1

  0
LINE
  5
2F722
330
2CEA2
100
AcDbEntity
  8
DIM
 62
     0
370
    -2
100
AcDbLine
 10
1378.631505057291
 20
532.0832989535014
 30
0.0
 11
1968.749043416981
 21
532.0832989535013
 31
0.0
  0
LINE
  5
2F723
330
2CEA2
100
AcDbEntity
  8
DIM
 62
     0
370
    -2
100
AcDbLine
 10
1381.021325038692
 20
2349.083298953502
 30
0.0
 11
1968.749043416982
 21
2349.083298953502
 31
0.0
  0
LINE
  5
2F724
330
2CEA2
100
AcDbEntity
  8
DIM
 62
     0
370
    -2
100
AcDbLine
 10
1934.749043416981
 20
583.0832989535013
 30
0.0
 11
1934.749043416982
 21
2298.083298953502
 31
0.0
  0
INSERT
  5
2F725
330
2CEA2
100
AcDbEntity
  8
DIM
 62
     0
370
    -2
100
AcDbBlockReference
  2
_Open30
 10
1934.749043416981
 20
532.0832989535013
 30
0.0
 41
51.0
 42
51.0
 43
51.0
 50
270.0
  0
INSERT
  5
2F726
330
2CEA2
100
AcDbEntity
  8
DIM
 62
     0
370
    -2
100
AcDbBlockReference
  2
_Open30
 10
1934.749043416982
 20
2349.083298953502
 30
0.0
 41
51.0
 42
51.0
 43
51.0
 50
90.0
  0
MTEXT
  5
2F727
330
2CEA2
100
AcDbEntity
  8
DIM
 62
     0
100
AcDbMText
 10
1896.499043416981
 20
1439.8332989535
 30
0.0
 40
42.5
 41
0.0
 46
0.0
 71
     5
 72
     1
  1
\A1;1817
 11
0.0000000000000001
 21
1.0
 31
0.0
 73
     1
 44
1.0
  0
POINT
  5
2F728
330
2CEA2
100
AcDbEntity
  8
Defpoints
 62
     0
100
AcDbPoint
 10
1344.631505057291
 20
532.0832989535014
 30
0.0
  0
POINT
  5
2F729
330
2CEA2
100
AcDbEntity
  8
Defpoints
 62
     0
100
AcDbPoint
 10
1347.021325038692
 20
2349.083298953502
 30
0.0
  0
POINT
  5
2F72A
330
2CEA2
100
AcDbEntity
  8
Defpoints
 62
     0
100
AcDbPoint
 10
1934.749043416982
 20
2349.083298953502
 30
0.0
  0
ENDBLK
  5
2CEA4
330
2CEA2
100
AcDbEntity
  8
0
100
AcDbBlockEnd
  0
BLOCK
  5
2CEAF
330
2CEAE
100
AcDbEntity
  8
0
100
AcDbBlockBegin
  2
*D25
 70
     1
 10
0.0
 20
0.0
 30
0.0
  3
*D25
  1

  0
LINE
  5
2F717
330
2CEAE
100
AcDbEntity
  8
DIM
 62
     0
370
    -2
100
AcDbLine
 10
1378.631505057291
 20
532.0832989535014
 30
0.0
 11
1487.809119746106
 21
532.0832989535014
 31
0.0
  0
LINE
  5
2F718
330
2CEAE
100
AcDbEntity
  8
DIM
 62
     0
370
    -2
100
AcDbLine
 10
1374.521325038698
 20
657.0832989535014
 30
0.0
 11
1487.809119746106
 21
657.0832989535014
 31
0.0
  0
LINE
  5
2F719
330
2CEAE
100
AcDbEntity
  8
DIM
 62
     0
370
    -2
100
AcDbLine
 10
1453.809119746106
 20
708.0832989535013
 30
0.0
 11
1453.809119746106
 21
759.0832989535014
 31
0.0
  0
LINE
  5
2F71A
330
2CEAE
100
AcDbEntity
  8
DIM
 62
     0
370
    -2
100
AcDbLine
 10
1453.809119746106
 20
481.0832989535014
 30
0.0
 11
1453.809119746106
 21
303.7975846677872
 31
0.0
  0
LINE
  5
2F71B
330
2CEAE
100
AcDbEntity
  8
DIM
 62
     0
370
    -2
100
AcDbLine
 10
1453.809119746106
 20
657.0832989535014
 30
0.0
 11
1453.809119746106
 21
532.0832989535014
 31
0.0
  0
INSERT
  5
2F71C
330
2CEAE
100
AcDbEntity
  8
DIM
 62
     0
370
    -2
100
AcDbBlockReference
  2
_Open30
 10
1453.809119746106
 20
657.0832989535014
 30
0.0
 41
51.0
 42
51.0
 43
51.0
 50
270.0
  0
INSERT
  5
2F71D
330
2CEAE
100
AcDbEntity
  8
DIM
 62
     0
370
    -2
100
AcDbBlockReference
  2
_Open30
 10
1453.809119746106
 20
532.0832989535014
 30
0.0
 41
51.0
 42
51.0
 43
51.0
 50
90.0
  0
MTEXT
  5
2F71E
330
2CEAE
100
AcDbEntity
  8
DIM
 62
     0
100
AcDbMText
 10
1415.559119746106
 20
361.2737751439779
 30
0.0
 40
42.5
 41
0.0
 46
0.0
 71
     5
 72
     1
  1
\A1;125
 11
0.0000000000000001
 21
1.0
 31
0.0
 73
     1
 44
1.0
  0
POINT
  5
2F71F
330
2CEAE
100
AcDbEntity
  8
Defpoints
 62
     0
100
AcDbPoint
 10
1344.631505057291
 20
532.0832989535014
 30
0.0
  0
POINT
  5
2F720
330
2CEAE
100
AcDbEntity
  8
Defpoints
 62
     0
100
AcDbPoint
 10
1340.521325038698
 20
657.0832989535014
 30
0.0
  0
POINT
  5
2F721
330
2CEAE
100
AcDbEntity
  8
Defpoints
 62
     0
100
AcDbPoint
 10
1453.809119746106
 20
657.0832989535014
 30
0.0
  0
ENDBLK
  5
2CEB0
330
2CEAE
100
AcDbEntity
  8
0
100
AcDbBlockEnd
  0
BLOCK
  5
2EC72
330
2EC71
100
AcDbEntity
  8
0
100
AcDbBlockBegin
  2
*D26
 70
     1
 10
0.0
 20
0.0
 30
0.0
  3
*D26
  1

  0
LINE
  5
2F6A8
330
2EC71
100
AcDbEntity
  8
DIM
 62
     0
370
    -2
100
AcDbLine
 10
747.021325038694
 20
3972.174456379064
 30
0.0
 11
747.021325038694
 21
4235.340828670707
 31
0.0
  0
LINE
  5
2F6A9
330
2EC71
100
AcDbEntity
  8
DIM
 62
     0
370
    -2
100
AcDbLine
 10
1347.021325038693
 20
3972.174456379065
 30
0.0
 11
1347.021325038693
 21
4235.340828670707
 31
0.0
  0
LINE
  5
2F6AA
330
2EC71
100
AcDbEntity
  8
DIM
 62
     0
370
    -2
100
AcDbLine
 10
798.021325038694
 20
4201.340828670706
 30
0.0
 11
1296.021325038693
 21
4201.340828670706
 31
0.0
  0
INSERT
  5
2F6AB
330
2EC71
100
AcDbEntity
  8
DIM
 62
     0
370
    -2
100
AcDbBlockReference
  2
_Open30
 10
747.021325038694
 20
4201.340828670706
 30
0.0
 41
51.0
 42
51.0
 43
51.0
 50
180.0
  0
INSERT
  5
2F6AC
330
2EC71
100
AcDbEntity
  8
DIM
 62
     0
370
    -2
100
AcDbBlockReference
  2
_Open30
 10
1347.021325038693
 20
4201.340828670706
 30
0.0
 41
51.0
 42
51.0
 43
51.0
  0
MTEXT
  5
2F6AD
330
2EC71
100
AcDbEntity
  8
DIM
 62
     0
100
AcDbMText
 10
1047.021325038693
 20
4239.590828670706
 30
0.0
 40
42.5
 41
0.0
 46
0.0
 71
     5
 72
     1
  1
\A1;（604）
 73
     1
 44
1.0
  0
POINT
  5
2F6AE
330
2EC71
100
AcDbEntity
  8
Defpoints
 62
     0
100
AcDbPoint
 10
747.021325038694
 20
3938.174456379064
 30
0.0
  0
POINT
  5
2F6AF
330
2EC71
100
AcDbEntity
  8
Defpoints
 62
     0
100
AcDbPoint
 10
1347.021325038693
 20
3938.174456379065
 30
0.0
  0
POINT
  5
2F6B0
330
2EC71
100
AcDbEntity
  8
Defpoints
 62
     0
100
AcDbPoint
 10
1347.021325038693
 20
4201.340828670706
 30
0.0
  0
ENDBLK
  5
2EC73
330
2EC71
100
AcDbEntity
  8
0
100
AcDbBlockEnd
  0
BLOCK
  5
2EC7E
330
2EC7D
100
AcDbEntity
  8
0
100
AcDbBlockBegin
  2
*D27
 70
     1
 10
0.0
 20
0.0
 30
0.0
  3
*D27
  1

  0
LINE
  5
2F6B1
330
2EC7D
100
AcDbEntity
  8
DIM
 62
     0
370
    -2
100
AcDbLine
 10
1141.021325038695
 20
4027.074456379062
 30
0.0
 11
1556.280427849044
 21
4027.074456379062
 31
0.0
  0
LINE
  5
2F6B2
330
2EC7D
100
AcDbEntity
  8
DIM
 62
     0
370
    -2
100
AcDbLine
 10
1141.021325038695
 20
3937.074456379062
 30
0.0
 11
1556.280427849044
 21
3937.074456379062
 31
0.0
  0
LINE
  5
2F6B3
330
2EC7D
100
AcDbEntity
  8
DIM
 62
     0
370
    -2
100
AcDbLine
 10
1522.280427849044
 20
3886.074456379062
 30
0.0
 11
1522.280427849044
 21
3835.074456379063
 31
0.0
  0
LINE
  5
2F6B4
330
2EC7D
100
AcDbEntity
  8
DIM
 62
     0
370
    -2
100
AcDbLine
 10
1522.280427849044
 20
4078.07445637906
 30
0.0
 11
1522.280427849044
 21
4406.652642810755
 31
0.0
  0
LINE
  5
2F6B5
330
2EC7D
100
AcDbEntity
  8
DIM
 62
     0
370
    -2
100
AcDbLine
 10
1522.280427849044
 20
3937.074456379062
 30
0.0
 11
1522.280427849044
 21
4027.074456379062
 31
0.0
  0
INSERT
  5
2F6B6
330
2EC7D
100
AcDbEntity
  8
DIM
 62
     0
370
    -2
100
AcDbBlockReference
  2
_Open30
 10
1522.280427849044
 20
3937.074456379062
 30
0.0
 41
51.0
 42
51.0
 43
51.0
 50
90.0
  0
INSERT
  5
2F6B7
330
2EC7D
100
AcDbEntity
  8
DIM
 62
     0
370
    -2
100
AcDbBlockReference
  2
_Open30
 10
1522.280427849044
 20
4027.074456379062
 30
0.0
 41
51.0
 42
51.0
 43
51.0
 50
270.0
  0
MTEXT
  5
2F6B8
330
2EC7D
100
AcDbEntity
  8
DIM
 62
     0
100
AcDbMText
 10
1484.030427849044
 20
4274.376452334564
 30
0.0
 40
42.5
 41
0.0
 46
0.0
 71
     5
 72
     1
  1
\A1;最大90mm
 11
0.0000000000000001
 21
1.0
 31
0.0
 73
     1
 44
1.0
  0
POINT
  5
2F6B9
330
2EC7D
100
AcDbEntity
  8
Defpoints
 62
     0
100
AcDbPoint
 10
1107.021325038695
 20
4027.074456379062
 30
0.0
  0
POINT
  5
2F6BA
330
2EC7D
100
AcDbEntity
  8
Defpoints
 62
     0
100
AcDbPoint
 10
1107.021325038695
 20
3937.074456379062
 30
0.0
  0
POINT
  5
2F6BB
330
2EC7D
100
AcDbEntity
  8
Defpoints
 62
     0
100
AcDbPoint
 10
1522.280427849044
 20
3937.074456379062
 30
0.0
  0
ENDBLK
  5
2EC7F
330
2EC7D
100
AcDbEntity
  8
0
100
AcDbBlockEnd
  0
BLOCK
  5
2EC8D
330
2EC8C
100
AcDbEntity
  8
0
100
AcDbBlockBegin
  2
*D28
 70
     1
 10
0.0
 20
0.0
 30
0.0
  3
*D28
  1

  0
LINE
  5
2F6BC
330
2EC8C
100
AcDbEntity
  8
DIM
 62
     0
370
    -2
100
AcDbLine
 10
1381.021325038692
 20
3938.174456379064
 30
0.0
 11
1552.840102102333
 21
3938.174456379064
 31
0.0
  0
LINE
  5
2F6BD
330
2EC8C
100
AcDbEntity
  8
DIM
 62
     0
370
    -2
100
AcDbLine
 10
1381.021325038693
 20
3298.174456379064
 30
0.0
 11
1552.840102102333
 21
3298.174456379064
 31
0.0
  0
LINE
  5
2F6BE
330
2EC8C
100
AcDbEntity
  8
DIM
 62
     0
370
    -2
100
AcDbLine
 10
1518.840102102333
 20
3887.174456379064
 30
0.0
 11
1518.840102102333
 21
3349.174456379063
 31
0.0
  0
INSERT
  5
2F6BF
330
2EC8C
100
AcDbEntity
  8
DIM
 62
     0
370
    -2
100
AcDbBlockReference
  2
_Open30
 10
1518.840102102333
 20
3938.174456379064
 30
0.0
 41
51.0
 42
51.0
 43
51.0
 50
90.0
  0
INSERT
  5
2F6C0
330
2EC8C
100
AcDbEntity
  8
DIM
 62
     0
370
    -2
100
AcDbBlockReference
  2
_Open30
 10
1518.840102102333
 20
3298.174456379064
 30
0.0
 41
51.0
 42
51.0
 43
51.0
 50
270.0
  0
MTEXT
  5
2F6C1
330
2EC8C
100
AcDbEntity
  8
DIM
 62
     0
100
AcDbMText
 10
1480.590102102333
 20
3618.174456379064
 30
0.0
 40
42.5
 41
0.0
 46
0.0
 71
     5
 72
     1
  1
\A1;（644）
 11
0.0000000000000001
 21
1.0
 31
0.0
 73
     1
 44
1.0
  0
POINT
  5
2F6C2
330
2EC8C
100
AcDbEntity
  8
Defpoints
 62
     0
100
AcDbPoint
 10
1347.021325038692
 20
3938.174456379064
 30
0.0
  0
POINT
  5
2F6C3
330
2EC8C
100
AcDbEntity
  8
Defpoints
 62
     0
100
AcDbPoint
 10
1347.021325038693
 20
3298.174456379064
 30
0.0
  0
POINT
  5
2F6C4
330
2EC8C
100
AcDbEntity
  8
Defpoints
 62
     0
100
AcDbPoint
 10
1518.840102102333
 20
3298.174456379064
 30
0.0
  0
ENDBLK
  5
2EC8E
330
2EC8C
100
AcDbEntity
  8
0
100
AcDbBlockEnd
  0
BLOCK
  5
2EDFA
330
2EDF9
100
AcDbEntity
  8
0
100
AcDbBlockBegin
  2
*D29
 70
     1
 10
0.0
 20
0.0
 30
0.0
  3
*D29
  1

  0
LINE
  5
2F6C5
330
2EDF9
100
AcDbEntity
  8
DIM
 62
     0
370
    -2
100
AcDbLine
 10
1261.021325038704
 20
701.5832989534997
 30
0.0
 11
1576.00831746913
 21
701.5832989534994
 31
0.0
  0
LINE
  5
2F6C6
330
2EDF9
100
AcDbEntity
  8
DIM
 62
     0
370
    -2
100
AcDbLine
 10
1408.631505057291
 20
532.0832989535021
 30
0.0
 11
1576.00831746913
 21
532.0832989535021
 31
0.0
  0
LINE
  5
2F6C7
330
2EDF9
100
AcDbEntity
  8
DIM
 62
     0
370
    -2
100
AcDbLine
 10
1542.008317469131
 20
650.5832989534996
 30
0.0
 11
1542.00831746913
 21
583.0832989535021
 31
0.0
  0
LINE
  5
2F6C8
330
2EDF9
100
AcDbEntity
  8
DIM
 62
     0
370
    -2
100
AcDbLine
 10
1542.00831746913
 20
532.0832989535021
 30
0.0
 11
1542.00831746913
 21
341.4642513344546
 31
0.0
  0
INSERT
  5
2F6C9
330
2EDF9
100
AcDbEntity
  8
DIM
 62
     0
370
    -2
100
AcDbBlockReference
  2
_Open30
 10
1542.008317469131
 20
701.5832989534994
 30
0.0
 41
51.0
 42
51.0
 43
51.0
 50
90.0
  0
INSERT
  5
2F6CA
330
2EDF9
100
AcDbEntity
  8
DIM
 62
     0
370
    -2
100
AcDbBlockReference
  2
_Open30
 10
1542.00831746913
 20
532.0832989535021
 30
0.0
 41
51.0
 42
51.0
 43
51.0
 50
270.0
  0
MTEXT
  5
2F6CB
330
2EDF9
100
AcDbEntity
  8
DIM
 62
     0
100
AcDbMText
 10
1503.75831746913
 20
398.9404418106453
 30
0.0
 40
42.5
 41
0.0
 46
0.0
 71
     5
 72
     1
  1
\A1;170
 11
0.0000000000000001
 21
1.0
 31
0.0
 73
     1
 44
1.0
  0
POINT
  5
2F6CC
330
2EDF9
100
AcDbEntity
  8
Defpoints
 62
     0
100
AcDbPoint
 10
1227.021325038704
 20
701.5832989534997
 30
0.0
  0
POINT
  5
2F6CD
330
2EDF9
100
AcDbEntity
  8
Defpoints
 62
     0
100
AcDbPoint
 10
1374.631505057291
 20
532.0832989535021
 30
0.0
  0
POINT
  5
2F6CE
330
2EDF9
100
AcDbEntity
  8
Defpoints
 62
     0
100
AcDbPoint
 10
1542.00831746913
 20
532.0832989535021
 30
0.0
  0
ENDBLK
  5
2EDFB
330
2EDF9
100
AcDbEntity
  8
0
100
AcDbBlockEnd
  0
BLOCK
  5
2EE1B
330
2EE1A
100
AcDbEntity
  8
0
100
AcDbBlockBegin
  2
*D30
 70
     1
 10
0.0
 20
0.0
 30
0.0
  3
*D30
  1

  0
LINE
  5
2F73D
330
2EE1A
100
AcDbEntity
  8
DIM
 62
     0
370
    -2
100
AcDbLine
 10
1378.521325038696
 20
787.0832989535013
 30
0.0
 11
1673.628269368107
 21
787.0832989535013
 31
0.0
  0
LINE
  5
2F73E
330
2EE1A
100
AcDbEntity
  8
DIM
 62
     0
370
    -2
100
AcDbLine
 10
1408.631505057291
 20
532.0832989535016
 30
0.0
 11
1673.628269368107
 21
532.0832989535016
 31
0.0
  0
LINE
  5
2F73F
330
2EE1A
100
AcDbEntity
  8
DIM
 62
     0
370
    -2
100
AcDbLine
 10
1639.628269368107
 20
736.0832989535014
 30
0.0
 11
1639.628269368107
 21
583.0832989535016
 31
0.0
  0
LINE
  5
2F740
330
2EE1A
100
AcDbEntity
  8
DIM
 62
     0
370
    -2
100
AcDbLine
 10
1639.628269368107
 20
532.0832989535016
 30
0.0
 11
1639.628269368107
 21
347.4147275249302
 31
0.0
  0
INSERT
  5
2F741
330
2EE1A
100
AcDbEntity
  8
DIM
 62
     0
370
    -2
100
AcDbBlockReference
  2
_Open30
 10
1639.628269368107
 20
787.0832989535013
 30
0.0
 41
51.0
 42
51.0
 43
51.0
 50
90.0
  0
INSERT
  5
2F742
330
2EE1A
100
AcDbEntity
  8
DIM
 62
     0
370
    -2
100
AcDbBlockReference
  2
_Open30
 10
1639.628269368107
 20
532.0832989535016
 30
0.0
 41
51.0
 42
51.0
 43
51.0
 50
270.0
  0
MTEXT
  5
2F743
330
2EE1A
100
AcDbEntity
  8
DIM
 62
     0
100
AcDbMText
 10
1601.378269368107
 20
408.129013239216
 30
0.0
 40
42.5
 41
0.0
 46
0.0
 71
     5
 72
     1
  1
\A1;255
 11
0.0000000000000001
 21
1.0
 31
0.0
 73
     1
 44
1.0
  0
POINT
  5
2F744
330
2EE1A
100
AcDbEntity
  8
Defpoints
 62
     0
100
AcDbPoint
 10
1344.521325038696
 20
787.0832989535013
 30
0.0
  0
POINT
  5
2F745
330
2EE1A
100
AcDbEntity
  8
Defpoints
 62
     0
100
AcDbPoint
 10
1374.631505057291
 20
532.0832989535016
 30
0.0
  0
POINT
  5
2F746
330
2EE1A
100
AcDbEntity
  8
Defpoints
 62
     0
100
AcDbPoint
 10
1639.628269368107
 20
532.0832989535016
 30
0.0
  0
ENDBLK
  5
2EE1C
330
2EE1A
100
AcDbEntity
  8
0
100
AcDbBlockEnd
  0
ENDSEC
  0
SECTION
  2
ENTITIES
  0
INSERT
  5
15497
330
17
100
AcDbEntity
  8
0
100
AcDbBlockReference
 66
     1
  2
dimstat2
 10
7723.001826654316
 20
1309.141213428434
 30
0.0
  0
ATTRIB
  5
15498
330
15497
100
AcDbEntity
  8
0
100
AcDbText
 10
7723.001826654316
 20
1309.141213428434
 30
0.0
 40
1.0
  1
(1.28 1.92 0 0 0 0 0 3.2 12 0 )
 41
0.7
100
AcDbAttribute
  2
DIMSIZ
 70
     1
280
     0
  0
SEQEND
  5
15499
330
15497
100
AcDbEntity
  8
0
  0
INSERT
  5
1549A
330
17
100
AcDbEntity
  8
0
100
AcDbBlockReference
 66
     1
  2
dimstat
 10
7723.001826654316
 20
1309.141213428434
 30
0.0
  0
ATTRIB
  5
1549B
330
1549A
100
AcDbEntity
  8
0
100
AcDbText
 10
7723.001826654316
 20
1310.141213428434
 30
0.0
 40
1.0
  1
1
 41
0.7
 51
15.0
100
AcDbAttribute
  2
DIMEXT
 70
     1
280
     0
  0
ATTRIB
  5
1549C
330
1549A
100
AcDbEntity
  8
0
100
AcDbText
 10
7723.001826654316
 20
1309.141213428434
 30
0.0
 40
1.0
  1
10 
 41
0.7
 51
15.0
100
AcDbAttribute
  2
DIMBAL
 70
     1
280
     0
  0
ATTRIB
  5
1549D
330
1549A
100
AcDbEntity
  8
0
100
AcDbText
 10
7723.965683778215
 20
1308.229563439422
 30
0.0
 40
1.0
  1
4 
 41
0.7
 51
15.0
 72
     1
 11
7724.509017111548
 21
1308.229563439422
 31
0.0
100
AcDbAttribute
  2
SYMSCL
 70
     1
280
     0
  0
SEQEND
  5
1549E
330
1549A
100
AcDbEntity
  8
0
  0
TEXT
  5
25323
330
17
100
AcDbEntity
  8
DIM
100
AcDbText
 10
315.415271603715
 20
4625.778830178542
 30
0.0
 40
96.0
  1
給湯専用角形３００Ｌ外形図』
 41
0.8
100
AcDbText
  0
TEXT
  5
29A1F
330
17
100
AcDbEntity
  8
DIMTEXT
100
AcDbText
 10
2401.704804917822
 20
4655.495049988084
 30
0.0
 40
48.0
  1
質量
 41
0.8
 72
     1
 11
2442.664804917822
 21
4679.495049988084
 31
0.0
100
AcDbText
 73
     2
  0
TEXT
  5
29A20
330
17
100
AcDbEntity
  8
DIMTEXT
100
AcDbText
 10
2371.87990068153
 20
4585.870384856189
 30
0.0
 40
48.0
  1
（kg）
 41
0.8
 72
     1
 11
2435.514186395816
 21
4609.870384856189
 31
0.0
100
AcDbText
 73
     2
  0
LINE
  5
29A22
330
17
100
AcDbEntity
  8
WAKU
100
AcDbLine
 10
2344.961482648954
 20
4558.204795273325
 30
0.0
 11
3344.961482648955
 21
4558.204795273322
 31
0.0
  0
LINE
  5
29A23
330
17
100
AcDbEntity
  8
WAKU
100
AcDbLine
 10
2344.961482648953
 20
4878.204795273322
 30
0.0
 11
2344.961482648954
 21
4558.204795273322
 31
0.0
  0
LINE
  5
29A24
330
17
100
AcDbEntity
  8
WAKU
100
AcDbLine
 10
2344.961482648954
 20
4718.204795273321
 30
0.0
 11
3344.961482648955
 21
4718.204795273321
 31
0.0
  0
LINE
  5
29A25
330
17
100
AcDbEntity
  8
WAKU
100
AcDbLine
 10
2544.961482648953
 20
4638.204795273321
 30
0.0
 11
3344.961482648955
 21
4638.204795273321
 31
0.0
  0
LINE
  5
29A26
330
17
100
AcDbEntity
  8
WAKU
100
AcDbLine
 10
2344.961482648953
 20
4798.204795273321
 30
0.0
 11
3344.961482648955
 21
4798.204795273321
 31
0.0
  0
TEXT
  5
29A27
330
17
100
AcDbEntity
  8
DIMTEXT
100
AcDbText
 10
2857.84719693467
 20
4814.204795273323
 30
0.0
 40
48.0
  1
YS30NBC1-J18
 41
0.8
 72
     1
 11
3069.961482648956
 21
4838.204795273323
 31
0.0
100
AcDbText
 73
     2
  0
LINE
  5
29A28
330
17
100
AcDbEntity
  8
WAKU
100
AcDbLine
 10
2794.961482648953
 20
4878.204795273322
 30
0.0
 11
2794.961482648953
 21
4558.204795273322
 31
0.0
  0
LINE
  5
29A29
330
17
100
AcDbEntity
  8
WAKU
100
AcDbLine
 10
2544.961482648953
 20
4718.204795273321
 30
0.0
 11
2544.961482648953
 21
4558.204795273325
 31
0.0
  0
TEXT
  5
29A2A
330
17
100
AcDbEntity
  8
DIMTEXT
100
AcDbText
 10
2502.241482648953
 20
4734.204795273321
 30
0.0
 40
48.0
  1
圧　力
 41
0.8
 72
     1
 11
2564.961482648953
 21
4758.204795273321
 31
0.0
100
AcDbText
 73
     2
  0
TEXT
  5
29A2B
330
17
100
AcDbEntity
  8
DIMTEXT
100
AcDbText
 10
2605.961482648953
 20
4654.204795273321
 30
0.0
 40
48.0
  1
本　体
 41
0.8
 72
     1
 11
2669.961482648953
 21
4678.204795273321
 31
0.0
100
AcDbText
 73
     2
  0
TEXT
  5
29A2C
330
17
100
AcDbEntity
  8
DIMTEXT
100
AcDbText
 10
2605.961482648953
 20
4574.204795273324
 30
0.0
 40
48.0
  1
満水時
 41
0.8
 72
     1
 11
2669.961482648953
 21
4598.204795273324
 31
0.0
100
AcDbText
 73
     2
  0
TEXT
  5
29A2D
330
17
100
AcDbEntity
  8
DIMTEXT
100
AcDbText
 10
2499.75067703479
 20
4819.108433687005
 30
0.0
 40
48.0
  1
品　番
 41
0.8
 72
     1
 11
2563.75067703479
 21
4843.108433687005
 31
0.0
100
AcDbText
 73
     2
  0
LINE
  5
29A2E
330
17
100
AcDbEntity
  8
WAKU
100
AcDbLine
 10
2794.961482648953
 20
4568.204795273321
 30
0.0
 11
2794.961482648953
 21
4558.204795273322
 31
0.0
  0
LINE
  5
29A2F
330
17
100
AcDbEntity
  8
WAKU
100
AcDbLine
 10
3344.961482648955
 20
4878.204795273322
 30
0.0
 11
3344.961482648955
 21
4558.204795273322
 31
0.0
  0
TEXT
  5
29A30
330
17
100
AcDbEntity
  8
DIMTEXT
100
AcDbText
 10
2940.196706977046
 20
4734.204795273321
 30
0.0
 40
48.0
  1
標準圧タイプ
 41
0.8
 72
     1
 11
3073.316706977045
 21
4758.204795273321
 31
0.0
100
AcDbText
 73
     2
  0
TEXT
  5
29A31
330
17
100
AcDbEntity
  8
DIMTEXT
100
AcDbText
 10
3023.945278405617
 20
4574.204795273328
 30
0.0
 40
48.0
  1
363
 41
0.8
 72
     1
 11
3073.316706977045
 21
4598.204795273328
 31
0.0
100
AcDbText
 73
     2
  0
TEXT
  5
29A32
330
17
100
AcDbEntity
  8
DIMTEXT
100
AcDbText
 10
3042.230992691331
 20
4654.204795273327
 30
0.0
 40
48.0
  1
63
 41
0.8
 72
     1
 11
3073.316706977045
 21
4678.204795273327
 31
0.0
100
AcDbText
 73
     2
  0
LINE
  5
2C13B
330
17
100
AcDbEntity
  8
0
100
AcDbLine
 10
2341.980185473576
 20
3388.524456379167
 30
0.0
 11
2931.380185473577
 21
3388.52445637896
 31
0.0
  0
CIRCLE
  5
2C13C
330
17
100
AcDbEntity
  8
0
100
AcDbCircle
 10
2433.180185473577
 20
3342.224456378988
 30
0.0
 40
16.0
  0
CIRCLE
  5
2C13D
330
17
100
AcDbEntity
  8
0
100
AcDbCircle
 10
2371.180185473576
 20
3342.224456378988
 30
0.0
 40
12.5
  0
CIRCLE
  5
2C13E
330
17
100
AcDbEntity
  8
0
100
AcDbCircle
 10
2542.680185473576
 20
3342.224456378988
 30
0.0
 40
12.5
  0
CIRCLE
  5
2C13F
330
17
100
AcDbEntity
  8
0
100
AcDbCircle
 10
2759.680185473576
 20
3342.224456378954
 30
0.0
 40
29.5
  0
LINE
  5
2C140
330
17
100
AcDbEntity
  8
CEN
100
AcDbLine
 10
2759.680185473576
 20
3381.724456378953
 30
0.0
 11
2759.680185473576
 21
3302.724456378953
 31
0.0
  0
LINE
  5
2C141
330
17
100
AcDbEntity
  8
CEN
100
AcDbLine
 10
2542.680185473576
 20
3364.724456378989
 30
0.0
 11
2542.680185473576
 21
3319.724456378988
 31
0.0
  0
LINE
  5
2C142
330
17
100
AcDbEntity
  8
CEN
100
AcDbLine
 10
2492.180185473576
 20
3381.724456378988
 30
0.0
 11
2492.180185473576
 21
3302.724456378988
 31
0.0
  0
LINE
  5
2C143
330
17
100
AcDbEntity
  8
CEN
100
AcDbLine
 10
2799.180185473577
 20
3342.224456378954
 30
0.0
 11
2348.680185473576
 21
3342.224456378988
 31
0.0
  0
LINE
  5
2C144
330
17
100
AcDbEntity
  8
CEN
100
AcDbLine
 10
2371.180185473576
 20
3364.724456378989
 30
0.0
 11
2371.180185473576
 21
3319.724456378988
 31
0.0
  0
LINE
  5
2C145
330
17
100
AcDbEntity
  8
HID
100
AcDbLine
 10
2674.18018547358
 20
3834.174456379063
 30
0.0
 11
2599.18018547358
 21
3834.174456379063
 31
0.0
  0
LINE
  5
2C146
330
17
100
AcDbEntity
  8
HID
100
AcDbLine
 10
2599.18018547358
 20
3929.174456379063
 30
0.0
 11
2674.083184117444
 21
3929.174456379063
 31
0.0
  0
LINE
  5
2C147
330
17
100
AcDbEntity
  8
HID
100
AcDbLine
 10
2599.18018547358
 20
3834.174456379063
 30
0.0
 11
2599.18018547358
 21
3929.174456379063
 31
0.0
  0
LINE
  5
2C148
330
17
100
AcDbEntity
  8
HID
100
AcDbLine
 10
2674.18018547358
 20
3834.174456379063
 30
0.0
 11
2674.18018547358
 21
3929.174456379063
 31
0.0
  0
LINE
  5
2C149
330
17
100
AcDbEntity
  8
HID
100
AcDbLine
 10
2458.842418814507
 20
3486.048503737143
 30
0.0
 11
2421.390919492574
 21
3550.91640338236
 31
0.0
  0
LINE
  5
2C14A
330
17
100
AcDbEntity
  8
HID
100
AcDbLine
 10
2376.570005454987
 20
3438.548503737142
 30
0.0
 11
2458.842418814507
 21
3486.048503737143
 31
0.0
  0
LINE
  5
2C14B
330
17
100
AcDbEntity
  8
HID
100
AcDbLine
 10
2376.570005454987
 20
3438.548503737142
 30
0.0
 11
2339.070005454985
 21
3503.500409020975
 31
0.0
  0
LINE
  5
2C14C
330
17
100
AcDbEntity
  8
HID
100
AcDbLine
 10
2339.070005454985
 20
3503.500409020975
 30
0.0
 11
2421.342418814505
 21
3551.000409020975
 31
0.0
  0
LINE
  5
2C14E
330
17
100
AcDbEntity
  8
0
100
AcDbLine
 10
2938.68018547358
 20
3932.174456379063
 30
0.0
 11
2938.68018547358
 21
3300.174456379063
 31
0.0
  0
ARC
  5
2C150
330
17
100
AcDbEntity
  8
0
100
AcDbCircle
 10
2932.080185473582
 20
3932.124456379065
 30
0.0
 40
6.049999999999998
100
AcDbArc
 50
1.397596628218163
 51
90.0
  0
LINE
  5
2C152
330
17
100
AcDbEntity
  8
0
100
AcDbLine
 10
2334.680185473578
 20
3932.174456379063
 30
0.0
 11
2334.680185473578
 21
3300.174456379063
 31
0.0
  0
LINE
  5
2C154
330
17
100
AcDbEntity
  8
0
100
AcDbLine
 10
2341.280185473577
 20
3294.174456379063
 30
0.0
 11
2932.080185473582
 21
3294.174456379063
 31
0.0
  0
LINE
  5
2C155
330
17
100
AcDbEntity
  8
CEN
100
AcDbLine
 10
2636.680185473578
 20
3973.783608577174
 30
0.0
 11
2636.680185473578
 21
3264.892216328096
 31
0.0
  0
LINE
  5
2C157
330
17
100
AcDbEntity
  8
0
100
AcDbLine
 10
2341.280185473577
 20
3938.174456379063
 30
0.0
 11
2932.080185473582
 21
3938.174456379063
 31
0.0
  0
CIRCLE
  5
2C158
330
17
100
AcDbEntity
  8
Defpoints
100
AcDbCircle
 10
2591.680185473577
 20
3914.174456379063
 30
0.0
 40
2.0
  0
CIRCLE
  5
2C159
330
17
100
AcDbEntity
  8
Defpoints
100
AcDbCircle
 10
2681.680185473577
 20
3914.174456379063
 30
0.0
 40
2.0
  0
CIRCLE
  5
2C15A
330
17
100
AcDbEntity
  8
Defpoints
100
AcDbCircle
 10
2636.680185473577
 20
3894.174456379063
 30
0.0
 40
2.0
  0
LINE
  5
2C15B
330
17
100
AcDbEntity
  8
0
100
AcDbLine
 10
2938.130185473581
 20
3932.174456379063
 30
0.0
 11
2938.68018547358
 21
3932.174456379063
 31
0.0
  0
ARC
  5
2C15E
330
17
100
AcDbEntity
  8
0
100
AcDbCircle
 10
2932.080185473582
 20
3300.224456379063
 30
0.0
 40
6.049999999999998
100
AcDbArc
 50
270.0
 51
358.6024033717819
  0
LINE
  5
2C15F
330
17
100
AcDbEntity
  8
0
100
AcDbLine
 10
2938.130185473581
 20
3300.174456379063
 30
0.0
 11
2938.68018547358
 21
3300.174456379063
 31
0.0
  0
ARC
  5
2C162
330
17
100
AcDbEntity
  8
0
100
AcDbCircle
 10
2341.280185473577
 20
3932.124456379065
 30
0.0
 40
6.049999999999998
100
AcDbArc
 50
90.0
 51
178.6024033717818
  0
LINE
  5
2C163
330
17
100
AcDbEntity
  8
0
100
AcDbLine
 10
2335.230185473577
 20
3932.174456379063
 30
0.0
 11
2334.680185473578
 21
3932.174456379063
 31
0.0
  0
LINE
  5
2C164
330
17
100
AcDbEntity
  8
0
100
AcDbLine
 10
2335.230185473577
 20
3932.174456379063
 30
0.0
 11
2335.230795320385
 21
3932.174456379063
 31
0.0
  0
ARC
  5
2C166
330
17
100
AcDbEntity
  8
0
100
AcDbCircle
 10
2341.280185473577
 20
3300.224456379063
 30
0.0
 40
6.049999999999998
100
AcDbArc
 50
181.3975966282181
 51
270.0
  0
LINE
  5
2C167
330
17
100
AcDbEntity
  8
0
100
AcDbLine
 10
2335.230185473577
 20
3300.174456379063
 30
0.0
 11
2334.680185473578
 21
3300.174456379063
 31
0.0
  0
CIRCLE
  5
2C169
330
17
100
AcDbEntity
  8
HID
100
AcDbCircle
 10
2636.68018547358
 20
3859.174456379063
 30
0.0
 40
8.5
  0
CIRCLE
  5
2C16A
330
17
100
AcDbEntity
  8
HID
100
AcDbCircle
 10
2379.470640549596
 20
3483.524456379058
 30
0.0
 40
8.5
  0
ARC
  5
2C16B
330
17
100
AcDbEntity
  8
HID
100
AcDbCircle
 10
2422.723410060749
 20
3508.608462017673
 30
0.0
 40
6.999999999999998
100
AcDbArc
 50
119.9999999999964
 51
299.9999999999964
  0
LINE
  5
2C16C
330
17
100
AcDbEntity
  8
HID
100
AcDbLine
 10
2439.213791117516
 20
3510.046284191183
 30
0.0
 11
2446.043918136438
 21
3508.21615717226
 31
0.0
  0
LINE
  5
2C16D
330
17
100
AcDbEntity
  8
HID
100
AcDbLine
 10
2426.223410060751
 20
3502.546284191183
 30
0.0
 11
2439.213791117516
 21
3510.046284191183
 31
0.0
  0
LINE
  5
2C16E
330
17
100
AcDbEntity
  8
HID
100
AcDbLine
 10
2432.213791117515
 20
3522.170639844164
 30
0.0
 11
2434.043918136438
 21
3529.000766863087
 31
0.0
  0
LINE
  5
2C16F
330
17
100
AcDbEntity
  8
HID
100
AcDbLine
 10
2419.223410060749
 20
3514.670639844164
 30
0.0
 11
2432.213791117515
 21
3522.170639844164
 31
0.0
  0
CIRCLE
  5
2C170
330
17
100
AcDbEntity
  8
0
100
AcDbCircle
 10
2816.680185473575
 20
3349.754456378981
 30
0.0
 40
16.0
  0
ARC
  5
2C171
330
17
100
AcDbEntity
  8
HID
100
AcDbCircle
 10
2636.68018547358
 20
3909.174456379063
 30
0.0
 40
7.0
100
AcDbArc
 50
180.0
 51
0.0
  0
LINE
  5
2C172
330
17
100
AcDbEntity
  8
HID
100
AcDbLine
 10
2629.68018547358
 20
3924.174456379063
 30
0.0
 11
2624.68018547358
 21
3929.174456379063
 31
0.0
  0
LINE
  5
2C173
330
17
100
AcDbEntity
  8
HID
100
AcDbLine
 10
2629.68018547358
 20
3909.174456379063
 30
0.0
 11
2629.68018547358
 21
3924.174456379063
 31
0.0
  0
LINE
  5
2C174
330
17
100
AcDbEntity
  8
HID
100
AcDbLine
 10
2643.68018547358
 20
3924.174456379063
 30
0.0
 11
2648.68018547358
 21
3929.174456379063
 31
0.0
  0
LINE
  5
2C175
330
17
100
AcDbEntity
  8
HID
100
AcDbLine
 10
2643.68018547358
 20
3909.174456379063
 30
0.0
 11
2643.68018547358
 21
3924.174456379063
 31
0.0
  0
LINE
  5
2C176
330
17
100
AcDbEntity
  8
HID
100
AcDbLine
 10
2814.517952132651
 20
3486.048503737143
 30
0.0
 11
2851.969451454583
 21
3550.91640338236
 31
0.0
  0
LINE
  5
2C177
330
17
100
AcDbEntity
  8
HID
100
AcDbLine
 10
2896.790365492172
 20
3438.548503737142
 30
0.0
 11
2814.517952132651
 21
3486.048503737143
 31
0.0
  0
LINE
  5
2C178
330
17
100
AcDbEntity
  8
HID
100
AcDbLine
 10
2896.790365492172
 20
3438.548503737142
 30
0.0
 11
2934.290365492172
 21
3503.500409020975
 31
0.0
  0
LINE
  5
2C179
330
17
100
AcDbEntity
  8
HID
100
AcDbLine
 10
2934.290365492172
 20
3503.500409020975
 30
0.0
 11
2852.017952132651
 21
3551.000409020975
 31
0.0
  0
CIRCLE
  5
2C17A
330
17
100
AcDbEntity
  8
HID
100
AcDbCircle
 10
2893.889730397563
 20
3483.524456379058
 30
0.0
 40
8.5
  0
ARC
  5
2C17B
330
17
100
AcDbEntity
  8
HID
100
AcDbCircle
 10
2850.636960886407
 20
3508.608462017673
 30
0.0
 40
6.999999999999998
100
AcDbArc
 50
240.0000000000036
 51
60.00000000000361
  0
LINE
  5
2C17C
330
17
100
AcDbEntity
  8
HID
100
AcDbLine
 10
2834.146579829641
 20
3510.046284191183
 30
0.0
 11
2827.316452810719
 21
3508.21615717226
 31
0.0
  0
LINE
  5
2C17D
330
17
100
AcDbEntity
  8
HID
100
AcDbLine
 10
2847.136960886408
 20
3502.546284191183
 30
0.0
 11
2834.146579829641
 21
3510.046284191183
 31
0.0
  0
LINE
  5
2C17E
330
17
100
AcDbEntity
  8
HID
100
AcDbLine
 10
2841.146579829641
 20
3522.170639844164
 30
0.0
 11
2839.316452810719
 21
3529.000766863087
 31
0.0
  0
LINE
  5
2C17F
330
17
100
AcDbEntity
  8
HID
100
AcDbLine
 10
2854.136960886408
 20
3514.670639844164
 30
0.0
 11
2841.146579829641
 21
3522.170639844164
 31
0.0
  0
CIRCLE
  5
2C180
330
17
100
AcDbEntity
  8
0
100
AcDbCircle
 10
2492.180185473576
 20
3342.224456378977
 30
0.0
 40
29.5
  0
DIMENSION
  5
2C181
330
17
100
AcDbEntity
  8
DIM
100
AcDbDimension
  2
*D6
 10
2636.680185473578
 20
3149.603883478846
 30
0.0
 11
2589.680185473577
 21
3187.853883478846
 31
0.0
 70
    32
 71
     5
 42
94.00000000000181
 73
     0
 74
     0
 75
     0
  3
STANDARD
100
AcDbAlignedDimension
 13
2542.680185473576
 23
3319.724456378988
 33
0.0
 14
2636.680185473578
 24
3264.892216328096
 34
0.0
100
AcDbRotatedDimension
1001
ACAD
1000
DSTYLE
1002
{
1070
    41
1040
3.0
1070
    42
1040
2.0
1070
    43
1040
10.0
1070
    44
1040
2.0
1070
    73
1070
     0
1070
    74
1070
     0
1070
    77
1070
     1
1070
    78
1070
     8
1070
    79
1070
     2
1070
   140
1040
2.5
1070
   147
1040
0.9999999999999996
1070
   172
1070
     1
1070
   179
1070
     4
1070
   271
1070
     0
1070
   272
1070
     2
1070
   341
1005
4A
1070
   342
1005
4A
1002
}
  0
DIMENSION
  5
2C182
330
17
100
AcDbEntity
  8
DIM
100
AcDbDimension
  2
*D7
 10
2492.180185473576
 20
2994.074404829309
 30
0.0
 11
2564.430185473578
 21
2994.074404829309
 31
0.0
 70
   160
 71
     5
 42
144.5000000000018
 73
     0
 74
     0
 75
     0
  3
STANDARD
100
AcDbAlignedDimension
 13
2636.680185473578
 23
3264.892216328096
 33
0.0
 14
2492.180185473576
 24
3302.724456378988
 34
0.0
100
AcDbRotatedDimension
1001
ACAD
1000
DSTYLE
1002
{
1070
    41
1040
3.0
1070
    42
1040
2.0
1070
    43
1040
10.0
1070
    44
1040
2.0
1070
    73
1070
     0
1070
    74
1070
     0
1070
    77
1070
     1
1070
    78
1070
     8
1070
    79
1070
     2
1070
   140
1040
2.5
1070
   147
1040
0.9999999999999996
1070
   172
1070
     1
1070
   179
1070
     4
1070
   271
1070
     2
1070
   272
1070
     2
1070
   341
1005
4A
1070
   342
1005
4A
1002
}
  0
DIMENSION
  5
2C183
330
17
100
AcDbEntity
  8
DIM
100
AcDbDimension
  2
*D8
 10
2759.680185473576
 20
3149.603883478846
 30
0.0
 11
2698.180185473578
 21
3187.853883478846
 31
0.0
 70
    32
 71
     5
 42
122.9999999999981
 73
     0
 74
     0
 75
     0
  3
STANDARD
100
AcDbAlignedDimension
 13
2636.680185473578
 23
3264.892216328096
 33
0.0
 14
2759.680185473576
 24
3302.724456378953
 34
0.0
100
AcDbRotatedDimension
1001
ACAD
1000
DSTYLE
1002
{
1070
    41
1040
3.0
1070
    42
1040
2.0
1070
    43
1040
10.0
1070
    44
1040
2.0
1070
    73
1070
     0
1070
    74
1070
     0
1070
    77
1070
     1
1070
    78
1070
     8
1070
    79
1070
     2
1070
   140
1040
2.5
1070
   147
1040
0.9999999999999996
1070
   172
1070
     1
1070
   179
1070
     4
1070
   271
1070
     0
1070
   272
1070
     2
1070
   341
1005
4A
1070
   342
1005
4A
1002
}
  0
LINE
  5
2C184
330
17
100
AcDbEntity
  8
CEN
100
AcDbLine
 10
2433.180185473577
 20
3364.724456379004
 30
0.0
 11
2433.180185473577
 21
3319.724456379004
 31
0.0
  0
LINE
  5
2C185
330
17
100
AcDbEntity
  8
CEN
100
AcDbLine
 10
2816.680185473575
 20
3372.254456378996
 30
0.0
 11
2816.680185473575
 21
3327.254456378996
 31
0.0
  0
LINE
  5
2C186
330
17
100
AcDbEntity
  8
CEN
100
AcDbLine
 10
2839.180185473589
 20
3349.754456378981
 30
0.0
 11
2794.180185473589
 21
3349.754456378981
 31
0.0
  0
DIMENSION
  5
2C187
330
17
100
AcDbEntity
  8
DIM
100
AcDbDimension
  2
*D9
 10
2816.680185473575
 20
2994.074404829309
 30
0.0
 11
2726.680185473576
 21
3032.32440482931
 31
0.0
 70
    32
 71
     5
 42
179.9999999999963
 73
     0
 74
     0
 75
     0
  3
STANDARD
100
AcDbAlignedDimension
 13
2636.680185473578
 23
3264.892216328096
 33
0.0
 14
2816.680185473575
 24
3327.254456378996
 34
0.0
100
AcDbRotatedDimension
1001
ACAD
1000
DSTYLE
1002
{
1070
    41
1040
3.0
1070
    42
1040
2.0
1070
    43
1040
10.0
1070
    44
1040
2.0
1070
    73
1070
     0
1070
    74
1070
     0
1070
    77
1070
     1
1070
    78
1070
     8
1070
    79
1070
     2
1070
   140
1040
2.5
1070
   147
1040
0.9999999999999996
1070
   172
1070
     1
1070
   179
1070
     4
1070
   271
1070
     0
1070
   272
1070
     2
1070
   341
1005
4A
1070
   342
1005
4A
1002
}
  0
DIMENSION
  5
2C188
330
17
100
AcDbEntity
  8
DIM
100
AcDbDimension
  2
*D10
 10
2938.68018547358
 20
2994.074404829309
 30
0.0
 11
3140.36818547358
 21
2994.074404829309
 31
0.0
 70
   160
  1
（<>）
 71
     5
 42
122.0000000000054
 73
     0
 74
     0
 75
     0
  3
STANDARD
100
AcDbAlignedDimension
 13
2816.680185473575
 23
3327.254456378996
 33
0.0
 14
2938.68018547358
 24
3300.174456379063
 34
0.0
100
AcDbRotatedDimension
1001
ACAD
1000
DSTYLE
1002
{
1070
    41
1040
3.0
1070
    42
1040
2.0
1070
    43
1040
10.0
1070
    44
1040
2.0
1070
    73
1070
     0
1070
    74
1070
     0
1070
    77
1070
     1
1070
    78
1070
     8
1070
    79
1070
     2
1070
   140
1040
2.5
1070
   147
1040
0.9999999999999996
1070
   172
1070
     1
1070
   179
1070
     4
1070
   271
1070
     0
1070
   272
1070
     2
1070
   341
1005
4A
1070
   342
1005
4A
1002
}
  0
DIMENSION
  5
2C189
330
17
100
AcDbEntity
  8
DIM
100
AcDbDimension
  2
*D11
 10
2433.180185473577
 20
2868.278058025107
 30
0.0
 11
2534.930185473577
 21
2906.528058025107
 31
0.0
 70
    32
 71
     5
 42
203.5000000000018
 73
     0
 74
     0
 75
     0
  3
STANDARD
100
AcDbAlignedDimension
 13
2636.680185473578
 23
3264.892216328096
 33
0.0
 14
2433.180185473577
 24
3319.724456379004
 34
0.0
100
AcDbRotatedDimension
1001
ACAD
1000
DSTYLE
1002
{
1070
    41
1040
3.0
1070
    42
1040
2.0
1070
    43
1040
10.0
1070
    44
1040
2.0
1070
    73
1070
     0
1070
    74
1070
     0
1070
    77
1070
     1
1070
    78
1070
     8
1070
    79
1070
     2
1070
   140
1040
2.5
1070
   147
1040
0.9999999999999996
1070
   172
1070
     1
1070
   179
1070
     4
1070
   271
1070
     2
1070
   272
1070
     2
1070
   341
1005
4A
1070
   342
1005
4A
1002
}
  0
DIMENSION
  5
2C18A
330
17
100
AcDbEntity
  8
DIM
100
AcDbDimension
  2
*D12
 10
2371.180185473576
 20
2731.533874581375
 30
0.0
 11
2503.930185473577
 21
2769.783874581374
 31
0.0
 70
    32
 71
     5
 42
265.5000000000018
 73
     0
 74
     0
 75
     0
  3
STANDARD
100
AcDbAlignedDimension
 13
2636.680185473578
 23
3264.892216328096
 33
0.0
 14
2371.180185473576
 24
3319.724456378988
 34
0.0
100
AcDbRotatedDimension
1001
ACAD
1000
DSTYLE
1002
{
1070
    41
1040
3.0
1070
    42
1040
2.0
1070
    43
1040
10.0
1070
    44
1040
2.0
1070
    73
1070
     0
1070
    74
1070
     0
1070
    77
1070
     1
1070
    78
1070
     8
1070
    79
1070
     2
1070
   140
1040
2.5
1070
   147
1040
0.9999999999999996
1070
   172
1070
     1
1070
   179
1070
     4
1070
   271
1070
     2
1070
   272
1070
     2
1070
   341
1005
4A
1070
   342
1005
4A
1002
}
  0
DIMENSION
  5
2C18B
330
17
100
AcDbEntity
  8
DIM
100
AcDbDimension
  2
*D13
 10
2334.680185473578
 20
2731.533874581375
 30
0.0
 11
2139.746852140245
 21
2769.783874581374
 31
0.0
 70
    32
  1
（<>）
 71
     5
 42
36.49999999999818
 73
     0
 74
     0
 75
     0
  3
STANDARD
100
AcDbAlignedDimension
 13
2371.180185473576
 23
3319.724456378988
 33
0.0
 14
2334.680185473578
 24
3300.174456379063
 34
0.0
100
AcDbRotatedDimension
1001
ACAD
1000
DSTYLE
1002
{
1070
    41
1040
3.0
1070
    42
1040
2.0
1070
    43
1040
10.0
1070
    44
1040
2.0
1070
    73
1070
     0
1070
    74
1070
     0
1070
    77
1070
     1
1070
    78
1070
     8
1070
    79
1070
     2
1070
   140
1040
2.5
1070
   147
1040
0.9999999999999996
1070
   172
1070
     1
1070
   179
1070
     4
1070
   271
1070
     2
1070
   272
1070
     2
1070
   341
1005
4A
1070
   342
1005
4A
1002
}
  0
DIMENSION
  5
2C18C
330
17
100
AcDbEntity
  8
DIM
100
AcDbDimension
  2
*D14
 10
2026.701491412143
 20
3483.524456379058
 30
0.0
 11
1988.451491412143
 21
3696.349456379061
 31
0.0
 70
    32
 71
     5
 42
425.6500000000049
 73
     0
 74
     0
 75
     0
  3
STANDARD
100
AcDbAlignedDimension
 13
2636.68018547358
 23
3909.174456379063
 33
0.0
 14
2379.470640549596
 24
3483.524456379058
 34
0.0
 50
90.0
100
AcDbRotatedDimension
1001
ACAD
1000
DSTYLE
1002
{
1070
    41
1040
3.0
1070
    42
1040
2.0
1070
    43
1040
10.0
1070
    44
1040
2.0
1070
    73
1070
     0
1070
    74
1070
     0
1070
    77
1070
     1
1070
    78
1070
     8
1070
    79
1070
     2
1070
   140
1040
2.5
1070
   147
1040
0.9999999999999996
1070
   172
1070
     1
1070
   179
1070
     4
1070
   271
1070
     0
1070
   272
1070
     2
1070
   341
1005
4A
1070
   342
1005
4A
1002
}
  0
DIMENSION
  5
2C18D
330
17
100
AcDbEntity
  8
DIM
100
AcDbDimension
  2
*D15
 10
2026.701491412145
 20
3938.174456379063
 30
0.0
 11
1988.451491412145
 21
4083.888742093349
 31
0.0
 70
    32
 71
     5
 42
29.0
 73
     0
 74
     0
 75
     0
  3
STANDARD
100
AcDbAlignedDimension
 13
2636.680185473578
 23
3909.174456379063
 33
0.0
 14
2341.280185473577
 24
3938.174456379063
 34
0.0
 50
90.0
100
AcDbRotatedDimension
1001
ACAD
1000
DSTYLE
1002
{
1070
    41
1040
3.0
1070
    42
1040
2.0
1070
    43
1040
10.0
1070
    44
1040
2.0
1070
    73
1070
     0
1070
    74
1070
     0
1070
    77
1070
     1
1070
    78
1070
     8
1070
    79
1070
     2
1070
   140
1040
2.5
1070
   147
1040
0.9999999999999996
1070
   172
1070
     1
1070
   179
1070
     4
1070
   271
1070
     0
1070
   272
1070
     2
1070
   341
1005
4A
1070
   342
1005
4A
1002
}
  0
DIMENSION
  5
2C18E
330
17
100
AcDbEntity
  8
DIM
100
AcDbDimension
  2
*D16
 10
2379.470640549596
 20
4088.058455226553
 30
0.0
 11
2636.680185473579
 21
4126.308455226553
 31
0.0
 70
    32
 71
     5
 42
514.4190898479663
 73
     0
 74
     0
 75
     0
  3
STANDARD
100
AcDbAlignedDimension
 13
2893.889730397563
 23
3483.524456379058
 33
0.0
 14
2379.470640549596
 24
3483.524456379058
 34
0.0
100
AcDbRotatedDimension
1001
ACAD
1000
DSTYLE
1002
{
1070
    41
1040
3.0
1070
    42
1040
2.0
1070
    43
1040
10.0
1070
    44
1040
2.0
1070
    73
1070
     0
1070
    74
1070
     0
1070
    77
1070
     1
1070
    78
1070
     8
1070
    79
1070
     2
1070
   140
1040
2.5
1070
   147
1040
0.9999999999999996
1070
   172
1070
     1
1070
   179
1070
     4
1070
   271
1070
     0
1070
   272
1070
     2
1070
   341
1005
4A
1070
   342
1005
4A
1002
}
  0
DIMENSION
  5
2C18F
330
17
100
AcDbEntity
  8
DIM
100
AcDbDimension
  2
*D17
 10
2643.68018547358
 20
4013.391788559886
 30
0.0
 11
2787.775423568818
 21
4051.641788559886
 31
0.0
 70
    32
 71
     5
 42
14.0
 73
     0
 74
     0
 75
     0
  3
STANDARD
100
AcDbAlignedDimension
 13
2629.68018547358
 23
3924.174456379063
 33
0.0
 14
2643.68018547358
 24
3924.174456379063
 34
0.0
100
AcDbRotatedDimension
1001
ACAD
1000
DSTYLE
1002
{
1070
    41
1040
3.0
1070
    42
1040
2.0
1070
    43
1040
10.0
1070
    44
1040
2.0
1070
    73
1070
     0
1070
    74
1070
     0
1070
    77
1070
     1
1070
    78
1070
     8
1070
    79
1070
     2
1070
   140
1040
2.5
1070
   147
1040
0.9999999999999996
1070
   172
1070
     1
1070
   179
1070
     4
1070
   271
1070
     0
1070
   272
1070
     2
1070
   341
1005
4A
1070
   342
1005
4A
1002
}
  0
DIMENSION
  5
2C190
330
17
100
AcDbEntity
  8
DIM
100
AcDbDimension
  2
*D18
 10
3161.685116295801
 20
3349.754456378981
 30
0.0
 11
3123.435116295801
 21
3643.964456379023
 31
0.0
 70
    32
 71
     5
 42
588.4200000000819
 73
     0
 74
     0
 75
     0
  3
STANDARD
100
AcDbAlignedDimension
 13
2932.080185473582
 23
3938.174456379063
 33
0.0
 14
2839.180185473589
 24
3349.754456378981
 34
0.0
 50
90.0
100
AcDbRotatedDimension
1001
ACAD
1000
DSTYLE
1002
{
1070
    41
1040
3.0
1070
    42
1040
2.0
1070
    43
1040
10.0
1070
    44
1040
2.0
1070
    73
1070
     0
1070
    74
1070
     0
1070
    77
1070
     1
1070
    78
1070
     8
1070
    79
1070
     2
1070
   140
1040
2.5
1070
   147
1040
0.9999999999999996
1070
   172
1070
     1
1070
   179
1070
     4
1070
   271
1070
     0
1070
   272
1070
     2
1070
   341
1005
4A
1070
   342
1005
4A
1002
}
  0
DIMENSION
  5
2C191
330
17
100
AcDbEntity
  8
DIM
100
AcDbDimension
  2
*D19
 10
3324.655994413122
 20
3342.224456378954
 30
0.0
 11
3286.405994413122
 21
3640.199456379009
 31
0.0
 70
    32
 71
     5
 42
595.9500000001098
 73
     0
 74
     0
 75
     0
  3
STANDARD
100
AcDbAlignedDimension
 13
2932.080185473582
 23
3938.174456379063
 33
0.0
 14
2799.180185473577
 24
3342.224456378954
 34
0.0
 50
90.0
100
AcDbRotatedDimension
1001
ACAD
1000
DSTYLE
1002
{
1070
    41
1040
3.0
1070
    42
1040
2.0
1070
    43
1040
10.0
1070
    44
1040
2.0
1070
    73
1070
     0
1070
    74
1070
     0
1070
    77
1070
     1
1070
    78
1070
     8
1070
    79
1070
     2
1070
   140
1040
2.5
1070
   147
1040
0.9999999999999996
1070
   172
1070
     1
1070
   179
1070
     4
1070
   271
1070
     0
1070
   272
1070
     2
1070
   341
1005
4A
1070
   342
1005
4A
1002
}
  0
DIMENSION
  5
2C192
330
17
100
AcDbEntity
  8
DIM
100
AcDbDimension
  2
*D20
 10
2026.701491412142
 20
3294.174456379063
 30
0.0
 11
1988.451491412141
 21
3388.849456379061
 31
0.0
 70
    32
  1
（<>）
 71
     5
 42
189.3499999999949
 73
     0
 74
     0
 75
     0
  3
STANDARD
100
AcDbAlignedDimension
 13
2379.470640549596
 23
3483.524456379058
 33
0.0
 14
2341.280185473577
 24
3294.174456379063
 34
0.0
 50
90.0
100
AcDbRotatedDimension
1001
ACAD
1000
DSTYLE
1002
{
1070
    41
1040
3.0
1070
    42
1040
2.0
1070
    43
1040
10.0
1070
    44
1040
2.0
1070
    73
1070
     0
1070
    74
1070
     0
1070
    77
1070
     1
1070
    78
1070
     8
1070
    79
1070
     2
1070
   140
1040
2.5
1070
   147
1040
0.9999999999999996
1070
   172
1070
     1
1070
   179
1070
     4
1070
   271
1070
     0
1070
   272
1070
     2
1070
   341
1005
4A
1070
   342
1005
4A
1002
}
  0
LEADER
  5
2C193
330
17
100
AcDbEntity
  8
DIM
100
AcDbLeader
  3
STANDARD
 76
     2
 10
2361.193896424552
 20
3334.706209839447
 30
0.0
 10
2162.014539579433
 20
3184.752658225082
 30
0.0
1001
SSE_BALOON
1005
2B8C0
1001
ACAD
1000
DSTYLE
1002
{
1070
    41
1040
3.0
1070
    42
1040
2.0
1070
    43
1040
10.0
1070
    44
1040
2.0
1070
    73
1070
     0
1070
    74
1070
     0
1070
    77
1070
     1
1070
    78
1070
     8
1070
    79
1070
     2
1070
   140
1040
3.2
1070
   147
1040
0.9999999999999996
1070
   172
1070
     1
1070
   179
1070
     4
1070
   271
1070
     2
1070
   272
1070
     2
1070
   341
1005
4A
1070
   342
1005
4A
1002
}
  0
INSERT
  5
2C194
330
17
100
AcDbEntity
  8
DIM
100
AcDbBlockReference
 66
     1
  2
SSE_BALOON1
 10
2127.928006292097
 20
3159.090376703446
 30
0.0
 41
42.66666666666606
 42
42.66666666666674
 43
42.66666666666665
1001
SSE_BALOON
1005
2B8BF
  0
ATTRIB
  5
2C195
330
2C194
100
AcDbEntity
  8
DIMTEXT
100
AcDbText
 10
2122.848641212732
 20
3137.757043370113
 30
0.0
 40
42.66666666666665
  1
1
 72
     4
 11
2127.928006292097
 21
3159.090376703446
 31
0.0
100
AcDbAttribute
  2
BAL_NUM
 70
     0
280
     0
  0
SEQEND
  5
2C196
330
2C194
100
AcDbEntity
  8
DIM
  0
LEADER
  5
2C197
330
17
100
AcDbEntity
  8
DIM
100
AcDbLeader
  3
STANDARD
 76
     2
 10
2422.061126097456
 20
3330.719391468684
 30
0.0
 10
2272.895024701951
 20
3188.529448024099
 30
0.0
1001
SSE_BALOON
1005
2B8C4
1001
ACAD
1000
DSTYLE
1002
{
1070
    41
1040
3.0
1070
    42
1040
2.0
1070
    43
1040
10.0
1070
    44
1040
2.0
1070
    73
1070
     0
1070
    74
1070
     0
1070
    77
1070
     1
1070
    78
1070
     8
1070
    79
1070
     2
1070
   140
1040
3.2
1070
   147
1040
0.9999999999999996
1070
   172
1070
     1
1070
   179
1070
     4
1070
   271
1070
     2
1070
   272
1070
     2
1070
   341
1005
4A
1070
   342
1005
4A
1002
}
  0
INSERT
  5
2C198
330
17
100
AcDbEntity
  8
DIM
100
AcDbBlockReference
 66
     1
  2
SSE_BALOON1
 10
2242.011606429001
 20
3159.090376703446
 30
0.0
 41
42.66666666666606
 42
42.66666666666674
 43
42.66666666666665
1001
SSE_BALOON
1005
2B8C3
  0
ATTRIB
  5
2C199
330
2C198
100
AcDbEntity
  8
DIMTEXT
100
AcDbText
 10
2227.789384206779
 20
3137.757043370113
 30
0.0
 40
42.66666666666665
  1
2
 72
     4
 11
2242.011606429001
 21
3159.090376703446
 31
0.0
100
AcDbAttribute
  2
BAL_NUM
 70
     0
280
     0
  0
SEQEND
  5
2C19A
330
2C198
100
AcDbEntity
  8
DIM
  0
LEADER
  5
2C19B
330
17
100
AcDbEntity
  8
DIM
100
AcDbLeader
  3
STANDARD
 76
     2
 10
2545.536171088408
 20
3354.393817338705
 30
0.0
 10
2580.219963000478
 20
3491.525380653393
 30
0.0
1001
SSE_BALOON
1005
2B8C8
1001
ACAD
1000
DSTYLE
1002
{
1070
    41
1040
3.0
1070
    42
1040
2.0
1070
    43
1040
10.0
1070
    44
1040
2.0
1070
    73
1070
     0
1070
    74
1070
     0
1070
    77
1070
     1
1070
    78
1070
     8
1070
    79
1070
     2
1070
   140
1040
3.2
1070
   147
1040
0.9999999999999996
1070
   172
1070
     1
1070
   179
1070
     4
1070
   271
1070
     2
1070
   272
1070
     2
1070
   341
1005
4A
1070
   342
1005
4A
1002
}
  0
INSERT
  5
2C19C
330
17
100
AcDbEntity
  8
DIM
100
AcDbBlockReference
 66
     1
  2
SSE_BALOON1
 10
2590.681924326014
 20
3532.889517410582
 30
0.0
 41
42.66666666666606
 42
42.66666666666674
 43
42.66666666666665
1001
SSE_BALOON
1005
2B8C7
  0
ATTRIB
  5
2C19D
330
2C19C
100
AcDbEntity
  8
DIMTEXT
100
AcDbText
 10
2576.459702103792
 20
3511.556184077249
 30
0.0
 40
42.66666666666665
  1
3
 72
     4
 11
2590.681924326014
 21
3532.889517410582
 31
0.0
100
AcDbAttribute
  2
BAL_NUM
 70
     0
280
     0
  0
SEQEND
  5
2C19E
330
2C19C
100
AcDbEntity
  8
DIM
  0
LEADER
  5
2C19F
330
17
100
AcDbEntity
  8
DIM
100
AcDbLeader
  3
STANDARD
 76
     2
 10
2748.819624393729
 20
3369.652511596758
 30
0.0
 10
2705.607297219298
 20
3492.635434228918
 30
0.0
1001
SSE_BALOON
1005
2B8CC
1001
ACAD
1000
DSTYLE
1002
{
1070
    41
1040
3.0
1070
    42
1040
2.0
1070
    43
1040
10.0
1070
    44
1040
2.0
1070
    73
1070
     0
1070
    74
1070
     0
1070
    77
1070
     1
1070
    78
1070
     8
1070
    79
1070
     2
1070
   140
1040
3.2
1070
   147
1040
0.9999999999999996
1070
   172
1070
     1
1070
   179
1070
     4
1070
   271
1070
     2
1070
   272
1070
     2
1070
   341
1005
4A
1070
   342
1005
4A
1002
}
  0
INSERT
  5
2C1A0
330
17
100
AcDbEntity
  8
DIM
100
AcDbBlockReference
 66
     1
  2
SSE_BALOON1
 10
2691.463279697813
 20
3532.889517410582
 30
0.0
 41
42.66666666666606
 42
42.66666666666674
 43
42.66666666666665
1001
SSE_BALOON
1005
2B8CB
  0
ATTRIB
  5
2C1A1
330
2C1A0
100
AcDbEntity
  8
DIMTEXT
100
AcDbText
 10
2676.225184459718
 20
3511.556184077249
 30
0.0
 40
42.66666666666665
  1
4
 72
     4
 11
2691.463279697813
 21
3532.889517410582
 31
0.0
100
AcDbAttribute
  2
BAL_NUM
 70
     0
280
     0
  0
SEQEND
  5
2C1A2
330
2C1A0
100
AcDbEntity
  8
DIM
  0
LEADER
  5
2C1A3
330
17
100
AcDbEntity
  8
DIM
100
AcDbLeader
  3
STANDARD
 76
     2
 10
2502.587122419454
 20
3369.827819641531
 30
0.0
 10
2538.546094256546
 20
3595.713317062664
 30
0.0
1001
SSE_BALOON
1005
2B8D0
1001
ACAD
1000
DSTYLE
1002
{
1070
    41
1040
3.0
1070
    42
1040
2.0
1070
    43
1040
10.0
1070
    44
1040
2.0
1070
    73
1070
     0
1070
    74
1070
     0
1070
    77
1070
     1
1070
    78
1070
     8
1070
    79
1070
     2
1070
   140
1040
3.2
1070
   147
1040
0.9999999999999996
1070
   172
1070
     1
1070
   179
1070
     4
1070
   271
1070
     2
1070
   272
1070
     2
1070
   341
1005
4A
1070
   342
1005
4A
1002
}
  0
INSERT
  5
2C1A4
330
17
100
AcDbEntity
  8
DIM
100
AcDbBlockReference
 66
     1
  2
SSE_BALOON1
 10
2545.253789086122
 20
3637.849421231391
 30
0.0
 41
42.66666666666606
 42
42.66666666666674
 43
42.66666666666665
1001
SSE_BALOON
1005
2B8CF
  0
ATTRIB
  5
2C1A5
330
2C1A4
100
AcDbEntity
  8
DIMTEXT
100
AcDbText
 10
2531.0315668639
 20
3616.516087898058
 30
0.0
 40
42.66666666666665
  1
5
 72
     4
 11
2545.253789086122
 21
3637.849421231391
 31
0.0
100
AcDbAttribute
  2
BAL_NUM
 70
     0
280
     0
  0
SEQEND
  5
2C1A6
330
2C1A4
100
AcDbEntity
  8
DIM
  0
LEADER
  5
2C1A7
330
17
100
AcDbEntity
  8
DIM
100
AcDbLeader
  3
STANDARD
 76
     2
 10
2810.522848622007
 20
3364.522232206651
 30
0.0
 10
2732.70959769828
 20
3597.382351491186
 30
0.0
1001
SSE_BALOON
1005
2B8D4
1001
ACAD
1000
DSTYLE
1002
{
1070
    41
1040
3.0
1070
    42
1040
2.0
1070
    43
1040
10.0
1070
    44
1040
2.0
1070
    73
1070
     0
1070
    74
1070
     0
1070
    77
1070
     1
1070
    78
1070
     8
1070
    79
1070
     2
1070
   140
1040
3.2
1070
   147
1040
0.9999999999999996
1070
   172
1070
     1
1070
   179
1070
     4
1070
   271
1070
     2
1070
   272
1070
     2
1070
   341
1005
4A
1070
   342
1005
4A
1002
}
  0
INSERT
  5
2C1A8
330
17
100
AcDbEntity
  8
DIM
100
AcDbBlockReference
 66
     1
  2
SSE_BALOON1
 10
2719.186997686232
 20
3637.849421231391
 30
0.0
 41
42.66666666666606
 42
42.66666666666674
 43
42.66666666666665
1001
SSE_BALOON
1005
2B8D3
  0
ATTRIB
  5
2C1A9
330
2C1A8
100
AcDbEntity
  8
DIMTEXT
100
AcDbText
 10
2705.980648479883
 20
3616.516087898058
 30
0.0
 40
42.66666666666665
  1
6
 72
     4
 11
2719.186997686232
 21
3637.849421231391
 31
0.0
100
AcDbAttribute
  2
BAL_NUM
 70
     0
280
     0
  0
SEQEND
  5
2C1AA
330
2C1A8
100
AcDbEntity
  8
DIM
  0
LEADER
  5
2C1AB
330
17
100
AcDbEntity
  8
DIM
100
AcDbLeader
  3
STANDARD
 73
     0
 75
     1
 40
128.0
 41
498.4685714285715
 76
     3
 10
2379.470640549596
 20
3483.524456379058
 30
0.0
 10
2256.650621867285
 20
4193.463164442483
 30
0.0
 10
2222.650621867285
 20
4193.463164442483
 30
0.0
340
2C1AC
1001
ACAD
1000
DSTYLE
1002
{
1070
    41
1040
2.0
1070
   147
1040
1.0
1070
    77
1070
     1
1070
    43
1040
10.0
1070
    73
1070
     0
1070
    74
1070
     0
1070
   172
1070
     1
1070
   179
1070
     1
1070
   271
1070
     1
1070
   272
1070
     1
1070
   341
1005
5132
1070
   342
1005
0
1002
}
  0
MTEXT
  5
2C1AC
102
{ACAD_REACTORS
330
2C1AB
102
}
330
17
100
AcDbEntity
  8
DIM
100
AcDbMText
 10
2205.650621867285
 20
4210.463164442481
 30
0.0
 40
48.0
 41
507.23
 46
0.0
 71
     9
 72
     1
  1
3-M12アンカーボルト\P（穴φ17）
 73
     1
 44
1.0
  0
DIMENSION
  5
2C1AF
330
17
100
AcDbEntity
  8
DIM
100
AcDbDimension
  2
*D21
 10
3324.655994413121
 20
3294.174456379063
 30
0.0
 11
3286.40599441312
 21
3123.526837331445
 31
0.0
 70
    32
  1
（<>）
 71
     5
 42
48.04999999989013
 73
     0
 74
     0
 75
     0
  3
STANDARD
100
AcDbAlignedDimension
 13
2799.180185473577
 23
3342.224456378954
 33
0.0
 14
2932.080185473582
 24
3294.174456379063
 34
0.0
 50
90.0
100
AcDbRotatedDimension
1001
ACAD
1000
DSTYLE
1002
{
1070
    41
1040
3.0
1070
    42
1040
2.0
1070
    43
1040
10.0
1070
    44
1040
2.0
1070
    73
1070
     0
1070
    74
1070
     0
1070
    77
1070
     1
1070
    78
1070
     8
1070
    79
1070
     2
1070
   140
1040
2.5
1070
   147
1040
0.9999999999999996
1070
   172
1070
     1
1070
   179
1070
     4
1070
   271
1070
     0
1070
   272
1070
     2
1070
   341
1005
4A
1070
   342
1005
4A
1002
}
  0
TEXT
  5
2C790
330
17
100
AcDbEntity
  8
DIM
100
AcDbText
 10
2247.889547850808
 20
2474.237565107889
 30
0.0
 40
48.0
  1
基礎ボルトおよび配管位置図（上空図）
 41
0.8
 72
     1
 11
2647.249547850807
 21
2474.237565107889
 31
0.0
100
AcDbText
  0
LINE
  5
2C791
330
17
100
AcDbEntity
  8
DIM
100
AcDbLine
 10
2239.472380756252
 20
2462.42784441769
 30
0.0
 11
3056.18434763293
 21
2462.42784441769
 31
0.0
  0
LINE
  5
2C7E3
330
17
100
AcDbEntity
  8
WAKU
100
AcDbLine
 10
2344.961482648953
 20
4878.204795273322
 30
0.0
 11
3344.961482648955
 21
4878.204795273322
 31
0.0
  0
LINE
  5
2C7F6
330
17
100
AcDbEntity
  8
WAKU
100
AcDbLine
 10
3045.790402802222
 20
1894.144077318639
 30
0.0
 11
3045.790402802222
 21
1334.144077318638
 31
0.0
  0
TEXT
  5
2C7F7
330
17
100
AcDbEntity
  8
DIMTEXT
100
AcDbText
 10
2296.784004311461
 20
1669.231082094453
 30
0.0
 40
48.0
  1
2
 41
0.8
 72
     1
 11
2309.584004311461
 21
1693.231082094453
 31
0.0
100
AcDbText
 73
     2
  0
MTEXT
  5
2C7F8
330
17
100
AcDbEntity
  8
DIM
100
AcDbMText
 10
2385.538993173945
 20
1674.527902074985
 30
0.0
 40
48.0
 41
0.0
 46
0.0
 71
     7
 72
     1
  1
200V電源引込口
 73
     1
 44
1.0
  0
LINE
  5
2C7F9
330
17
100
AcDbEntity
  8
WAKU
100
AcDbLine
 10
2370.880887044919
 20
1894.144077318639
 30
0.0
 11
2370.880887044919
 21
1334.144077318639
 31
0.0
  0
LINE
  5
2C7FA
330
17
100
AcDbEntity
  8
WAKU
100
AcDbLine
 10
2245.790402802219
 20
1894.144077318639
 30
0.0
 11
2245.790402802219
 21
1334.14407731864
 31
0.0
  0
LINE
  5
2C7FB
330
17
100
AcDbEntity
  8
WAKU
100
AcDbLine
 10
2245.790402802219
 20
1574.14407731864
 30
0.0
 11
3045.790402802222
 21
1574.144077318639
 31
0.0
  0
LINE
  5
2C7FC
330
17
100
AcDbEntity
  8
WAKU
100
AcDbLine
 10
2245.79040280222
 20
1654.144077318638
 30
0.0
 11
3045.790402802222
 21
1654.144077318638
 31
0.0
  0
LINE
  5
2C7FD
330
17
100
AcDbEntity
  8
WAKU
100
AcDbLine
 10
2245.790402802219
 20
1494.14407731864
 30
0.0
 11
3045.790402802222
 21
1494.14407731864
 31
0.0
  0
LINE
  5
2C7FE
330
17
100
AcDbEntity
  8
WAKU
100
AcDbLine
 10
2245.790402802219
 20
1414.144077318639
 30
0.0
 11
3045.790402802222
 21
1414.144077318638
 31
0.0
  0
MTEXT
  5
2C7FF
330
17
100
AcDbEntity
  8
DIM
100
AcDbMText
 10
2385.538993173945
 20
1593.582259090098
 30
0.0
 40
48.0
 41
0.0
 46
0.0
 71
     7
 72
     1
  1
100V／200V補助電源引込口
 73
     1
 44
1.0
  0
TEXT
  5
2C800
330
17
100
AcDbEntity
  8
DIMTEXT
100
AcDbText
 10
2295.869718597175
 20
1509.231082094452
 30
0.0
 40
48.0
  1
4
 41
0.8
 72
     1
 11
2309.584004311461
 21
1533.231082094452
 31
0.0
100
AcDbText
 73
     2
  0
TEXT
  5
2C801
330
17
100
AcDbEntity
  8
DIMTEXT
100
AcDbText
 10
2296.784004311461
 20
1429.231082094453
 30
0.0
 40
48.0
  1
5
 41
0.8
 72
     1
 11
2309.584004311461
 21
1453.231082094453
 31
0.0
100
AcDbText
 73
     2
  0
TEXT
  5
2C802
330
17
100
AcDbEntity
  8
DIMTEXT
100
AcDbText
 10
2296.784004311461
 20
1589.231082094453
 30
0.0
 40
48.0
  1
3
 41
0.8
 72
     1
 11
2309.584004311461
 21
1613.231082094453
 31
0.0
100
AcDbText
 73
     2
  0
LINE
  5
2C803
330
17
100
AcDbEntity
  8
WAKU
100
AcDbLine
 10
3045.790402802222
 20
1894.144077318639
 30
0.0
 11
2245.790402802219
 21
1894.144077318639
 31
0.0
  0
LINE
  5
2C804
330
17
100
AcDbEntity
  8
WAKU
100
AcDbLine
 10
2245.790402802219
 20
1734.144077318638
 30
0.0
 11
3045.790402802222
 21
1734.144077318638
 31
0.0
  0
LINE
  5
2C805
330
17
100
AcDbEntity
  8
WAKU
100
AcDbLine
 10
2245.790402802219
 20
1814.144077318638
 30
0.0
 11
3045.790402802222
 21
1814.144077318638
 31
0.0
  0
TEXT
  5
2C806
330
17
100
AcDbEntity
  8
DIMTEXT
100
AcDbText
 10
2555.495309020409
 20
1830.144077318639
 30
0.0
 40
48.0
  1
名      称
 41
0.8
 72
     1
 11
2665.575309020409
 21
1854.144077318639
 31
0.0
100
AcDbText
 73
     2
  0
TEXT
  5
2C807
330
17
100
AcDbEntity
  8
DIM
100
AcDbText
 10
2386.374936256389
 20
1753.35284375552
 30
0.0
 40
48.0
  1
リモコンケーブル引込口
 41
0.8
100
AcDbText
  0
TEXT
  5
2C808
330
17
100
AcDbEntity
  8
DIMTEXT
100
AcDbText
 10
2268.624004311461
 20
1830.144077318639
 30
0.0
 40
48.0
  1
番号
 41
0.8
 72
     1
 11
2309.584004311461
 21
1854.144077318639
 31
0.0
100
AcDbText
 73
     2
  0
TEXT
  5
2C809
330
17
100
AcDbEntity
  8
DIMTEXT
100
AcDbText
 10
2305.012575740033
 20
1749.231082094453
 30
0.0
 40
48.0
  1
1
 41
0.8
 72
     1
 11
2309.584004311461
 21
1773.231082094453
 31
0.0
100
AcDbText
 73
     2
  0
TEXT
  5
2C80A
330
17
100
AcDbEntity
  8
DIMTEXT
100
AcDbText
 10
2297.698290025747
 20
1349.231082094453
 30
0.0
 40
48.0
  1
6
 41
0.8
 72
     1
 11
2309.584004311461
 21
1373.231082094453
 31
0.0
100
AcDbText
 73
     2
  0
LINE
  5
2C80B
330
17
100
AcDbEntity
  8
WAKU
100
AcDbLine
 10
2245.790402802219
 20
1334.14407731864
 30
0.0
 11
3045.790402802222
 21
1334.144077318638
 31
0.0
  0
TEXT
  5
2C80C
330
17
100
AcDbEntity
  8
DIMTEXT
100
AcDbText
 10
2395.780025131586
 20
1510.144077318639
 30
0.0
 40
48.0
  1
給湯配管口
 41
0.8
 11
2395.780025131586
 21
1534.144077318639
 31
0.0
100
AcDbText
 73
     2
  0
TEXT
  5
2C80D
330
17
100
AcDbEntity
  8
DIMTEXT
100
AcDbText
 10
2395.780025131586
 20
1430.144077318639
 30
0.0
 40
48.0
  1
給水配管口
 41
0.8
 11
2395.780025131586
 21
1454.144077318639
 31
0.0
100
AcDbText
 73
     2
  0
TEXT
  5
2C80E
330
17
100
AcDbEntity
  8
DIMTEXT
100
AcDbText
 10
2395.780025131586
 20
1350.144077318639
 30
0.0
 40
48.0
  1
排水栓配管口
 41
0.8
 11
2395.780025131586
 21
1374.144077318639
 31
0.0
100
AcDbText
 73
     2
  0
DIMENSION
  5
2CB6F
330
17
100
AcDbEntity
  8
DIM
100
AcDbDimension
  2
*D24
 10
1934.749043416982
 20
2349.083298953502
 30
0.0
 11
1934.749043416981
 21
1439.8332989535
 31
0.0
 70
   160
 71
     5
 42
1817.0
 73
     0
 74
     0
 75
     0
  3
STANDARD
100
AcDbAlignedDimension
 13
1344.631505057291
 23
532.0832989535015
 33
0.0
 14
1347.021325038692
 24
2349.083298953502
 34
0.0
 50
90.0
100
AcDbRotatedDimension
1001
ACAD
1000
DSTYLE
1002
{
1070
    41
1040
3.0
1070
    42
1040
2.0
1070
    43
1040
10.0
1070
    44
1040
2.0
1070
    73
1070
     0
1070
    74
1070
     0
1070
    77
1070
     1
1070
    78
1070
     8
1070
    79
1070
     2
1070
   140
1040
2.5
1070
   147
1040
0.9999999999999996
1070
   172
1070
     1
1070
   179
1070
     4
1070
   271
1070
     0
1070
   272
1070
     2
1070
   341
1005
4A
1070
   342
1005
4A
1002
}
  0
DIMENSION
  5
2CB70
330
17
100
AcDbEntity
  8
DIM
100
AcDbDimension
  2
*D25
 10
1453.809119746106
 20
657.0832989535014
 30
0.0
 11
1453.809119746106
 21
361.2737751439779
 31
0.0
 70
   160
 71
     5
 42
125.0
 73
     0
 74
     0
 75
     0
  3
STANDARD
100
AcDbAlignedDimension
 13
1344.631505057291
 23
532.0832989535015
 33
0.0
 14
1340.521325038698
 24
657.0832989535015
 34
0.0
 50
90.0
100
AcDbRotatedDimension
1001
ACAD
1000
DSTYLE
1002
{
1070
    41
1040
3.0
1070
    42
1040
2.0
1070
    43
1040
10.0
1070
    44
1040
2.0
1070
    73
1070
     0
1070
    74
1070
     0
1070
    77
1070
     1
1070
    78
1070
     8
1070
    79
1070
     2
1070
   140
1040
2.5
1070
   147
1040
0.9999999999999996
1070
   172
1070
     1
1070
   179
1070
     4
1070
   271
1070
     0
1070
   272
1070
     2
1070
   341
1005
4A
1070
   342
1005
4A
1002
}
  0
LINE
  5
2CB71
330
17
100
AcDbEntity
  8
0
100
AcDbLine
 10
728.354432274148
 20
532.0832989535015
 30
0.0
 11
2033.860095937284
 21
532.0832989535018
 31
0.0
  0
MTEXT
  5
2CB72
102
{ACAD_REACTORS
330
2CB75
102
}
330
17
100
AcDbEntity
  8
DIM
100
AcDbMText
 10
590.5191572869155
 20
2641.699804422063
 30
0.0
 40
48.0
 41
318.0747434444617
 46
0.0
 71
     9
 72
     1
  1
逃し弁点検窓
 73
     1
 44
1.0
  0
LINE
  5
2CB73
330
17
100
AcDbEntity
  8
DIM
100
AcDbLine
 10
661.7738259349571
 20
2024.148430938907
 30
0.0
 11
313.2182248399927
 21
2024.148430938907
 31
0.0
  0
LINE
  5
2CB74
330
17
100
AcDbEntity
  8
DIM
100
AcDbLine
 10
667.3174779566878
 20
2159.972962624924
 30
0.0
 11
315.2738802406312
 21
2159.972962624924
 31
0.0
  0
LEADER
  5
2CB75
330
17
100
AcDbEntity
  8
DIM
100
AcDbLeader
  3
STANDARD
 73
     0
 75
     1
 40
48.00000000000003
 41
266.2400000000002
 76
     3
 10
1020.444382880071
 20
2263.482070784316
 30
0.0
 10
658.5191572869155
 20
2624.699804422063
 30
0.0
 10
607.5191572869155
 20
2624.699804422063
 30
0.0
340
2CB72
1001
ACAD
1000
DSTYLE
1002
{
1070
    41
1040
3.0
1070
    42
1040
2.0
1070
    43
1040
10.0
1070
    44
1040
2.0
1070
    73
1070
     0
1070
    74
1070
     0
1070
    77
1070
     1
1070
    78
1070
     8
1070
    79
1070
     2
1070
   140
1040
3.2
1070
   147
1040
0.9999999999999996
1070
   172
1070
     1
1070
   179
1070
     8
1070
   271
1070
     8
1070
   272
1070
     8
1070
   341
1005
4A
1070
   342
1005
4A
1002
}
  0
MTEXT
  5
2CB7D
330
17
100
AcDbEntity
  8
DIM
100
AcDbMText
 10
325.9377195613808
 20
2069.14843093891
 30
0.0
 40
48.0
 41
345.8364388551848
 46
0.0
 71
     4
 72
     1
  1
漏電しゃ断器
 73
     1
 44
1.0
  0
MTEXT
  5
2CB7E
330
17
100
AcDbEntity
  8
DIM
100
AcDbMText
 10
317.1133376918116
 20
2204.972962624924
 30
0.0
 40
48.0
 41
301.5709177768663
 46
0.0
 71
     4
 72
     1
  1
操作カバー
 73
     1
 44
1.0
  0
LINE
  5
2CB7F
330
17
100
AcDbEntity
  8
0
100
AcDbLine
 10
749.0213250387014
 20
2319.083298953501
 30
0.0
 11
749.0213250386987
 21
683.0832989535011
 31
0.0
  0
LINE
  5
2CB80
330
17
100
AcDbEntity
  8
0
100
AcDbLine
 10
1345.0213250387
 20
2319.083298953501
 30
0.0
 11
1345.021325038697
 21
683.0832989535008
 31
0.0
  0
LINE
  5
2CB81
330
17
100
AcDbEntity
  8
0
100
AcDbLine
 10
751.5213250386977
 20
657.0832989535015
 30
0.0
 11
1342.521325038696
 21
657.0832989535015
 31
0.0
  0
LINE
  5
2CB85
330
17
100
AcDbEntity
  8
0
100
AcDbLine
 10
757.5913250386957
 20
532.0832989535013
 30
0.0
 11
877.3637383982176
 21
532.0832989535013
 31
0.0
  0
LINE
  5
2CB8E
330
17
100
AcDbEntity
  8
0
100
AcDbLine
 10
749.5213250386978
 20
683.0832989535011
 30
0.0
 11
749.5213250386978
 21
659.0832989535011
 31
0.0
  0
ARC
  5
2CB8F
330
17
100
AcDbEntity
  8
0
100
AcDbCircle
 10
751.5213250386977
 20
659.0832989535011
 30
0.0
 40
2.0
100
AcDbArc
 50
180.0
 51
270.0
  0
LINE
  5
2CB9D
330
17
100
AcDbEntity
  8
0
100
AcDbLine
 10
1344.521325038697
 20
683.0832989534989
 30
0.0
 11
1344.521325038697
 21
659.0832989535017
 31
0.0
  0
ARC
  5
2CB9E
330
17
100
AcDbEntity
  8
0
100
AcDbCircle
 10
1342.521325038696
 20
659.0832989535017
 30
0.0
 40
2.0
100
AcDbArc
 50
270.0
 51
0.0
  0
LINE
  5
2CBA3
330
17
100
AcDbEntity
  8
0
100
AcDbLine
 10
981.5213250386996
 20
2313.58535326749
 30
0.0
 11
1112.521325038698
 21
2313.58535326749
 31
0.0
  0
LINE
  5
2CBA4
330
17
100
AcDbEntity
  8
0
100
AcDbLine
 10
981.5213250386996
 20
2193.58535326749
 30
0.0
 11
1112.521325038698
 21
2193.58535326749
 31
0.0
  0
LINE
  5
2CBA5
330
17
100
AcDbEntity
  8
0
100
AcDbLine
 10
747.021325038694
 20
2349.083298953502
 30
0.0
 11
1347.021325038692
 21
2349.083298953502
 31
0.0
  0
LINE
  5
2CBA6
330
17
100
AcDbEntity
  8
0
100
AcDbLine
 10
747.021325038694
 20
2319.083298953501
 30
0.0
 11
1347.021325038692
 21
2319.083298953501
 31
0.0
  0
LEADER
  5
2CBA7
330
17
100
AcDbEntity
  8
DIM
100
AcDbLeader
  3
STANDARD
 76
     2
 10
859.0213250386923
 20
1924.08011878413
 30
0.0
 10
667.3174779566878
 20
2159.972962624924
 30
0.0
1001
ACAD
1000
DSTYLE
1002
{
1070
    41
1040
3.0
1070
    42
1040
2.0
1070
    43
1040
10.0
1070
    44
1040
2.0
1070
    73
1070
     0
1070
    74
1070
     0
1070
    77
1070
     1
1070
    78
1070
     8
1070
    79
1070
     2
1070
   140
1040
3.2
1070
   147
1040
0.9999999999999996
1070
   172
1070
     1
1070
   179
1070
     8
1070
   271
1070
     8
1070
   272
1070
     8
1070
   341
1005
4A
1070
   342
1005
4A
1002
}
  0
LEADER
  5
2CBA8
330
17
100
AcDbEntity
  8
DIM
100
AcDbLeader
  3
STANDARD
 76
     2
 10
831.7234656942343
 20
1864.080118784133
 30
0.0
 10
661.7738259349571
 20
2024.148430938907
 30
0.0
1001
ACAD
1000
DSTYLE
1002
{
1070
    41
1040
3.0
1070
    42
1040
2.0
1070
    43
1040
10.0
1070
    44
1040
2.0
1070
    73
1070
     0
1070
    74
1070
     0
1070
    77
1070
     1
1070
    78
1070
     8
1070
    79
1070
     2
1070
   140
1040
3.2
1070
   147
1040
0.9999999999999996
1070
   172
1070
     1
1070
   179
1070
     8
1070
   271
1070
     8
1070
   272
1070
     8
1070
   341
1005
5132
1070
   342
1005
4A
1002
}
  0
LINE
  5
2CBA9
330
17
100
AcDbEntity
  8
0
100
AcDbLine
 10
793.521325038696
 20
1924.08011878413
 30
0.0
 11
924.521325038696
 21
1924.08011878413
 31
0.0
  0
LINE
  5
2CBAA
330
17
100
AcDbEntity
  8
0
100
AcDbLine
 10
793.521325038696
 20
1804.080118784131
 30
0.0
 11
924.521325038696
 21
1804.080118784131
 31
0.0
  0
LINE
  5
2CBAB
330
17
100
AcDbEntity
  8
0
100
AcDbLine
 10
781.521325038696
 20
1912.08011878413
 30
0.0
 11
781.521325038696
 21
1816.080118784132
 31
0.0
  0
ARC
  5
2CBAC
330
17
100
AcDbEntity
  8
0
100
AcDbCircle
 10
793.521325038696
 20
1816.080118784132
 30
0.0
 40
12.0
100
AcDbArc
 50
180.0
 51
270.0
  0
ARC
  5
2CBAD
330
17
100
AcDbEntity
  8
0
100
AcDbCircle
 10
793.521325038696
 20
1912.08011878413
 30
0.0
 40
12.0
100
AcDbArc
 50
90.0
 51
180.0
  0
LINE
  5
2CBAE
330
17
100
AcDbEntity
  8
0
100
AcDbLine
 10
848.5213250382976
 20
1837.080118784131
 30
0.0
 11
848.5213250382976
 21
1891.080118784131
 31
0.0
  0
LINE
  5
2CBAF
330
17
100
AcDbEntity
  8
0
100
AcDbLine
 10
816.521325039098
 20
1891.080118784131
 30
0.0
 11
816.521325039098
 21
1837.080118784131
 31
0.0
  0
LINE
  5
2CBB0
330
17
100
AcDbEntity
  8
0
100
AcDbLine
 10
816.521325039098
 20
1837.080118784131
 30
0.0
 11
848.5213250382976
 21
1837.080118784131
 31
0.0
  0
LINE
  5
2CBB1
330
17
100
AcDbEntity
  8
0
100
AcDbLine
 10
848.5213250382976
 20
1891.080118784131
 30
0.0
 11
816.521325039098
 21
1891.080118784131
 31
0.0
  0
LINE
  5
2CBB2
330
17
100
AcDbEntity
  8
0
100
AcDbLine
 10
936.5213250386949
 20
1912.08011878413
 30
0.0
 11
936.5213250386975
 21
1816.080118784132
 31
0.0
  0
ARC
  5
2CBB3
330
17
100
AcDbEntity
  8
0
100
AcDbCircle
 10
924.5213250386941
 20
1816.080118784132
 30
0.0
 40
12.0
100
AcDbArc
 50
270.0
 51
0.0
  0
ARC
  5
2CBB4
330
17
100
AcDbEntity
  8
0
100
AcDbCircle
 10
924.5213250386941
 20
1912.08011878413
 30
0.0
 40
12.0
100
AcDbArc
 50
0.0
 51
90.0
  0
LINE
  5
2CBB5
330
17
100
AcDbEntity
  8
0
100
AcDbLine
 10
747.021325038694
 20
2349.083298953502
 30
0.0
 11
747.021325038694
 21
2319.083298953501
 31
0.0
  0
LINE
  5
2CBB6
330
17
100
AcDbEntity
  8
0
100
AcDbLine
 10
969.5213250386997
 20
2301.58535326749
 30
0.0
 11
969.5213250386997
 21
2205.58535326749
 31
0.0
  0
ARC
  5
2CBB7
330
17
100
AcDbEntity
  8
0
100
AcDbCircle
 10
981.5213250386987
 20
2205.58535326749
 30
0.0
 40
12.0
100
AcDbArc
 50
180.0
 51
270.0
  0
ARC
  5
2CBB8
330
17
100
AcDbEntity
  8
0
100
AcDbCircle
 10
981.5213250386987
 20
2301.58535326749
 30
0.0
 40
12.0
100
AcDbArc
 50
90.0
 51
180.0
  0
CIRCLE
  5
2CBB9
330
17
100
AcDbEntity
  8
0
100
AcDbCircle
 10
1303.521325038701
 20
1594.085480395526
 30
0.0
 40
3.0
  0
LINE
  5
2CBBE
330
17
100
AcDbEntity
  8
0
100
AcDbLine
 10
1124.521325038698
 20
2301.58535326749
 30
0.0
 11
1124.521325038701
 21
2205.58535326749
 31
0.0
  0
ARC
  5
2CBBF
330
17
100
AcDbEntity
  8
0
100
AcDbCircle
 10
1112.521325038698
 20
2205.58535326749
 30
0.0
 40
12.0
100
AcDbArc
 50
270.0
 51
0.0
  0
ARC
  5
2CBC0
330
17
100
AcDbEntity
  8
0
100
AcDbCircle
 10
1112.521325038698
 20
2301.58535326749
 30
0.0
 40
12.0
100
AcDbArc
 50
0.0
 51
90.0
  0
LINE
  5
2CBD4
330
17
100
AcDbEntity
  8
0
100
AcDbLine
 10
1347.021325038692
 20
2349.083298953502
 30
0.0
 11
1347.021325038692
 21
2319.083298953501
 31
0.0
  0
DIMENSION
  5
2CDF3
330
17
100
AcDbEntity
  8
DIM
100
AcDbDimension
  2
*D22
 10
1746.00831746913
 20
1442.083298953501
 30
0.0
 11
1707.75831746913
 21
987.0832989535019
 31
0.0
 70
    32
  1
（<>）
 71
     5
 42
909.9999999999996
 73
     0
 74
     0
 75
     0
  3
STANDARD
100
AcDbAlignedDimension
 13
1344.631505057291
 23
532.0832989535018
 33
0.0
 14
902.5213250386933
 24
1442.083298953502
 34
0.0
 50
90.0
100
AcDbRotatedDimension
1001
ACAD
1000
DSTYLE
1002
{
1070
    41
1040
3.0
1070
    42
1040
2.0
1070
    43
1040
10.0
1070
    44
1040
2.0
1070
    73
1070
     0
1070
    74
1070
     0
1070
    77
1070
     1
1070
    78
1070
     8
1070
    79
1070
     2
1070
   140
1040
2.5
1070
   147
1040
0.9999999999999996
1070
   172
1070
     1
1070
   179
1070
     4
1070
   271
1070
     0
1070
   272
1070
     2
1070
   341
1005
4A
1070
   342
1005
4A
1002
}
  0
DIMENSION
  5
2CDF4
330
17
100
AcDbEntity
  8
DIM
100
AcDbDimension
  2
*D23
 10
1829.071719505684
 20
2080.083298953502
 30
0.0
 11
1829.071719505684
 21
1306.083298953501
 31
0.0
 70
   160
  1
（<>）
 71
     5
 42
1548.0
 73
     0
 74
     0
 75
     0
  3
STANDARD
100
AcDbAlignedDimension
 13
1344.631505057291
 23
532.0832989535018
 33
0.0
 14
1170.021325038693
 24
2080.083298953502
 34
0.0
 50
90.0
100
AcDbRotatedDimension
1001
ACAD
1000
DSTYLE
1002
{
1070
    41
1040
3.0
1070
    42
1040
2.0
1070
    43
1040
10.0
1070
    44
1040
2.0
1070
    73
1070
     0
1070
    74
1070
     0
1070
    77
1070
     1
1070
    78
1070
     8
1070
    79
1070
     2
1070
   140
1040
2.5
1070
   147
1040
0.9999999999999996
1070
   172
1070
     1
1070
   179
1070
     4
1070
   271
1070
     0
1070
   272
1070
     2
1070
   341
1005
4A
1070
   342
1005
4A
1002
}
  0
LEADER
  5
2CDF5
330
17
100
AcDbEntity
  8
DIM
100
AcDbLeader
  3
STANDARD
 73
     0
 75
     1
 40
48.00000000000002
 41
424.96
 76
     3
 10
889.362612871133
 20
1449.843629554621
 30
0.0
 10
806.2932360981823
 20
1608.599420809649
 30
0.0
 10
755.2932360981824
 20
1608.599420809649
 30
0.0
340
2CDF6
1001
ACAD
1000
DSTYLE
1002
{
1070
    41
1040
3.0
1070
    42
1040
2.0
1070
    43
1040
10.0
1070
    44
1040
2.0
1070
    73
1070
     0
1070
    74
1070
     0
1070
    77
1070
     1
1070
    78
1070
     8
1070
    79
1070
     2
1070
   140
1040
3.2
1070
   147
1040
0.9999999999999996
1070
   172
1070
     1
1070
   179
1070
     8
1070
   271
1070
     8
1070
   272
1070
     8
1070
   341
1005
4A
1070
   342
1005
4A
1002
}
  0
MTEXT
  5
2CDF6
102
{ACAD_REACTORS
330
2CDF5
102
}
330
17
100
AcDbEntity
  8
DIM
100
AcDbMText
 10
738.2932360981824
 20
1625.599420809648
 30
0.0
 40
48.0
 41
543.7474698980486
 46
0.0
 71
     9
 72
     1
  1
給水配管口　R3／4
 73
     1
 44
1.0
  0
LEADER
  5
2CDF8
330
17
100
AcDbEntity
  8
DIM
100
AcDbLeader
  3
STANDARD
 73
     0
 75
     1
 40
48.00000000000002
 41
424.96
 76
     3
 10
1157.534605847807
 20
2081.081928487973
 30
0.0
 10
804.79815795369
 20
2354.57469488304
 30
0.0
 10
753.7981579536899
 20
2354.57469488304
 30
0.0
340
2CDF9
1001
ACAD
1000
DSTYLE
1002
{
1070
    41
1040
3.0
1070
    42
1040
2.0
1070
    43
1040
10.0
1070
    44
1040
2.0
1070
    73
1070
     0
1070
    74
1070
     0
1070
    77
1070
     1
1070
    78
1070
     8
1070
    79
1070
     2
1070
   140
1040
3.2
1070
   147
1040
0.9999999999999996
1070
   172
1070
     1
1070
   179
1070
     8
1070
   271
1070
     8
1070
   272
1070
     8
1070
   341
1005
4A
1070
   342
1005
4A
1002
}
  0
MTEXT
  5
2CDF9
102
{ACAD_REACTORS
330
2CDF8
102
}
330
17
100
AcDbEntity
  8
DIM
100
AcDbMText
 10
736.7981579536899
 20
2371.57469488304
 30
0.0
 40
48.0
 41
613.9865581001836
 46
0.0
 71
     9
 72
     1
  1
給湯配管口　R3／4
 73
     1
 44
1.0
  0
TEXT
  5
2CDFB
330
17
100
AcDbEntity
  8
0
100
AcDbText
 10
1960.059823059397
 20
554.5273158438731
 30
0.0
 40
51.2
  1
GL
 41
0.8
100
AcDbText
  0
LINE
  5
2CE08
330
17
100
AcDbEntity
  8
0
  6
Continuous
100
AcDbLine
 10
1113.182078643805
 20
2303.58535326749
 30
0.0
 11
980.8605714335898
 21
2303.58535326749
 31
0.0
  0
ARC
  5
2CE09
330
17
100
AcDbEntity
  8
0
100
AcDbCircle
 10
980.8605714335898
 20
2300.745353267489
 30
0.0
 40
2.839246394892143
100
AcDbArc
 50
90.0
 51
180.0
  0
LINE
  5
2CE0A
330
17
100
AcDbEntity
  8
0
100
AcDbLine
 10
978.0213250386989
 20
2300.745353267489
 30
0.0
 11
978.0213250386989
 21
2206.425353267492
 31
0.0
  0
ARC
  5
2CE0B
330
17
100
AcDbEntity
  8
0
100
AcDbCircle
 10
1113.182078643805
 20
2300.745353267489
 30
0.0
 40
2.839246394892143
100
AcDbArc
 50
0.0
 51
90.0
  0
LINE
  5
2CE0C
330
17
100
AcDbEntity
  8
0
100
AcDbLine
 10
1116.021325038698
 20
2300.745353267489
 30
0.0
 11
1116.021325038698
 21
2206.425353267492
 31
0.0
  0
CIRCLE
  5
2CE0D
330
17
100
AcDbEntity
  8
0
100
AcDbCircle
 10
1109.271325038698
 20
2253.629306761662
 30
0.0
 40
6.0
  0
LINE
  5
2CE0E
330
17
100
AcDbEntity
  8
0
  6
Continuous
100
AcDbLine
 10
1113.182078643805
 20
2203.585353267491
 30
0.0
 11
980.8605714335898
 21
2203.585353267491
 31
0.0
  0
ARC
  5
2CE0F
330
17
100
AcDbEntity
  8
0
100
AcDbCircle
 10
1113.182078643805
 20
2206.425353267492
 30
0.0
 40
2.839246394892143
100
AcDbArc
 50
270.0
 51
0.0
  0
ARC
  5
2CE10
330
17
100
AcDbEntity
  8
0
100
AcDbCircle
 10
980.8605714335898
 20
2206.425353267492
 30
0.0
 40
2.839246394892143
100
AcDbArc
 50
180.0
 51
270.0
  0
LINE
  5
2CE11
330
17
100
AcDbEntity
  8
0
  6
Continuous
100
AcDbLine
 10
925.1820786438011
 20
1814.080118784134
 30
0.0
 11
792.8605714335852
 21
1814.080118784134
 31
0.0
  0
LINE
  5
2CE12
330
17
100
AcDbEntity
  8
0
  6
Continuous
100
AcDbLine
 10
925.1820786438011
 20
1914.080118784133
 30
0.0
 11
792.8605714335852
 21
1914.080118784133
 31
0.0
  0
ARC
  5
2CE13
330
17
100
AcDbEntity
  8
0
100
AcDbCircle
 10
792.8605714335852
 20
1816.920118784133
 30
0.0
 40
2.839246394892143
100
AcDbArc
 50
180.0
 51
270.0
  0
LINE
  5
2CE14
330
17
100
AcDbEntity
  8
0
100
AcDbLine
 10
790.021325038694
 20
1911.240118784132
 30
0.0
 11
790.021325038694
 21
1816.920118784133
 31
0.0
  0
ARC
  5
2CE15
330
17
100
AcDbEntity
  8
0
100
AcDbCircle
 10
792.8605714335852
 20
1911.240118784132
 30
0.0
 40
2.839246394892143
100
AcDbArc
 50
90.0
 51
180.0
  0
ARC
  5
2CE16
330
17
100
AcDbEntity
  8
0
100
AcDbCircle
 10
925.1820786438011
 20
1816.920118784133
 30
0.0
 40
2.839246394892143
100
AcDbArc
 50
270.0
 51
0.0
  0
CIRCLE
  5
2CE17
330
17
100
AcDbEntity
  8
0
100
AcDbCircle
 10
921.2713250386942
 20
1864.124072278305
 30
0.0
 40
6.0
  0
LINE
  5
2CE18
330
17
100
AcDbEntity
  8
0
100
AcDbLine
 10
928.0213250386941
 20
1911.240118784132
 30
0.0
 11
928.0213250386941
 21
1816.920118784133
 31
0.0
  0
ARC
  5
2CE19
330
17
100
AcDbEntity
  8
0
100
AcDbCircle
 10
925.1820786438011
 20
1911.240118784132
 30
0.0
 40
2.839246394892143
100
AcDbArc
 50
0.0
 51
90.0
  0
LINE
  5
2D19A
330
17
100
AcDbEntity
  8
0
100
AcDbLine
 10
935.1360567484416
 20
1494.083298953501
 30
0.0
 11
935.1360567484416
 21
1487.083303216066
 31
0.0
  0
ELLIPSE
  5
2D19B
330
17
100
AcDbEntity
  8
0
100
AcDbEllipse
 10
868.9746710389581
 20
1509.583298953502
 30
0.0
 11
-0.0000000000009747
 21
20.13425223725222
 31
0.0
210
0.0
220
0.0
230
1.0
 40
0.311123554970222
 41
0.3455858681091553
 42
2.796006785480506
  0
LINE
  5
2D19C
330
17
100
AcDbEntity
  8
0
100
AcDbLine
 10
860.9604309062383
 20
1529.583298953502
 30
0.0
 11
860.9604309062383
 21
1489.583298953502
 31
0.0
  0
LINE
  5
2D19D
330
17
100
AcDbEntity
  8
0
100
AcDbLine
 10
861.4604309062388
 20
1529.583298953502
 30
0.0
 11
861.4604309062388
 21
1489.583298953502
 31
0.0
  0
LINE
  5
2D19E
330
17
100
AcDbEntity
  8
0
100
AcDbLine
 10
870.156583328945
 20
1494.083298953501
 30
0.0
 11
870.156583328945
 21
1487.083303216066
 31
0.0
  0
LINE
  5
2D19F
330
17
100
AcDbEntity
  8
0
100
AcDbLine
 10
873.1565833289451
 20
1494.083298953501
 30
0.0
 11
873.1565833289451
 21
1487.083303216066
 31
0.0
  0
LINE
  5
2D1A0
330
17
100
AcDbEntity
  8
0
100
AcDbLine
 10
884.9065833289428
 20
1494.083298953501
 30
0.0
 11
884.9065833289428
 21
1487.083303216066
 31
0.0
  0
LINE
  5
2D1A1
330
17
100
AcDbEntity
  8
0
100
AcDbLine
 10
881.656583328943
 20
1494.083298953501
 30
0.0
 11
881.656583328943
 21
1487.083303216066
 31
0.0
  0
LINE
  5
2D1A2
330
17
100
AcDbEntity
  8
0
100
AcDbLine
 10
907.2812064190776
 20
1492.720391676156
 30
0.0
 11
893.6645070063905
 21
1484.21644877958
 31
0.0
  0
LINE
  5
2D1A3
330
17
100
AcDbEntity
  8
0
100
AcDbLine
 10
917.0114336583107
 20
1492.720391676156
 30
0.0
 11
930.628133070998
 21
1484.21644877958
 31
0.0
  0
LINE
  5
2D1A4
330
17
100
AcDbEntity
  8
0
100
AcDbLine
 10
908.0312064190772
 20
1492.720391676156
 30
0.0
 11
894.41450700639
 21
1484.21644877958
 31
0.0
  0
LINE
  5
2D1A5
330
17
100
AcDbEntity
  8
0
100
AcDbLine
 10
879.3603497182894
 20
1474.583298953502
 30
0.0
 11
874.4508119630054
 21
1474.583298953502
 31
0.0
  0
LINE
  5
2D1A6
330
17
100
AcDbEntity
  8
0
100
AcDbLine
 10
867.5691105423803
 20
1479.097128953511
 30
0.0
 11
877.9124419298867
 21
1479.097128953507
 31
0.0
  0
LINE
  5
2D1A7
330
17
100
AcDbEntity
  8
0
100
AcDbLine
 10
880.1534132799902
 20
1487.083303216066
 30
0.0
 11
870.156583328945
 21
1487.083303216066
 31
0.0
  0
ELLIPSE
  5
2D1A8
330
17
100
AcDbEntity
  8
0
100
AcDbEllipse
 10
867.5691105423803
 20
1483.59712895351
 30
0.0
 11
0.0
 21
-4.499999999999546
 31
0.0
210
0.0
220
0.0
230
-1.0
 40
0.5797065858110912
 41
0.0
 42
2.733788927252467
  0
ARC
  5
2D1A9
330
17
100
AcDbEntity
  8
0
100
AcDbCircle
 10
865.3394109622441
 20
1489.331756178972
 30
0.0
 40
2.0
100
AcDbArc
 50
306.6950794066177
 51
40.83193513724848
  0
LINE
  5
2D1AA
330
17
100
AcDbEntity
  8
0
100
AcDbLine
 10
873.9508119630045
 20
1474.583298953502
 30
0.0
 11
874.4508119630054
 21
1474.583298953502
 31
0.0
  0
ELLIPSE
  5
2D1AB
330
17
100
AcDbEntity
  8
0
100
AcDbEllipse
 10
873.9508119630045
 20
1489.583298953502
 30
0.0
 11
0.0
 21
-15.0
 31
0.0
210
0.0
220
0.0
230
-1.0
 40
0.8660254037844426
 41
0.0
 42
1.570796326794895
  0
ELLIPSE
  5
2D1AC
330
17
100
AcDbEntity
  8
0
100
AcDbEllipse
 10
874.4508119630054
 20
1489.583298953502
 30
0.0
 11
0.0
 21
-15.0
 31
0.0
210
0.0
220
0.0
230
-1.0
 40
0.8660254037844426
 41
0.0
 42
1.570796326794895
  0
LINE
  5
2D1AD
330
17
100
AcDbEntity
  8
0
100
AcDbLine
 10
915.5213200386938
 20
1463.583298953502
 30
0.0
 11
915.5213200386938
 21
1467.891452100507
 31
0.0
  0
LINE
  5
2D1AE
330
17
100
AcDbEntity
  8
0
100
AcDbLine
 10
889.5213200386931
 20
1463.583298953502
 30
0.0
 11
889.5213200386931
 21
1467.891813124899
 31
0.0
  0
ELLIPSE
  5
2D1AF
330
17
100
AcDbEntity
  8
0
100
AcDbEllipse
 10
890.3223827458683
 20
1483.639276112926
 30
0.0
 11
-0.8679725078059579
 21
17.95922830681291
 31
0.0
210
0.0
220
0.0
230
-1.0
 40
0.7190469609725391
 41
3.270638671782761
 42
4.599233869711473
  0
LINE
  5
2D1B0
330
17
100
AcDbEntity
  8
0
100
AcDbLine
 10
926.0376630271212
 20
1487.083303216066
 30
0.0
 11
935.1360567484434
 21
1487.083303216066
 31
0.0
  0
LINE
  5
2D1B1
330
17
100
AcDbEntity
  8
0
100
AcDbLine
 10
892.0276233029463
 20
1487.083303216066
 30
0.0
 11
881.656583328943
 21
1487.083303216066
 31
0.0
  0
LINE
  5
2D1B2
330
17
100
AcDbEntity
  8
0
100
AcDbLine
 10
914.2470300386928
 20
1442.083298953502
 30
0.0
 11
915.4329400386933
 21
1442.7679889535
 31
0.0
  0
ARC
  5
2D1B3
330
17
100
AcDbEntity
  8
0
100
AcDbCircle
 10
917.0213200386934
 20
1463.583298953502
 30
0.0
 40
1.5
100
AcDbArc
 50
180.0
 51
232.9712800000352
  0
ARC
  5
2D1B4
330
17
100
AcDbEntity
  8
0
100
AcDbCircle
 10
917.0213200386934
 20
1463.583298953502
 30
0.0
 40
1.5
100
AcDbArc
 50
180.0
 51
232.9712800000352
  0
LINE
  5
2D1B5
330
17
100
AcDbEntity
  8
0
100
AcDbLine
 10
915.5213200386938
 20
1464.791798953501
 30
0.0
 11
915.5213200386938
 21
1463.583298953502
 31
0.0
  0
LINE
  5
2D1B6
330
17
100
AcDbEntity
  8
0
100
AcDbLine
 10
914.8406700386924
 20
1459.083298953501
 30
0.0
 11
916.1180000386924
 21
1462.385798953501
 31
0.0
  0
LINE
  5
2D1B7
330
17
100
AcDbEntity
  8
0
100
AcDbLine
 10
914.2470300386928
 20
1442.083298953502
 30
0.0
 11
914.8406900386929
 21
1459.083298953501
 31
0.0
  0
LINE
  5
2D1B8
330
17
100
AcDbEntity
  8
0
100
AcDbLine
 10
915.4329400386933
 20
1442.7679889535
 30
0.0
 11
916.1180100386927
 21
1462.385798953501
 31
0.0
  0
LINE
  5
2D1B9
330
17
100
AcDbEntity
  8
0
100
AcDbLine
 10
890.7956200386939
 20
1442.083298953502
 30
0.0
 11
914.2470300386928
 21
1442.083298953502
 31
0.0
  0
LINE
  5
2D1BA
330
17
100
AcDbEntity
  8
0
100
AcDbLine
 10
889.0399600386926
 20
1459.083298953501
 30
0.0
 11
916.0026840326279
 21
1459.083298953501
 31
0.0
  0
LINE
  5
2D1BB
330
17
100
AcDbEntity
  8
0
100
AcDbLine
 10
888.9246300386913
 20
1462.385798953501
 30
0.0
 11
916.1180000386924
 21
1462.385798953502
 31
0.0
  0
LINE
  5
2D1BC
330
17
100
AcDbEntity
  8
0
100
AcDbLine
 10
890.7956100386936
 20
1442.083298953502
 30
0.0
 11
889.6097000386927
 21
1442.7679889535
 31
0.0
  0
ARC
  5
2D1BD
330
17
100
AcDbEntity
  8
0
100
AcDbCircle
 10
888.0213200386938
 20
1463.583298953502
 30
0.0
 40
1.5
100
AcDbArc
 50
307.0287199999647
 51
0.0
  0
ARC
  5
2D1BE
330
17
100
AcDbEntity
  8
0
100
AcDbCircle
 10
888.0213200386938
 20
1463.583298953502
 30
0.0
 40
1.5
100
AcDbArc
 50
307.0287199999647
 51
0.0
  0
LINE
  5
2D1BF
330
17
100
AcDbEntity
  8
0
100
AcDbLine
 10
889.5213200386931
 20
1464.791798953501
 30
0.0
 11
889.5213200386931
 21
1463.583298953502
 31
0.0
  0
LINE
  5
2D1C0
330
17
100
AcDbEntity
  8
0
100
AcDbLine
 10
890.2019700386922
 20
1459.083298953501
 30
0.0
 11
888.9246400386937
 21
1462.385798953501
 31
0.0
  0
LINE
  5
2D1C1
330
17
100
AcDbEntity
  8
0
100
AcDbLine
 10
890.7956100386936
 20
1442.083298953502
 30
0.0
 11
890.201960038693
 21
1459.083298953501
 31
0.0
  0
LINE
  5
2D1C2
330
17
100
AcDbEntity
  8
0
100
AcDbLine
 10
889.6097000386927
 20
1442.7679889535
 30
0.0
 11
888.9246300386913
 21
1462.385798953501
 31
0.0
  0
ELLIPSE
  5
2D1C3
330
17
100
AcDbEntity
  8
0
100
AcDbEllipse
 10
911.7713200386939
 20
1469.124064688531
 30
0.0
 11
-5.0
 21
0.0
 31
0.0
210
0.0
220
0.0
230
-1.0
 40
0.3081531470059418
 41
4.712388980384688
 42
5.827643344102718
  0
ELLIPSE
  5
2D1C4
330
17
100
AcDbEntity
  8
0
100
AcDbEllipse
 10
912.5213200386944
 20
1469.124064688531
 30
0.0
 11
-5.0
 21
0.0
 31
0.0
210
0.0
220
0.0
230
-1.0
 40
0.3081531470059418
 41
3.597134616666659
 42
5.827643344102718
  0
LINE
  5
2D1C5
330
17
100
AcDbEntity
  8
0
100
AcDbLine
 10
911.7713200386939
 20
1467.583298953502
 30
0.0
 11
912.5213200386944
 21
1467.583298953502
 31
0.0
  0
LINE
  5
2D1C6
330
17
100
AcDbEntity
  8
0
100
AcDbLine
 10
907.2812064190776
 20
1468.446206230848
 30
0.0
 11
893.6645070063905
 21
1476.950149127423
 31
0.0
  0
ELLIPSE
  5
2D1C7
330
17
100
AcDbEntity
  8
0
100
AcDbEllipse
 10
894.2857484535425
 20
1480.583298953502
 30
0.0
 11
0.0
 21
3.822219999999107
 31
0.0
210
0.0
220
0.0
230
1.0
 40
0.523256118172284
 41
0.3158459890366398
 42
2.825746664553153
  0
ELLIPSE
  5
2D1C8
330
17
100
AcDbEntity
  8
0
100
AcDbEllipse
 10
930.0068916238425
 20
1480.583298953502
 30
0.0
 11
0.0
 21
3.822219999999107
 31
0.0
210
0.0
220
0.0
230
-1.0
 40
0.523256118172284
 41
0.3158459890366398
 42
2.825746664553153
  0
ELLIPSE
  5
2D1C9
330
17
100
AcDbEntity
  8
0
100
AcDbEllipse
 10
895.035748453542
 20
1480.583298953502
 30
0.0
 11
0.0
 21
3.822219999999107
 31
0.0
210
0.0
220
0.0
230
1.0
 40
0.523256118172284
 41
0.3158459890366398
 42
2.825746664553153
  0
LINE
  5
2D1CA
330
17
100
AcDbEntity
  8
0
100
AcDbLine
 10
917.0114336583107
 20
1468.446206230848
 30
0.0
 11
930.628133070998
 21
1476.950149127423
 31
0.0
  0
LINE
  5
2D1CB
330
17
100
AcDbEntity
  8
0
100
AcDbLine
 10
908.0312064190772
 20
1468.446206230848
 30
0.0
 11
894.41450700639
 21
1476.950149127423
 31
0.0
  0
ELLIPSE
  5
2D1CC
330
17
100
AcDbEntity
  8
0
100
AcDbEllipse
 10
912.5213200386944
 20
1480.583298953502
 30
0.0
 11
0.0
 21
-2.015999999999507
 31
0.0
210
0.0
220
0.0
230
1.0
 40
0.8591521862943897
 41
3.141592653589793
 42
6.283185307179586
  0
LINE
  5
2D1CD
330
17
100
AcDbEntity
  8
0
100
AcDbLine
 10
916.1213200386921
 20
1482.599298953501
 30
0.0
 11
912.5213200386944
 21
1482.599298953501
 31
0.0
  0
LINE
  5
2D1CE
330
17
100
AcDbEntity
  8
0
100
AcDbLine
 10
916.1213200386921
 20
1478.567298953503
 30
0.0
 11
912.5213200386944
 21
1478.567298953503
 31
0.0
  0
ELLIPSE
  5
2D1CF
330
17
100
AcDbEntity
  8
0
100
AcDbEllipse
 10
916.1213200386921
 20
1480.583298953502
 30
0.0
 11
0.0
 21
-2.015999999999507
 31
0.0
210
0.0
220
0.0
230
1.0
 40
0.8591521862943897
 41
0.0
 42
6.283185307179586
  0
ELLIPSE
  5
2D1D0
330
17
100
AcDbEntity
  8
0
100
AcDbEllipse
 10
895.2713200386943
 20
1509.583298953502
 30
0.0
 11
0.0
 21
-31.00000000000001
 31
0.0
210
0.0
220
0.0
230
1.0
 40
0.8101527970886831
 41
3.644396961410063
 42
5.131397777794829
  0
ELLIPSE
  5
2D1D1
330
17
100
AcDbEntity
  8
0
100
AcDbEllipse
 10
898.2713200386934
 20
1509.583298953502
 30
0.0
 11
0.0
 21
-31.00000000000001
 31
0.0
210
0.0
220
0.0
230
1.0
 40
0.8101527970886831
 41
3.693647737311383
 42
5.121950921263657
  0
LINE
  5
2D1D2
330
17
100
AcDbEntity
  8
0
100
AcDbLine
 10
867.5691105423803
 20
1540.069468953494
 30
0.0
 11
884.4149135781417
 21
1540.069468953499
 31
0.0
  0
LINE
  5
2D1D3
330
17
100
AcDbEntity
  8
0
100
AcDbLine
 10
884.4149135781417
 20
1544.583298953501
 30
0.0
 11
874.4508119630054
 21
1544.583298953501
 31
0.0
  0
LINE
  5
2D1D4
330
17
100
AcDbEntity
  8
0
100
AcDbLine
 10
880.1534132799902
 20
1494.083298953501
 30
0.0
 11
870.156583328945
 21
1494.083298953501
 31
0.0
  0
ELLIPSE
  5
2D1D5
330
17
100
AcDbEntity
  8
0
100
AcDbEllipse
 10
867.5691105423803
 20
1535.569468953495
 30
0.0
 11
0.0
 21
4.499999999999546
 31
0.0
210
0.0
220
0.0
230
1.0
 40
0.5797065858110912
 41
0.0
 42
2.733788927252467
  0
ARC
  5
2D1D6
330
17
100
AcDbEntity
  8
0
100
AcDbCircle
 10
865.3394109622441
 20
1529.834841728032
 30
0.0
 40
2.0
100
AcDbArc
 50
319.1680648627515
 51
53.30492059338233
  0
LINE
  5
2D1D7
330
17
100
AcDbEntity
  8
0
100
AcDbLine
 10
873.9508119630045
 20
1544.583298953501
 30
0.0
 11
874.4508119630054
 21
1544.583298953501
 31
0.0
  0
ELLIPSE
  5
2D1D8
330
17
100
AcDbEntity
  8
0
100
AcDbEllipse
 10
873.9508119630045
 20
1529.583298953502
 30
0.0
 11
0.0
 21
15.0
 31
0.0
210
0.0
220
0.0
230
1.0
 40
0.8660254037844426
 41
0.0
 42
1.570796326794895
  0
SPLINE
  5
2D1D9
330
17
100
AcDbEntity
  8
0
100
AcDbSpline
210
0.0
220
0.0
230
1.0
 70
     8
 71
     3
 72
    18
 73
    14
 74
     0
 42
0.0000000001
 43
0.0000000001
 40
0.6632107530124897
 40
0.6632107530124897
 40
0.6632107530124897
 40
0.6632107530124897
 40
0.8823300790087184
 40
0.8823300790087184
 40
1.217886221126945
 40
1.217886221126945
 40
1.553442363245171
 40
1.553442363245171
 40
1.888998505363399
 40
1.888998505363399
 40
2.224554647481626
 40
2.224554647481626
 40
2.47838629607988
 40
2.47838629607988
 40
2.47838629607988
 40
2.47838629607988
 10
861.4604309062388
 20
1522.347332775323
 30
0.0
 10
860.6647475927394
 20
1521.629180795962
 30
0.0
 10
859.9334929991041
 20
1520.807593849126
 30
0.0
 10
858.2956747851103
 20
1518.509002589459
 30
0.0
 10
857.5033314853499
 20
1516.916361793401
 30
0.0
 10
856.4154669410728
 20
1513.505944293642
 30
0.0
 10
856.1203629175988
 20
1511.689140788413
 30
0.0
 10
856.065562558685
 20
1508.043190069209
 30
0.0
 10
856.3058852309769
 20
1506.21506866375
 30
0.0
 10
857.291217255214
 20
1502.760969300712
 30
0.0
 10
858.0358551626096
 20
1501.135976899561
 30
0.0
 10
859.7036924001523
 20
1498.622305166717
 30
0.0
 10
860.5387497133929
 20
1497.651090633668
 30
0.0
 10
861.4604309062388
 20
1496.819075791911
 30
0.0
  0
ELLIPSE
  5
2D1DA
330
17
100
AcDbEntity
  8
0
100
AcDbEllipse
 10
874.4508119630054
 20
1529.583298953502
 30
0.0
 11
0.0
 21
15.0
 31
0.0
210
0.0
220
0.0
230
1.0
 40
0.8660254037844426
 41
0.0
 42
1.570796326794895
  0
ELLIPSE
  5
2D1DB
330
17
100
AcDbEntity
  8
0
100
AcDbEllipse
 10
898.2713200386934
 20
1509.583298953502
 30
0.0
 11
0.0
 21
-31.00000000000001
 31
0.0
210
0.0
220
0.0
230
1.0
 40
0.8101527970886831
 41
8.056885341888573
 42
8.746925324490071
  0
ELLIPSE
  5
2D1DC
330
17
100
AcDbEntity
  8
0
100
AcDbEllipse
 10
908.9213200386923
 20
1520.20950381616
 30
0.0
 11
-4.706945021173853
 21
0.0
 31
0.0
210
0.0
220
0.0
230
1.0
 40
0.716769607923088
 41
3.985342887398486
 42
5.439435073370891
  0
LINE
  5
2D1DD
330
17
100
AcDbEntity
  8
0
100
AcDbLine
 10
920.6277264992463
 20
1538.583298953501
 30
0.0
 11
918.5213200386938
 21
1538.583298953501
 31
0.0
  0
LINE
  5
2D1DE
330
17
100
AcDbEntity
  8
0
100
AcDbLine
 10
920.627726499244
 20
1545.583298953502
 30
0.0
 11
918.5213200386938
 21
1545.583298953502
 31
0.0
  0
LINE
  5
2D1DF
330
17
100
AcDbEntity
  8
0
100
AcDbLine
 10
920.627726499244
 20
1545.583298953502
 30
0.0
 11
920.627726499244
 21
1538.583298953501
 31
0.0
  0
LINE
  5
2D1E0
330
17
100
AcDbEntity
  8
0
100
AcDbLine
 10
894.5923866155517
 20
1538.583298953501
 30
0.0
 11
884.4149135781417
 21
1538.583298953501
 31
0.0
  0
LINE
  5
2D1E1
330
17
100
AcDbEntity
  8
0
100
AcDbLine
 10
894.5923866155499
 20
1545.583298953502
 30
0.0
 11
884.4149135781417
 21
1545.583298953502
 31
0.0
  0
LINE
  5
2D1E2
330
17
100
AcDbEntity
  8
0
100
AcDbLine
 10
892.9149135781417
 20
1545.583298953502
 30
0.0
 11
892.9149135781417
 21
1538.583298953501
 31
0.0
  0
LINE
  5
2D1E3
330
17
100
AcDbEntity
  8
0
100
AcDbLine
 10
884.4149135781417
 20
1545.583298953502
 30
0.0
 11
884.4149135781417
 21
1538.583298953501
 31
0.0
  0
ARC
  5
2D1E4
330
17
100
AcDbEntity
  8
0
100
AcDbCircle
 10
915.5213200386938
 20
1535.583298953503
 30
0.0
 40
1.5
100
AcDbArc
 50
90.0
 51
180.0
  0
LINE
  5
2D1E5
330
17
100
AcDbEntity
  8
0
100
AcDbLine
 10
914.0213200386943
 20
1527.707598953501
 30
0.0
 11
914.0213200386943
 21
1535.583298953502
 31
0.0
  0
ARC
  5
2D1E6
330
17
100
AcDbEntity
  8
0
100
AcDbCircle
 10
889.5213200386931
 20
1535.583298953503
 30
0.0
 40
1.5
100
AcDbArc
 50
0.0
 51
90.0
  0
LINE
  5
2D1E7
330
17
100
AcDbEntity
  8
0
100
AcDbLine
 10
891.0213200386937
 20
1527.707598953501
 30
0.0
 11
891.0213200386937
 21
1535.583298953502
 31
0.0
  0
LINE
  5
2D1E8
330
17
100
AcDbEntity
  8
0
100
AcDbLine
 10
918.5213200386938
 20
1538.583298953501
 30
0.0
 11
918.5213200386938
 21
1546.083298953502
 31
0.0
  0
ARC
  5
2D1E9
330
17
100
AcDbEntity
  8
0
100
AcDbCircle
 10
917.0213200386934
 20
1538.583298953503
 30
0.0
 40
1.5
100
AcDbArc
 50
270.0
 51
0.0
  0
LINE
  5
2D1EA
330
17
100
AcDbEntity
  8
0
100
AcDbLine
 10
917.5213200386943
 20
1547.083298953502
 30
0.0
 11
918.5213200386938
 21
1546.083298953502
 31
0.0
  0
LINE
  5
2D1EB
330
17
100
AcDbEntity
  8
0
100
AcDbLine
 10
888.0213200386938
 20
1537.083298953502
 30
0.0
 11
902.5213200386943
 21
1537.083298953502
 31
0.0
  0
LINE
  5
2D1EC
330
17
100
AcDbEntity
  8
0
100
AcDbLine
 10
887.5213200386943
 20
1547.083298953502
 30
0.0
 11
902.5213200386943
 21
1547.083298953502
 31
0.0
  0
LINE
  5
2D1ED
330
17
100
AcDbEntity
  8
0
100
AcDbLine
 10
886.5213200386943
 20
1546.083298953502
 30
0.0
 11
902.5213200386943
 21
1546.083298953502
 31
0.0
  0
ARC
  5
2D1EE
330
17
100
AcDbEntity
  8
0
100
AcDbCircle
 10
888.0213200386938
 20
1538.583298953503
 30
0.0
 40
1.5
100
AcDbArc
 50
180.0
 51
270.0
  0
LINE
  5
2D1EF
330
17
100
AcDbEntity
  8
0
100
AcDbLine
 10
887.5213200386943
 20
1547.083298953502
 30
0.0
 11
886.5213200386943
 21
1546.083298953502
 31
0.0
  0
LINE
  5
2D1F0
330
17
100
AcDbEntity
  8
0
100
AcDbLine
 10
886.5213200386943
 20
1545.583298953502
 30
0.0
 11
886.5213200386943
 21
1546.083298953502
 31
0.0
  0
LINE
  5
2D1F1
330
17
100
AcDbEntity
  8
0
100
AcDbLine
 10
917.0213200386934
 20
1537.083298953502
 30
0.0
 11
902.5213200386943
 21
1537.083298953502
 31
0.0
  0
LINE
  5
2D1F2
330
17
100
AcDbEntity
  8
0
100
AcDbLine
 10
917.5213200386943
 20
1547.083298953502
 30
0.0
 11
902.5213200386943
 21
1547.083298953502
 31
0.0
  0
LINE
  5
2D1F3
330
17
100
AcDbEntity
  8
0
100
AcDbLine
 10
918.5213200386938
 20
1546.083298953502
 30
0.0
 11
902.5213200386943
 21
1546.083298953502
 31
0.0
  0
ELLIPSE
  5
2D1F4
330
17
100
AcDbEntity
  8
0
100
AcDbEllipse
 10
909.0918281143826
 20
1529.583298953502
 30
0.0
 11
0.0
 21
15.0
 31
0.0
210
0.0
220
0.0
230
-1.0
 40
0.8660254037844426
 41
0.9272952180016256
 42
1.570796326794895
  0
LINE
  5
2D1F5
330
17
100
AcDbEntity
  8
0
100
AcDbLine
 10
922.0822091711488
 20
1499.724712000338
 30
0.0
 11
922.0822091711488
 21
1494.083298953501
 31
0.0
  0
ELLIPSE
  5
2D1F6
330
17
100
AcDbEntity
  8
0
100
AcDbEllipse
 10
898.2713200386934
 20
1509.583298953502
 30
0.0
 11
0.0
 21
-31.00000000000001
 31
0.0
210
0.0
220
0.0
230
1.0
 40
0.8101527970886831
 41
7.330382858376178
 42
7.65107792606039
  0
LINE
  5
2D1F7
330
17
100
AcDbEntity
  8
0
100
AcDbLine
 10
917.591072859745
 20
1494.083298953501
 30
0.0
 11
935.1360567484416
 21
1494.083298953501
 31
0.0
  0
LINE
  5
2D1F8
330
17
100
AcDbEntity
  8
0
100
AcDbLine
 10
922.0822091711488
 20
1529.583298953502
 30
0.0
 11
922.0822091711488
 21
1519.441885906666
 31
0.0
  0
LINE
  5
2D1F9
330
17
100
AcDbEntity
  8
0
100
AcDbLine
 10
917.5910728597408
 20
1499.969727196891
 30
0.0
 11
917.5910728597427
 21
1494.083298953501
 31
0.0
  0
ELLIPSE
  5
2D1FA
330
17
100
AcDbEntity
  8
0
100
AcDbEllipse
 10
906.7558995948113
 20
1515.091659835461
 30
0.0
 11
0.0
 21
-15.72196648595286
 31
0.0
210
0.0
220
0.0
230
-1.0
 40
0.7542197057154545
 41
-2.945090338853026
 42
-1.80581093177489
  0
LINE
  5
2D1FB
330
17
100
AcDbEntity
  8
0
100
AcDbLine
 10
890.6635031023871
 20
1502.615243630524
 30
0.0
 11
890.6635031023871
 21
1496.174893367136
 31
0.0
  0
ELLIPSE
  5
2D1FC
330
17
100
AcDbEntity
  8
0
100
AcDbEllipse
 10
902.5213200386923
 20
1515.091659835461
 30
0.0
 11
0.0
 21
-15.72196648595286
 31
0.0
210
0.0
220
0.0
230
1.0
 40
0.7542197057154545
 41
-2.945090338853026
 42
-1.720057908898253
  0
LINE
  5
2D1FD
330
17
100
AcDbEntity
  8
0
100
AcDbLine
 10
887.8700328072632
 20
1513.310412487147
 30
0.0
 11
890.6635031023871
 21
1515.091659835461
 31
0.0
  0
LINE
  5
2D1FE
330
17
100
AcDbEntity
  8
0
100
AcDbLine
 10
887.8700328072632
 20
1505.856185419857
 30
0.0
 11
890.6635031023871
 21
1504.074938071543
 31
0.0
  0
ELLIPSE
  5
2D1FF
330
17
100
AcDbEntity
  8
0
100
AcDbEllipse
 10
888.6943747349887
 20
1509.583298953502
 30
0.0
 11
0.0
 21
3.966658014797872
 31
0.0
210
0.0
220
0.0
230
1.0
 40
0.6072180340382411
 41
0.3493058667721709
 42
2.792286786817621
  0
ELLIPSE
  5
2D200
330
17
100
AcDbEntity
  8
0
100
AcDbEllipse
 10
925.9982653423948
 20
1509.583298953502
 30
0.0
 11
0.0
 21
3.966658014797872
 31
0.0
210
0.0
220
0.0
230
-1.0
 40
0.6072180340382411
 41
0.3493058667721709
 42
2.792286786817621
  0
ELLIPSE
  5
2D201
330
17
100
AcDbEntity
  8
0
100
AcDbEllipse
 10
908.9213200386923
 20
1498.957094090844
 30
0.0
 11
-4.706945021173853
 21
0.0
 31
0.0
210
0.0
220
0.0
230
-1.0
 40
0.716769607923088
 41
3.985342887398486
 42
5.439435073370891
  0
ELLIPSE
  5
2D202
330
17
100
AcDbEntity
  8
0
100
AcDbEllipse
 10
891.8443747349911
 20
1509.583298953502
 30
0.0
 11
0.0
 21
3.966658014797872
 31
0.0
210
0.0
220
0.0
230
1.0
 40
0.6072180340382411
 41
0.3493058667721709
 42
2.792286786817621
  0
LINE
  5
2D203
330
17
100
AcDbEntity
  8
0
100
AcDbLine
 10
926.8226072701226
 20
1513.310412487147
 30
0.0
 11
912.0498642536883
 21
1522.730204554118
 31
0.0
  0
LINE
  5
2D204
330
17
100
AcDbEntity
  8
0
100
AcDbLine
 10
926.8226072701226
 20
1505.856185419857
 30
0.0
 11
912.0498642536883
 21
1496.436393352885
 31
0.0
  0
LINE
  5
2D205
330
17
100
AcDbEntity
  8
0
100
AcDbLine
 10
891.0200328072642
 20
1505.856185419857
 30
0.0
 11
905.7927758236987
 21
1496.436393352885
 31
0.0
  0
LINE
  5
2D206
330
17
100
AcDbEntity
  8
0
100
AcDbLine
 10
891.0200328072642
 20
1513.310412487147
 30
0.0
 11
905.7927758236987
 21
1522.730204554118
 31
0.0
  0
ELLIPSE
  5
2D207
330
17
100
AcDbEntity
  8
0
100
AcDbEllipse
 10
908.9213200386923
 20
1509.583298953502
 30
0.0
 11
0.0
 21
-8.800000000000409
 31
0.0
210
0.0
220
0.0
230
1.0
 40
0.7272727272726524
 41
3.141592653589793
 42
6.283185307179586
  0
LINE
  5
2D208
330
17
100
AcDbEntity
  8
0
100
AcDbLine
 10
912.5213200386944
 20
1500.783298953501
 30
0.0
 11
908.921320038692
 21
1500.783298953501
 31
0.0
  0
LINE
  5
2D209
330
17
100
AcDbEntity
  8
0
100
AcDbLine
 10
912.5213200386944
 20
1518.383298953502
 30
0.0
 11
908.921320038692
 21
1518.383298953502
 31
0.0
  0
ELLIPSE
  5
2D20A
330
17
100
AcDbEntity
  8
0
100
AcDbEllipse
 10
912.5213200386944
 20
1509.583298953502
 30
0.0
 11
0.0
 21
-8.800000000000409
 31
0.0
210
0.0
220
0.0
230
1.0
 40
0.7272727272726524
 41
0.0
 42
6.283185307179586
  0
LINE
  5
2D20B
330
17
100
AcDbEntity
  8
0
100
AcDbLine
 10
892.7800118307922
 20
1494.083298953501
 30
0.0
 11
881.656583328943
 21
1494.083298953501
 31
0.0
  0
LINE
  5
2D20C
330
17
100
AcDbEntity
  8
0
100
AcDbLine
 10
890.0213200386943
 20
1554.083298953502
 30
0.0
 11
890.0213200386943
 21
1547.083298953502
 31
0.0
  0
LINE
  5
2D20D
330
17
100
AcDbEntity
  8
0
100
AcDbLine
 10
887.5213200386943
 20
1556.139559589635
 30
0.0
 11
887.5213200386943
 21
1554.583298953502
 31
0.0
  0
LINE
  5
2D20E
330
17
100
AcDbEntity
  8
0
100
AcDbLine
 10
887.5213200386943
 20
1554.583298953502
 30
0.0
 11
888.0213200386938
 21
1554.083298953502
 31
0.0
  0
LINE
  5
2D20F
330
17
100
AcDbEntity
  8
0
100
AcDbLine
 10
917.5213200386943
 20
1554.583298953502
 30
0.0
 11
917.0213200386934
 21
1554.083298953502
 31
0.0
  0
LINE
  5
2D210
330
17
100
AcDbEntity
  8
0
100
AcDbLine
 10
917.0213200386934
 20
1557.083298953502
 30
0.0
 11
917.5213200386943
 21
1556.583298953502
 31
0.0
  0
LINE
  5
2D211
330
17
100
AcDbEntity
  8
0
100
AcDbLine
 10
917.5213200386943
 20
1556.583298953502
 30
0.0
 11
917.5213200386943
 21
1554.583298953502
 31
0.0
  0
LINE
  5
2D212
330
17
100
AcDbEntity
  8
0
100
AcDbLine
 10
915.0213200386943
 20
1554.083298953502
 30
0.0
 11
915.0213200386943
 21
1547.083298953502
 31
0.0
  0
LINE
  5
2D213
330
17
100
AcDbEntity
  8
0
100
AcDbLine
 10
888.2295081202046
 20
1556.583298953502
 30
0.0
 11
917.5213200386943
 21
1556.583298953502
 31
0.0
  0
LINE
  5
2D214
330
17
100
AcDbEntity
  8
0
100
AcDbLine
 10
889.0452659348333
 20
1557.083298953502
 30
0.0
 11
917.0213200386934
 21
1557.083298953502
 31
0.0
  0
LINE
  5
2D215
330
17
100
AcDbEntity
  8
0
100
AcDbLine
 10
917.0213200386934
 20
1554.083298953502
 30
0.0
 11
888.0213200386938
 21
1554.083298953502
 31
0.0
  0
LINE
  5
2D216
330
17
100
AcDbEntity
  8
0
100
AcDbLine
 10
917.0213200386934
 20
1557.083298953502
 30
0.0
 11
902.5213200386943
 21
1557.083298953502
 31
0.0
  0
LINE
  5
2D217
330
17
100
AcDbEntity
  8
0
100
AcDbLine
 10
917.5213200386943
 20
1554.583298953502
 30
0.0
 11
887.5213200386943
 21
1554.583298953502
 31
0.0
  0
ELLIPSE
  5
2D218
330
17
100
AcDbEntity
  8
0
100
AcDbEllipse
 10
911.7713200386939
 20
1492.042533218472
 30
0.0
 11
-5.0
 21
0.0
 31
0.0
210
0.0
220
0.0
230
1.0
 40
0.3081531470059418
 41
4.712388980384688
 42
5.827643344102718
  0
LINE
  5
2D219
330
17
100
AcDbEntity
  8
0
100
AcDbLine
 10
911.7713200386939
 20
1493.583298953502
 30
0.0
 11
912.5213200386944
 21
1493.583298953502
 31
0.0
  0
ELLIPSE
  5
2D21A
330
17
100
AcDbEntity
  8
0
100
AcDbEllipse
 10
912.5213200386944
 20
1492.042533218472
 30
0.0
 11
-5.0
 21
0.0
 31
0.0
210
0.0
220
0.0
230
1.0
 40
0.3081531470059418
 41
3.597134616666659
 42
5.827643344102718
  0
LINE
  5
2D21B
330
17
100
AcDbEntity
  8
0
100
AcDbLine
 10
822.892380865559
 20
1364.473971030871
 30
0.0
 11
822.892380865564
 21
1541.189875778892
 31
0.0
  0
LINE
  5
2D21C
330
17
100
AcDbEntity
  8
0
100
AcDbLine
 10
838.7723807228253
 20
1363.547207589176
 30
0.0
 11
838.7723806488107
 21
1540.263112335022
 31
0.0
  0
LINE
  5
2D21D
330
17
100
AcDbEntity
  8
0
100
AcDbLine
 10
952.2713200386938
 20
1529.398819351513
 30
0.0
 11
922.0822091711507
 21
1529.398819351514
 31
0.0
  0
LINE
  5
2D21E
330
17
100
AcDbEntity
  8
0
100
AcDbLine
 10
954.2713200386938
 20
1568.388598762651
 30
0.0
 11
954.2713200386938
 21
1479.398819351513
 31
0.0
  0
LINE
  5
2D21F
330
17
100
AcDbEntity
  8
0
100
AcDbLine
 10
984.2713200386938
 20
1556.401069033154
 30
0.0
 11
984.2713200386938
 21
1479.398819351513
 31
0.0
  0
LINE
  5
2D220
330
17
100
AcDbEntity
  8
0
100
AcDbLine
 10
984.2713200386938
 20
1479.398819351513
 30
0.0
 11
931.9084344364151
 21
1479.398819351514
 31
0.0
  0
LINE
  5
2D221
330
17
100
AcDbEntity
  8
0
100
AcDbLine
 10
952.2713200386938
 20
1568.773554544813
 30
0.0
 11
952.2713200386938
 21
1529.398819351513
 31
0.0
  0
ARC
  5
2D222
330
17
100
AcDbEntity
  8
0
100
AcDbCircle
 10
736.1041213464741
 20
1479.390580042444
 30
0.0
 40
90.8333333333333
100
AcDbArc
 50
56.60151153206324
 51
64.31645056757982
  0
ARC
  5
2D223
330
17
100
AcDbEntity
  8
0
100
AcDbCircle
 10
836.1041213464746
 20
1631.05724670911
 30
0.0
 40
90.83333333333326
100
AcDbArc
 50
236.6015115320632
 51
303.3984884679367
  0
ARC
  5
2D224
330
17
100
AcDbEntity
  8
0
100
AcDbCircle
 10
836.1041213464746
 20
1454.341341961089
 30
0.0
 40
90.83333333333326
100
AcDbArc
 50
236.6015115320632
 51
303.3984884679367
  0
ARC
  5
2D225
330
17
100
AcDbEntity
  8
0
100
AcDbCircle
 10
736.1041213464741
 20
1302.674675294422
 30
0.0
 40
90.8333333333333
100
AcDbArc
 50
56.60151153206324
 51
64.31645056757982
  0
ARC
  5
2D226
330
17
100
AcDbEntity
  8
0
100
AcDbCircle
 10
1036.104121346474
 20
1454.341341961089
 30
0.0
 40
90.83333333333326
100
AcDbArc
 50
236.6015115320632
 51
250.3800348466906
  0
ARC
  5
2D227
330
17
100
AcDbEntity
  8
0
100
AcDbCircle
 10
936.1041213464746
 20
1302.674675294422
 30
0.0
 40
90.83333333333326
100
AcDbArc
 50
56.60151153206324
 51
123.3984884679367
  0
LINE
  5
2D228
330
17
100
AcDbEntity
  8
0
100
AcDbLine
 10
1005.604121346474
 20
1368.781746096894
 30
0.0
 11
1005.604121346474
 21
1545.497650844915
 31
0.0
  0
ARC
  5
2D229
330
17
100
AcDbEntity
  8
0
100
AcDbCircle
 10
936.1041213464623
 20
1479.390580042449
 30
0.0
 40
90.83333333333326
100
AcDbArc
 50
56.60151153206324
 51
123.3984884679367
  0
ARC
  5
2D22A
330
17
100
AcDbEntity
  8
0
100
AcDbCircle
 10
1036.104121346462
 20
1631.057246709114
 30
0.0
 40
90.83333333333326
100
AcDbArc
 50
236.6015115320632
 51
250.3800348466906
  0
LINE
  5
2D22B
330
17
100
AcDbEntity
  8
0
100
AcDbLine
 10
889.045265934831
 20
1557.083298953502
 30
0.0
 11
917.5213200386943
 21
1557.083298953502
 31
0.0
  0
LINE
  5
2D22C
330
17
100
AcDbEntity
  8
0
100
AcDbLine
 10
889.045265934831
 20
1557.083298953502
 30
0.0
 11
917.0213200386934
 21
1557.083298953502
 31
0.0
  0
LINE
  5
2D22D
330
17
100
AcDbEntity
  8
0
100
AcDbLine
 10
917.0213200386934
 20
1557.083298953502
 30
0.0
 11
902.5213200386943
 21
1557.083298953502
 31
0.0
  0
LINE
  5
2D22E
330
17
100
AcDbEntity
  8
0
100
AcDbLine
 10
917.5213200386943
 20
1559.083298953502
 30
0.0
 11
892.5178276636019
 21
1559.083298953502
 31
0.0
  0
LINE
  5
2D22F
330
17
100
AcDbEntity
  8
0
100
AcDbLine
 10
915.0213200386943
 20
1564.083298953502
 30
0.0
 11
903.2736810829208
 21
1564.083298953502
 31
0.0
  0
LINE
  5
2D230
330
17
100
AcDbEntity
  8
0
100
AcDbLine
 10
917.5213200386943
 20
1559.083298953502
 30
0.0
 11
917.5213200386943
 21
1557.083298953502
 31
0.0
  0
LINE
  5
2D231
330
17
100
AcDbEntity
  8
0
100
AcDbLine
 10
915.0213200386943
 20
1564.083298953502
 30
0.0
 11
915.0213200386943
 21
1559.083298953502
 31
0.0
  0
LINE
  5
2D234
330
17
100
AcDbEntity
  8
0
100
AcDbLine
 10
1157.534605847807
 20
2081.081928487973
 30
0.0
 11
1156.800825038692
 21
2095.083298953502
 31
0.0
  0
LINE
  5
2D235
330
17
100
AcDbEntity
  8
0
100
AcDbLine
 10
1158.696605861756
 20
2081.081928487973
 30
0.0
 11
1157.962825038693
 21
2095.083298953502
 31
0.0
  0
LINE
  5
2D236
330
17
100
AcDbEntity
  8
0
100
AcDbLine
 10
1158.586941809464
 20
2080.083298953502
 30
0.0
 11
1181.455708267922
 21
2080.083298953502
 31
0.0
  0
LINE
  5
2D237
330
17
100
AcDbEntity
  8
0
100
AcDbLine
 10
1157.534605847807
 20
2081.081928487973
 30
0.0
 11
1170.021325038693
 21
2081.081928487973
 31
0.0
  0
LINE
  5
2D238
330
17
100
AcDbEntity
  8
0
100
AcDbLine
 10
1158.586941809464
 20
2080.083298953502
 30
0.0
 11
1157.534605847807
 21
2081.081928487973
 31
0.0
  0
LINE
  5
2D239
330
17
100
AcDbEntity
  8
0
100
AcDbLine
 10
1157.195355674666
 20
2120.083298953502
 30
0.0
 11
1162.847107182901
 21
2120.083298953502
 31
0.0
  0
LINE
  5
2D23A
330
17
100
AcDbEntity
  8
0
100
AcDbLine
 10
1177.195355674666
 20
2120.083298953502
 30
0.0
 11
1182.847107182901
 21
2120.083298953502
 31
0.0
  0
LINE
  5
2D23B
330
17
100
AcDbEntity
  8
0
100
AcDbLine
 10
1156.800825038692
 20
2095.083298953502
 30
0.0
 11
1170.021325038693
 21
2095.083298953502
 31
0.0
  0
LINE
  5
2D23C
330
17
100
AcDbEntity
  8
0
100
AcDbLine
 10
1170.021325038693
 20
2105.083298953502
 30
0.0
 11
1157.030944038693
 21
2105.083298953502
 31
0.0
  0
ARC
  5
2D23D
330
17
100
AcDbEntity
  8
0
100
AcDbCircle
 10
1170.021325038693
 20
2126.743552953503
 30
0.0
 40
28.660254
100
AcDbArc
 50
252.4120460000488
 51
270.0
  0
ARC
  5
2D23E
330
17
100
AcDbEntity
  8
0
100
AcDbCircle
 10
1170.021325038693
 20
2076.423044953503
 30
0.0
 40
28.660254
100
AcDbArc
 50
90.0
 51
107.5879539999512
  0
LINE
  5
2D23F
330
17
100
AcDbEntity
  8
0
100
AcDbLine
 10
1156.800825038692
 20
2098.083298953502
 30
0.0
 11
1170.021325038693
 21
2098.083298953502
 31
0.0
  0
LINE
  5
2D240
330
17
100
AcDbEntity
  8
0
100
AcDbLine
 10
1161.361071038693
 20
2099.423044953502
 30
0.0
 11
1161.361071038693
 21
2103.743552953504
 31
0.0
  0
LINE
  5
2D241
330
17
100
AcDbEntity
  8
0
100
AcDbLine
 10
1152.700817038692
 20
2099.423044953502
 30
0.0
 11
1152.700817038692
 21
2103.743552953504
 31
0.0
  0
LINE
  5
2D242
330
17
100
AcDbEntity
  8
0
100
AcDbLine
 10
1156.800825038692
 20
2097.095941953503
 30
0.0
 11
1157.962825038693
 21
2095.083298953502
 31
0.0
  0
ARC
  5
2D243
330
17
100
AcDbEntity
  8
0
100
AcDbCircle
 10
1157.030944038693
 20
2105.750767453503
 30
0.0
 40
7.667467999999998
100
AcDbArc
 50
235.6157530000587
 51
304.3842469999412
  0
LINE
  5
2D244
330
17
100
AcDbEntity
  8
0
100
AcDbLine
 10
1156.800825038692
 20
2095.083298953502
 30
0.0
 11
1156.800825038692
 21
2098.083298953502
 31
0.0
  0
ARC
  5
2D245
330
17
100
AcDbEntity
  8
0
100
AcDbCircle
 10
1157.030944038693
 20
2097.415830953503
 30
0.0
 40
7.667467999999998
100
AcDbArc
 50
55.61575300005875
 51
124.3842469999412
  0
LINE
  5
2D246
330
17
100
AcDbEntity
  8
0
100
AcDbLine
 10
1157.021231428783
 20
2130.083298953502
 30
0.0
 11
1163.021231428783
 21
2130.083298953502
 31
0.0
  0
LINE
  5
2D247
330
17
100
AcDbEntity
  8
0
100
AcDbLine
 10
1177.021231428783
 20
2130.083298953502
 30
0.0
 11
1183.021231428783
 21
2130.083298953502
 31
0.0
  0
CIRCLE
  5
2D248
330
17
100
AcDbEntity
  8
0
100
AcDbCircle
 10
1160.021325038693
 20
2125.083298953502
 30
0.0
 40
1.500000000000454
  0
CIRCLE
  5
2D249
330
17
100
AcDbEntity
  8
0
100
AcDbCircle
 10
1180.021325038693
 20
2125.083298953501
 30
0.0
 40
1.500000000000454
  0
LINE
  5
2D24A
330
17
100
AcDbEntity
  8
0
100
AcDbLine
 10
1162.081325038691
 20
2114.090486236134
 30
0.0
 11
1162.081325038691
 21
2105.083298953503
 31
0.0
  0
LINE
  5
2D24B
330
17
100
AcDbEntity
  8
0
100
AcDbLine
 10
1177.961325038692
 20
2114.090486236134
 30
0.0
 11
1177.961325038692
 21
2099.083298953503
 31
0.0
  0
ARC
  5
2D24C
330
17
100
AcDbEntity
  8
0
100
AcDbCircle
 10
1180.021231428784
 20
2131.090486236135
 30
0.0
 40
3.0
100
AcDbArc
 50
0.0
 51
180.0
  0
ARC
  5
2D24D
330
17
100
AcDbEntity
  8
0
100
AcDbCircle
 10
1180.021231428784
 20
2121.090486236135
 30
0.0
 40
3.0
100
AcDbArc
 50
180.0
 51
0.0
  0
LINE
  5
2D24E
330
17
100
AcDbEntity
  8
0
100
AcDbLine
 10
1157.521325038659
 20
2114.090486236134
 30
0.0
 11
1182.521325038659
 21
2114.090486236134
 31
0.0
  0
LINE
  5
2D24F
330
17
100
AcDbEntity
  8
0
100
AcDbLine
 10
1152.521325038659
 20
2119.090486236133
 30
0.0
 11
1152.521325038659
 21
2133.902144343615
 31
0.0
  0
LINE
  5
2D250
330
17
100
AcDbEntity
  8
0
100
AcDbLine
 10
1163.021231428783
 20
2131.090486236135
 30
0.0
 11
1163.021231428783
 21
2121.090486236135
 31
0.0
  0
LINE
  5
2D251
330
17
100
AcDbEntity
  8
0
100
AcDbLine
 10
1157.021231428783
 20
2131.090486236135
 30
0.0
 11
1157.021231428783
 21
2121.090486236135
 31
0.0
  0
ARC
  5
2D252
330
17
100
AcDbEntity
  8
0
100
AcDbCircle
 10
1157.521325038659
 20
2119.090486236133
 30
0.0
 40
5.0
100
AcDbArc
 50
180.0
 51
270.0
  0
ARC
  5
2D253
330
17
100
AcDbEntity
  8
0
100
AcDbCircle
 10
1160.021231428784
 20
2121.090486236135
 30
0.0
 40
3.0
100
AcDbArc
 50
180.0
 51
0.0
  0
ARC
  5
2D254
330
17
100
AcDbEntity
  8
0
100
AcDbCircle
 10
1160.021231428784
 20
2131.090486236135
 30
0.0
 40
3.0
100
AcDbArc
 50
0.0
 51
180.0
  0
LINE
  5
2D255
330
17
100
AcDbEntity
  8
0
100
AcDbLine
 10
1177.021231428783
 20
2131.090486236135
 30
0.0
 11
1177.021231428783
 21
2121.090486236135
 31
0.0
  0
LINE
  5
2D256
330
17
100
AcDbEntity
  8
0
100
AcDbLine
 10
1187.52132503866
 20
2119.090486236134
 30
0.0
 11
1187.52132503866
 21
2143.41697296451
 31
0.0
  0
LINE
  5
2D257
330
17
100
AcDbEntity
  8
0
100
AcDbLine
 10
1183.021231428783
 20
2131.090486236135
 30
0.0
 11
1183.021231428783
 21
2121.090486236135
 31
0.0
  0
ARC
  5
2D258
330
17
100
AcDbEntity
  8
0
100
AcDbCircle
 10
1182.521325038659
 20
2119.090486236134
 30
0.0
 40
5.0
100
AcDbArc
 50
270.0
 51
0.0
  0
ARC
  5
2D259
330
17
100
AcDbEntity
  8
0
100
AcDbCircle
 10
1346.672635058178
 20
2112.908506239529
 30
0.0
 40
90.8333333333333
100
AcDbArc
 50
236.6015115319383
 51
238.3956129754955
  0
ARC
  5
2D25A
330
17
100
AcDbEntity
  8
0
100
AcDbCircle
 10
1346.672635058178
 20
2224.546985729965
 30
0.0
 40
90.8333333333333
100
AcDbArc
 50
236.6015115319383
 51
238.3956129754955
  0
LINE
  5
2D25B
330
17
100
AcDbEntity
  8
0
100
AcDbLine
 10
1096.672635058156
 20
2148.713652396649
 30
0.0
 11
1096.672635058174
 21
2037.075172906204
 31
0.0
  0
ARC
  5
2D25C
330
17
100
AcDbEntity
  8
0
100
AcDbCircle
 10
1146.672635058178
 20
2112.908506239529
 30
0.0
 40
90.83333333333326
100
AcDbArc
 50
236.6015115319383
 51
303.3984884680617
  0
ARC
  5
2D25D
330
17
100
AcDbEntity
  8
0
100
AcDbCircle
 10
1246.672635058178
 20
1961.241839572863
 30
0.0
 40
90.83333333333326
100
AcDbArc
 50
56.60151153193826
 51
123.3984884680617
  0
ARC
  5
2D25E
330
17
100
AcDbEntity
  8
0
100
AcDbCircle
 10
1146.672635058178
 20
2224.546985729965
 30
0.0
 40
90.83333333333326
100
AcDbArc
 50
236.6015115319383
 51
303.3984884680617
  0
ARC
  5
2D25F
330
17
100
AcDbEntity
  8
0
100
AcDbCircle
 10
1246.672635058178
 20
2072.8803190633
 30
0.0
 40
90.83333333333326
100
AcDbArc
 50
56.60151153193826
 51
123.3984884680617
  0
LINE
  5
2D260
330
17
100
AcDbEntity
  8
0
100
AcDbLine
 10
1182.508044229578
 20
2081.081928487973
 30
0.0
 11
1183.241825038694
 21
2095.083298953502
 31
0.0
  0
LINE
  5
2D261
330
17
100
AcDbEntity
  8
0
100
AcDbLine
 10
1181.34604421563
 20
2081.081928487973
 30
0.0
 11
1182.079825038694
 21
2095.083298953502
 31
0.0
  0
LINE
  5
2D262
330
17
100
AcDbEntity
  8
0
100
AcDbLine
 10
1182.508044229578
 20
2081.081928487973
 30
0.0
 11
1170.021325038693
 21
2081.081928487973
 31
0.0
  0
LINE
  5
2D263
330
17
100
AcDbEntity
  8
0
100
AcDbLine
 10
1181.455708267922
 20
2080.083298953502
 30
0.0
 11
1182.508044229578
 21
2081.081928487973
 31
0.0
  0
LINE
  5
2D264
330
17
100
AcDbEntity
  8
0
100
AcDbLine
 10
1183.241825038694
 20
2095.083298953502
 30
0.0
 11
1170.021325038693
 21
2095.083298953502
 31
0.0
  0
LINE
  5
2D265
330
17
100
AcDbEntity
  8
0
100
AcDbLine
 10
1170.021325038693
 20
2105.083298953502
 30
0.0
 11
1183.011706038693
 21
2105.083298953502
 31
0.0
  0
ARC
  5
2D266
330
17
100
AcDbEntity
  8
0
100
AcDbCircle
 10
1170.021325038693
 20
2126.743552953503
 30
0.0
 40
28.660254
100
AcDbArc
 50
270.0
 51
287.5879539999512
  0
ARC
  5
2D267
330
17
100
AcDbEntity
  8
0
100
AcDbCircle
 10
1170.021325038693
 20
2076.423044953503
 30
0.0
 40
28.660254
100
AcDbArc
 50
72.41204600004881
 51
90.0
  0
LINE
  5
2D268
330
17
100
AcDbEntity
  8
0
100
AcDbLine
 10
1183.241825038694
 20
2098.083298953502
 30
0.0
 11
1170.021325038693
 21
2098.083298953502
 31
0.0
  0
LINE
  5
2D269
330
17
100
AcDbEntity
  8
0
100
AcDbLine
 10
1178.681579038693
 20
2099.423044953502
 30
0.0
 11
1178.681579038693
 21
2103.743552953504
 31
0.0
  0
LINE
  5
2D26A
330
17
100
AcDbEntity
  8
0
100
AcDbLine
 10
1187.341833038693
 20
2099.423044953502
 30
0.0
 11
1187.341833038693
 21
2103.743552953504
 31
0.0
  0
LINE
  5
2D26B
330
17
100
AcDbEntity
  8
0
100
AcDbLine
 10
1183.241825038694
 20
2097.095941953503
 30
0.0
 11
1182.079825038694
 21
2095.083298953502
 31
0.0
  0
ARC
  5
2D26C
330
17
100
AcDbEntity
  8
0
100
AcDbCircle
 10
1183.011706038693
 20
2105.750767453503
 30
0.0
 40
7.667467999999997
100
AcDbArc
 50
235.6157530000587
 51
304.3842469999412
  0
LINE
  5
2D26D
330
17
100
AcDbEntity
  8
0
100
AcDbLine
 10
1183.241825038694
 20
2095.083298953502
 30
0.0
 11
1183.241825038694
 21
2098.083298953502
 31
0.0
  0
ARC
  5
2D26E
330
17
100
AcDbEntity
  8
0
100
AcDbCircle
 10
1183.011706038693
 20
2097.415830953503
 30
0.0
 40
7.667467999999997
100
AcDbArc
 50
55.61575300005875
 51
124.3842469999412
  0
LINE
  5
2D2E5
330
17
100
AcDbEntity
  8
0
100
AcDbLine
 10
1344.521325038698
 20
785.0832989535002
 30
0.0
 11
1344.521325038698
 21
659.0832989535007
 31
0.0
  0
LINE
  5
2D2E6
330
17
100
AcDbEntity
  8
0
100
AcDbLine
 10
749.5213250386978
 20
785.0832989535002
 30
0.0
 11
749.5213250386978
 21
659.0832989535011
 31
0.0
  0
LINE
  5
2D2E7
330
17
100
AcDbEntity
  8
0
100
AcDbLine
 10
749.5213250386978
 20
659.0832989535007
 30
0.0
 11
1344.521325038696
 21
659.0832989535007
 31
0.0
  0
LINE
  5
2D2E8
330
17
100
AcDbEntity
  8
0
100
AcDbLine
 10
749.5213250386978
 20
787.0832989535015
 30
0.0
 11
773.0213250386946
 21
787.0832989535015
 31
0.0
  0
LINE
  5
2D2E9
330
17
100
AcDbEntity
  8
0
100
AcDbLine
 10
1321.021325038698
 20
787.0832989535015
 30
0.0
 11
1344.521325038698
 21
787.0832989535015
 31
0.0
  0
LINE
  5
2D2EA
330
17
100
AcDbEntity
  8
0
100
AcDbLine
 10
749.5213250386999
 20
788.0832989535022
 30
0.0
 11
749.5213250386978
 21
787.0832989535015
 31
0.0
  0
LINE
  5
2D2EB
330
17
100
AcDbEntity
  8
0
100
AcDbLine
 10
750.3213250386969
 20
785.0832989535002
 30
0.0
 11
749.5213250386978
 21
785.0832989535002
 31
0.0
  0
CIRCLE
  5
2D2EC
330
17
100
AcDbEntity
  8
0
100
AcDbCircle
 10
897.0213250386969
 20
797.0832989535005
 30
0.0
 40
1.55
  0
CIRCLE
  5
2D2ED
330
17
100
AcDbEntity
  8
0
100
AcDbCircle
 10
1257.021325038704
 20
733.5832989534995
 30
0.0
 40
2.0
  0
CIRCLE
  5
2D2EE
330
17
100
AcDbEntity
  8
0
100
AcDbCircle
 10
1197.021325038704
 20
733.5832989534995
 30
0.0
 40
2.0
  0
CIRCLE
  5
2D2EF
330
17
100
AcDbEntity
  8
0
100
AcDbCircle
 10
1227.021325038704
 20
733.5832989534995
 30
0.0
 40
16.0
  0
LINE
  5
2D2F0
330
17
100
AcDbEntity
  8
0
100
AcDbLine
 10
1344.5213250387
 20
788.0832989535032
 30
0.0
 11
1344.521325038698
 21
787.0832989535015
 31
0.0
  0
LINE
  5
2D2F1
330
17
100
AcDbEntity
  8
0
100
AcDbLine
 10
1343.721325038699
 20
785.0832989535002
 30
0.0
 11
1344.521325038698
 21
785.0832989535002
 31
0.0
  0
CIRCLE
  5
2D2F2
330
17
100
AcDbEntity
  8
0
100
AcDbCircle
 10
1197.021325038697
 20
797.0832989535005
 30
0.0
 40
1.55
  0
LINE
  5
2D2F3
330
17
100
AcDbEntity
  8
0
100
AcDbLine
 10
1343.721325038699
 20
788.0832989535032
 30
0.0
 11
1343.721325038699
 21
787.8832989535018
 31
0.0
  0
LINE
  5
2D2F4
330
17
100
AcDbEntity
  8
0
100
AcDbLine
 10
1321.021325038698
 20
787.8832989535018
 30
0.0
 11
1343.721325038699
 21
787.8832989535018
 31
0.0
  0
LINE
  5
2D2F5
330
17
100
AcDbEntity
  8
0
100
AcDbLine
 10
750.3213250386969
 20
787.8832989535018
 30
0.0
 11
773.0213250386946
 21
787.8832989535018
 31
0.0
  0
LINE
  5
2D2F6
330
17
100
AcDbEntity
  8
0
100
AcDbLine
 10
750.3213250386993
 20
788.0832989535022
 30
0.0
 11
750.3213250386969
 21
787.8832989535018
 31
0.0
  0
LINE
  5
2D2F7
330
17
100
AcDbEntity
  8
0
100
AcDbLine
 10
1343.721325038699
 20
787.0832989535015
 30
0.0
 11
1343.721325038699
 21
785.0832989535002
 31
0.0
  0
LINE
  5
2D2F8
330
17
100
AcDbEntity
  8
0
100
AcDbLine
 10
750.3213250386969
 20
787.0832989535015
 30
0.0
 11
750.3213250386969
 21
785.0832989535002
 31
0.0
  0
LINE
  5
2D2F9
330
17
100
AcDbEntity
  8
0
100
AcDbLine
 10
749.0213250386987
 20
788.0832989535022
 30
0.0
 11
762.9713250386962
 21
788.0832989535022
 31
0.0
  0
LINE
  5
2D2FA
330
17
100
AcDbEntity
  8
0
100
AcDbLine
 10
749.5213250386978
 20
788.0832989535006
 30
0.0
 11
749.5213250386978
 21
659.0832989535007
 31
0.0
  0
LINE
  5
2D2FB
330
17
100
AcDbEntity
  8
0
100
AcDbLine
 10
1345.021325038697
 20
788.0832989535032
 30
0.0
 11
1331.071325038696
 21
788.0832989535032
 31
0.0
  0
LINE
  5
2D2FC
330
17
100
AcDbEntity
  8
0
100
AcDbLine
 10
1344.521325038696
 20
788.0832989535022
 30
0.0
 11
1344.521325038696
 21
659.0832989535007
 31
0.0
  0
LINE
  5
2D2FD
330
17
100
AcDbEntity
  8
0
100
AcDbLine
 10
1211.021325038704
 20
714.2949059342984
 30
0.0
 11
1192.646325038704
 21
727.4915524879934
 31
0.0
  0
LINE
  5
2D2FE
330
17
100
AcDbEntity
  8
0
100
AcDbLine
 10
1243.021325038704
 20
714.2949059342984
 30
0.0
 11
1261.396325038704
 21
727.4915524879934
 31
0.0
  0
CIRCLE
  5
2D2FF
330
17
100
AcDbEntity
  8
0
100
AcDbCircle
 10
1227.021325038704
 20
733.5832989534995
 30
0.0
 40
17.0
  0
ARC
  5
2D300
330
17
100
AcDbEntity
  8
0
100
AcDbCircle
 10
1227.021325038704
 20
733.5832989534995
 30
0.0
 40
25.0
100
AcDbArc
 50
157.3316500000118
 51
202.6683499999881
  0
ARC
  5
2D301
330
17
100
AcDbEntity
  8
0
100
AcDbCircle
 10
1227.021325038704
 20
733.5832989534995
 30
0.0
 40
25.0
100
AcDbArc
 50
337.3316500000119
 51
22.66834999998812
  0
ARC
  5
2D302
330
17
100
AcDbEntity
  8
0
100
AcDbCircle
 10
1259.725015038705
 20
700.8796189534997
 30
0.0
 40
25.0
100
AcDbArc
 50
112.6683500000216
 51
157.3316500000118
  0
ARC
  5
2D303
330
17
100
AcDbEntity
  8
0
100
AcDbCircle
 10
1194.317635038704
 20
700.8796189534997
 30
0.0
 40
25.0
100
AcDbArc
 50
22.66834999998812
 51
67.33164999997839
  0
LINE
  5
2D304
330
17
100
AcDbEntity
  8
0
100
AcDbLine
 10
1243.021325038704
 20
710.5832989534994
 30
0.0
 11
1240.441325038704
 21
710.5832989534994
 31
0.0
  0
LINE
  5
2D305
330
17
100
AcDbEntity
  8
0
100
AcDbLine
 10
1243.021325038704
 20
710.5832989534994
 30
0.0
 11
1240.441325038704
 21
710.5832989534994
 31
0.0
  0
LINE
  5
2D306
330
17
100
AcDbEntity
  8
0
100
AcDbLine
 10
1240.441325038704
 20
703.5832989534995
 30
0.0
 11
1243.021325038704
 21
703.5832989534995
 31
0.0
  0
LINE
  5
2D307
330
17
100
AcDbEntity
  8
0
100
AcDbLine
 10
1243.021325038704
 20
702.5832989534992
 30
0.0
 11
1242.021325038704
 21
701.5832989534997
 31
0.0
  0
LINE
  5
2D308
330
17
100
AcDbEntity
  8
0
100
AcDbLine
 10
1227.021325038704
 20
701.5832989534997
 30
0.0
 11
1242.021325038704
 21
701.5832989534997
 31
0.0
  0
LINE
  5
2D309
330
17
100
AcDbEntity
  8
0
100
AcDbLine
 10
1240.441325038704
 20
703.5832989534995
 30
0.0
 11
1240.441325038704
 21
710.5832989534994
 31
0.0
  0
LINE
  5
2D30A
330
17
100
AcDbEntity
  8
0
100
AcDbLine
 10
1243.021325038704
 20
702.5832989534992
 30
0.0
 11
1243.021325038704
 21
719.4803389534992
 31
0.0
  0
LINE
  5
2D30B
330
17
100
AcDbEntity
  8
0
100
AcDbLine
 10
1211.021325038704
 20
710.5832989534994
 30
0.0
 11
1213.601325038704
 21
710.5832989534994
 31
0.0
  0
LINE
  5
2D30C
330
17
100
AcDbEntity
  8
0
100
AcDbLine
 10
1211.021325038704
 20
710.5832989534994
 30
0.0
 11
1213.601325038704
 21
710.5832989534994
 31
0.0
  0
LINE
  5
2D30D
330
17
100
AcDbEntity
  8
0
100
AcDbLine
 10
1213.601325038704
 20
703.5832989534995
 30
0.0
 11
1211.021325038704
 21
703.5832989534995
 31
0.0
  0
LINE
  5
2D30E
330
17
100
AcDbEntity
  8
0
100
AcDbLine
 10
1211.021325038704
 20
702.5832989534992
 30
0.0
 11
1212.021325038704
 21
701.5832989534997
 31
0.0
  0
LINE
  5
2D30F
330
17
100
AcDbEntity
  8
0
100
AcDbLine
 10
1211.021325038704
 20
702.5832989534992
 30
0.0
 11
1211.021325038704
 21
719.4803389534992
 31
0.0
  0
LINE
  5
2D310
330
17
100
AcDbEntity
  8
0
100
AcDbLine
 10
1213.601325038704
 20
703.5832989534995
 30
0.0
 11
1213.601325038704
 21
710.5832989534994
 31
0.0
  0
LINE
  5
2D311
330
17
100
AcDbEntity
  8
0
100
AcDbLine
 10
1227.021325038704
 20
701.5832989534997
 30
0.0
 11
1212.021325038704
 21
701.5832989534997
 31
0.0
  0
ARC
  5
2D312
330
17
100
AcDbEntity
  8
0
100
AcDbCircle
 10
1227.021325038704
 20
733.5832989534995
 30
0.0
 40
25.0
100
AcDbArc
 50
247.3316499999784
 51
292.6683500000216
  0
LINE
  5
2D313
330
17
100
AcDbEntity
  8
0
100
AcDbLine
 10
1241.604658372037
 20
753.8891205051844
 30
0.0
 11
1261.396325038704
 21
739.6750454190048
 31
0.0
  0
ARC
  5
2D314
330
17
100
AcDbEntity
  8
0
100
AcDbCircle
 10
1259.725015038705
 20
766.2869889534999
 30
0.0
 40
25.0
100
AcDbArc
 50
202.6683499999881
 51
247.3316499999784
  0
LINE
  5
2D315
330
17
100
AcDbEntity
  8
0
100
AcDbLine
 10
1212.437991705371
 20
753.8891205051844
 30
0.0
 11
1192.646325038704
 21
739.6750454190048
 31
0.0
  0
ARC
  5
2D316
330
17
100
AcDbEntity
  8
0
100
AcDbCircle
 10
1194.317635038704
 20
766.2869889534999
 30
0.0
 40
25.0
100
AcDbArc
 50
292.6683500000216
 51
337.3316500000119
  0
CIRCLE
  5
2D317
330
17
100
AcDbEntity
  8
0
100
AcDbCircle
 10
1197.021325038704
 20
733.5832989534988
 30
0.0
 40
2.5
  0
ARC
  5
2D318
330
17
100
AcDbEntity
  8
0
100
AcDbCircle
 10
1197.021325038704
 20
733.5832989534988
 30
0.0
 40
7.5
100
AcDbArc
 50
125.6853347126947
 51
234.3146652873052
  0
ARC
  5
2D319
330
17
100
AcDbEntity
  8
0
100
AcDbCircle
 10
1227.021325038704
 20
733.5832989534988
 30
0.0
 40
25.0
100
AcDbArc
 50
112.6683608344143
 51
125.6853347126947
  0
ARC
  5
2D31A
330
17
100
AcDbEntity
  8
0
100
AcDbCircle
 10
1227.021325038704
 20
733.5832989534988
 30
0.0
 40
25.0
100
AcDbArc
 50
54.31466528730524
 51
67.3316391655857
  0
LINE
  5
2D31B
330
17
100
AcDbEntity
  8
0
100
AcDbLine
 10
1237.895835038704
 20
740.7068589534993
 30
0.0
 11
1237.059335038704
 21
740.1588989534993
 31
0.0
  0
LINE
  5
2D31C
330
17
100
AcDbEntity
  8
0
100
AcDbLine
 10
1236.680585038704
 20
736.1714889534996
 30
0.0
 11
1237.895835038704
 21
740.7068589534993
 31
0.0
  0
TEXT
  5
2D31D
330
17
100
AcDbEntity
  8
0
100
AcDbText
 10
1237.021325038704
 20
736.0832989534993
 30
0.0
 40
5.0
  1
閉
 50
270.0
 41
1.153846153846153
 72
     5
 11
1237.021325038704
 21
731.0832989534993
 31
0.0
100
AcDbText
  0
LINE
  5
2D31E
330
17
100
AcDbEntity
  8
0
100
AcDbLine
 10
1229.609515038704
 20
743.2425589534999
 30
0.0
 11
1230.127155038704
 21
745.1744089534997
 31
0.0
  0
ARC
  5
2D31F
330
17
100
AcDbEntity
  8
0
100
AcDbCircle
 10
1227.021325038704
 20
733.5832989534995
 30
0.0
 40
10.0
100
AcDbArc
 50
14.99999999999453
 51
75.00000000000554
  0
ARC
  5
2D320
330
17
100
AcDbEntity
  8
0
100
AcDbCircle
 10
1227.021325038704
 20
733.5832989534995
 30
0.0
 40
12.0
100
AcDbArc
 50
33.22759000000075
 51
75.00000000000554
  0
TEXT
  5
2D321
330
17
100
AcDbEntity
  8
0
100
AcDbText
 10
1217.021325038704
 20
731.0832989534993
 30
0.0
 40
5.0
  1
開
 50
90.0
 41
1.153846153846153
 72
     5
 11
1217.021325038704
 21
736.0832989534993
 31
0.0
100
AcDbText
  0
LINE
  5
2D322
330
17
100
AcDbEntity
  8
0
100
AcDbLine
 10
1223.915495038703
 20
745.1744089534997
 30
0.0
 11
1224.433135038704
 21
743.2425589534999
 31
0.0
  0
LINE
  5
2D323
330
17
100
AcDbEntity
  8
0
100
AcDbLine
 10
1216.146815038704
 20
740.7068589534993
 30
0.0
 11
1216.983315038703
 21
740.1588989534993
 31
0.0
  0
LINE
  5
2D324
330
17
100
AcDbEntity
  8
0
100
AcDbLine
 10
1217.362065038703
 20
736.1714889534996
 30
0.0
 11
1216.146815038704
 21
740.7068589534993
 31
0.0
  0
ARC
  5
2D325
330
17
100
AcDbEntity
  8
0
100
AcDbCircle
 10
1227.021325038704
 20
733.5832989534995
 30
0.0
 40
10.0
100
AcDbArc
 50
104.9999999999944
 51
165.0000000000054
  0
ARC
  5
2D326
330
17
100
AcDbEntity
  8
0
100
AcDbCircle
 10
1227.021325038704
 20
733.5832989534995
 30
0.0
 40
12.0
100
AcDbArc
 50
104.9999999999944
 51
146.7724099999992
  0
ARC
  5
2D327
330
17
100
AcDbEntity
  8
0
100
AcDbCircle
 10
1227.021325038704
 20
733.5832989534995
 30
0.0
 40
25.0
100
AcDbArc
 50
67.33164999997839
 51
112.6683500000216
  0
LINE
  5
2D328
330
17
100
AcDbEntity
  8
0
100
AcDbLine
 10
1219.01973583686
 20
757.2687375182246
 30
0.0
 11
1219.01973583686
 21
784.0832989535814
 31
0.0
  0
LINE
  5
2D329
330
17
100
AcDbEntity
  8
0
100
AcDbLine
 10
1235.019735836861
 20
757.2687375182246
 30
0.0
 11
1235.019735836861
 21
784.0832989535814
 31
0.0
  0
ARC
  5
2D32A
330
17
100
AcDbEntity
  8
0
100
AcDbCircle
 10
1257.021325038704
 20
733.5832989534988
 30
0.0
 40
7.5
100
AcDbArc
 50
305.6853347126948
 51
54.31466528730524
  0
CIRCLE
  5
2D32B
330
17
100
AcDbEntity
  8
0
100
AcDbCircle
 10
1257.021325038704
 20
733.5832989534988
 30
0.0
 40
2.5
  0
LINE
  5
2D32C
330
17
100
AcDbEntity
  8
0
100
AcDbLine
 10
1321.021325038698
 20
784.0832989535003
 30
0.0
 11
773.0213250386946
 21
784.0832989535007
 31
0.0
  0
LINE
  5
2D32D
330
17
100
AcDbEntity
  8
0
100
AcDbLine
 10
749.0213250386982
 20
788.0832989535011
 30
0.0
 11
773.0213250386946
 21
788.0832989535002
 31
0.0
  0
CIRCLE
  5
2D32E
330
17
100
AcDbEntity
  8
0
100
AcDbCircle
 10
897.0213250386992
 20
797.083298953501
 30
0.0
 40
3.0
  0
LINE
  5
2D32F
330
17
100
AcDbEntity
  8
0
100
AcDbLine
 10
1345.021325038699
 20
788.0832989535002
 30
0.0
 11
1321.021325038698
 21
788.0832989535002
 31
0.0
  0
CIRCLE
  5
2D330
330
17
100
AcDbEntity
  8
0
100
AcDbCircle
 10
1197.021325038697
 20
797.083298953501
 30
0.0
 40
3.0
  0
LINE
  5
2D331
330
17
100
AcDbEntity
  8
0
100
AcDbLine
 10
1321.021325038698
 20
784.0832989535003
 30
0.0
 11
1321.021325038698
 21
788.0832989535002
 31
0.0
  0
LINE
  5
2D332
330
17
100
AcDbEntity
  8
0
100
AcDbLine
 10
773.0213250386946
 20
784.0832989535007
 30
0.0
 11
773.0213250386946
 21
788.0832989535011
 31
0.0
  0
CIRCLE
  5
2EB59
330
17
100
AcDbEntity
  8
0
100
AcDbCircle
 10
790.5213250386887
 20
1594.085480395526
 30
0.0
 40
2.999999999999999
  0
DIMENSION
  5
2EC54
330
17
100
AcDbEntity
  8
DIM
100
AcDbDimension
  2
*D26
 10
1347.021325038693
 20
4201.340828670706
 30
0.0
 11
1047.021325038693
 21
4239.590828670706
 31
0.0
 70
    32
  1
（604）
 71
     5
 42
599.9999999999986
 73
     0
 74
     0
 75
     0
  3
STANDARD
100
AcDbAlignedDimension
 13
747.021325038694
 23
3938.174456379064
 33
0.0
 14
1347.021325038693
 24
3938.174456379065
 34
0.0
100
AcDbRotatedDimension
1001
ACAD
1000
DSTYLE
1002
{
1070
    41
1040
3.0
1070
    42
1040
2.0
1070
    43
1040
10.0
1070
    44
1040
2.0
1070
    73
1070
     0
1070
    74
1070
     0
1070
    77
1070
     1
1070
    78
1070
     8
1070
    79
1070
     2
1070
   140
1040
2.5
1070
   147
1040
0.9999999999999996
1070
   172
1070
     1
1070
   179
1070
     4
1070
   271
1070
     0
1070
   272
1070
     2
1070
   341
1005
4A
1070
   342
1005
4A
1002
}
  0
LINE
  5
2EC55
330
17
100
AcDbEntity
  8
0
100
AcDbLine
 10
747.021325038694
 20
3938.174456379064
 30
0.0
 11
987.0213250386932
 21
3938.174456379064
 31
0.0
  0
LINE
  5
2EC56
330
17
100
AcDbEntity
  8
0
100
AcDbLine
 10
747.021325038694
 20
3938.174456379064
 30
0.0
 11
747.021325038694
 21
3298.174456379064
 31
0.0
  0
DIMENSION
  5
2EC57
330
17
100
AcDbEntity
  8
DIM
100
AcDbDimension
  2
*D27
 10
1522.280427849044
 20
3937.074456379062
 30
0.0
 11
1522.280427849044
 21
4274.376452334564
 31
0.0
 70
   160
  1
最大<>mm
 71
     5
 42
90.0
 73
     0
 74
     0
 75
     0
  3
STANDARD
100
AcDbAlignedDimension
 13
1107.021325038695
 23
4027.074456379062
 33
0.0
 14
1107.021325038695
 24
3937.074456379062
 34
0.0
 50
90.0
100
AcDbRotatedDimension
1001
ACAD
1000
DSTYLE
1002
{
1070
    41
1040
3.0
1070
    42
1040
2.0
1070
    43
1040
10.0
1070
    44
1040
2.0
1070
    73
1070
     0
1070
    74
1070
     0
1070
    77
1070
     1
1070
    78
1070
     8
1070
    79
1070
     2
1070
   140
1040
2.5
1070
   147
1040
0.9999999999999996
1070
   172
1070
     1
1070
   179
1070
     4
1070
   271
1070
     0
1070
   272
1070
     2
1070
   341
1005
4A
1070
   342
1005
4A
1002
}
  0
LINE
  5
2EC58
330
17
100
AcDbEntity
  8
0
100
AcDbLine
 10
1050.021325038695
 20
3896.674456379064
 30
0.0
 11
1050.021325038693
 21
3806.674456379064
 31
0.0
  0
LINE
  5
2EC59
330
17
100
AcDbEntity
  8
0
100
AcDbLine
 10
1044.021325038695
 20
3896.674456379064
 30
0.0
 11
1044.021325038693
 21
3806.674456379064
 31
0.0
  0
LINE
  5
2EC5A
330
17
100
AcDbEntity
  8
0
100
AcDbLine
 10
987.0213250386932
 20
3938.674456379064
 30
0.0
 11
987.0213250386932
 21
3793.674456379064
 31
0.0
  0
LINE
  5
2EC5B
330
17
100
AcDbEntity
  8
0
100
AcDbLine
 10
1107.021325038695
 20
3938.674456379064
 30
0.0
 11
1107.021325038695
 21
3793.674456379064
 31
0.0
  0
LINE
  5
2EC5C
330
17
100
AcDbEntity
  8
0
100
AcDbLine
 10
1347.021325038693
 20
3938.174456379065
 30
0.0
 11
1347.021325038693
 21
3298.174456379064
 31
0.0
  0
LINE
  5
2EC5D
330
17
100
AcDbEntity
  8
0
100
AcDbLine
 10
1107.021325038695
 20
3793.674456379064
 30
0.0
 11
987.0213250386932
 21
3793.674456379064
 31
0.0
  0
ARC
  5
2EC5E
330
17
100
AcDbEntity
  8
0
100
AcDbCircle
 10
1047.021325038692
 20
3806.674456379064
 30
0.0
 40
3.0
100
AcDbArc
 50
180.0
 51
0.0
  0
LINE
  5
2EC5F
330
17
100
AcDbEntity
  8
0
100
AcDbLine
 10
1107.021325038695
 20
3938.174456379064
 30
0.0
 11
1347.021325038693
 21
3938.174456379064
 31
0.0
  0
LINE
  5
2EC60
330
17
100
AcDbEntity
  8
HID
100
AcDbLine
 10
1107.021325038695
 20
4027.074456379062
 30
0.0
 11
987.0213250386932
 21
4027.074456379062
 31
0.0
  0
LINE
  5
2EC61
330
17
100
AcDbEntity
  8
0
100
AcDbLine
 10
987.0213250386932
 20
3938.674456379064
 30
0.0
 11
1107.021325038695
 21
3938.674456379064
 31
0.0
  0
LINE
  5
2EC62
330
17
100
AcDbEntity
  8
HID
100
AcDbLine
 10
987.0213250386932
 20
3938.674456379064
 30
0.0
 11
987.0213250386932
 21
4027.074456379062
 31
0.0
  0
LINE
  5
2EC63
330
17
100
AcDbEntity
  8
0
100
AcDbLine
 10
999.0213250386933
 20
3916.674456379064
 30
0.0
 11
999.0213250386933
 21
3826.674456379064
 31
0.0
  0
LINE
  5
2EC64
330
17
100
AcDbEntity
  8
0
100
AcDbLine
 10
1005.021325038693
 20
3916.674456379064
 30
0.0
 11
1005.021325038693
 21
3826.674456379064
 31
0.0
  0
ARC
  5
2EC65
330
17
100
AcDbEntity
  8
0
100
AcDbCircle
 10
1002.021325038692
 20
3826.674456379064
 30
0.0
 40
3.0
100
AcDbArc
 50
180.0
 51
0.0
  0
ARC
  5
2EC66
330
17
100
AcDbEntity
  8
0
100
AcDbCircle
 10
1002.021325038692
 20
3916.674456379064
 30
0.0
 40
3.0
100
AcDbArc
 50
0.0
 51
180.0
  0
LINE
  5
2EC67
330
17
100
AcDbEntity
  8
0
100
AcDbLine
 10
1089.021325038695
 20
3916.674456379064
 30
0.0
 11
1089.021325038695
 21
3826.674456379064
 31
0.0
  0
LINE
  5
2EC68
330
17
100
AcDbEntity
  8
0
100
AcDbLine
 10
1095.021325038695
 20
3916.674456379064
 30
0.0
 11
1095.021325038693
 21
3826.674456379064
 31
0.0
  0
ARC
  5
2EC69
330
17
100
AcDbEntity
  8
0
100
AcDbCircle
 10
1047.021325038692
 20
3896.674456379064
 30
0.0
 40
3.0
100
AcDbArc
 50
0.0
 51
180.0
  0
ARC
  5
2EC6A
330
17
100
AcDbEntity
  8
0
100
AcDbCircle
 10
1092.021325038692
 20
3826.674456379064
 30
0.0
 40
3.0
100
AcDbArc
 50
180.0
 51
0.0
  0
ARC
  5
2EC6B
330
17
100
AcDbEntity
  8
0
100
AcDbCircle
 10
1092.021325038692
 20
3916.674456379064
 30
0.0
 40
3.0
100
AcDbArc
 50
0.0
 51
180.0
  0
LINE
  5
2EC6C
330
17
100
AcDbEntity
  8
HID
100
AcDbLine
 10
1107.021325038695
 20
4027.074456379062
 30
0.0
 11
1107.021325038695
 21
3938.674456379064
 31
0.0
  0
LEADER
  5
2EC6D
330
17
100
AcDbEntity
  8
DIM
100
AcDbLeader
  3
STANDARD
 73
     0
 75
     1
 40
42.5
 41
276.5333333333334
 76
     3
 10
1047.021325038694
 20
4027.074456379062
 30
0.0
 10
957.6164359992798
 20
4275.283758080251
 30
0.0
 10
906.6164359992798
 20
4275.283758080251
 30
0.0
340
2EC6E
1001
ACAD
1000
DSTYLE
1002
{
1070
    41
1040
3.0
1070
    42
1040
2.0
1070
    43
1040
10.0
1070
    44
1040
2.0
1070
    73
1070
     0
1070
    74
1070
     0
1070
    77
1070
     1
1070
    78
1070
     8
1070
    79
1070
     2
1070
   140
1040
3.2
1070
   147
1040
0.9999999999999996
1070
   172
1070
     1
1070
   179
1070
     4
1070
   271
1070
     2
1070
   272
1070
     2
1070
   341
1005
4A
1070
   342
1005
4A
1002
}
  0
MTEXT
  5
2EC6E
102
{ACAD_REACTORS
330
2EC6D
102
}
330
17
100
AcDbEntity
  8
DIM
100
AcDbMText
 10
889.6164359992798
 20
4292.283758080253
 30
0.0
 40
42.5
 41
316.449843445229
 46
0.0
 71
     9
 72
     1
  1
上部振止め金具
 73
     1
 44
1.0
  0
LINE
  5
2EC6F
330
17
100
AcDbEntity
  8
0
100
AcDbLine
 10
747.021325038694
 20
3298.174456379064
 30
0.0
 11
1347.021325038693
 21
3298.174456379064
 31
0.0
  0
DIMENSION
  5
2EC70
330
17
100
AcDbEntity
  8
DIM
100
AcDbDimension
  2
*D28
 10
1518.840102102333
 20
3298.174456379064
 30
0.0
 11
1480.590102102333
 21
3618.174456379064
 31
0.0
 70
    32
  1
（644）
 71
     5
 42
640.0
 73
     0
 74
     0
 75
     0
  3
STANDARD
100
AcDbAlignedDimension
 13
1347.021325038693
 23
3938.174456379064
 33
0.0
 14
1347.021325038693
 24
3298.174456379064
 34
0.0
 50
90.0
100
AcDbRotatedDimension
1001
ACAD
1000
DSTYLE
1002
{
1070
    41
1040
3.0
1070
    42
1040
2.0
1070
    43
1040
10.0
1070
    44
1040
2.0
1070
    73
1070
     0
1070
    74
1070
     0
1070
    77
1070
     1
1070
    78
1070
     8
1070
    79
1070
     2
1070
   140
1040
2.5
1070
   147
1040
0.9999999999999996
1070
   172
1070
     1
1070
   179
1070
     4
1070
   271
1070
     0
1070
   272
1070
     2
1070
   341
1005
4A
1070
   342
1005
4A
1002
}
  0
ARC
  5
2EDC4
330
17
100
AcDbEntity
  8
0
100
AcDbCircle
 10
1346.672635058101
 20
2112.90850623958
 30
0.0
 40
90.83333333333326
100
AcDbArc
 50
236.6015115319383
 51
268.9583305640212
  0
ARC
  5
2EDC5
330
17
100
AcDbEntity
  8
0
100
AcDbCircle
 10
1346.672635058101
 20
2224.546985730015
 30
0.0
 40
90.83333333333326
100
AcDbArc
 50
236.6015115319383
 51
268.9583305640212
  0
ARC
  5
2EDC8
330
17
100
AcDbEntity
  8
0
100
AcDbCircle
 10
727.3041213464503
 20
1307.523322089364
 30
0.0
 40
90.83333333333326
100
AcDbArc
 50
56.60151153206316
 51
76.16725196995073
  0
ARC
  5
2EDC9
330
17
100
AcDbEntity
  8
0
100
AcDbCircle
 10
727.304121346438
 20
1484.23922683739
 30
0.0
 40
90.83333333333326
100
AcDbArc
 50
56.60151153206316
 51
76.16725196995068
  0
LINE
  5
2EDEA
330
17
100
AcDbEntity
  8
0
100
AcDbLine
 10
749.0213250386987
 20
683.0832989535011
 30
0.0
 11
749.5213250386978
 21
683.0832989535011
 31
0.0
  0
LINE
  5
2EDEB
330
17
100
AcDbEntity
  8
0
100
AcDbLine
 10
1345.021325038697
 20
683.0832989535008
 30
0.0
 11
1344.521325038697
 21
683.0832989534989
 31
0.0
  0
DIMENSION
  5
2EDF8
330
17
100
AcDbEntity
  8
DIM
100
AcDbDimension
  2
*D29
 10
1542.00831746913
 20
532.0832989535021
 30
0.0
 11
1542.00831746913
 21
398.9404418106453
 31
0.0
 70
   160
 71
     5
 42
169.4999999999975
 73
     0
 74
     0
 75
     0
  3
STANDARD
100
AcDbAlignedDimension
 13
1227.021325038704
 23
701.5832989534997
 33
0.0
 14
1374.631505057291
 24
532.0832989535022
 34
0.0
 50
90.0
100
AcDbRotatedDimension
1001
ACAD
1000
DSTYLE
1002
{
1070
    41
1040
3.0
1070
    42
1040
2.0
1070
    43
1040
10.0
1070
    44
1040
2.0
1070
    73
1070
     0
1070
    74
1070
     0
1070
    77
1070
     1
1070
    78
1070
     8
1070
    79
1070
     2
1070
   140
1040
2.5
1070
   147
1040
0.9999999999999996
1070
   172
1070
     1
1070
   179
1070
     4
1070
   271
1070
     0
1070
   272
1070
     2
1070
   341
1005
4A
1070
   342
1005
4A
1002
}
  0
DIMENSION
  5
2EE19
330
17
100
AcDbEntity
  8
DIM
100
AcDbDimension
  2
*D30
 10
1639.628269368107
 20
532.0832989535016
 30
0.0
 11
1639.628269368107
 21
408.129013239216
 31
0.0
 70
   160
 71
     5
 42
254.9999999999998
 73
     0
 74
     0
 75
     0
  3
STANDARD
100
AcDbAlignedDimension
 13
1344.521325038696
 23
787.0832989535015
 33
0.0
 14
1374.631505057291
 24
532.0832989535017
 34
0.0
 50
90.0
100
AcDbRotatedDimension
1001
ACAD
1000
DSTYLE
1002
{
1070
    41
1040
3.0
1070
    42
1040
2.0
1070
    43
1040
10.0
1070
    44
1040
2.0
1070
    73
1070
     0
1070
    74
1070
     0
1070
    77
1070
     1
1070
    78
1070
     8
1070
    79
1070
     2
1070
   140
1040
2.5
1070
   147
1040
0.9999999999999996
1070
   172
1070
     1
1070
   179
1070
     4
1070
   271
1070
     0
1070
   272
1070
     2
1070
   341
1005
4A
1070
   342
1005
4A
1002
}
  0
LEADER
  5
2EF95
330
17
100
AcDbEntity
  8
DIM
100
AcDbLeader
  3
STANDARD
 73
     0
 75
     1
 40
42.5
 41
355.8666666666666
 76
     3
 10
912.6429799715324
 20
549.6860383882963
 30
0.0
 10
718.7048246203564
 20
382.4665575409394
 30
0.0
 10
684.7048246203565
 20
382.4665575409394
 30
0.0
340
2EF96
1001
ACAD
1000
DSTYLE
1002
{
1070
    41
1040
2.0
1070
   147
1040
1.0
1070
    77
1070
     1
1070
    43
1040
10.0
1070
    73
1070
     0
1070
    74
1070
     0
1070
   172
1070
     1
1070
   179
1070
     1
1070
   271
1070
     1
1070
   272
1070
     1
1070
   341
1005
4A
1070
   342
1005
4A
1002
}
  0
MTEXT
  5
2EF96
102
{ACAD_REACTORS
330
2EF95
102
}
330
17
100
AcDbEntity
  8
DIM
100
AcDbMText
 10
667.7048246203565
 20
399.4665575409395
 30
0.0
 40
42.5
 41
539.5
 46
0.0
 71
     9
 72
     1
  1
排水パンゴムホース
 73
     1
 44
1.0
  0
LEADER
  5
2EF97
330
17
100
AcDbEntity
  8
DIM
100
AcDbLeader
  3
STANDARD
 73
     0
 75
     1
 40
47.22222222222223
 41
35.25925925925926
 76
     3
 10
821.7623776045575
 20
602.5857247044508
 30
0.0
 10
398.0974172129491
 20
848.1940149418829
 30
0.0
 10
364.0974172129491
 20
848.1940149418829
 30
0.0
340
2EF98
1001
ACAD
1000
DSTYLE
1002
{
1070
    41
1040
2.0
1070
   147
1040
1.0
1070
    77
1070
     1
1070
    43
1040
10.0
1070
    73
1070
     0
1070
    74
1070
     0
1070
   172
1070
     1
1070
   179
1070
     1
1070
   271
1070
     1
1070
   272
1070
     1
1070
   341
1005
4A
1070
   342
1005
4A
1002
}
  0
MTEXT
  5
2EF98
102
{ACAD_REACTORS
330
2EF97
102
}
330
17
100
AcDbEntity
  8
DIM
100
AcDbMText
 10
347.0974172129491
 20
865.194014941883
 30
0.0
 40
47.22222222222222
 41
599.4444444444443
 46
0.0
 71
     9
 72
     1
  1
脚
 73
     1
 44
1.0
  0
MTEXT
  5
2EF99
330
17
100
AcDbEntity
  8
DIM
100
AcDbMText
 10
637.9384065830236
 20
319.1409124711704
 30
0.0
 40
42.5
 41
539.5
 46
0.0
 71
     9
 72
     1
  1
（%%c16×0.8m）
 73
     1
 44
1.0
  0
LEADER
  5
2EF9A
330
17
100
AcDbEntity
  8
DIM
100
AcDbLeader
  3
STANDARD
 73
     0
 74
     0
 75
     1
 40
42.50000000000002
 41
154.1333333333333
 76
     3
 10
1241.682570077932
 20
965.0832989534885
 30
0.0
 10
1346.749124016653
 20
1155.016400122274
 30
0.0
 10
1380.749124016653
 20
1155.016400122274
 30
0.0
340
2EF9B
1001
ACAD
1000
DSTYLE
1002
{
1070
    41
1040
2.0
1070
   147
1040
1.0
1070
    77
1070
     1
1070
    43
1040
10.0
1070
    73
1070
     0
1070
    74
1070
     0
1070
   172
1070
     1
1070
   179
1070
     1
1070
   271
1070
     1
1070
   272
1070
     1
1070
   341
1005
4A
1070
   342
1005
0
1002
}
  0
MTEXT
  5
2EF9B
102
{ACAD_REACTORS
330
2EF9A
102
}
330
17
100
AcDbEntity
  8
DIM
100
AcDbMText
 10
1397.749124016653
 20
1193.266400122274
 30
0.0
 40
42.5
 41
539.5
 46
0.0
 71
     4
 72
     1
  1
型式銘板
 73
     1
 44
1.0
  0
LINE
  5
2EF9C
330
17
100
AcDbEntity
  8
0
100
AcDbLine
 10
1277.465587559918
 20
965.0832989534862
 30
0.0
 11
1277.465587559918
 21
835.0832989534861
 31
0.0
  0
LINE
  5
2EF9D
330
17
100
AcDbEntity
  8
0
100
AcDbLine
 10
1192.465587559918
 20
965.0832989534885
 30
0.0
 11
1192.465587559918
 21
835.0832989534861
 31
0.0
  0
LINE
  5
2EF9E
330
17
100
AcDbEntity
  8
0
100
AcDbLine
 10
1192.465587559918
 20
835.0832989534861
 30
0.0
 11
1277.465587559918
 21
835.0832989534861
 31
0.0
  0
LINE
  5
2EF9F
330
17
100
AcDbEntity
  8
0
100
AcDbLine
 10
1192.465587559918
 20
965.0832989534885
 30
0.0
 11
1277.465587559918
 21
965.0832989534885
 31
0.0
  0
LEADER
  5
2EFA0
330
17
100
AcDbEntity
  8
DIM
100
AcDbLeader
  3
STANDARD
 73
     0
 75
     1
 40
113.3333333333333
 41
364.9333333333333
 76
     3
 10
1206.399451388482
 20
744.4002415092072
 30
0.0
 10
727.7714912870233
 20
1058.691891569089
 30
0.0
 10
693.7714912870233
 20
1058.691891569089
 30
0.0
340
2EFA1
213
-53.06399062146488
223
0.0
233
0.0
1001
ACAD
1000
DSTYLE
1002
{
1070
    41
1040
2.0
1070
   147
1040
1.0
1070
    77
1070
     1
1070
    43
1040
10.0
1070
    73
1070
     0
1070
    74
1070
     0
1070
   172
1070
     1
1070
   179
1070
     1
1070
   271
1070
     1
1070
   272
1070
     1
1070
   341
1005
4A
1070
   342
1005
0
1002
}
  0
MTEXT
  5
2EFA1
102
{ACAD_XDICTIONARY
360
2F831
102
}
102
{ACAD_REACTORS
330
2EFA0
102
}
330
17
100
AcDbEntity
  8
DIM
100
AcDbMText
 10
729.8354819084882
 20
1075.691891569089
 30
0.0
 40
42.5
 41
417.1291112552041
 46
0.0
 71
     9
 72
     1
  1
排水栓　Rc3／4\P（膨張水・排水兼用）
 73
     1
 44
1.0
  0
LINE
  5
2EFCD
330
17
100
AcDbEntity
  8
0
100
AcDbLine
 10
1201.536818045622
 20
2281.083353267417
 30
0.0
 11
1201.536818045622
 21
2260.689353267417
 31
0.0
  0
LINE
  5
2EFCE
330
17
100
AcDbEntity
  8
0
100
AcDbLine
 10
1210.436018045622
 20
2281.083353267417
 30
0.0
 11
1210.436018045622
 21
2262.914153267417
 31
0.0
  0
LINE
  5
2EFCF
330
17
100
AcDbEntity
  8
0
100
AcDbLine
 10
1205.615618045623
 20
2281.083353267417
 30
0.0
 11
1205.615618045623
 21
2264.026553267417
 31
0.0
  0
LINE
  5
2EFD0
330
17
100
AcDbEntity
  8
0
100
AcDbLine
 10
1214.514818045622
 20
2281.083353267417
 30
0.0
 11
1214.514818045622
 21
2250.677753267417
 31
0.0
  0
LINE
  5
2EFD1
330
17
100
AcDbEntity
  8
0
100
AcDbLine
 10
1264.94361804562
 20
2260.689353267417
 30
0.0
 11
1264.94361804562
 21
2281.083353267417
 31
0.0
  0
LINE
  5
2EFD2
330
17
100
AcDbEntity
  8
0
100
AcDbLine
 10
1260.864818045621
 20
2249.565353267418
 30
0.0
 11
1260.864818045621
 21
2281.083353267417
 31
0.0
  0
LINE
  5
2EFD3
330
17
100
AcDbEntity
  8
0
100
AcDbLine
 10
1218.222818045621
 20
2249.565353267418
 30
0.0
 11
1227.492818045622
 21
2249.565353267418
 31
0.0
  0
LINE
  5
2EFD4
330
17
100
AcDbEntity
  8
0
100
AcDbLine
 10
1216.368818045622
 20
2268.105353267416
 30
0.0
 11
1220.44761804562
 21
2268.105353267416
 31
0.0
  0
LINE
  5
2EFD5
330
17
100
AcDbEntity
  8
0
100
AcDbLine
 10
1203.390818045622
 20
2258.835353267417
 30
0.0
 11
1210.436018045622
 21
2258.835353267417
 31
0.0
  0
ARC
  5
2EFD6
330
17
100
AcDbEntity
  8
0
100
AcDbCircle
 10
1203.390818045622
 20
2260.689353267417
 30
0.0
 40
1.853999999999998
100
AcDbArc
 50
180.0
 51
270.0
  0
LINE
  5
2EFD7
330
17
100
AcDbEntity
  8
0
100
AcDbLine
 10
1216.368818045622
 20
2268.105353267416
 30
0.0
 11
1216.368818045622
 21
2251.419353267416
 31
0.0
  0
ARC
  5
2EFD8
330
17
100
AcDbEntity
  8
0
100
AcDbCircle
 10
1206.728018045621
 20
2264.026553267417
 30
0.0
 40
1.112399999999998
100
AcDbArc
 50
180.0
 51
270.0
  0
LINE
  5
2EFD9
330
17
100
AcDbEntity
  8
0
100
AcDbLine
 10
1206.728018045621
 20
2262.914153267417
 30
0.0
 11
1210.436018045622
 21
2262.914153267417
 31
0.0
  0
ARC
  5
2EFDA
330
17
100
AcDbEntity
  8
0
100
AcDbCircle
 10
1218.222818045621
 20
2251.419353267416
 30
0.0
 40
1.853999999999998
100
AcDbArc
 50
180.0
 51
270.0
  0
LINE
  5
2EFDB
330
17
100
AcDbEntity
  8
0
100
AcDbLine
 10
1214.514818045622
 20
2250.677753267417
 30
0.0
 11
1214.514818045622
 21
2250.616394382017
 31
0.0
  0
LINE
  5
2EFDC
330
17
100
AcDbEntity
  8
0
100
AcDbLine
 10
1214.514818045622
 20
2250.677753267417
 30
0.0
 11
1214.514818045622
 21
2250.616394382017
 31
0.0
  0
LINE
  5
2EFDD
330
17
100
AcDbEntity
  8
0
100
AcDbLine
 10
1211.345491647036
 20
2241.452865123762
 30
0.0
 11
1210.436018045622
 21
2240.295353267417
 31
0.0
  0
ARC
  5
2EFDE
330
17
100
AcDbEntity
  8
0
100
AcDbCircle
 10
1199.682818045619
 20
2250.616394382017
 30
0.0
 40
14.832
100
AcDbArc
 50
321.8427734125553
 51
0.0
  0
LINE
  5
2EFDF
330
17
100
AcDbEntity
  8
0
100
AcDbLine
 10
1210.436018045622
 20
2258.835353267417
 30
0.0
 11
1210.436018045622
 21
2240.295353267417
 31
0.0
  0
ARC
  5
2EFE0
330
17
100
AcDbEntity
  8
0
100
AcDbCircle
 10
1253.81961804562
 20
2262.914153267417
 30
0.0
 40
1.112399999999998
100
AcDbArc
 50
0.0
 51
90.0
  0
ARC
  5
2EFE1
330
17
100
AcDbEntity
  8
0
100
AcDbCircle
 10
1253.81961804562
 20
2254.756553267417
 30
0.0
 40
1.112399999999998
100
AcDbArc
 50
270.0
 51
0.0
  0
LINE
  5
2EFE2
330
17
100
AcDbEntity
  8
0
100
AcDbLine
 10
1257.156818045621
 20
2249.565353267418
 30
0.0
 11
1247.886818045621
 21
2249.565353267418
 31
0.0
  0
LINE
  5
2EFE3
330
17
100
AcDbEntity
  8
0
100
AcDbLine
 10
1257.156818045621
 20
2268.105353267416
 30
0.0
 11
1247.886818045621
 21
2268.105353267416
 31
0.0
  0
ARC
  5
2EFE4
330
17
100
AcDbEntity
  8
0
100
AcDbCircle
 10
1242.324818045619
 20
2266.251353267417
 30
0.0
 40
1.853999999999998
100
AcDbArc
 50
0.0
 51
90.0
  0
LINE
  5
2EFE5
330
17
100
AcDbEntity
  8
0
100
AcDbLine
 10
1236.392018045621
 20
2264.026553267417
 30
0.0
 11
1238.987618045622
 21
2264.026553267417
 31
0.0
  0
ARC
  5
2EFE6
330
17
100
AcDbEntity
  8
0
100
AcDbCircle
 10
1236.392018045621
 20
2262.914153267417
 30
0.0
 40
1.112399999999998
100
AcDbArc
 50
90.0
 51
180.0
  0
ARC
  5
2EFE7
330
17
100
AcDbEntity
  8
0
100
AcDbCircle
 10
1238.987618045622
 20
2262.914153267417
 30
0.0
 40
1.112399999999998
100
AcDbArc
 50
0.0
 51
90.0
  0
LINE
  5
2EFE8
330
17
100
AcDbEntity
  8
0
100
AcDbLine
 10
1240.10001804562
 20
2249.565353267418
 30
0.0
 11
1244.178818045623
 21
2249.565353267418
 31
0.0
  0
LINE
  5
2EFE9
330
17
100
AcDbEntity
  8
0
100
AcDbLine
 10
1235.279618045622
 20
2249.565353267418
 30
0.0
 11
1235.279618045622
 21
2262.914153267417
 31
0.0
  0
LINE
  5
2EFEA
330
17
100
AcDbEntity
  8
0
100
AcDbLine
 10
1244.178818045623
 20
2249.565353267418
 30
0.0
 11
1244.178818045623
 21
2266.251353267417
 31
0.0
  0
LINE
  5
2EFEB
330
17
100
AcDbEntity
  8
0
100
AcDbLine
 10
1240.10001804562
 20
2249.565353267418
 30
0.0
 11
1240.10001804562
 21
2262.914153267417
 31
0.0
  0
LINE
  5
2EFEC
330
17
100
AcDbEntity
  8
0
100
AcDbLine
 10
1233.054818045623
 20
2268.105353267416
 30
0.0
 11
1242.324818045619
 21
2268.105353267416
 31
0.0
  0
LINE
  5
2EFED
330
17
100
AcDbEntity
  8
0
100
AcDbLine
 10
1225.268018045621
 20
2268.105353267416
 30
0.0
 11
1225.268018045621
 21
2254.756553267417
 31
0.0
  0
LINE
  5
2EFEE
330
17
100
AcDbEntity
  8
0
100
AcDbLine
 10
1220.44761804562
 20
2268.105353267416
 30
0.0
 11
1220.44761804562
 21
2254.756553267417
 31
0.0
  0
LINE
  5
2EFEF
330
17
100
AcDbEntity
  8
0
100
AcDbLine
 10
1229.346818045621
 20
2268.105353267416
 30
0.0
 11
1229.346818045621
 21
2251.419353267416
 31
0.0
  0
ARC
  5
2EFF0
330
17
100
AcDbEntity
  8
0
100
AcDbCircle
 10
1224.155618045622
 20
2254.756553267417
 30
0.0
 40
1.112399999999998
100
AcDbArc
 50
270.0
 51
0.0
  0
ARC
  5
2EFF1
330
17
100
AcDbEntity
  8
0
100
AcDbCircle
 10
1227.492818045622
 20
2251.419353267416
 30
0.0
 40
1.853999999999998
100
AcDbArc
 50
270.0
 51
0.0
  0
ARC
  5
2EFF2
330
17
100
AcDbEntity
  8
0
100
AcDbCircle
 10
1221.560018045622
 20
2254.756553267417
 30
0.0
 40
1.112399999999998
100
AcDbArc
 50
180.0
 51
270.0
  0
LINE
  5
2EFF3
330
17
100
AcDbEntity
  8
0
100
AcDbLine
 10
1221.560018045622
 20
2253.644153267417
 30
0.0
 11
1224.155618045622
 21
2253.644153267417
 31
0.0
  0
LINE
  5
2EFF4
330
17
100
AcDbEntity
  8
0
100
AcDbLine
 10
1231.20081804562
 20
2249.565353267418
 30
0.0
 11
1231.20081804562
 21
2266.251353267417
 31
0.0
  0
LINE
  5
2EFF5
330
17
100
AcDbEntity
  8
0
100
AcDbLine
 10
1225.268018045621
 20
2268.105353267416
 30
0.0
 11
1229.346818045621
 21
2268.105353267416
 31
0.0
  0
ARC
  5
2EFF6
330
17
100
AcDbEntity
  8
0
100
AcDbCircle
 10
1233.054818045623
 20
2266.251353267417
 30
0.0
 40
1.853999999999998
100
AcDbArc
 50
90.0
 51
180.0
  0
LINE
  5
2EFF7
330
17
100
AcDbEntity
  8
0
100
AcDbLine
 10
1231.20081804562
 20
2249.565353267418
 30
0.0
 11
1235.279618045622
 21
2249.565353267418
 31
0.0
  0
ARC
  5
2EFF8
330
17
100
AcDbEntity
  8
0
100
AcDbCircle
 10
1247.886818045621
 20
2266.251353267417
 30
0.0
 40
1.853999999999998
100
AcDbArc
 50
90.0
 51
180.0
  0
ARC
  5
2EFF9
330
17
100
AcDbEntity
  8
0
100
AcDbCircle
 10
1247.886818045621
 20
2251.419353267416
 30
0.0
 40
1.853999999999998
100
AcDbArc
 50
180.0
 51
270.0
  0
LINE
  5
2EFFA
330
17
100
AcDbEntity
  8
0
100
AcDbLine
 10
1246.032818045621
 20
2251.419353267416
 30
0.0
 11
1246.032818045621
 21
2266.251353267417
 31
0.0
  0
ARC
  5
2EFFB
330
17
100
AcDbEntity
  8
0
100
AcDbCircle
 10
1251.22401804562
 20
2262.914153267417
 30
0.0
 40
1.112399999999998
100
AcDbArc
 50
90.0
 51
180.0
  0
LINE
  5
2EFFC
330
17
100
AcDbEntity
  8
0
100
AcDbLine
 10
1253.81961804562
 20
2264.026553267417
 30
0.0
 11
1251.22401804562
 21
2264.026553267417
 31
0.0
  0
ARC
  5
2EFFD
330
17
100
AcDbEntity
  8
0
100
AcDbCircle
 10
1251.22401804562
 20
2254.756553267417
 30
0.0
 40
1.112399999999998
100
AcDbArc
 50
180.0
 51
270.0
  0
LINE
  5
2EFFE
330
17
100
AcDbEntity
  8
0
100
AcDbLine
 10
1253.81961804562
 20
2253.644153267417
 30
0.0
 11
1251.224018045624
 21
2253.644153267417
 31
0.0
  0
LINE
  5
2EFFF
330
17
100
AcDbEntity
  8
0
100
AcDbLine
 10
1254.932018045622
 20
2254.756553267417
 30
0.0
 11
1254.932018045622
 21
2262.914153267417
 31
0.0
  0
LINE
  5
2F000
330
17
100
AcDbEntity
  8
0
100
AcDbLine
 10
1250.111618045622
 20
2254.756553267417
 30
0.0
 11
1250.111618045622
 21
2262.914153267417
 31
0.0
  0
LINE
  5
2F001
330
17
100
AcDbEntity
  8
0
100
AcDbLine
 10
1287.191618045623
 20
2249.565353267418
 30
0.0
 11
1277.921618045622
 21
2249.565353267418
 31
0.0
  0
LINE
  5
2F002
330
17
100
AcDbEntity
  8
0
100
AcDbLine
 10
1287.191618045623
 20
2268.105353267416
 30
0.0
 11
1276.067618045619
 21
2268.105353267416
 31
0.0
  0
LINE
  5
2F003
330
17
100
AcDbEntity
  8
0
100
AcDbLine
 10
1274.584418045621
 20
2268.105353267416
 30
0.0
 11
1270.134818045621
 21
2260.689353267417
 31
0.0
  0
LINE
  5
2F004
330
17
100
AcDbEntity
  8
0
100
AcDbLine
 10
1276.067618045619
 20
2268.105353267416
 30
0.0
 11
1276.067618045619
 21
2264.026553267417
 31
0.0
  0
LINE
  5
2F005
330
17
100
AcDbEntity
  8
0
100
AcDbLine
 10
1277.921618045622
 20
2260.689353267417
 30
0.0
 11
1284.966818045624
 21
2260.689353267417
 31
0.0
  0
LINE
  5
2F006
330
17
100
AcDbEntity
  8
0
100
AcDbLine
 10
1284.966818045624
 20
2264.026553267417
 30
0.0
 11
1276.067618045619
 21
2264.026553267417
 31
0.0
  0
LINE
  5
2F007
330
17
100
AcDbEntity
  8
0
100
AcDbLine
 10
1270.134818045621
 20
2260.689353267417
 30
0.0
 11
1272.359618045622
 21
2260.689353267417
 31
0.0
  0
ARC
  5
2F008
330
17
100
AcDbEntity
  8
0
100
AcDbCircle
 10
1272.359618045622
 20
2258.835353267417
 30
0.0
 40
1.853999999999998
100
AcDbArc
 50
0.0
 51
90.0
  0
ARC
  5
2F009
330
17
100
AcDbEntity
  8
0
100
AcDbCircle
 10
1277.921618045622
 20
2258.835353267417
 30
0.0
 40
1.853999999999998
100
AcDbArc
 50
90.0
 51
180.0
  0
LINE
  5
2F00A
330
17
100
AcDbEntity
  8
0
100
AcDbLine
 10
1284.966818045624
 20
2264.026553267417
 30
0.0
 11
1284.966818045624
 21
2260.689353267417
 31
0.0
  0
LINE
  5
2F00B
330
17
100
AcDbEntity
  8
0
100
AcDbLine
 10
1281.258818045621
 20
2256.610553267418
 30
0.0
 11
1284.966818045624
 21
2256.610553267418
 31
0.0
  0
LINE
  5
2F00C
330
17
100
AcDbEntity
  8
0
100
AcDbLine
 10
1274.21361804562
 20
2249.565353267418
 30
0.0
 11
1270.134818045621
 21
2249.565353267418
 31
0.0
  0
LINE
  5
2F00D
330
17
100
AcDbEntity
  8
0
100
AcDbLine
 10
1270.134818045621
 20
2255.498153267418
 30
0.0
 11
1270.134818045621
 21
2249.565353267418
 31
0.0
  0
ARC
  5
2F00E
330
17
100
AcDbEntity
  8
0
100
AcDbCircle
 10
1277.921618045622
 20
2251.419353267416
 30
0.0
 40
1.853999999999998
100
AcDbArc
 50
180.0
 51
270.0
  0
LINE
  5
2F00F
330
17
100
AcDbEntity
  8
0
100
AcDbLine
 10
1280.146418045622
 20
2255.498153267418
 30
0.0
 11
1280.146418045622
 21
2254.756553267417
 31
0.0
  0
ARC
  5
2F010
330
17
100
AcDbEntity
  8
0
100
AcDbCircle
 10
1281.258818045621
 20
2254.756553267417
 30
0.0
 40
1.112399999999998
100
AcDbArc
 50
180.0
 51
270.0
  0
LINE
  5
2F011
330
17
100
AcDbEntity
  8
0
100
AcDbLine
 10
1284.966818045624
 20
2253.644153267417
 30
0.0
 11
1281.258818045621
 21
2253.644153267417
 31
0.0
  0
LINE
  5
2F012
330
17
100
AcDbEntity
  8
0
100
AcDbLine
 10
1274.21361804562
 20
2258.835353267417
 30
0.0
 11
1274.21361804562
 21
2249.565353267418
 31
0.0
  0
LINE
  5
2F013
330
17
100
AcDbEntity
  8
0
100
AcDbLine
 10
1276.067618045619
 20
2258.835353267417
 30
0.0
 11
1276.067618045619
 21
2251.419353267416
 31
0.0
  0
LINE
  5
2F014
330
17
100
AcDbEntity
  8
0
100
AcDbLine
 10
1284.966818045624
 20
2256.610553267418
 30
0.0
 11
1284.966818045624
 21
2253.644153267417
 31
0.0
  0
ARC
  5
2F015
330
17
100
AcDbEntity
  8
0
100
AcDbCircle
 10
1281.258818045621
 20
2255.498153267418
 30
0.0
 40
1.112399999999998
100
AcDbArc
 50
90.0
 51
180.0
  0
ARC
  5
2F016
330
17
100
AcDbEntity
  8
0
100
AcDbCircle
 10
1287.191618045623
 20
2266.251353267417
 30
0.0
 40
1.853999999999998
100
AcDbArc
 50
0.0
 51
90.0
  0
ARC
  5
2F017
330
17
100
AcDbEntity
  8
0
100
AcDbCircle
 10
1287.191618045623
 20
2251.419353267416
 30
0.0
 40
1.853999999999998
100
AcDbArc
 50
270.0
 51
0.0
  0
LINE
  5
2F018
330
17
100
AcDbEntity
  8
0
100
AcDbLine
 10
1289.045618045622
 20
2266.251353267417
 30
0.0
 11
1289.045618045622
 21
2251.419353267416
 31
0.0
  0
LINE
  5
2F019
330
17
100
AcDbEntity
  8
0
100
AcDbLine
 10
1269.393218045619
 20
2268.105353267416
 30
0.0
 11
1264.94361804562
 21
2260.689353267417
 31
0.0
  0
ARC
  5
2F01A
330
17
100
AcDbEntity
  8
0
100
AcDbCircle
 10
1257.156818045621
 20
2266.251353267417
 30
0.0
 40
1.853999999999998
100
AcDbArc
 50
0.0
 51
90.0
  0
LINE
  5
2F01B
330
17
100
AcDbEntity
  8
0
100
AcDbLine
 10
1264.94361804562
 20
2256.610553267416
 30
0.0
 11
1269.022418045622
 21
2256.610553267418
 31
0.0
  0
LINE
  5
2F01C
330
17
100
AcDbEntity
  8
0
100
AcDbLine
 10
1264.94361804562
 20
2249.565353267418
 30
0.0
 11
1260.864818045621
 21
2249.565353267418
 31
0.0
  0
ARC
  5
2F01D
330
17
100
AcDbEntity
  8
0
100
AcDbCircle
 10
1257.156818045621
 20
2251.419353267416
 30
0.0
 40
1.853999999999998
100
AcDbArc
 50
270.0
 51
0.0
  0
LINE
  5
2F01E
330
17
100
AcDbEntity
  8
0
100
AcDbLine
 10
1259.010818045621
 20
2251.419353267416
 30
0.0
 11
1259.010818045621
 21
2266.251353267417
 31
0.0
  0
LINE
  5
2F01F
330
17
100
AcDbEntity
  8
0
100
AcDbLine
 10
1264.94361804562
 20
2249.565353267418
 30
0.0
 11
1264.94361804562
 21
2256.610553267416
 31
0.0
  0
ARC
  5
2F020
330
17
100
AcDbEntity
  8
0
100
AcDbCircle
 10
1269.022418045622
 20
2255.498153267418
 30
0.0
 40
1.112399999999998
100
AcDbArc
 50
0.0
 51
90.0
  0
LINE
  5
2F021
330
17
100
AcDbEntity
  8
0
100
AcDbLine
 10
1274.584418045621
 20
2268.105353267416
 30
0.0
 11
1269.393218045619
 21
2268.105353267416
 31
0.0
  0
LINE
  5
2F022
330
17
100
AcDbEntity
  8
0
100
AcDbLine
 10
1201.536818045622
 20
2281.083353267417
 30
0.0
 11
1205.615618045623
 21
2281.083353267417
 31
0.0
  0
LINE
  5
2F023
330
17
100
AcDbEntity
  8
0
100
AcDbLine
 10
1210.436018045622
 20
2281.083353267417
 30
0.0
 11
1214.514818045622
 21
2281.083353267417
 31
0.0
  0
LINE
  5
2F024
330
17
100
AcDbEntity
  8
0
100
AcDbLine
 10
1260.864818045621
 20
2281.083353267417
 30
0.0
 11
1264.94361804562
 21
2281.083353267417
 31
0.0
  0
HATCH
  5
2F025
330
17
100
AcDbEntity
  8
0
100
AcDbHatch
 10
0.0
 20
0.0
 30
0.0
210
0.0
220
0.0
230
1.0
  2
SOLID
 70
     1
 71
     0
 91
        8
 92
        7
 72
     1
 73
     1
 93
       14
 10
1214.514818045622
 20
2281.083353267417
 42
0.0
 10
1210.436018045622
 20
2281.083353267417
 42
0.0
 10
1210.436018045622
 20
2262.914153267417
 42
0.0
 10
1206.728018045621
 20
2262.914153267417
 42
-0.4142135623726161
 10
1205.615618045623
 20
2264.026553267417
 42
0.0
 10
1205.615618045623
 20
2281.083353267417
 42
0.0
 10
1201.536818045622
 20
2281.083353267417
 42
0.0
 10
1201.536818045622
 20
2260.689353267417
 42
0.4142135623730232
 10
1203.390818045624
 20
2258.835353267417
 42
0.0
 10
1210.436018045622
 20
2258.835353267417
 42
0.0
 10
1210.436018045622
 20
2240.295353267417
 42
0.0
 10
1211.345491647044
 20
2241.452865123773
 42
0.168047931855629
 10
1214.514818045622
 20
2250.616394382015
 42
0.0
 10
1214.514818045622
 20
2250.677753267417
 42
0.0
 97
        0
 92
        7
 72
     1
 73
     1
 93
       12
 10
1220.44761804562
 20
2268.105353267416
 42
0.0
 10
1216.368818045622
 20
2268.105353267416
 42
0.0
 10
1216.368818045622
 20
2251.419353267416
 42
0.4142135623730232
 10
1218.222818045623
 20
2249.565353267418
 42
0.0
 10
1227.492818045622
 20
2249.565353267418
 42
0.4142135623729873
 10
1229.346818045621
 20
2251.419353267417
 42
0.0
 10
1229.346818045621
 20
2268.105353267416
 42
0.0
 10
1225.268018045621
 20
2268.105353267416
 42
0.0
 10
1225.268018045621
 20
2254.756553267417
 42
-0.4142135623730951
 10
1224.155618045622
 20
2253.644153267417
 42
0.0
 10
1221.560018045622
 20
2253.644153267417
 42
-0.414213562373574
 10
1220.44761804562
 20
2254.756553267417
 42
0.0
 97
        0
 92
        7
 72
     1
 73
     1
 93
       12
 10
1244.178818045623
 20
2266.251353267417
 42
0.4142135623730232
 10
1242.324818045624
 20
2268.105353267416
 42
0.0
 10
1233.054818045623
 20
2268.105353267416
 42
0.4142135623735621
 10
1231.20081804562
 20
2266.251353267417
 42
0.0
 10
1231.20081804562
 20
2249.565353267418
 42
0.0
 10
1235.279618045622
 20
2249.565353267418
 42
0.0
 10
1235.279618045622
 20
2262.914153267417
 42
-0.4142135623730951
 10
1236.392018045624
 20
2264.026553267417
 42
0.0
 10
1238.987618045622
 20
2264.026553267417
 42
-0.4142135623726161
 10
1240.10001804562
 20
2262.914153267417
 42
0.0
 10
1240.10001804562
 20
2249.565353267418
 42
0.0
 10
1244.178818045623
 20
2249.565353267418
 42
0.0
 97
        0
 92
        7
 72
     1
 73
     1
 93
        8
 10
1259.010818045621
 20
2266.251353267417
 42
0.4142135623730232
 10
1257.156818045621
 20
2268.105353267416
 42
0.0
 10
1247.886818045621
 20
2268.105353267416
 42
0.4142135623729873
 10
1246.032818045621
 20
2266.251353267417
 42
0.0
 10
1246.032818045621
 20
2251.419353267416
 42
0.4142135623730232
 10
1247.886818045623
 20
2249.565353267418
 42
0.0
 10
1257.156818045621
 20
2249.565353267418
 42
0.4142135623729873
 10
1259.010818045621
 20
2251.419353267417
 42
0.0
 97
        0
 92
       22
 72
     1
 73
     1
 93
        8
 10
1251.22401804562
 20
2264.026553267417
 42
0.0
 10
1253.81961804562
 20
2264.026553267417
 42
-0.414213562373574
 10
1254.932018045622
 20
2262.914153267417
 42
0.0
 10
1254.932018045622
 20
2254.756553267417
 42
-0.4142135623730951
 10
1253.819618045624
 20
2253.644153267417
 42
0.0
 10
1251.22401804562
 20
2253.644153267417
 42
-0.4142135623726161
 10
1250.111618045622
 20
2254.756553267417
 42
0.0
 10
1250.111618045622
 20
2262.914153267417
 42
-0.4142135623726161
 97
        0
 92
        7
 72
     1
 73
     1
 93
       15
 10
1264.94361804562
 20
2281.083353267417
 42
0.0
 10
1260.864818045621
 20
2281.083353267417
 42
0.0
 10
1260.864818045621
 20
2249.565353267418
 42
0.0
 10
1264.94361804562
 20
2249.565353267418
 42
0.0
 10
1264.94361804562
 20
2256.610553267416
 42
0.0
 10
1269.022418045622
 20
2256.610553267418
 42
-0.414213562372736
 10
1270.134818045621
 20
2255.498153267418
 42
0.0
 10
1270.134818045623
 20
2249.565353267418
 42
0.0
 10
1274.213618045622
 20
2249.565353267418
 42
0.0
 10
1274.21361804562
 20
2258.835353267417
 42
0.4142135623730232
 10
1272.359618045622
 20
2260.689353267417
 42
0.0
 10
1270.134818045621
 20
2260.689353267417
 42
0.0
 10
1274.584418045621
 20
2268.105353267416
 42
0.0
 10
1269.393218045619
 20
2268.105353267416
 42
0.0
 10
1264.94361804562
 20
2260.689353267417
 42
0.0
 97
        0
 92
        7
 72
     1
 73
     1
 93
       12
 10
1289.045618045622
 20
2266.251353267417
 42
0.4142135623730232
 10
1287.191618045623
 20
2268.105353267416
 42
0.0
 10
1276.067618045619
 20
2268.105353267416
 42
0.0
 10
1276.067618045619
 20
2264.026553267417
 42
0.0
 10
1284.966818045624
 20
2264.026553267417
 42
0.0
 10
1284.966818045624
 20
2260.689353267417
 42
0.0
 10
1277.921618045622
 20
2260.689353267417
 42
0.4142135623735621
 10
1276.067618045619
 20
2258.835353267417
 42
0.0
 10
1276.067618045619
 20
2251.419353267416
 42
0.4142135623730232
 10
1277.92161804562
 20
2249.565353267418
 42
0.0
 10
1287.191618045623
 20
2249.565353267418
 42
0.4142135623729873
 10
1289.045618045622
 20
2251.419353267417
 42
0.0
 97
        0
 92
       22
 72
     1
 73
     1
 93
        6
 10
1284.966818045624
 20
2256.610553267418
 42
0.0
 10
1284.966818045624
 20
2253.644153267417
 42
0.0
 10
1281.258818045621
 20
2253.644153267417
 42
-0.4142135623726161
 10
1280.146418045622
 20
2254.756553267417
 42
0.0
 10
1280.146418045622
 20
2255.498153267418
 42
-0.4142135623730951
 10
1281.258818045624
 20
2256.610553267418
 42
0.0
 97
        0
 75
     0
 76
     1
 47
0.1735308709791136
 98
        8
 10
1212.090581587724
 20
2265.700830625006
 10
1218.859434235177
 20
2264.833189434054
 10
1233.264961974928
 20
2265.180257287844
 10
1247.67048971468
 20
2266.047898478796
 10
1247.67048971468
 20
2266.047898478796
 10
1263.290968877211
 20
2268.4773450118
 10
1282.382640365722
 20
2265.353791214739
 10
1282.382640365722
 20
2265.353791214739
450
        0
451
        0
460
0.0
461
0.0
452
        0
462
0.0
453
        0
470

  0
LINE
  5
2F088
330
17
100
AcDbEntity
  8
0
100
AcDbLine
 10
773.3117801147202
 20
652.5832989535009
 30
0.0
 11
806.3117801147193
 21
652.5832989535009
 31
0.0
  0
LINE
  5
2F089
330
17
100
AcDbEntity
  8
0
100
AcDbLine
 10
751.6611450201111
 20
536.5832989535013
 30
0.0
 11
784.6611450201101
 21
536.5832989535013
 31
0.0
  0
LINE
  5
2F08A
330
17
100
AcDbEntity
  8
0
100
AcDbLine
 10
771.0617801147193
 20
657.0832989535009
 30
0.0
 11
869.1835583796303
 21
657.0832989535009
 31
0.0
  0
LINE
  5
2F08B
330
17
100
AcDbEntity
  8
0
100
AcDbLine
 10
749.4111450201111
 20
532.0832989535009
 30
0.0
 11
869.1835583796311
 21
532.0832989535008
 31
0.0
  0
LINE
  5
2F08C
330
17
100
AcDbEntity
  8
0
100
AcDbLine
 10
762.8448341113266
 20
560.0135417905006
 30
0.0
 11
1019.021325038697
 21
560.0135417905006
 31
0.0
  0
LINE
  5
2F08D
330
17
100
AcDbEntity
  8
0
100
AcDbLine
 10
762.8448341113266
 20
544.0135417905008
 30
0.0
 11
1019.021325038697
 21
544.0135417905008
 31
0.0
  0
LINE
  5
2F08E
330
17
100
AcDbEntity
  8
0
100
AcDbLine
 10
773.3117801147202
 20
652.5832989535009
 30
0.0
 11
751.6611450201102
 21
536.5832989535009
 31
0.0
  0
LINE
  5
2F08F
330
17
100
AcDbEntity
  8
0
100
AcDbLine
 10
771.0617801147202
 20
652.5832989535009
 30
0.0
 11
749.4111450201102
 21
536.5832989535009
 31
0.0
  0
LINE
  5
2F090
330
17
100
AcDbEntity
  8
0
100
AcDbLine
 10
749.4111450201102
 20
536.5832989535009
 30
0.0
 11
749.4111450201111
 21
532.0832989535009
 31
0.0
  0
LINE
  5
2F091
330
17
100
AcDbEntity
  8
0
100
AcDbLine
 10
771.0617801147193
 20
657.0832989535009
 30
0.0
 11
771.0617801147193
 21
652.5832989535009
 31
0.0
  0
ELLIPSE
  5
2F092
330
17
100
AcDbEntity
  8
0
100
AcDbEllipse
 10
762.8448341113266
 20
552.0135417905008
 30
0.0
 11
0.0
 21
-6.770257745728372
 31
0.0
210
0.0
220
0.0
230
1.0
 40
0.4512710656364212
 41
0.0
 42
6.283185307179586
  0
ELLIPSE
  5
2F093
330
17
100
AcDbEntity
  8
0
100
AcDbEllipse
 10
762.8448341113266
 20
552.0135417905008
 30
0.0
 11
0.0
 21
8.0
 31
0.0
210
0.0
220
0.0
230
1.0
 40
0.4979522642465497
 41
0.0
 42
6.283185307179586
  0
LINE
  5
2F095
330
17
100
AcDbEntity
  8
0
100
AcDbLine
 10
1009.521325038696
 20
544.0135417905008
 30
0.0
 11
1009.521325038696
 21
536.5832989535013
 31
0.0
  0
ARC
  5
2F096
330
17
100
AcDbEntity
  8
0
100
AcDbCircle
 10
1018.521325038696
 20
541.0832989535013
 30
0.0
 40
4.5
100
AcDbArc
 50
180.0
 51
270.0
  0
ARC
  5
2F097
330
17
100
AcDbEntity
  8
0
100
AcDbCircle
 10
1075.521325038697
 20
541.0832989535013
 30
0.0
 40
4.5
100
AcDbArc
 50
270.0
 51
0.0
  0
ARC
  5
2F098
330
17
100
AcDbEntity
  8
0
100
AcDbCircle
 10
1019.021325038697
 20
580.0135417905006
 30
0.0
 40
36.0
100
AcDbArc
 50
270.0
 51
0.0
  0
LINE
  5
2F099
330
17
100
AcDbEntity
  8
0
100
AcDbLine
 10
1084.521325038696
 20
651.0832989535011
 30
0.0
 11
1084.521325038696
 21
536.5832989535013
 31
0.0
  0
LINE
  5
2F09A
330
17
100
AcDbEntity
  8
0
100
AcDbLine
 10
869.1835583796303
 20
544.0135417905008
 30
0.0
 11
869.1835583796303
 21
532.0832989535013
 31
0.0
  0
LINE
  5
2F09B
330
17
100
AcDbEntity
  8
0
100
AcDbLine
 10
786.0479508505257
 20
544.0135417905008
 30
0.0
 11
784.6611450201101
 21
536.5832989535009
 31
0.0
  0
LINE
  5
2F09C
330
17
100
AcDbEntity
  8
0
100
AcDbLine
 10
788.2979508505257
 20
544.0135417905008
 30
0.0
 11
786.9111450201101
 21
536.5832989535009
 31
0.0
  0
LINE
  5
2F09D
330
17
100
AcDbEntity
  8
0
100
AcDbLine
 10
786.9111450201101
 20
536.5832989535009
 30
0.0
 11
786.9111450201101
 21
532.0832989535009
 31
0.0
  0
LINE
  5
2F09E
330
17
100
AcDbEntity
  8
0
100
AcDbLine
 10
1080.021325038696
 20
532.0832989535013
 30
0.0
 11
1014.021325038696
 21
532.0832989535013
 31
0.0
  0
LINE
  5
2F09F
330
17
100
AcDbEntity
  8
0
100
AcDbLine
 10
1075.521325038697
 20
536.5832989535013
 30
0.0
 11
1018.521325038696
 21
536.5832989535013
 31
0.0
  0
ARC
  5
2F0A0
330
17
100
AcDbEntity
  8
0
100
AcDbCircle
 10
1014.021325038696
 20
536.5832989535013
 30
0.0
 40
4.5
100
AcDbArc
 50
180.0
 51
270.0
  0
LINE
  5
2F0A1
330
17
100
AcDbEntity
  8
0
100
AcDbLine
 10
1035.021325038697
 20
536.5832989535013
 30
0.0
 11
1035.021325038697
 21
532.0832989535013
 31
0.0
  0
LINE
  5
2F0A2
330
17
100
AcDbEntity
  8
0
100
AcDbLine
 10
1040.021325038696
 20
536.5832989535014
 30
0.0
 11
1040.021325038696
 21
532.0832989535013
 31
0.0
  0
LINE
  5
2F0A3
330
17
100
AcDbEntity
  8
0
100
AcDbLine
 10
1059.021325038697
 20
536.5832989535013
 30
0.0
 11
1059.021325038697
 21
532.0832989535013
 31
0.0
  0
LINE
  5
2F0A4
330
17
100
AcDbEntity
  8
0
100
AcDbLine
 10
1054.021325038696
 20
536.5832989535013
 30
0.0
 11
1054.021325038696
 21
532.0832989535013
 31
0.0
  0
ARC
  5
2F0A5
330
17
100
AcDbEntity
  8
0
100
AcDbCircle
 10
1080.021325038696
 20
536.5832989535013
 30
0.0
 40
4.5
100
AcDbArc
 50
270.0
 51
0.0
  0
LINE
  5
2F0A6
330
17
100
AcDbEntity
  8
0
100
AcDbLine
 10
869.1835583796303
 20
657.0832989535009
 30
0.0
 11
869.1835583796303
 21
560.0135417905006
 31
0.0
  0
LINE
  5
2F0A7
330
17
100
AcDbEntity
  8
0
100
AcDbLine
 10
808.5617801147202
 20
657.0832989535009
 30
0.0
 11
808.5617801147202
 21
652.5832989535074
 31
0.0
  0
LINE
  5
2F0A8
330
17
100
AcDbEntity
  8
0
100
AcDbLine
 10
806.3117801147202
 20
652.5832989535009
 30
0.0
 11
789.0342453463341
 21
560.0135417905006
 31
0.0
  0
LINE
  5
2F0A9
330
17
100
AcDbEntity
  8
0
100
AcDbLine
 10
808.5617801147202
 20
652.5832989535009
 30
0.0
 11
791.2842453463341
 21
560.0135417905006
 31
0.0
  0
LINE
  5
2F0AA
330
17
100
AcDbEntity
  8
0
100
AcDbLine
 10
1011.521325038696
 20
657.0832989535015
 30
0.0
 11
1011.521325038696
 21
652.5832989535015
 31
0.0
  0
ARC
  5
2F0AB
330
17
100
AcDbEntity
  8
0
100
AcDbCircle
 10
1078.521325038696
 20
651.0832989535011
 30
0.0
 40
6.0
100
AcDbArc
 50
0.0
 51
90.0
  0
LINE
  5
2F0AC
330
17
100
AcDbEntity
  8
0
100
AcDbLine
 10
1066.021325038697
 20
657.0832989535015
 30
0.0
 11
1066.021325038697
 21
654.0832989535015
 31
0.0
  0
LINE
  5
2F0AD
330
17
100
AcDbEntity
  8
0
100
AcDbLine
 10
1028.021325038697
 20
657.0832989535015
 30
0.0
 11
1028.021325038697
 21
654.0832989535015
 31
0.0
  0
LINE
  5
2F0AF
330
17
100
AcDbEntity
  8
0
100
AcDbLine
 10
1030.329982087607
 20
652.5832989535013
 30
0.0
 11
1009.521325038696
 21
652.5832989535013
 31
0.0
  0
LINE
  5
2F0B0
330
17
100
AcDbEntity
  8
0
100
AcDbLine
 10
1030.329982087607
 20
652.5832989535015
 30
0.0
 11
1018.521325038696
 21
652.5832989535015
 31
0.0
  0
ARC
  5
2F0B1
330
17
100
AcDbEntity
  8
0
100
AcDbCircle
 10
1019.021325038697
 20
580.0135417905006
 30
0.0
 40
20.0
100
AcDbArc
 50
270.0
 51
0.0
  0
LINE
  5
2F0B2
330
17
100
AcDbEntity
  8
0
100
AcDbLine
 10
1014.021325038696
 20
544.0135417905008
 30
0.0
 11
1014.021325038696
 21
541.0832989535013
 31
0.0
  0
LINE
  5
2F0B3
330
17
100
AcDbEntity
  8
0
100
AcDbLine
 10
1014.021325038696
 20
652.5832989535013
 30
0.0
 11
1014.021325038696
 21
560.0135417905005
 31
0.0
  0
LINE
  5
2F0B4
330
17
100
AcDbEntity
  8
0
100
AcDbLine
 10
1009.521325038696
 20
652.5832989535013
 30
0.0
 11
1009.521325038696
 21
560.0135417905006
 31
0.0
  0
ARC
  5
2F0B5
330
17
100
AcDbEntity
  8
0
100
AcDbCircle
 10
1075.521325038697
 20
648.0832989535013
 30
0.0
 40
4.5
100
AcDbArc
 50
0.0
 51
90.0
  0
LINE
  5
2F0B6
330
17
100
AcDbEntity
  8
0
100
AcDbLine
 10
1054.712667989787
 20
647.0832989535015
 30
0.0
 11
1062.712667989786
 21
647.0832989535015
 31
0.0
  0
LINE
  5
2F0B7
330
17
100
AcDbEntity
  8
0
100
AcDbLine
 10
1039.021325038697
 20
647.0832989535015
 30
0.0
 11
1055.021325038697
 21
647.0832989535015
 31
0.0
  0
LINE
  5
2F0B8
330
17
100
AcDbEntity
  8
0
100
AcDbLine
 10
1040.271325038697
 20
647.7458475519141
 30
0.0
 11
1040.271325038697
 21
647.0832989535015
 31
0.0
  0
LINE
  5
2F0B9
330
17
100
AcDbEntity
  8
0
100
AcDbLine
 10
1053.771325038697
 20
647.7458475519141
 30
0.0
 11
1053.771325038697
 21
647.0832989535015
 31
0.0
  0
LINE
  5
2F0BA
330
17
100
AcDbEntity
  8
0
100
AcDbLine
 10
1053.712667989787
 20
648.0832989535015
 30
0.0
 11
1053.712667989787
 21
654.0832989535015
 31
0.0
  0
ARC
  5
2F0BB
330
17
100
AcDbEntity
  8
0
100
AcDbCircle
 10
1054.712667989787
 20
648.0832989535015
 30
0.0
 40
1.0
100
AcDbArc
 50
180.0
 51
270.0
  0
LINE
  5
2F0BC
330
17
100
AcDbEntity
  8
0
100
AcDbLine
 10
1039.329982087607
 20
647.0832989535015
 30
0.0
 11
1031.329982087607
 21
647.0832989535015
 31
0.0
  0
LINE
  5
2F0BD
330
17
100
AcDbEntity
  8
0
100
AcDbLine
 10
1030.329982087607
 20
648.0832989535015
 30
0.0
 11
1030.329982087607
 21
654.0832989535015
 31
0.0
  0
ARC
  5
2F0BE
330
17
100
AcDbEntity
  8
0
100
AcDbCircle
 10
1031.329982087607
 20
648.0832989535015
 30
0.0
 40
1.0
100
AcDbArc
 50
180.0
 51
270.0
  0
LINE
  5
2F0BF
330
17
100
AcDbEntity
  8
0
100
AcDbLine
 10
1040.329982087607
 20
648.0832989535015
 30
0.0
 11
1040.329982087607
 21
654.0832989535015
 31
0.0
  0
ARC
  5
2F0C0
330
17
100
AcDbEntity
  8
0
100
AcDbCircle
 10
1039.329982087607
 20
648.0832989535015
 30
0.0
 40
1.0
100
AcDbArc
 50
270.0
 51
0.0
  0
LINE
  5
2F0C1
330
17
100
AcDbEntity
  8
0
100
AcDbLine
 10
1063.712667989787
 20
648.0832989535015
 30
0.0
 11
1063.712667989787
 21
654.0832989535015
 31
0.0
  0
ARC
  5
2F0C2
330
17
100
AcDbEntity
  8
0
100
AcDbCircle
 10
1062.712667989786
 20
648.0832989535015
 30
0.0
 40
1.0
100
AcDbArc
 50
270.0
 51
0.0
  0
LINE
  5
2F0C3
330
17
100
AcDbEntity
  8
0
100
AcDbLine
 10
1039.021325038697
 20
647.0832989535015
 30
0.0
 11
1039.021325038697
 21
643.9995608457182
 31
0.0
  0
LINE
  5
2F0C4
330
17
100
AcDbEntity
  8
0
100
AcDbLine
 10
1055.021325038697
 20
647.0832989535015
 30
0.0
 11
1055.021325038697
 21
643.9995608457182
 31
0.0
  0
LINE
  5
2F0C5
330
17
100
AcDbEntity
  8
0
100
AcDbLine
 10
1066.021325038697
 20
654.0832989535015
 30
0.0
 11
1028.021325038697
 21
654.0832989535015
 31
0.0
  0
LINE
  5
2F0C6
330
17
100
AcDbEntity
  8
0
100
AcDbLine
 10
1075.521325038697
 20
652.5832989535013
 30
0.0
 11
1063.712667989787
 21
652.5832989535013
 31
0.0
  0
LINE
  5
2F0C7
330
17
100
AcDbEntity
  8
0
100
AcDbLine
 10
1080.021325038696
 20
648.0832989535013
 30
0.0
 11
1080.021325038696
 21
541.0832989535013
 31
0.0
  0
LINE
  5
2F0C8
330
17
100
AcDbEntity
  8
0
100
AcDbLine
 10
1080.021325038696
 20
648.0832989535013
 30
0.0
 11
1080.021325038696
 21
541.0832989535013
 31
0.0
  0
LINE
  5
2F0C9
330
17
100
AcDbEntity
  8
0
100
AcDbLine
 10
1039.021325038697
 20
631.9995608457186
 30
0.0
 11
1039.021325038697
 21
580.0135417905006
 31
0.0
  0
LINE
  5
2F0CA
330
17
100
AcDbEntity
  8
0
100
AcDbLine
 10
1055.021325038697
 20
631.9995608457186
 30
0.0
 11
1055.021325038697
 21
580.0135417905006
 31
0.0
  0
LINE
  5
2F0CB
330
17
100
AcDbEntity
  8
ZUKEI
100
AcDbLine
 10
1011.665985979373
 20
657.0832989535009
 30
0.0
 11
1082.376664098029
 21
657.0832989535009
 31
0.0
  0
LINE
  5
2F0CC
330
17
100
AcDbEntity
  8
0
100
AcDbLine
 10
1011.521325038696
 20
657.0832989535015
 30
0.0
 11
1078.521325038696
 21
657.0832989535013
 31
0.0
  0
LINE
  5
2F0CD
330
17
100
AcDbEntity
  8
0
100
AcDbLine
 10
1066.021325038697
 20
657.0832989535015
 30
0.0
 11
1028.021325038697
 21
657.0832989535015
 31
0.0
  0
LINE
  5
2F0CE
330
17
100
AcDbEntity
  8
0
100
AcDbLine
 10
1224.859091697763
 20
657.0832989535015
 30
0.0
 11
1224.859091697763
 21
532.0832989535017
 31
0.0
  0
LINE
  5
2F0CF
330
17
100
AcDbEntity
  8
0
100
AcDbLine
 10
1322.980869962673
 20
652.5832989535015
 30
0.0
 11
1344.631505057283
 21
536.5832989535014
 31
0.0
  0
LINE
  5
2F0D0
330
17
100
AcDbEntity
  8
0
100
AcDbLine
 10
1320.730869962673
 20
652.5832989535015
 30
0.0
 11
1342.381505057284
 21
536.5832989535014
 31
0.0
  0
LINE
  5
2F0D1
330
17
100
AcDbEntity
  8
0
100
AcDbLine
 10
1285.480869962673
 20
652.5832989535015
 30
0.0
 11
1307.131505057284
 21
536.5832989535014
 31
0.0
  0
LINE
  5
2F0D2
330
17
100
AcDbEntity
  8
0
100
AcDbLine
 10
1287.730869962673
 20
652.5832989535015
 30
0.0
 11
1309.381505057283
 21
536.5832989535014
 31
0.0
  0
LINE
  5
2F0D3
330
17
100
AcDbEntity
  8
0
100
AcDbLine
 10
1344.631505057283
 20
532.0832989535015
 30
0.0
 11
1224.859091697762
 21
532.0832989535013
 31
0.0
  0
LINE
  5
2F0D4
330
17
100
AcDbEntity
  8
0
100
AcDbLine
 10
1342.381505057283
 20
536.5832989535017
 30
0.0
 11
1309.381505057283
 21
536.5832989535017
 31
0.0
  0
LINE
  5
2F0D5
330
17
100
AcDbEntity
  8
0
100
AcDbLine
 10
1307.131505057284
 20
536.5832989535014
 30
0.0
 11
1307.131505057284
 21
532.0832989535015
 31
0.0
  0
LINE
  5
2F0D6
330
17
100
AcDbEntity
  8
0
100
AcDbLine
 10
1344.631505057283
 20
536.5832989535014
 30
0.0
 11
1344.631505057283
 21
532.0832989535015
 31
0.0
  0
LINE
  5
2F0D7
330
17
100
AcDbEntity
  8
0
100
AcDbLine
 10
1322.980869962674
 20
657.0832989535015
 30
0.0
 11
1224.859091697763
 21
657.0832989535015
 31
0.0
  0
LINE
  5
2F0D8
330
17
100
AcDbEntity
  8
0
100
AcDbLine
 10
1285.480869962673
 20
657.0832989535015
 30
0.0
 11
1285.480869962673
 21
652.5832989535079
 31
0.0
  0
LINE
  5
2F0D9
330
17
100
AcDbEntity
  8
0
100
AcDbLine
 10
1322.980869962674
 20
657.0832989535015
 30
0.0
 11
1322.980869962674
 21
652.5832989535014
 31
0.0
  0
LINE
  5
2F0DA
330
17
100
AcDbEntity
  8
0
100
AcDbLine
 10
1320.730869962673
 20
652.5832989535015
 30
0.0
 11
1287.730869962674
 21
652.5832989535014
 31
0.0
  0
LINE
  5
2F0DB
330
17
100
AcDbEntity
  8
0
100
AcDbLine
 10
1035.657342901249
 20
645.1995608457187
 30
0.0
 11
1016.029655148588
 21
645.1995608457187
 31
0.0
  0
LINE
  5
2F0DC
330
17
100
AcDbEntity
  8
0
100
AcDbLine
 10
1035.657342901249
 20
630.7995608457181
 30
0.0
 11
1016.029655148588
 21
630.7995608457181
 31
0.0
  0
LINE
  5
2F0DD
330
17
100
AcDbEntity
  8
0
100
AcDbLine
 10
1017.529655148588
 20
630.7995608457181
 30
0.0
 11
1017.529655148588
 21
645.1995608457187
 31
0.0
  0
LINE
  5
2F0DE
330
17
100
AcDbEntity
  8
0
100
AcDbLine
 10
1016.029655148588
 20
630.7995608457181
 30
0.0
 11
1016.029655148588
 21
645.1995608457187
 31
0.0
  0
LINE
  5
2F0DF
330
17
100
AcDbEntity
  8
0
100
AcDbLine
 10
1035.657342901249
 20
630.7995608457181
 30
0.0
 11
1035.657342901249
 21
645.1995608457187
 31
0.0
  0
LINE
  5
2F0E0
330
17
100
AcDbEntity
  8
0
100
AcDbLine
 10
1035.657342901249
 20
631.9995608457187
 30
0.0
 11
1058.521325038697
 21
631.9995608457187
 31
0.0
  0
LINE
  5
2F0E1
330
17
100
AcDbEntity
  8
0
100
AcDbLine
 10
1035.657342901249
 20
643.9995608457185
 30
0.0
 11
1058.521325038697
 21
643.9995608457185
 31
0.0
  0
LINE
  5
2F0E2
330
17
100
AcDbEntity
  8
0
100
AcDbLine
 10
1058.521325038697
 20
643.9995608457185
 30
0.0
 11
1058.521325038697
 21
631.9995608457187
 31
0.0
  0
TEXT
  5
2F126
330
17
100
AcDbEntity
  8
DIM
100
AcDbText
 10
226.040915959261
 20
4763.373551972173
 30
0.0
 40
96.0
  1
『電気温水器
 41
0.8
100
AcDbText
  0
INSERT
  5
2F391
330
17
100
AcDbEntity
  8
Defpoints
100
AcDbBlockReference
  2
waku0
 10
0.0
 20
0.0
 30
0.0
 41
3570.0
 42
5049.0
 43
3570.0
  0
TEXT
  5
2F66D
330
17
100
AcDbEntity
  8
DIM
100
AcDbText
 10
2868.963635574789
 20
155.7417855595699
 30
0.0
 40
66.03660537500275
  1
E34-000385
 41
0.8
100
AcDbText
  0
LWPOLYLINE
  5
2F681
330
17
100
AcDbEntity
  8
0
100
AcDbPolyline
 90
        4
 70
     1
 43
0.0
 10
107.7098773807502
 20
4915.845978532737
 10
3482.189333586318
 20
4915.845978532737
 10
3482.189333586318
 20
119.1368236109677
 10
107.7098773807502
 20
119.1368236109677
  0
ENDSEC
  0
SECTION
  2
OBJECTS
  0
DICTIONARY
  5
C
330
0
100
AcDbDictionary
281
     1
  3
ACAD_COLOR
350
2AB1D
  3
ACAD_GROUP
350
D
  3
ACAD_LAYOUT
350
34
  3
ACAD_MATERIAL
350
2AAF3
  3
ACAD_MLEADERSTYLE
350
2AB42
  3
ACAD_MLINESTYLE
350
1A
  3
ACAD_PLOTSETTINGS
350
35
  3
ACAD_PLOTSTYLENAME
350
32
  3
ACAD_SCALELIST
350
2AB20
  3
ACAD_TABLESTYLE
350
2AB1E
  3
ACAD_VISUALSTYLE
350
2AB0C
  3
AcadDim
350
1D621
  3
ACDB_RECOMPOSE_DATA
350
2F07C
  3
AcDbVariableDictionary
350
44
  0
DICTIONARY
  5
299D4
330
2
100
AcDbDictionary
280
     1
281
     1
  3
ACAD_LAYERSTATES
360
299D5
  0
DICTIONARY
  5
2AB46
330
E
100
AcDbDictionary
280
     1
281
     1
  3
ADSK_XREC_LAYER_RECONCILED
360
2AB47
  0
DICTIONARY
  5
2AB48
330
21
100
AcDbDictionary
280
     1
281
     1
  3
ADSK_XREC_LAYER_RECONCILED
360
2AB49
  0
DICTIONARY
  5
2AB4A
330
22
100
AcDbDictionary
280
     1
281
     1
  3
ADSK_XREC_LAYER_RECONCILED
360
2AB4B
  0
DICTIONARY
  5
2AB4C
330
23
100
AcDbDictionary
280
     1
281
     1
  3
ADSK_XREC_LAYER_RECONCILED
360
2AB4D
  0
DICTIONARY
  5
2AB4E
330
24
100
AcDbDictionary
280
     1
281
     1
  3
ADSK_XREC_LAYER_RECONCILED
360
2AB4F
  0
DICTIONARY
  5
2AB50
330
27
100
AcDbDictionary
280
     1
281
     1
  3
ADSK_XREC_LAYER_RECONCILED
360
2AB51
  0
DICTIONARY
  5
2AB52
330
1FD1
100
AcDbDictionary
280
     1
281
     1
  3
ADSK_XREC_LAYER_RECONCILED
360
2AB53
  0
DICTIONARY
  5
2D2B3
330
17
100
AcDbDictionary
280
     1
281
     1
  3
ACAD_SORTENTS
360
2D2B4
  0
DICTIONARY
  5
2F831
330
2EFA1
100
AcDbDictionary
280
     1
281
     1
  3
ACAD_MTEXT_2008_RT
360
2F832
  0
DICTIONARY
  5
2AB1D
102
{ACAD_REACTORS
330
C
102
}
330
C
100
AcDbDictionary
281
     1
  0
DICTIONARY
  5
D
102
{ACAD_REACTORS
330
C
102
}
330
C
100
AcDbDictionary
281
     1
  3
*A1
350
3917
  3
*A10
350
17876
  3
*A2
350
3E2F
  3
*A3
350
14154
  3
*A4
350
14C46
  3
*A5
350
14C48
  3
*A6
350
14DF1
  3
*A7
350
14DF3
  3
*A8
350
14E80
  3
*A9
350
14E82
  0
DICTIONARY
  5
34
102
{ACAD_REACTORS
330
C
102
}
330
C
100
AcDbDictionary
281
     1
  3
Model
350
36
  3
ﾚｲｱｳﾄ1
350
37
  0
DICTIONARY
  5
2AAF3
102
{ACAD_REACTORS
330
C
102
}
330
C
100
AcDbDictionary
281
     1
  3
ByBlock
350
2AAFC
  3
ByLayer
350
2AAF4
  3
Global
350
2AB04
  0
DICTIONARY
  5
2AB42
102
{ACAD_REACTORS
330
C
102
}
330
C
100
AcDbDictionary
281
     1
  3
Standard
350
2AB43
  0
DICTIONARY
  5
1A
102
{ACAD_REACTORS
330
C
102
}
330
C
100
AcDbDictionary
281
     1
  3
STANDARD
350
1B
  0
DICTIONARY
  5
35
102
{ACAD_REACTORS
330
C
102
}
330
C
100
AcDbDictionary
281
     1
  0
ACDBDICTIONARYWDFLT
  5
32
102
{ACAD_REACTORS
330
C
102
}
330
C
100
AcDbDictionary
281
     1
  3
Normal
350
33
100
AcDbDictionaryWithDefault
340
33
  0
DICTIONARY
  5
2AB20
102
{ACAD_REACTORS
330
C
102
}
330
C
100
AcDbDictionary
281
     1
  3
A0
350
2AB21
  3
A1
350
2AB22
  3
A2
350
2AB23
  3
A3
350
2AB24
  3
A4
350
2AB25
  3
A5
350
2AB26
  3
A6
350
2AB27
  3
A7
350
2AB28
  3
A8
350
2AB29
  3
A9
350
2AB2A
  3
B0
350
2AB2B
  3
B1
350
2AB2C
  3
B2
350
2AB2D
  3
B3
350
2AB2E
  3
B4
350
2AB2F
  3
B5
350
2AB30
  3
B6
350
2AB31
  3
B7
350
2AB32
  3
B8
350
2AB33
  3
B9
350
2AB34
  3
C0
350
2AB35
  3
C1
350
2AB36
  3
C2
350
2AB37
  3
C3
350
2AB38
  3
C4
350
2AB39
  3
C5
350
2AB3A
  3
C6
350
2AB3B
  3
C7
350
2AB3C
  3
C8
350
2AB3D
  3
C9
350
2AB3E
  3
D0
350
2AB3F
  3
D1
350
2AB40
  3
D2
350
2AB41
  0
DICTIONARY
  5
2AB1E
102
{ACAD_REACTORS
330
C
102
}
330
C
100
AcDbDictionary
281
     1
  3
Standard
350
2AB1F
  0
DICTIONARY
  5
2AB0C
102
{ACAD_REACTORS
330
C
102
}
330
C
100
AcDbDictionary
281
     1
  3
2dWireframe
350
2AB12
  3
3D Hidden
350
2AB14
  3
3dWireframe
350
2AB13
  3
Basic
350
2AB11
  3
Brighten
350
2AB18
  3
ColorChange
350
2AB1C
  3
Conceptual
350
2AB15
  3
Dim
350
2AB17
  3
Facepattern
350
2AB1B
  3
Flat
350
2AB0D
  3
FlatWithEdges
350
2AB0E
  3
Gouraud
350
2AB0F
  3
GouraudWithEdges
350
2AB10
  3
Linepattern
350
2AB1A
  3
Realistic
350
2AB16
  3
Thicken
350
2AB19
  0
XRECORD
  5
1D621
102
{ACAD_REACTORS
330
C
102
}
330
C
100
AcDbXrecord
280
     1
 90
   990106
  3

 60
     0
 61
     0
 62
     4
 63
     4
 64
     1
 65
     0
 66
     0
 67
     2
 68
     1
 69
     0
 70
     0
 71
     0
 72
     0
 40
429.0906191452113
170
     0
340
0
  0
XRECORD
  5
2F07C
102
{ACAD_REACTORS
330
C
102
}
330
C
100
AcDbXrecord
280
     1
 90
        1
330
2AB1F
330
2EFA1
  0
DICTIONARY
  5
44
102
{ACAD_REACTORS
330
C
102
}
330
C
100
AcDbDictionary
281
     1
  3
CANNOSCALE
350
2F080
  3
CMLEADERSTYLE
350
2F07E
  3
CTABLESTYLE
350
2F07D
  3
DIMASSOC
350
45
  3
LIGHTINGUNITS
350
2F081
  3
MSLTSCALE
350
2F07F
  3
SORTENTS
350
6F8C
  0
DICTIONARY
  5
299D5
102
{ACAD_REACTORS
330
299D4
102
}
330
299D4
100
AcDbDictionary
281
     1
  0
XRECORD
  5
2AB47
102
{ACAD_REACTORS
330
2AB46
102
}
330
2AB46
100
AcDbXrecord
280
     1
290
     1
  0
XRECORD
  5
2AB49
102
{ACAD_REACTORS
330
2AB48
102
}
330
2AB48
100
AcDbXrecord
280
     1
290
     1
  0
XRECORD
  5
2AB4B
102
{ACAD_REACTORS
330
2AB4A
102
}
330
2AB4A
100
AcDbXrecord
280
     1
290
     1
  0
XRECORD
  5
2AB4D
102
{ACAD_REACTORS
330
2AB4C
102
}
330
2AB4C
100
AcDbXrecord
280
     1
290
     1
  0
XRECORD
  5
2AB4F
102
{ACAD_REACTORS
330
2AB4E
102
}
330
2AB4E
100
AcDbXrecord
280
     1
290
     1
  0
XRECORD
  5
2AB51
102
{ACAD_REACTORS
330
2AB50
102
}
330
2AB50
100
AcDbXrecord
280
     1
290
     1
  0
XRECORD
  5
2AB53
102
{ACAD_REACTORS
330
2AB52
102
}
330
2AB52
100
AcDbXrecord
280
     1
290
     1
  0
SORTENTSTABLE
  5
2D2B4
102
{ACAD_REACTORS
330
2D2B3
102
}
330
2D2B3
100
AcDbSortentsTable
330
17
331
2CBAF
  5
2CBAF
331
2CBB7
  5
2CBB7
331
2CBBF
  5
2CBBF
331
2D1CB
  5
2D1CB
331
2D202
  5
2D202
331
2C175
  5
2C175
331
2CB8F
  5
2CB8F
331
2CE14
  5
2CE14
331
2D241
  5
2D241
331
2D1D3
  5
2D1D3
331
2C13E
  5
2C13E
331
2C17D
  5
2C17D
331
2D20A
  5
2D20A
331
2D249
  5
2D249
331
2D251
  5
2D251
331
2D19C
  5
2D19C
331
2CBA7
  5
2CBA7
331
2C146
  5
2C146
331
2D1DB
  5
2D1DB
331
2C7F8
  5
2C7F8
331
2D212
  5
2D212
331
2D21A
  5
2D21A
331
2D1A4
  5
2D1A4
331
2C14E
  5
2C14E
331
2C194
  5
2C194
331
2C19C
  5
2C19C
331
2C187
  5
2C187
331
2F098
  5
2EC70
331
2EFF9
  5
2F0B6
331
2D25D
  5
2D25D
331
2D30C
  5
2D30C
331
2EC5B
  5
2EFFD
331
2F0A0
  5
2EE19
331
2F0D7
  5
2EC69
331
2EC63
  5
2F005
331
2D265
  5
2D265
331
2D314
  5
2D314
331
2F001
  5
2F0BE
331
2F009
  5
2F0C6
331
2F0A8
  5
2EF9C
331
2D31C
  5
2D31C
331
2EC6B
  5
2F00D
331
2D26D
  5
2D26D
331
2EFD2
  5
2F08F
331
2F0DF
  5
2EFD2
331
2EFDA
  5
2F097
331
2D324
  5
2D324
331
2F011
  5
2F0CE
331
2F0B0
  5
2EFD7
331
2D2E5
  5
2D2E5
331
2C800
  5
2C800
331
2D222
  5
2D222
331
2C808
  5
2C808
331
2D1AC
  5
2D1AC
331
2D1E3
  5
2D1E3
331
2D1EB
  5
2D1EB
331
2D22A
  5
2D22A
331
2C15E
  5
2C15E
331
29A1F
  5
29A1F
331
2D1B4
  5
2D1B4
331
2D1BC
  5
2D1BC
331
29A27
  5
29A27
331
2C166
  5
2C166
331
2D1F3
  5
2D1F3
331
2CB80
  5
2CB80
331
2D23A
  5
2D23A
331
2D1C4
  5
2D1C4
331
2D1FB
  5
2D1FB
331
29A2F
  5
29A2F
331
2C16E
  5
2C16E
331
2CE0D
  5
2CE0D
331
2C1A4
  5
2C1A4
331
2C1AC
  5
2C1AC
331
2C18C
  5
2C18C
331
2EC57
  5
2EFF9
331
2CB6F
  5
2CB6F
331
2EFE2
  5
2F09F
331
2D2ED
  5
2D2ED
331
2D32C
  5
2D32C
331
2F019
  5
2F0D6
331
2F0B8
  5
2EFDF
331
2F0C0
  5
2EFE7
331
2EDEB
  5
2F018
331
2D2F5
  5
2D2F5
331
2EFEA
  5
2F0A7
331
2F021
  5
2F0DE
331
2F089
  5
2EC54
331
2F0C8
  5
2EFEF
331
2D2FD
  5
2D2FD
331
2EFF2
  5
2F0AF
331
2F091
  5
2EC5C
331
2EF9B
  5
2F021
331
2D305
  5
2D305
331
2CBA8
  5
2CBA8
331
2CBB0
  5
2CBB0
331
2CBB8
  5
2CBB8
331
2D242
  5
2D242
331
2CE15
  5
2CE15
331
2D1CC
  5
2D1CC
331
2C176
  5
2C176
331
2D203
  5
2D203
331
2D20B
  5
2D20B
331
2D24A
  5
2D24A
331
2C17E
  5
2C17E
331
2C13F
  5
2C13F
331
2D1D4
  5
2D1D4
331
2D1DC
  5
2D1DC
331
2D213
  5
2D213
331
2D19D
  5
2D19D
331
2D252
  5
2D252
331
2C7F9
  5
2C7F9
331
2C147
  5
2C147
331
2D21B
  5
2D21B
331
2D1A5
  5
2D1A5
331
1549A
  5
1549A
331
2C180
  5
2C180
331
2EC70
  5
2F012
331
2EFFA
  5
2F0B7
331
2D30D
  5
2D30D
331
2EC5C
  5
2EFFE
331
2F099
  5
2EDC4
331
2D25E
  5
2D25E
331
2F0D0
  5
2EC62
331
2F0D8
  5
2EC6A
331
2F002
  5
2F0BF
331
2D266
  5
2D266
331
2D315
  5
2D315
331
2EC64
  5
2F006
331
2F0A1
  5
2EF95
331
2F0A9
  5
2EF9D
331
2F0E0
  5
2EFD3
331
2EFD3
  5
2F090
331
2F00A
  5
2F0C7
331
2D26E
  5
2D26E
331
2D31D
  5
2D31D
331
2EC6C
  5
2F00E
331
2F0B1
  5
2EFD8
331
2EDC4
  5
2F013
331
2EFDB
  5
2F098
331
2D2E6
  5
2D2E6
331
2D325
  5
2D325
331
2F012
  5
2F0CF
331
2C801
  5
2C801
331
2D1AD
  5
2D1AD
331
2C157
  5
2C157
331
2D1E4
  5
2D1E4
331
2C809
  5
2C809
331
2D223
  5
2D223
331
2D22B
  5
2D22B
331
2D1B5
  5
2D1B5
331
29A20
  5
29A20
331
2C15F
  5
2C15F
331
2D1EC
  5
2D1EC
331
2D1BD
  5
2D1BD
331
2CB81
  5
2CB81
331
29A28
  5
29A28
331
2C167
  5
2C167
331
2D1F4
  5
2D1F4
331
2D1FC
  5
2D1FC
331
2D23B
  5
2D23B
331
2C16F
  5
2C16F
331
2CE0E
  5
2CE0E
331
2D1C5
  5
2D1C5
331
2C18D
  5
2C18D
331
2F01A
  5
2F0D7
331
2F0B9
  5
2EFE0
331
2D32D
  5
2D32D
331
2D2EE
  5
2D2EE
331
2EFE3
  5
2F0A0
331
2EFEB
  5
2F0A8
331
2F022
  5
2F0DF
331
2F0C1
  5
2EFE8
331
2D2F6
  5
2D2F6
331
2D2FE
  5
2D2FE
331
2EFF3
  5
2F0B0
331
2F08A
  5
2EC55
331
2F0C9
  5
2EFF0
331
2EF9C
  5
2F022
331
2D306
  5
2D306
331
2F092
  5
2EC5D
331
2CBA9
  5
2CBA9
331
2CBB1
  5
2CBB1
331
2CBB9
  5
2CBB9
331
29A30
  5
29A30
331
2D1CD
  5
2D1CD
331
2D204
  5
2D204
331
2C177
  5
2C177
331
2CE16
  5
2CE16
331
2D243
  5
2D243
331
2D24B
  5
2D24B
331
2D1D5
  5
2D1D5
331
2C140
  5
2C140
331
2C17F
  5
2C17F
331
2D20C
  5
2D20C
331
2D253
  5
2D253
331
2D19E
  5
2D19E
331
2C148
  5
2C148
331
2D1DD
  5
2D1DD
331
2C7FA
  5
2C7FA
331
2D214
  5
2D214
331
2D21C
  5
2D21C
331
2D1A6
  5
2D1A6
331
2EDF8
  5
2F019
331
2CB70
  5
2CB70
331
2C181
  5
2C181
331
2F09A
  5
2EDC5
331
2F0D1
  5
2EC63
331
2EC5D
  5
2EFFF
331
2D25F
  5
2D25F
331
2D30E
  5
2D30E
331
2EFFB
  5
2F0B8
331
2F0A2
  5
2EF96
331
2F0D9
  5
2EC6B
331
2EC65
  5
2F007
331
2D267
  5
2D267
331
2D316
  5
2D316
331
2F003
  5
2F0C0
331
2F00B
  5
2F0C8
331
2F0AA
  5
2EF9E
331
2D31E
  5
2D31E
331
2EC6D
  5
2F00F
331
2EFD4
  5
2F091
331
2F0E1
  5
2EFD4
331
2EFDC
  5
2F099
331
2F013
  5
2F0D0
331
2D2E7
  5
2D2E7
331
2D326
  5
2D326
331
2EDC5
  5
2F014
331
2F0B2
  5
2EFD9
331
2C802
  5
2C802
331
2C150
  5
2C150
331
2D1E5
  5
2D1E5
331
2D224
  5
2D224
331
2D1AE
  5
2D1AE
331
2C80A
  5
2C80A
331
2C158
  5
2C158
331
2D1ED
  5
2D1ED
331
2D22C
  5
2D22C
331
2D1B6
  5
2D1B6
331
29A29
  5
29A29
331
2D1BE
  5
2D1BE
331
2D1F5
  5
2D1F5
331
2D234
  5
2D234
331
2D23C
  5
2D23C
331
2CE0F
  5
2CE0F
331
2D1C6
  5
2D1C6
331
2D1FD
  5
2D1FD
331
2C18E
  5
2C18E
331
2EE19
  5
2F01A
331
2F0BA
  5
2EFE1
331
2EFE4
  5
2F0A1
331
2D2EF
  5
2D2EF
331
2D32E
  5
2D32E
331
2F01B
  5
2F0D8
331
2F0C2
  5
2EFE9
331
2D2F7
  5
2D2F7
331
2EFEC
  5
2F0A9
331
2F023
  5
2F0E0
331
2F08B
  5
2EC56
331
2F0CA
  5
2EFF1
331
2EF95
  5
2F01B
331
2D2FF
  5
2D2FF
331
2EFF4
  5
2F0B1
331
2F093
  5
2EC5E
331
2EF9D
  5
2F023
331
2D307
  5
2D307
331
2CBAA
  5
2CBAA
331
2CBB2
  5
2CBB2
331
29A31
  5
29A31
331
2C170
  5
2C170
331
2D244
  5
2D244
331
2CE17
  5
2CE17
331
2D1CE
  5
2D1CE
331
2C7E3
  5
2C7E3
331
2C178
  5
2C178
331
2D205
  5
2D205
331
2D20D
  5
2D20D
331
2D24C
  5
2D24C
331
2C790
  5
2C790
331
2C141
  5
2C141
331
2D1D6
  5
2D1D6
331
2D1DE
  5
2D1DE
331
2D215
  5
2D215
331
2C149
  5
2C149
331
2C7FB
  5
2C7FB
331
2D19F
  5
2D19F
331
2D254
  5
2D254
331
2D21D
  5
2D21D
331
2D1A7
  5
2D1A7
331
2C197
  5
2C197
331
2C19F
  5
2C19F
331
2CB71
  5
2CB71
331
2C182
  5
2C182
331
2D258
  5
2D258
331
2EFFC
  5
2F0B9
331
2D30F
  5
2D30F
331
2EC5E
  5
2F000
331
2F09B
  5
2EDC8
331
2D260
  5
2D260
331
2F0D2
  5
2EC64
331
2F0DA
  5
2EC6C
331
2EFCD
  5
2F08A
331
2F004
  5
2F0C1
331
2D268
  5
2D268
331
2D317
  5
2D317
331
2EC66
  5
2F008
331
2F0A3
  5
2EF97
331
2F0AB
  5
2EF9F
331
2F0E2
  5
2EFD5
331
2EC6E
  5
2F010
331
2EFD5
  5
2F092
331
2D31F
  5
2D31F
331
2F00C
  5
2F0C9
331
2F0B3
  5
2EFDA
331
2EFDD
  5
2F09A
331
2D327
  5
2D327
331
2F014
  5
2F0D1
331
2C803
  5
2C803
331
2CBC0
  5
2CBC0
331
2D1AF
  5
2D1AF
331
2C159
  5
2C159
331
2D1E6
  5
2D1E6
331
2C80B
  5
2C80B
331
2D225
  5
2D225
331
2D22D
  5
2D22D
331
2CDF8
  5
2CDF8
331
29A22
  5
29A22
331
2D1B7
  5
2D1B7
331
2D1EE
  5
2D1EE
331
2D1F6
  5
2D1F6
331
2D235
  5
2D235
331
2CE08
  5
2CE08
331
2D1BF
  5
2D1BF
331
29A2A
  5
29A2A
331
2C169
  5
2C169
331
2D1FE
  5
2D1FE
331
2D23D
  5
2D23D
331
2D1C7
  5
2D1C7
331
2C1A7
  5
2C1A7
331
2C1AF
  5
2C1AF
331
2C18F
  5
2C18F
331
2D2E8
  5
2D2E8
331
2F01C
  5
2F0D9
331
2F0BB
  5
2EFE2
331
2D32F
  5
2D32F
331
2D2F0
  5
2D2F0
331
2EFE5
  5
2F0A2
331
2D2F8
  5
2D2F8
331
2EFED
  5
2F0AA
331
2F024
  5
2F0E1
331
2F0C3
  5
2EFEA
331
2F0CB
  5
2EFF2
331
2EFF5
  5
2F0B2
331
2F08C
  5
2EC57
331
2D300
  5
2D300
331
2EF96
  5
2F01C
331
2EF9E
  5
2F024
331
2CBAB
  5
2CBAB
331
2CBB3
  5
2CBB3
331
2C171
  5
2C171
331
2CE10
  5
2CE10
331
29A32
  5
29A32
331
2D1CF
  5
2D1CF
331
2D206
  5
2D206
331
2C179
  5
2C179
331
2CE18
  5
2CE18
331
2D245
  5
2D245
331
2D24D
  5
2D24D
331
2D1D7
  5
2D1D7
331
2C142
  5
2C142
331
2C791
  5
2C791
331
2D20E
  5
2D20E
331
2CBA3
  5
2CBA3
331
2D255
  5
2D255
331
2D1A0
  5
2D1A0
331
2C14A
  5
2C14A
331
2D1DF
  5
2D1DF
331
2C7FC
  5
2C7FC
331
2D216
  5
2D216
331
2D21E
  5
2D21E
331
2C190
  5
2C190
331
2C198
  5
2C198
331
2CB72
  5
2CB72
331
2C183
  5
2C183
331
2D259
  5
2D259
331
2D308
  5
2D308
331
2F09C
  5
2EDC9
331
2F0D3
  5
2EC65
331
2EC5F
  5
2F001
331
2D261
  5
2D261
331
2D310
  5
2D310
331
2EFFD
  5
2F0BA
331
2F005
  5
2F0C2
331
2F0A4
  5
2EF98
331
2EC67
  5
2F009
331
2EFCE
  5
2F08B
331
2F0DB
  5
2EFCE
331
2D269
  5
2D269
331
2D318
  5
2D318
331
2F00D
  5
2F0CA
331
2F0AC
  5
2EFA0
331
2D320
  5
2D320
331
2EC6F
  5
2F011
331
2EFD6
  5
2F093
331
2EFDE
  5
2F09B
331
2F015
  5
2F0D2
331
2F0B4
  5
2EFDB
331
2D1A8
  5
2D1A8
331
2C804
  5
2C804
331
25323
  5
25323
331
2C152
  5
2C152
331
2D1E7
  5
2D1E7
331
2D226
  5
2D226
331
2C15A
  5
2C15A
331
2C80C
  5
2C80C
331
2D1B0
  5
2D1B0
331
2D1EF
  5
2D1EF
331
2D22E
  5
2D22E
331
2C162
  5
2C162
331
2CDF9
  5
2CDF9
331
29A23
  5
29A23
331
2D1B8
  5
2D1B8
331
2D1C0
  5
2D1C0
331
2D1F7
  5
2D1F7
331
29A2B
  5
29A2B
331
2C16A
  5
2C16A
331
2CE09
  5
2CE09
331
2D236
  5
2D236
331
2D23E
  5
2D23E
331
2D1FF
  5
2D1FF
331
2C1A0
  5
2C1A0
331
2C1A8
  5
2C1A8
331
2C188
  5
2C188
331
2CDF3
  5
2CDF3
331
2D2E9
  5
2D2E9
331
2D328
  5
2D328
331
2F0BC
  5
2EFE3
331
2EFE6
  5
2F0A3
331
2D2F1
  5
2D2F1
331
2D330
  5
2D330
331
2F01D
  5
2F0DA
331
2F0C4
  5
2EFEB
331
2D2F9
  5
2D2F9
331
2EFEE
  5
2F0AB
331
2F025
  5
2F0E2
331
2F08D
  5
2EC58
331
2F0CC
  5
2EFF3
331
2EF97
  5
2F01D
331
2D301
  5
2D301
331
2EFF6
  5
2F0B3
331
2F095
  5
2EC6D
331
2EF9F
  5
2F025
331
2CBAC
  5
2CBAC
331
2CBB4
  5
2CBB4
331
2CE11
  5
2CE11
331
2D1C8
  5
2D1C8
331
2C172
  5
2C172
331
2D207
  5
2D207
331
2D246
  5
2D246
331
2CE19
  5
2CE19
331
2D1D0
  5
2D1D0
331
2C13B
  5
2C13B
331
2C17A
  5
2C17A
331
2D20F
  5
2D20F
331
2D24E
  5
2D24E
331
2CBA4
  5
2CBA4
331
2C143
  5
2C143
331
2D1D8
  5
2D1D8
331
2D217
  5
2D217
331
2C14B
  5
2C14B
331
2C7FD
  5
2C7FD
331
2D1A1
  5
2D1A1
331
2D256
  5
2D256
331
2D21F
  5
2D21F
331
2C191
  5
2C191
331
2CB73
  5
2CB73
331
2C184
  5
2C184
331
2D309
  5
2D309
331
2EC58
  5
2EFFA
331
2D25A
  5
2D25A
331
2F0D4
  5
2EC66
331
2EFFE
  5
2F0BB
331
2D311
  5
2D311
331
2EC60
  5
2F002
331
2F09D
  5
2EDEA
331
2D262
  5
2D262
331
2F0DC
  5
2EFCF
331
2EFCF
  5
2F08C
331
2F006
  5
2F0C3
331
2D26A
  5
2D26A
331
2D319
  5
2D319
331
2EC68
  5
2F00A
331
2F0A5
  5
2EF99
331
2F0AD
  5
2EFA1
331
2EFD7
  5
2F094
331
2D321
  5
2D321
331
2F00E
  5
2F0CB
331
2F016
  5
2F0D3
331
2F0B5
  5
2EFDC
331
2EFDF
  5
2F09C
331
2D1A9
  5
2D1A9
331
2D1E0
  5
2D1E0
331
2C805
  5
2C805
331
2D1B1
  5
2D1B1
331
2C15B
  5
2C15B
331
2D1E8
  5
2D1E8
331
2C80D
  5
2C80D
331
2D227
  5
2D227
331
2D22F
  5
2D22F
331
2D1B9
  5
2D1B9
331
2CB7D
  5
2CB7D
331
29A24
  5
29A24
331
2C163
  5
2C163
331
2D1F0
  5
2D1F0
331
2D1F8
  5
2D1F8
331
2D237
  5
2D237
331
2C16B
  5
2C16B
331
2CE0A
  5
2CE0A
331
2CB85
  5
2CB85
331
29A2C
  5
29A2C
331
2D1C1
  5
2D1C1
331
2D23F
  5
2D23F
331
2C189
  5
2C189
331
2EC54
  5
2EFF6
331
2CDF4
  5
2CDF4
331
2EDC8
  5
2F015
331
2D2EA
  5
2D2EA
331
2D329
  5
2D329
331
2F01E
  5
2F0DB
331
2F0BD
  5
2EFE4
331
2D331
  5
2D331
331
2D2F2
  5
2D2F2
331
2EFE7
  5
2F0A4
331
2EFEF
  5
2F0AC
331
2D2FA
  5
2D2FA
331
2EB59
  5
2EFF5
331
2F0C5
  5
2EFEC
331
2F0CD
  5
2EFF4
331
2EF98
  5
2F01E
331
2D302
  5
2D302
331
2EFF7
  5
2F0B4
331
2F08E
  5
2EC59
331
2F096
  5
2EC6E
331
2CBAD
  5
2CBAD
331
2CBB5
  5
2CBB5
331
2D200
  5
2D200
331
2C173
  5
2C173
331
2CE12
  5
2CE12
331
2D1C9
  5
2D1C9
331
2D1D1
  5
2D1D1
331
2C13C
  5
2C13C
331
2C17B
  5
2C17B
331
2D208
  5
2D208
331
2CB9D
  5
2CB9D
331
2D247
  5
2D247
331
2D24F
  5
2D24F
331
2D19A
  5
2D19A
331
2CBA5
  5
2CBA5
331
2C144
  5
2C144
331
2D1D9
  5
2D1D9
331
2C7F6
  5
2C7F6
331
2D210
  5
2D210
331
2D218
  5
2D218
331
2D1A2
  5
2D1A2
331
2D257
  5
2D257
331
2C14C
  5
2C14C
331
2C7FE
  5
2C7FE
331
2C192
  5
2C192
331
2CB74
  5
2CB74
331
15497
  5
15497
331
2C185
  5
2C185
331
2EFA0
  5
2F088
331
2D25B
  5
2D25B
331
2D30A
  5
2D30A
331
2EC59
  5
2EFFB
331
2F09E
  5
2EDEB
331
2F0D5
  5
2EC67
331
2EC61
  5
2F003
331
2D263
  5
2D263
331
2D312
  5
2D312
331
2EFFF
  5
2F0BC
331
2F007
  5
2F0C4
331
2F0A6
  5
2EF9A
331
2D31A
  5
2D31A
331
2EC69
  5
2F00B
331
2D26B
  5
2D26B
331
2EFD0
  5
2F08D
331
2F0DD
  5
2EFD0
331
2F00F
  5
2F0CC
331
2D322
  5
2D322
331
2EFD8
  5
2F095
331
2F017
  5
2F0D4
331
2F0B6
  5
2EFDD
331
2D220
  5
2D220
331
2D1AA
  5
2D1AA
331
2C806
  5
2C806
331
2C154
  5
2C154
331
2D1E1
  5
2D1E1
331
2D1E9
  5
2D1E9
331
2D228
  5
2D228
331
2C80E
  5
2C80E
331
2D1B2
  5
2D1B2
331
2D1BA
  5
2D1BA
331
2D1F1
  5
2D1F1
331
2C164
  5
2C164
331
2CDFB
  5
2CDFB
331
2D230
  5
2D230
331
2CB7E
  5
2CB7E
331
29A25
  5
29A25
331
2D1C2
  5
2D1C2
331
2D1F9
  5
2D1F9
331
29A2D
  5
29A2D
331
2C16C
  5
2C16C
331
2CE0B
  5
2CE0B
331
2D238
  5
2D238
331
2C18A
  5
2C18A
331
2EC55
  5
2EFF7
331
2CDF5
  5
2CDF5
331
2EFE0
  5
2F09D
331
2D2EB
  5
2D2EB
331
2D32A
  5
2D32A
331
2EDC9
  5
2F016
331
2F0BE
  5
2EFE5
331
2EFE8
  5
2F0A5
331
2D2F3
  5
2D2F3
331
2D332
  5
2D332
331
2F01F
  5
2F0DC
331
2F0C6
  5
2EFED
331
2D2FB
  5
2D2FB
331
2EFF0
  5
2F0AD
331
2F08F
  5
2EC5A
331
2EF99
  5
2F01F
331
2F0CE
  5
2EC60
331
2D303
  5
2D303
331
2F097
  5
2EC6F
331
2CBAE
  5
2CBAE
331
2CBB6
  5
2CBB6
331
2CBBE
  5
2CBBE
331
2D240
  5
2D240
331
2CE13
  5
2CE13
331
2D1CA
  5
2D1CA
331
2CB8E
  5
2CB8E
331
2C174
  5
2C174
331
2D201
  5
2D201
331
2D209
  5
2D209
331
2D248
  5
2D248
331
2C17C
  5
2C17C
331
2CB9E
  5
2CB9E
331
2C13D
  5
2C13D
331
2D1D2
  5
2D1D2
331
2D211
  5
2D211
331
2D250
  5
2D250
331
2D19B
  5
2D19B
331
2C7F7
  5
2C7F7
331
2CBA6
  5
2CBA6
331
2C145
  5
2C145
331
2D1DA
  5
2D1DA
331
2D219
  5
2D219
331
2C7FF
  5
2C7FF
331
2D1A3
  5
2D1A3
331
2C193
  5
2C193
331
2C19B
  5
2C19B
331
2CB75
  5
2CB75
331
2C186
  5
2C186
331
2EFF8
  5
2F0B5
331
2D30B
  5
2D30B
331
2EC5A
  5
2EFFC
331
2D25C
  5
2D25C
331
2EFA1
  5
2F089
331
2F0D6
  5
2EC68
331
2F000
  5
2F0BD
331
2D313
  5
2D313
331
2EC62
  5
2F004
331
2F09F
  5
2EDF8
331
2D264
  5
2D264
331
2F0DE
  5
2EFD1
331
2EFD1
  5
2F08E
331
2F008
  5
2F0C5
331
2D26C
  5
2D26C
331
2D31B
  5
2D31B
331
2EC6A
  5
2F00C
331
2F0A7
  5
2EF9B
331
2F0AF
  5
2EFD6
331
2EFD9
  5
2F096
331
2D323
  5
2D323
331
2F010
  5
2F0CD
331
2F0B7
  5
2EFDE
331
2D1AB
  5
2D1AB
331
2C155
  5
2C155
331
2D1E2
  5
2D1E2
331
2C807
  5
2C807
331
2D221
  5
2D221
331
2D229
  5
2D229
331
2D1B3
  5
2D1B3
331
2D1EA
  5
2D1EA
331
2CBD4
  5
2CBD4
331
2D231
  5
2D231
331
2CB7F
  5
2CB7F
331
29A26
  5
29A26
331
2D1BB
  5
2D1BB
331
2D1F2
  5
2D1F2
331
2D1FA
  5
2D1FA
331
2D239
  5
2D239
331
2C16D
  5
2C16D
331
2CE0C
  5
2CE0C
331
29A2E
  5
29A2E
331
2D1C3
  5
2D1C3
331
2C1A3
  5
2C1A3
331
2C1AB
  5
2C1AB
331
2C18B
  5
2C18B
331
2EC56
  5
2EFF8
331
2CDF6
  5
2CDF6
331
2F018
  5
2F0D5
331
2D32B
  5
2D32B
331
2D2EC
  5
2D2EC
331
2EFE1
  5
2F09E
331
2F020
  5
2F0DD
331
2F0BF
  5
2EFE6
331
2EDEA
  5
2F017
331
2D2F4
  5
2D2F4
331
2EFE9
  5
2F0A6
331
2D2FC
  5
2D2FC
331
2EFF1
  5
2F0AE
331
2F088
  5
2EB59
331
2F0C7
  5
2EFEE
331
2F0CF
  5
2EC61
331
2EF9A
  5
2F020
331
2D304
  5
2D304
331
2F090
  5
2EC5B
  0
XRECORD
  5
2F832
102
{ACAD_REACTORS
330
2F831
102
}
330
2F831
100
AcDbXrecord
280
     1
 40
6207437.0
  1
\pxql;排水栓　Rc3／4\P（膨張水・排水兼用）
  0
GROUP
  5
3917
102
{ACAD_REACTORS
330
D
102
}
330
D
100
AcDbGroup
300
SSE_Dim15
 70
     1
 71
     1
  0
GROUP
  5
17876
102
{ACAD_REACTORS
330
D
102
}
330
D
100
AcDbGroup
300

 70
     1
 71
     1
  0
GROUP
  5
3E2F
102
{ACAD_REACTORS
330
D
102
}
330
D
100
AcDbGroup
300

 70
     1
 71
     1
  0
GROUP
  5
14154
102
{ACAD_REACTORS
330
D
102
}
330
D
100
AcDbGroup
300

 70
     1
 71
     1
  0
GROUP
  5
14C46
102
{ACAD_REACTORS
330
D
102
}
330
D
100
AcDbGroup
300

 70
     1
 71
     1
  0
GROUP
  5
14C48
102
{ACAD_REACTORS
330
D
102
}
330
D
100
AcDbGroup
300

 70
     1
 71
     1
  0
GROUP
  5
14DF1
102
{ACAD_REACTORS
330
D
102
}
330
D
100
AcDbGroup
300

 70
     1
 71
     1
  0
GROUP
  5
14DF3
102
{ACAD_REACTORS
330
D
102
}
330
D
100
AcDbGroup
300

 70
     1
 71
     1
  0
GROUP
  5
14E80
102
{ACAD_REACTORS
330
D
102
}
330
D
100
AcDbGroup
300

 70
     1
 71
     1
  0
GROUP
  5
14E82
102
{ACAD_REACTORS
330
D
102
}
330
D
100
AcDbGroup
300

 70
     1
 71
     1
  0
LAYOUT
  5
36
102
{ACAD_REACTORS
330
34
102
}
330
34
100
AcDbPlotSettings
  1

  2
Docu3050② - 技術開発部 熱利用技術G（裏A4）.pc3
  4
A4
  6

 40
0.0
 41
0.0
 42
1.015670776367187
 43
1.010650634765625
 44
210.0156707763672
 45
297.0106506347656
 46
-0.0000000000000003
 47
0.2071428571428567
 48
-2900.383222191407
 49
729.8266724397672
140
-2112.932819492423
141
2710.869268569561
142
1.0
143
17.08133971291866
 70
 11956
 72
     1
 73
     0
 74
     2
  7
monochrome.ctb
 75
     0
147
0.0585434173669468
 76
     0
 77
     2
 78
   300
148
0.0
149
0.0
100
AcDbLayout
  1
Model
 70
     1
 71
     0
 10
0.0
 20
0.0
 11
12.0
 21
9.0
 12
0.0
 22
0.0
 32
0.0
 14
0.0
 24
0.0
 34
0.0
 15
0.0
 25
0.0
 35
0.0
146
0.0
 13
0.0
 23
0.0
 33
0.0
 16
1.0
 26
0.0
 36
0.0
 17
0.0
 27
1.0
 37
0.0
 76
     0
330
17
331
2AAEE
1001
ACAD_PSEXT
1000
Docu3050② - 技術開発部 熱利用技術G（裏A4）.pc3
1000
FX DocuPrint 3050
1000
192.168.3.90
1000

1070
     0
  0
LAYOUT
  5
37
102
{ACAD_REACTORS
330
34
102
}
330
34
100
AcDbPlotSettings
  1

  2
EPSON LP-8300C
  4

  6

 40
0.0
 41
0.0
 42
0.0
 43
0.0
 44
0.0
 45
0.0
 46
0.0
 47
0.0
 48
0.0
 49
0.0
140
0.0
141
0.0
142
1.0
143
1.0
 70
   688
 72
     0
 73
     0
 74
     5
  7
monochrome.ctb
 75
    16
147
1.0
 76
     0
 77
     2
 78
   300
148
0.0
149
0.0
100
AcDbLayout
  1
ﾚｲｱｳﾄ1
 70
     0
 71
     1
 10
0.0
 20
0.0
 11
12.0
 21
9.0
 12
0.0
 22
0.0
 32
0.0
 14
1.000000000000000E+20
 24
1.000000000000000E+20
 34
1.000000000000000E+20
 15
-1.000000000000000E+20
 25
-1.000000000000000E+20
 35
-1.000000000000000E+20
146
0.0
 13
0.0
 23
0.0
 33
0.0
 16
1.0
 26
0.0
 36
0.0
 17
0.0
 27
1.0
 37
0.0
 76
     0
330
14
  0
MATERIAL
  5
2AAFC
102
{ACAD_XDICTIONARY
360
2AAFD
102
}
102
{ACAD_REACTORS
330
2AAF3
102
}
330
2AAF3
100
AcDbMaterial
  1
ByBlock
 72
     0
 43
0.0208333333333333
 43
0.0
 43
0.0
 43
0.0
 43
0.0
 43
0.0208333333333333
 43
0.0
 43
0.0
 43
0.0
 43
0.0
 43
1.0
 43
0.0
 43
0.0
 43
0.0
 43
0.0
 43
1.0
 77
     0
 47
0.0208333333333333
 47
0.0
 47
0.0
 47
0.0
 47
0.0
 47
0.0208333333333333
 47
0.0
 47
0.0
 47
0.0
 47
0.0
 47
1.0
 47
0.0
 47
0.0
 47
0.0
 47
0.0
 47
1.0
171
     0
 49
0.0208333333333333
 49
0.0
 49
0.0
 49
0.0
 49
0.0
 49
0.0208333333333333
 49
0.0
 49
0.0
 49
0.0
 49
0.0
 49
1.0
 49
0.0
 49
0.0
 49
0.0
 49
0.0
 49
1.0
175
     0
142
0.0208333333333333
142
0.0
142
0.0
142
0.0
142
0.0
142
0.0208333333333333
142
0.0
142
0.0
142
0.0
142
0.0
142
1.0
142
0.0
142
0.0
142
0.0
142
0.0
142
1.0
179
     0
144
0.0208333333333333
144
0.0
144
0.0
144
0.0
144
0.0
144
0.0208333333333333
144
0.0
144
0.0
144
0.0
144
0.0
144
1.0
144
0.0
144
0.0
144
0.0
144
0.0
144
1.0
147
0.0208333333333333
147
0.0
147
0.0
147
0.0
147
0.0
147
0.0208333333333333
147
0.0
147
0.0
147
0.0
147
0.0
147
1.0
147
0.0
147
0.0
147
0.0
147
0.0
147
1.0
  0
MATERIAL
  5
2AAF4
102
{ACAD_XDICTIONARY
360
2AAF5
102
}
102
{ACAD_REACTORS
330
2AAF3
102
}
330
2AAF3
100
AcDbMaterial
  1
ByLayer
 72
     0
 43
0.0208333333333333
 43
0.0
 43
0.0
 43
0.0
 43
0.0
 43
0.0208333333333333
 43
0.0
 43
0.0
 43
0.0
 43
0.0
 43
1.0
 43
0.0
 43
0.0
 43
0.0
 43
0.0
 43
1.0
 77
     0
 47
0.0208333333333333
 47
0.0
 47
0.0
 47
0.0
 47
0.0
 47
0.0208333333333333
 47
0.0
 47
0.0
 47
0.0
 47
0.0
 47
1.0
 47
0.0
 47
0.0
 47
0.0
 47
0.0
 47
1.0
171
     0
 49
0.0208333333333333
 49
0.0
 49
0.0
 49
0.0
 49
0.0
 49
0.0208333333333333
 49
0.0
 49
0.0
 49
0.0
 49
0.0
 49
1.0
 49
0.0
 49
0.0
 49
0.0
 49
0.0
 49
1.0
175
     0
142
0.0208333333333333
142
0.0
142
0.0
142
0.0
142
0.0
142
0.0208333333333333
142
0.0
142
0.0
142
0.0
142
0.0
142
1.0
142
0.0
142
0.0
142
0.0
142
0.0
142
1.0
179
     0
144
0.0208333333333333
144
0.0
144
0.0
144
0.0
144
0.0
144
0.0208333333333333
144
0.0
144
0.0
144
0.0
144
0.0
144
1.0
144
0.0
144
0.0
144
0.0
144
0.0
144
1.0
147
0.0208333333333333
147
0.0
147
0.0
147
0.0
147
0.0
147
0.0208333333333333
147
0.0
147
0.0
147
0.0
147
0.0
147
1.0
147
0.0
147
0.0
147
0.0
147
0.0
147
1.0
  0
MATERIAL
  5
2AB04
102
{ACAD_XDICTIONARY
360
2AB05
102
}
102
{ACAD_REACTORS
330
2AAF3
102
}
330
2AAF3
100
AcDbMaterial
  1
Global
 72
     0
 43
0.0208333333333333
 43
0.0
 43
0.0
 43
0.0
 43
0.0
 43
0.0208333333333333
 43
0.0
 43
0.0
 43
0.0
 43
0.0
 43
1.0
 43
0.0
 43
0.0
 43
0.0
 43
0.0
 43
1.0
 77
     0
 47
0.0208333333333333
 47
0.0
 47
0.0
 47
0.0
 47
0.0
 47
0.0208333333333333
 47
0.0
 47
0.0
 47
0.0
 47
0.0
 47
1.0
 47
0.0
 47
0.0
 47
0.0
 47
0.0
 47
1.0
171
     0
 49
0.0208333333333333
 49
0.0
 49
0.0
 49
0.0
 49
0.0
 49
0.0208333333333333
 49
0.0
 49
0.0
 49
0.0
 49
0.0
 49
1.0
 49
0.0
 49
0.0
 49
0.0
 49
0.0
 49
1.0
175
     0
142
0.0208333333333333
142
0.0
142
0.0
142
0.0
142
0.0
142
0.0208333333333333
142
0.0
142
0.0
142
0.0
142
0.0
142
1.0
142
0.0
142
0.0
142
0.0
142
0.0
142
1.0
179
     0
144
0.0208333333333333
144
0.0
144
0.0
144
0.0
144
0.0
144
0.0208333333333333
144
0.0
144
0.0
144
0.0
144
0.0
144
1.0
144
0.0
144
0.0
144
0.0
144
0.0
144
1.0
147
0.0208333333333333
147
0.0
147
0.0
147
0.0
147
0.0
147
0.0208333333333333
147
0.0
147
0.0
147
0.0
147
0.0
147
1.0
147
0.0
147
0.0
147
0.0
147
0.0
147
1.0
  0
MLEADERSTYLE
  5
2AB43
102
{ACAD_REACTORS
330
2AB42
102
}
330
2AB42
100
AcDbMLeaderStyle
170
     2
171
     1
172
     0
 90
        2
 40
0.0
 41
0.0
173
     1
 91
-1056964608
340
11
 92
       -2
290
     1
 42
2.0
291
     1
 43
0.36
  3
Standard
 44
4.0
300

342
F
174
     1
178
     6
175
     1
176
     0
 93
-1056964608
 45
4.0
292
     0
297
     0
 46
4.0
 94
-1056964608
 47
1.0
 49
1.0
140
1.0
293
     1
141
0.0
294
     1
177
     0
142
1.0
295
     0
296
     0
143
0.125
1001
ACAD_MLEADERVER
1070
     2
  0
MLINESTYLE
  5
1B
102
{ACAD_REACTORS
330
1A
102
}
330
1A
100
AcDbMlineStyle
  2
STANDARD
 70
     0
  3

 62
   256
 51
90.0
 52
90.0
 71
     2
 49
0.5
 62
   256
  6
BYLAYER
 49
-0.5
 62
   256
  6
BYLAYER
  0
ACDBPLACEHOLDER
  5
33
102
{ACAD_REACTORS
330
32
102
}
330
32
  0
SCALE
  5
2AB21
102
{ACAD_REACTORS
330
2AB20
102
}
330
2AB20
100
AcDbScale
 70
     0
300
1:1
140
1.0
141
1.0
290
     1
  0
SCALE
  5
2AB22
102
{ACAD_REACTORS
330
2AB20
102
}
330
2AB20
100
AcDbScale
 70
     0
300
1:2
140
1.0
141
2.0
290
     0
  0
SCALE
  5
2AB23
102
{ACAD_REACTORS
330
2AB20
102
}
330
2AB20
100
AcDbScale
 70
     0
300
1:4
140
1.0
141
4.0
290
     0
  0
SCALE
  5
2AB24
102
{ACAD_REACTORS
330
2AB20
102
}
330
2AB20
100
AcDbScale
 70
     0
300
1:5
140
1.0
141
5.0
290
     0
  0
SCALE
  5
2AB25
102
{ACAD_REACTORS
330
2AB20
102
}
330
2AB20
100
AcDbScale
 70
     0
300
1:8
140
1.0
141
8.0
290
     0
  0
SCALE
  5
2AB26
102
{ACAD_REACTORS
330
2AB20
102
}
330
2AB20
100
AcDbScale
 70
     0
300
1:10
140
1.0
141
10.0
290
     0
  0
SCALE
  5
2AB27
102
{ACAD_REACTORS
330
2AB20
102
}
330
2AB20
100
AcDbScale
 70
     0
300
1:16
140
1.0
141
16.0
290
     0
  0
SCALE
  5
2AB28
102
{ACAD_REACTORS
330
2AB20
102
}
330
2AB20
100
AcDbScale
 70
     0
300
1:20
140
1.0
141
20.0
290
     0
  0
SCALE
  5
2AB29
102
{ACAD_REACTORS
330
2AB20
102
}
330
2AB20
100
AcDbScale
 70
     0
300
1:30
140
1.0
141
30.0
290
     0
  0
SCALE
  5
2AB2A
102
{ACAD_REACTORS
330
2AB20
102
}
330
2AB20
100
AcDbScale
 70
     0
300
1:40
140
1.0
141
40.0
290
     0
  0
SCALE
  5
2AB2B
102
{ACAD_REACTORS
330
2AB20
102
}
330
2AB20
100
AcDbScale
 70
     0
300
1:50
140
1.0
141
50.0
290
     0
  0
SCALE
  5
2AB2C
102
{ACAD_REACTORS
330
2AB20
102
}
330
2AB20
100
AcDbScale
 70
     0
300
1:100
140
1.0
141
100.0
290
     0
  0
SCALE
  5
2AB2D
102
{ACAD_REACTORS
330
2AB20
102
}
330
2AB20
100
AcDbScale
 70
     0
300
2:1
140
2.0
141
1.0
290
     0
  0
SCALE
  5
2AB2E
102
{ACAD_REACTORS
330
2AB20
102
}
330
2AB20
100
AcDbScale
 70
     0
300
4:1
140
4.0
141
1.0
290
     0
  0
SCALE
  5
2AB2F
102
{ACAD_REACTORS
330
2AB20
102
}
330
2AB20
100
AcDbScale
 70
     0
300
8:1
140
8.0
141
1.0
290
     0
  0
SCALE
  5
2AB30
102
{ACAD_REACTORS
330
2AB20
102
}
330
2AB20
100
AcDbScale
 70
     0
300
10:1
140
10.0
141
1.0
290
     0
  0
SCALE
  5
2AB31
102
{ACAD_REACTORS
330
2AB20
102
}
330
2AB20
100
AcDbScale
 70
     0
300
100:1
140
100.0
141
1.0
290
     0
  0
SCALE
  5
2AB32
102
{ACAD_REACTORS
330
2AB20
102
}
330
2AB20
100
AcDbScale
 70
     0
300
1/128" = 1'-0"
140
0.0078125
141
12.0
290
     0
  0
SCALE
  5
2AB33
102
{ACAD_REACTORS
330
2AB20
102
}
330
2AB20
100
AcDbScale
 70
     0
300
1/64" = 1'-0"
140
0.015625
141
12.0
290
     0
  0
SCALE
  5
2AB34
102
{ACAD_REACTORS
330
2AB20
102
}
330
2AB20
100
AcDbScale
 70
     0
300
1/32" = 1'-0"
140
0.03125
141
12.0
290
     0
  0
SCALE
  5
2AB35
102
{ACAD_REACTORS
330
2AB20
102
}
330
2AB20
100
AcDbScale
 70
     0
300
1/16" = 1'-0"
140
0.0625
141
12.0
290
     0
  0
SCALE
  5
2AB36
102
{ACAD_REACTORS
330
2AB20
102
}
330
2AB20
100
AcDbScale
 70
     0
300
3/32" = 1'-0"
140
0.09375
141
12.0
290
     0
  0
SCALE
  5
2AB37
102
{ACAD_REACTORS
330
2AB20
102
}
330
2AB20
100
AcDbScale
 70
     0
300
1/8" = 1'-0"
140
0.125
141
12.0
290
     0
  0
SCALE
  5
2AB38
102
{ACAD_REACTORS
330
2AB20
102
}
330
2AB20
100
AcDbScale
 70
     0
300
3/16" = 1'-0"
140
0.1875
141
12.0
290
     0
  0
SCALE
  5
2AB39
102
{ACAD_REACTORS
330
2AB20
102
}
330
2AB20
100
AcDbScale
 70
     0
300
1/4" = 1'-0"
140
0.25
141
12.0
290
     0
  0
SCALE
  5
2AB3A
102
{ACAD_REACTORS
330
2AB20
102
}
330
2AB20
100
AcDbScale
 70
     0
300
3/8" = 1'-0"
140
0.375
141
12.0
290
     0
  0
SCALE
  5
2AB3B
102
{ACAD_REACTORS
330
2AB20
102
}
330
2AB20
100
AcDbScale
 70
     0
300
1/2" = 1'-0"
140
0.5
141
12.0
290
     0
  0
SCALE
  5
2AB3C
102
{ACAD_REACTORS
330
2AB20
102
}
330
2AB20
100
AcDbScale
 70
     0
300
3/4" = 1'-0"
140
0.75
141
12.0
290
     0
  0
SCALE
  5
2AB3D
102
{ACAD_REACTORS
330
2AB20
102
}
330
2AB20
100
AcDbScale
 70
     0
300
1" = 1'-0"
140
1.0
141
12.0
290
     0
  0
SCALE
  5
2AB3E
102
{ACAD_REACTORS
330
2AB20
102
}
330
2AB20
100
AcDbScale
 70
     0
300
1-1/2" = 1'-0"
140
1.5
141
12.0
290
     0
  0
SCALE
  5
2AB3F
102
{ACAD_REACTORS
330
2AB20
102
}
330
2AB20
100
AcDbScale
 70
     0
300
3" = 1'-0"
140
3.0
141
12.0
290
     0
  0
SCALE
  5
2AB40
102
{ACAD_REACTORS
330
2AB20
102
}
330
2AB20
100
AcDbScale
 70
     0
300
6" = 1'-0"
140
6.0
141
12.0
290
     0
  0
SCALE
  5
2AB41
102
{ACAD_REACTORS
330
2AB20
102
}
330
2AB20
100
AcDbScale
 70
     0
300
1'-0" = 1'-0"
140
12.0
141
12.0
290
     0
  0
TABLESTYLE
  5
2AB1F
102
{ACAD_XDICTIONARY
360
2F078
102
}
102
{ACAD_REACTORS
330
2AB1E
102
}
330
2AB1E
100
AcDbTableStyle
  3
Standard
 70
     0
 71
     0
 40
1.5
 41
1.5
280
     0
281
     0
  7
STANDARD
140
4.5
170
     2
 62
     0
 63
     7
283
     0
 90
      512
 91
        0
  1

274
    -2
284
     1
 64
     0
275
    -2
285
     1
 65
     0
276
    -2
286
     1
 66
     0
277
    -2
287
     1
 67
     0
278
    -2
288
     1
 68
     0
279
    -2
289
     1
 69
     0
  7
STANDARD
140
6.0
170
     5
 62
     0
 63
     7
283
     0
 90
      512
 91
        0
  1

274
    -2
284
     1
 64
     0
275
    -2
285
     1
 65
     0
276
    -2
286
     1
 66
     0
277
    -2
287
     1
 67
     0
278
    -2
288
     1
 68
     0
279
    -2
289
     1
 69
     0
  7
STANDARD
140
4.5
170
     5
 62
     0
 63
     7
283
     0
 90
      512
 91
        0
  1

274
    -2
284
     1
 64
     0
275
    -2
285
     1
 65
     0
276
    -2
286
     1
 66
     0
277
    -2
287
     1
 67
     0
278
    -2
288
     1
 68
     0
279
    -2
289
     1
 69
     0
  0
VISUALSTYLE
  5
2AB12
102
{ACAD_REACTORS
330
2AB0C
102
}
330
2AB0C
100
AcDbVisualStyle
  2
2dWireframe
 70
     4
 71
     0
 72
     2
 73
     0
 90
        0
 40
-0.6
 41
-30.0
 62
     5
 63
     7
421
 16777215
 74
     1
 91
        4
 64
     7
 65
   257
 75
     1
175
     1
 42
1.0
 92
        0
 66
   257
 43
1.0
 76
     1
 77
     6
 78
     2
 67
     7
 79
     5
170
     0
171
     0
290
     0
174
     0
 93
        1
 44
0.0
173
     0
291
     0
 45
0.0
  0
VISUALSTYLE
  5
2AB14
102
{ACAD_REACTORS
330
2AB0C
102
}
330
2AB0C
100
AcDbVisualStyle
  2
3D Hidden
 70
     6
 71
     1
 72
     2
 73
     2
 90
        0
 40
-0.6
 41
-30.0
 62
     5
 63
     7
421
 16777215
 74
     2
 91
        2
 64
     7
 65
   257
 75
     2
175
     1
 42
40.0
 92
        0
 66
   257
 43
1.0
 76
     1
 77
     6
 78
     2
 67
     7
 79
     3
170
     0
171
     0
290
     0
174
     0
 93
        1
 44
0.0
173
     0
291
     0
 45
0.0
  0
VISUALSTYLE
  5
2AB13
102
{ACAD_REACTORS
330
2AB0C
102
}
330
2AB0C
100
AcDbVisualStyle
  2
3dWireframe
 70
     5
 71
     0
 72
     2
 73
     0
 90
        0
 40
-0.6
 41
-30.0
 62
     5
 63
     7
421
 16777215
 74
     1
 91
        4
 64
     7
 65
   257
 75
     1
175
     1
 42
1.0
 92
        0
 66
   257
 43
1.0
 76
     1
 77
     6
 78
     2
 67
     7
 79
     5
170
     0
171
     0
290
     0
174
     0
 93
        1
 44
0.0
173
     0
291
     0
 45
0.0
  0
VISUALSTYLE
  5
2AB11
102
{ACAD_REACTORS
330
2AB0C
102
}
330
2AB0C
100
AcDbVisualStyle
  2
Basic
 70
     7
 71
     1
 72
     0
 73
     1
 90
        0
 40
-0.6
 41
-30.0
 62
     5
 63
     7
421
 16777215
 74
     0
 91
        4
 64
     7
 65
   257
 75
     1
175
     1
 42
1.0
 92
        8
 66
     7
 43
1.0
 76
     1
 77
     6
 78
     2
 67
     7
 79
     5
170
     0
171
     0
290
     0
174
     0
 93
        1
 44
0.0
173
     0
291
     1
 45
0.0
  0
VISUALSTYLE
  5
2AB18
102
{ACAD_REACTORS
330
2AB0C
102
}
330
2AB0C
100
AcDbVisualStyle
  2
Brighten
 70
    12
 71
     2
 72
     2
 73
     0
 90
        0
 40
-0.6
 41
-30.0
 62
     5
 63
     7
421
 16777215
 74
     1
 91
        4
 64
     7
 65
   257
 75
     1
175
     1
 42
1.0
 92
        8
 66
     7
 43
1.0
 76
     1
 77
     6
 78
     2
 67
     7
 79
     5
170
     0
171
     0
290
     0
174
     0
 93
        1
 44
50.0
173
     0
291
     1
 45
0.0
  0
VISUALSTYLE
  5
2AB1C
102
{ACAD_REACTORS
330
2AB0C
102
}
330
2AB0C
100
AcDbVisualStyle
  2
ColorChange
 70
    16
 71
     2
 72
     2
 73
     3
 90
        0
 40
-0.6
 41
-30.0
 62
     5
 63
     8
421
  8421504
 74
     1
 91
        4
 64
     7
 65
   257
 75
     1
175
     1
 42
1.0
 92
        8
 66
     8
424
  8421504
 43
1.0
 76
     1
 77
     6
 78
     2
 67
     7
 79
     5
170
     0
171
     0
290
     0
174
     0
 93
        1
 44
0.0
173
     0
291
     1
 45
0.0
  0
VISUALSTYLE
  5
2AB15
102
{ACAD_REACTORS
330
2AB0C
102
}
330
2AB0C
100
AcDbVisualStyle
  2
Conceptual
 70
     9
 71
     3
 72
     2
 73
     0
 90
        0
 40
-0.6
 41
-30.0
 62
     5
 63
     7
421
 16777215
 74
     2
 91
        2
 64
     7
 65
   257
 75
     1
175
     1
 42
40.0
 92
        8
 66
     7
 43
1.0
 76
     1
 77
     6
 78
     2
 67
     7
 79
     3
170
     0
171
     0
290
     0
174
     0
 93
        1
 44
0.0
173
     0
291
     0
 45
0.0
  0
VISUALSTYLE
  5
2AB17
102
{ACAD_REACTORS
330
2AB0C
102
}
330
2AB0C
100
AcDbVisualStyle
  2
Dim
 70
    11
 71
     2
 72
     2
 73
     0
 90
        0
 40
-0.6
 41
-30.0
 62
     5
 63
     7
421
 16777215
 74
     1
 91
        4
 64
     7
 65
   257
 75
     1
175
     1
 42
1.0
 92
        8
 66
     7
 43
1.0
 76
     1
 77
     6
 78
     2
 67
     7
 79
     5
170
     0
171
     0
290
     0
174
     0
 93
        1
 44
-50.0
173
     0
291
     1
 45
0.0
  0
VISUALSTYLE
  5
2AB1B
102
{ACAD_REACTORS
330
2AB0C
102
}
330
2AB0C
100
AcDbVisualStyle
  2
Facepattern
 70
    15
 71
     2
 72
     2
 73
     0
 90
        0
 40
-0.6
 41
-30.0
 62
     5
 63
     7
421
 16777215
 74
     1
 91
        4
 64
     7
 65
   257
 75
     1
175
     1
 42
1.0
 92
        8
 66
     7
 43
1.0
 76
     1
 77
     6
 78
     2
 67
     7
 79
     5
170
     0
171
     0
290
     0
174
     0
 93
        1
 44
0.0
173
     0
291
     1
 45
0.0
  0
VISUALSTYLE
  5
2AB0D
102
{ACAD_REACTORS
330
2AB0C
102
}
330
2AB0C
100
AcDbVisualStyle
  2
Flat
 70
     0
 71
     2
 72
     1
 73
     1
 90
        2
 40
-0.6
 41
30.0
 62
     5
 63
     7
421
 16777215
 74
     0
 91
        4
 64
     7
 65
   257
 75
     1
175
     1
 42
1.0
 92
        8
 66
     7
 43
1.0
 76
     1
 77
     6
 78
     2
 67
     7
 79
     5
170
     0
171
     0
290
     0
174
     0
 93
       13
 44
0.0
173
     0
291
     1
 45
0.0
  0
VISUALSTYLE
  5
2AB0E
102
{ACAD_REACTORS
330
2AB0C
102
}
330
2AB0C
100
AcDbVisualStyle
  2
FlatWithEdges
 70
     1
 71
     2
 72
     1
 73
     1
 90
        2
 40
-0.6
 41
30.0
 62
     5
 63
     7
421
 16777215
 74
     1
 91
        4
 64
     7
 65
   257
 75
     1
175
     1
 42
1.0
 92
        0
 66
   257
 43
1.0
 76
     1
 77
     6
 78
     2
 67
     7
 79
     5
170
     0
171
     0
290
     0
174
     0
 93
       13
 44
0.0
173
     0
291
     1
 45
0.0
  0
VISUALSTYLE
  5
2AB0F
102
{ACAD_REACTORS
330
2AB0C
102
}
330
2AB0C
100
AcDbVisualStyle
  2
Gouraud
 70
     2
 71
     2
 72
     2
 73
     1
 90
        2
 40
-0.6
 41
30.0
 62
     5
 63
     7
421
 16777215
 74
     0
 91
        4
 64
     7
 65
   257
 75
     1
175
     1
 42
1.0
 92
        0
 66
     7
 43
1.0
 76
     1
 77
     6
 78
     2
 67
     7
 79
     5
170
     0
171
     0
290
     0
174
     0
 93
       13
 44
0.0
173
     0
291
     1
 45
0.0
  0
VISUALSTYLE
  5
2AB10
102
{ACAD_REACTORS
330
2AB0C
102
}
330
2AB0C
100
AcDbVisualStyle
  2
GouraudWithEdges
 70
     3
 71
     2
 72
     2
 73
     1
 90
        2
 40
-0.6
 41
30.0
 62
     5
 63
     7
421
 16777215
 74
     1
 91
        4
 64
     7
 65
   257
 75
     1
175
     1
 42
1.0
 92
        0
 66
   257
 43
1.0
 76
     1
 77
     6
 78
     2
 67
     7
 79
     5
170
     0
171
     0
290
     0
174
     0
 93
       13
 44
0.0
173
     0
291
     1
 45
0.0
  0
VISUALSTYLE
  5
2AB1A
102
{ACAD_REACTORS
330
2AB0C
102
}
330
2AB0C
100
AcDbVisualStyle
  2
Linepattern
 70
    14
 71
     2
 72
     2
 73
     0
 90
        0
 40
-0.6
 41
-30.0
 62
     5
 63
     7
421
 16777215
 74
     1
 91
        4
 64
     7
 65
   257
 75
     7
175
     7
 42
1.0
 92
        8
 66
     7
 43
1.0
 76
     1
 77
     6
 78
     2
 67
     7
 79
     5
170
     0
171
     0
290
     0
174
     0
 93
        1
 44
0.0
173
     0
291
     1
 45
0.0
  0
VISUALSTYLE
  5
2AB16
102
{ACAD_REACTORS
330
2AB0C
102
}
330
2AB0C
100
AcDbVisualStyle
  2
Realistic
 70
     8
 71
     2
 72
     2
 73
     0
 90
        0
 40
-0.6
 41
-30.0
 62
     5
 63
     7
421
 16777215
 74
     1
 91
        0
 64
     7
 65
   257
 75
     1
175
     1
 42
1.0
 92
        8
 66
     8
424
  7895160
 43
1.0
 76
     1
 77
     6
 78
     2
 67
     7
 79
     5
170
     0
171
     0
290
     0
174
     0
 93
       13
 44
0.0
173
     0
291
     0
 45
0.0
  0
VISUALSTYLE
  5
2AB19
102
{ACAD_REACTORS
330
2AB0C
102
}
330
2AB0C
100
AcDbVisualStyle
  2
Thicken
 70
    13
 71
     2
 72
     2
 73
     0
 90
        0
 40
-0.6
 41
-30.0
 62
     5
 63
     7
421
 16777215
 74
     1
 91
        4
 64
     7
 65
   257
 75
     1
175
     1
 42
1.0
 92
       12
 66
     7
 43
1.0
 76
     1
 77
     6
 78
     2
 67
     7
 79
     5
170
     0
171
     0
290
     0
174
     0
 93
        1
 44
0.0
173
     0
291
     1
 45
0.0
  0
DICTIONARYVAR
  5
2F080
102
{ACAD_REACTORS
330
44
102
}
330
44
100
DictionaryVariables
280
     0
  1
1:1
  0
DICTIONARYVAR
  5
2F07E
102
{ACAD_REACTORS
330
44
102
}
330
44
100
DictionaryVariables
280
     0
  1
STANDARD
  0
DICTIONARYVAR
  5
2F07D
102
{ACAD_REACTORS
330
44
102
}
330
44
100
DictionaryVariables
280
     0
  1
STANDARD
  0
DICTIONARYVAR
  5
45
102
{ACAD_REACTORS
330
44
102
}
330
44
100
DictionaryVariables
280
     0
  1
1
  0
DICTIONARYVAR
  5
2F081
102
{ACAD_REACTORS
330
44
102
}
330
44
100
DictionaryVariables
280
     0
  1
0
  0
DICTIONARYVAR
  5
2F07F
102
{ACAD_REACTORS
330
44
102
}
330
44
100
DictionaryVariables
280
     0
  1
0
  0
DICTIONARYVAR
  5
6F8C
102
{ACAD_REACTORS
330
44
102
}
330
44
100
DictionaryVariables
280
     0
  1
96
  0
DICTIONARY
  5
2AAFD
330
2AAFC
100
AcDbDictionary
280
     1
281
     1
  3
BUMPTILE
360
2AAFF
  3
DIFFUSETILE
360
2AAFE
  3
OPACITYTILE
360
2AB02
  3
REFLECTIONTILE
360
2AB01
  3
REFRACTIONTILE
360
2AB03
  3
SPECULARTILE
360
2AB00
  0
DICTIONARY
  5
2AAF5
330
2AAF4
100
AcDbDictionary
280
     1
281
     1
  3
BUMPTILE
360
2AAF7
  3
DIFFUSETILE
360
2AAF6
  3
OPACITYTILE
360
2AAFA
  3
REFLECTIONTILE
360
2AAF9
  3
REFRACTIONTILE
360
2AAFB
  3
SPECULARTILE
360
2AAF8
  0
DICTIONARY
  5
2AB05
330
2AB04
100
AcDbDictionary
280
     1
281
     1
  3
BUMPTILE
360
2AB07
  3
DIFFUSETILE
360
2AB06
  3
OPACITYTILE
360
2AB0A
  3
REFLECTIONTILE
360
2AB09
  3
REFRACTIONTILE
360
2AB0B
  3
SPECULARTILE
360
2AB08
  0
DICTIONARY
  5
2F078
330
2AB1F
100
AcDbDictionary
280
     1
281
     1
  3
ACAD_ROUNDTRIP_2008_TABLESTYLE_CELLSTYLEMAP
360
2F830
  0
XRECORD
  5
2AAFF
102
{ACAD_REACTORS
330
2AAFD
102
}
330
2AAFD
100
AcDbXrecord
280
     1
270
     1
271
     1
  0
XRECORD
  5
2AAFE
102
{ACAD_REACTORS
330
2AAFD
102
}
330
2AAFD
100
AcDbXrecord
280
     1
270
     1
271
     1
  0
XRECORD
  5
2AB02
102
{ACAD_REACTORS
330
2AAFD
102
}
330
2AAFD
100
AcDbXrecord
280
     1
270
     1
271
     1
  0
XRECORD
  5
2AB01
102
{ACAD_REACTORS
330
2AAFD
102
}
330
2AAFD
100
AcDbXrecord
280
     1
270
     1
271
     1
  0
XRECORD
  5
2AB03
102
{ACAD_REACTORS
330
2AAFD
102
}
330
2AAFD
100
AcDbXrecord
280
     1
270
     1
271
     1
  0
XRECORD
  5
2AB00
102
{ACAD_REACTORS
330
2AAFD
102
}
330
2AAFD
100
AcDbXrecord
280
     1
270
     1
271
     1
  0
XRECORD
  5
2AAF7
102
{ACAD_REACTORS
330
2AAF5
102
}
330
2AAF5
100
AcDbXrecord
280
     1
270
     1
271
     1
  0
XRECORD
  5
2AAF6
102
{ACAD_REACTORS
330
2AAF5
102
}
330
2AAF5
100
AcDbXrecord
280
     1
270
     1
271
     1
  0
XRECORD
  5
2AAFA
102
{ACAD_REACTORS
330
2AAF5
102
}
330
2AAF5
100
AcDbXrecord
280
     1
270
     1
271
     1
  0
XRECORD
  5
2AAF9
102
{ACAD_REACTORS
330
2AAF5
102
}
330
2AAF5
100
AcDbXrecord
280
     1
270
     1
271
     1
  0
XRECORD
  5
2AAFB
102
{ACAD_REACTORS
330
2AAF5
102
}
330
2AAF5
100
AcDbXrecord
280
     1
270
     1
271
     1
  0
XRECORD
  5
2AAF8
102
{ACAD_REACTORS
330
2AAF5
102
}
330
2AAF5
100
AcDbXrecord
280
     1
270
     1
271
     1
  0
XRECORD
  5
2AB07
102
{ACAD_REACTORS
330
2AB05
102
}
330
2AB05
100
AcDbXrecord
280
     1
270
     1
271
     1
  0
XRECORD
  5
2AB06
102
{ACAD_REACTORS
330
2AB05
102
}
330
2AB05
100
AcDbXrecord
280
     1
270
     1
271
     1
  0
XRECORD
  5
2AB0A
102
{ACAD_REACTORS
330
2AB05
102
}
330
2AB05
100
AcDbXrecord
280
     1
270
     1
271
     1
  0
XRECORD
  5
2AB09
102
{ACAD_REACTORS
330
2AB05
102
}
330
2AB05
100
AcDbXrecord
280
     1
270
     1
271
     1
  0
XRECORD
  5
2AB0B
102
{ACAD_REACTORS
330
2AB05
102
}
330
2AB05
100
AcDbXrecord
280
     1
270
     1
271
     1
  0
XRECORD
  5
2AB08
102
{ACAD_REACTORS
330
2AB05
102
}
330
2AB05
100
AcDbXrecord
280
     1
270
     1
271
     1
  0
CELLSTYLEMAP
  5
2F830
102
{ACAD_REACTORS
330
2F078
102
}
330
2F078
100
AcDbCellStyleMap
 90
        3
300
CELLSTYLE
  1
TABLEFORMAT_BEGIN
 90
        5
170
     1
 91
        0
 92
    32768
 62
   257
 93
        1
300
CONTENTFORMAT
  1
CONTENTFORMAT_BEGIN
 90
        0
 91
        0
 92
      512
 93
        0
300

 40
0.0
140
1.0
 94
        5
 62
     0
340
F
144
6.0
309
CONTENTFORMAT_END
171
     1
301
MARGIN
  1
CELLMARGIN_BEGIN
 40
1.5
 40
1.5
 40
1.5
 40
1.5
 40
0.18
 40
0.18
309
CELLMARGIN_END
 94
        6
 95
        1
302
GRIDFORMAT
  1
GRIDFORMAT_BEGIN
 90
        0
 91
        1
 62
     0
 92
       -2
340
0
 93
        0
 40
1.125
309
GRIDFORMAT_END
 95
        2
302
GRIDFORMAT
  1
GRIDFORMAT_BEGIN
 90
        0
 91
        1
 62
     0
 92
       -2
340
0
 93
        0
 40
1.125
309
GRIDFORMAT_END
 95
        4
302
GRIDFORMAT
  1
GRIDFORMAT_BEGIN
 90
        0
 91
        1
 62
     0
 92
       -2
340
0
 93
        0
 40
1.125
309
GRIDFORMAT_END
 95
        8
302
GRIDFORMAT
  1
GRIDFORMAT_BEGIN
 90
        0
 91
        1
 62
     0
 92
       -2
340
0
 93
        0
 40
1.125
309
GRIDFORMAT_END
 95
       16
302
GRIDFORMAT
  1
GRIDFORMAT_BEGIN
 90
        0
 91
        1
 62
     0
 92
       -2
340
0
 93
        0
 40
1.125
309
GRIDFORMAT_END
 95
       32
302
GRIDFORMAT
  1
GRIDFORMAT_BEGIN
 90
        0
 91
        1
 62
     0
 92
       -2
340
0
 93
        0
 40
1.125
309
GRIDFORMAT_END
309
TABLEFORMAT_END
  1
CELLSTYLE_BEGIN
 90
        1
 91
        1
300
_TITLE
309
CELLSTYLE_END
300
CELLSTYLE
  1
TABLEFORMAT_BEGIN
 90
        5
170
     1
 91
        0
 92
        0
 62
   257
 93
        1
300
CONTENTFORMAT
  1
CONTENTFORMAT_BEGIN
 90
        0
 91
        0
 92
      512
 93
        0
300

 40
0.0
140
1.0
 94
        5
 62
     0
340
F
144
4.5
309
CONTENTFORMAT_END
171
     1
301
MARGIN
  1
CELLMARGIN_BEGIN
 40
1.5
 40
1.5
 40
1.5
 40
1.5
 40
0.18
 40
0.18
309
CELLMARGIN_END
 94
        6
 95
        1
302
GRIDFORMAT
  1
GRIDFORMAT_BEGIN
 90
        0
 91
        1
 62
     0
 92
       -2
340
0
 93
        0
 40
1.125
309
GRIDFORMAT_END
 95
        2
302
GRIDFORMAT
  1
GRIDFORMAT_BEGIN
 90
        0
 91
        1
 62
     0
 92
       -2
340
0
 93
        0
 40
1.125
309
GRIDFORMAT_END
 95
        4
302
GRIDFORMAT
  1
GRIDFORMAT_BEGIN
 90
        0
 91
        1
 62
     0
 92
       -2
340
0
 93
        0
 40
1.125
309
GRIDFORMAT_END
 95
        8
302
GRIDFORMAT
  1
GRIDFORMAT_BEGIN
 90
        0
 91
        1
 62
     0
 92
       -2
340
0
 93
        0
 40
1.125
309
GRIDFORMAT_END
 95
       16
302
GRIDFORMAT
  1
GRIDFORMAT_BEGIN
 90
        0
 91
        1
 62
     0
 92
       -2
340
0
 93
        0
 40
1.125
309
GRIDFORMAT_END
 95
       32
302
GRIDFORMAT
  1
GRIDFORMAT_BEGIN
 90
        0
 91
        1
 62
     0
 92
       -2
340
0
 93
        0
 40
1.125
309
GRIDFORMAT_END
309
TABLEFORMAT_END
  1
CELLSTYLE_BEGIN
 90
        2
 91
        1
300
_HEADER
309
CELLSTYLE_END
300
CELLSTYLE
  1
TABLEFORMAT_BEGIN
 90
        5
170
     1
 91
        0
 92
        0
 62
   257
 93
        1
300
CONTENTFORMAT
  1
CONTENTFORMAT_BEGIN
 90
        0
 91
        0
 92
      512
 93
        0
300

 40
0.0
140
1.0
 94
        2
 62
     0
340
F
144
4.5
309
CONTENTFORMAT_END
171
     1
301
MARGIN
  1
CELLMARGIN_BEGIN
 40
1.5
 40
1.5
 40
1.5
 40
1.5
 40
0.18
 40
0.18
309
CELLMARGIN_END
 94
        6
 95
        1
302
GRIDFORMAT
  1
GRIDFORMAT_BEGIN
 90
        0
 91
        1
 62
     0
 92
       -2
340
0
 93
        0
 40
1.125
309
GRIDFORMAT_END
 95
        2
302
GRIDFORMAT
  1
GRIDFORMAT_BEGIN
 90
        0
 91
        1
 62
     0
 92
       -2
340
0
 93
        0
 40
1.125
309
GRIDFORMAT_END
 95
        4
302
GRIDFORMAT
  1
GRIDFORMAT_BEGIN
 90
        0
 91
        1
 62
     0
 92
       -2
340
0
 93
        0
 40
1.125
309
GRIDFORMAT_END
 95
        8
302
GRIDFORMAT
  1
GRIDFORMAT_BEGIN
 90
        0
 91
        1
 62
     0
 92
       -2
340
0
 93
        0
 40
1.125
309
GRIDFORMAT_END
 95
       16
302
GRIDFORMAT
  1
GRIDFORMAT_BEGIN
 90
        0
 91
        1
 62
     0
 92
       -2
340
0
 93
        0
 40
1.125
309
GRIDFORMAT_END
 95
       32
302
GRIDFORMAT
  1
GRIDFORMAT_BEGIN
 90
        0
 91
        1
 62
     0
 92
       -2
340
0
 93
        0
 40
1.125
309
GRIDFORMAT_END
309
TABLEFORMAT_END
  1
CELLSTYLE_BEGIN
 90
        3
 91
        2
300
_DATA
309
CELLSTYLE_END
  0
ENDSEC
  0
EOF
