  0
SECTION
  2
HEADER
  9
$ACADVER
  1
AC1015
  9
$ACADMAINTVER
 70
    14
  9
$DWGCODEPAGE
  3
ANSI_932
  9
$INSBASE
 10
0.0
 20
0.0
 30
0.0
  9
$EXTMIN
 10
0.0
 20
0.0
 30
0.0
  9
$EXTMAX
 10
5327.524234041855
 20
4455.0
 30
0.0
  9
$LIMMIN
 10
0.0
 20
0.0
  9
$LIMMAX
 10
3150.0
 20
4455.0
  9
$ORTHOMODE
 70
     1
  9
$REGENMODE
 70
     1
  9
$FILLMODE
 70
     1
  9
$QTEXTMODE
 70
     0
  9
$MIRRTEXT
 70
     0
  9
$LTSCALE
 40
15.0
  9
$ATTMODE
 70
     1
  9
$TEXTSIZE
 40
16.0
  9
$TRACEWID
 40
0.05
  9
$TEXTSTYLE
  7
STANDARD
  9
$CLAYER
  8
0
  9
$CELTYPE
  6
BYLAYER
  9
$CECOLOR
 62
   256
  9
$CELTSCALE
 40
1.0
  9
$DISPSILH
 70
     0
  9
$DIMSCALE
 40
15.0
  9
$DIMASZ
 40
3.0
  9
$DIMEXO
 40
2.0
  9
$DIMDLI
 40
10.0
  9
$DIMRND
 40
0.0
  9
$DIMDLE
 40
0.0
  9
$DIMEXE
 40
2.0
  9
$DIMTP
 40
0.0
  9
$DIMTM
 40
0.0
  9
$DIMTXT
 40
3.2
  9
$DIMCEN
 40
0.09
  9
$DIMTSZ
 40
0.0
  9
$DIMTOL
 70
     0
  9
$DIMLIM
 70
     0
  9
$DIMTIH
 70
     0
  9
$DIMTOH
 70
     0
  9
$DIMSE1
 70
     0
  9
$DIMSE2
 70
     0
  9
$DIMTAD
 70
     1
  9
$DIMZIN
 70
     8
  9
$DIMBLK
  1
Open30
  9
$DIMASO
 70
     1
  9
$DIMSHO
 70
     0
  9
$DIMPOST
  1

  9
$DIMAPOST
  1

  9
$DIMALT
 70
     0
  9
$DIMALTD
 70
     2
  9
$DIMALTF
 40
25.4
  9
$DIMLFAC
 40
1.0
  9
$DIMTOFL
 70
     1
  9
$DIMTVP
 40
0.0
  9
$DIMTIX
 70
     0
  9
$DIMSOXD
 70
     0
  9
$DIMSAH
 70
     0
  9
$DIMBLK1
  1

  9
$DIMBLK2
  1

  9
$DIMSTYLE
  2
STANDARD
  9
$DIMCLRD
 70
     0
  9
$DIMCLRE
 70
     0
  9
$DIMCLRT
 70
     0
  9
$DIMTFAC
 40
1.0
  9
$DIMGAP
 40
0.9999999999999996
  9
$DIMJUST
 70
     0
  9
$DIMSD1
 70
     0
  9
$DIMSD2
 70
     0
  9
$DIMTOLJ
 70
     1
  9
$DIMTZIN
 70
     0
  9
$DIMALTZ
 70
     0
  9
$DIMALTTZ
 70
     0
  9
$DIMUPT
 70
     0
  9
$DIMDEC
 70
     2
  9
$DIMTDEC
 70
     2
  9
$DIMALTU
 70
     2
  9
$DIMALTTD
 70
     2
  9
$DIMTXSTY
  7
STANDARD
  9
$DIMAUNIT
 70
     0
  9
$DIMADEC
 70
     4
  9
$DIMALTRND
 40
0.0
  9
$DIMAZIN
 70
     2
  9
$DIMDSEP
 70
    46
  9
$DIMATFIT
 70
     3
  9
$DIMFRAC
 70
     0
  9
$DIMLDRBLK
  1
Open30
  9
$DIMLUNIT
 70
     2
  9
$DIMLWD
 70
    -2
  9
$DIMLWE
 70
    -2
  9
$DIMTMOVE
 70
     0
  9
$LUNITS
 70
     2
  9
$LUPREC
 70
     2
  9
$SKETCHINC
 40
0.1
  9
$FILLETRAD
 40
20.0
  9
$AUNITS
 70
     0
  9
$AUPREC
 70
     2
  9
$MENU
  1
dash
  9
$ELEVATION
 40
0.0
  9
$PELEVATION
 40
0.0
  9
$THICKNESS
 40
0.0
  9
$LIMCHECK
 70
     0
  9
$CHAMFERA
 40
0.0
  9
$CHAMFERB
 40
0.0
  9
$CHAMFERC
 40
0.0
  9
$CHAMFERD
 40
0.0
  9
$SKPOLY
 70
     0
  9
$TDCREATE
 40
2453136.600744351
  9
$TDUCREATE
 40
2453136.225744351
  9
$TDUPDATE
 40
2454497.461945891
  9
$TDUUPDATE
 40
2454497.086945891
  9
$TDINDWG
 40
6.8296875116
  9
$TDUSRTIMER
 40
6.8296864236
  9
$USRTIMER
 70
     1
  9
$ANGBASE
 50
0.0
  9
$ANGDIR
 70
     0
  9
$PDMODE
 70
    35
  9
$PDSIZE
 40
1.0
  9
$PLINEWID
 40
0.0
  9
$SPLFRAME
 70
     0
  9
$SPLINETYPE
 70
     6
  9
$SPLINESEGS
 70
     8
  9
$HANDSEED
  5
2DB5E
  9
$SURFTAB1
 70
     6
  9
$SURFTAB2
 70
     6
  9
$SURFTYPE
 70
     6
  9
$SURFU
 70
     6
  9
$SURFV
 70
     6
  9
$UCSBASE
  2

  9
$UCSNAME
  2

  9
$UCSORG
 10
0.0
 20
0.0
 30
0.0
  9
$UCSXDIR
 10
1.0
 20
0.0
 30
0.0
  9
$UCSYDIR
 10
0.0
 20
1.0
 30
0.0
  9
$UCSORTHOREF
  2

  9
$UCSORTHOVIEW
 70
     0
  9
$UCSORGTOP
 10
0.0
 20
0.0
 30
0.0
  9
$UCSORGBOTTOM
 10
0.0
 20
0.0
 30
0.0
  9
$UCSORGLEFT
 10
0.0
 20
0.0
 30
0.0
  9
$UCSORGRIGHT
 10
0.0
 20
0.0
 30
0.0
  9
$UCSORGFRONT
 10
0.0
 20
0.0
 30
0.0
  9
$UCSORGBACK
 10
0.0
 20
0.0
 30
0.0
  9
$PUCSBASE
  2

  9
$PUCSNAME
  2

  9
$PUCSORG
 10
0.0
 20
0.0
 30
0.0
  9
$PUCSXDIR
 10
1.0
 20
0.0
 30
0.0
  9
$PUCSYDIR
 10
0.0
 20
1.0
 30
0.0
  9
$PUCSORTHOREF
  2

  9
$PUCSORTHOVIEW
 70
     0
  9
$PUCSORGTOP
 10
0.0
 20
0.0
 30
0.0
  9
$PUCSORGBOTTOM
 10
0.0
 20
0.0
 30
0.0
  9
$PUCSORGLEFT
 10
0.0
 20
0.0
 30
0.0
  9
$PUCSORGRIGHT
 10
0.0
 20
0.0
 30
0.0
  9
$PUCSORGFRONT
 10
0.0
 20
0.0
 30
0.0
  9
$PUCSORGBACK
 10
0.0
 20
0.0
 30
0.0
  9
$USERI1
 70
     0
  9
$USERI2
 70
     0
  9
$USERI3
 70
     0
  9
$USERI4
 70
     0
  9
$USERI5
 70
     0
  9
$USERR1
 40
0.0
  9
$USERR2
 40
3.2
  9
$USERR3
 40
0.0
  9
$USERR4
 40
0.0
  9
$USERR5
 40
0.0
  9
$WORLDVIEW
 70
     1
  9
$SHADEDGE
 70
     3
  9
$SHADEDIF
 70
    70
  9
$TILEMODE
 70
     1
  9
$MAXACTVP
 70
    48
  9
$PINSBASE
 10
0.0
 20
0.0
 30
0.0
  9
$PLIMCHECK
 70
     0
  9
$PEXTMIN
 10
1.000000000000000E+20
 20
1.000000000000000E+20
 30
1.000000000000000E+20
  9
$PEXTMAX
 10
-1.000000000000000E+20
 20
-1.000000000000000E+20
 30
-1.000000000000000E+20
  9
$PLIMMIN
 10
0.0
 20
0.0
  9
$PLIMMAX
 10
12.0
 20
9.0
  9
$UNITMODE
 70
     0
  9
$VISRETAIN
 70
     0
  9
$PLINEGEN
 70
     0
  9
$PSLTSCALE
 70
     0
  9
$TREEDEPTH
 70
  3020
  9
$CMLSTYLE
  2
STANDARD
  9
$CMLJUST
 70
     0
  9
$CMLSCALE
 40
1.0
  9
$PROXYGRAPHICS
 70
     1
  9
$MEASUREMENT
 70
     1
  9
$CELWEIGHT
370
    -1
  9
$ENDCAPS
280
     0
  9
$JOINSTYLE
280
     0
  9
$LWDISPLAY
290
     0
  9
$INSUNITS
 70
     0
  9
$HYPERLINKBASE
  1

  9
$STYLESHEET
  1
MONOCHROME.CTB
  9
$XEDIT
290
     1
  9
$CEPSNTYPE
380
     0
  9
$PSTYLEMODE
290
     1
  9
$FINGERPRINTGUID
  2
{F2A97C53-EF7E-49C1-956A-0F2CE1E6DF2C}
  9
$VERSIONGUID
  2
{374B52DF-9DFB-4950-8F5E-DB89B98587A0}
  9
$EXTNAMES
290
     1
  9
$PSVPSCALE
 40
0.0
  9
$OLESTARTUP
290
     0
  0
ENDSEC
  0
SECTION
  2
CLASSES
  0
CLASS
  1
ACDBDICTIONARYWDFLT
  2
AcDbDictionaryWithDefault
  3
AutoCAD 2000
 90
        0
280
     0
281
     0
  0
CLASS
  1
ACDBPLACEHOLDER
  2
AcDbPlaceHolder
  3
AutoCAD 2000
 90
        0
280
     0
281
     0
  0
CLASS
  1
LAYOUT
  2
AcDbLayout
  3
AutoCAD 2000
 90
        0
280
     0
281
     0
  0
CLASS
  1
DICTIONARYVAR
  2
AcDbDictionaryVar
  3
AutoCAD 2000
 90
        0
280
     0
281
     0
  0
ENDSEC
  0
SECTION
  2
TABLES
  0
TABLE
  2
VPORT
  5
8
330
0
100
AcDbSymbolTable
 70
     4
  0
VPORT
  5
2DB5D
330
8
100
AcDbSymbolTableRecord
100
AcDbViewportTableRecord
  2
*Active
 70
     0
 10
0.0
 20
0.0
 11
1.0
 21
1.0
 12
1849.351454509163
 22
2388.427467768237
 13
0.0
 23
0.0
 14
1.0
 24
1.0
 15
0.0
 25
0.0
 16
0.0
 26
0.0
 36
1.0
 17
0.0
 27
0.0
 37
0.0
 40
5266.715046787425
 41
1.645205479452054
 42
50.0
 43
0.0
 44
0.0
 50
0.0
 51
0.0
 71
     0
 72
  2000
 73
     1
 74
     3
 75
     0
 76
     0
 77
     0
 78
     0
281
     0
 65
     1
110
0.0
120
0.0
130
0.0
111
1.0
121
0.0
131
0.0
112
0.0
122
1.0
132
0.0
 79
     0
146
0.0
  0
ENDTAB
  0
TABLE
  2
LTYPE
  5
5
330
0
100
AcDbSymbolTable
 70
     4
  0
LTYPE
  5
11
330
5
100
AcDbSymbolTableRecord
100
AcDbLinetypeTableRecord
  2
BYBLOCK
 70
     0
  3

 72
    65
 73
     0
 40
0.0
  0
LTYPE
  5
12
330
5
100
AcDbSymbolTableRecord
100
AcDbLinetypeTableRecord
  2
BYLAYER
 70
     0
  3

 72
    65
 73
     0
 40
0.0
  0
LTYPE
  5
13
330
5
100
AcDbSymbolTableRecord
100
AcDbLinetypeTableRecord
  2
CONTINUOUS
 70
     0
  3
Solid line
 72
    65
 73
     0
 40
0.0
  0
LTYPE
  5
1D
330
5
100
AcDbSymbolTableRecord
100
AcDbLinetypeTableRecord
  2
CENTER
 70
     0
  3
____ _ ____ _ ____ _ ____ _ ____ _ ____ _ ____
 72
    65
 73
     4
 40
12.0
 49
9.0
 74
     0
 49
-1.0
 74
     0
 49
1.0
 74
     0
 49
-1.0
 74
     0
  0
LTYPE
  5
1A042
330
5
100
AcDbSymbolTableRecord
100
AcDbLinetypeTableRecord
  2
HASEN2
 70
     0
  3
A,2,-1 __  __  __  __  __  __  __  __
 72
    65
 73
     2
 40
3.0
 49
2.0
 74
     0
 49
-1.0
 74
     0
  0
LTYPE
  5
2CF81
330
5
100
AcDbSymbolTableRecord
100
AcDbLinetypeTableRecord
  2
ITTEN1
 70
     0
  3
A,15,-2,2,-2 __________  __  __________  __  __
 72
    65
 73
     4
 40
21.0
 49
15.0
 74
     0
 49
-2.0
 74
     0
 49
2.0
 74
     0
 49
-2.0
 74
     0
  0
ENDTAB
  0
TABLE
  2
LAYER
  5
2
102
{ACAD_XDICTIONARY
360
2C31C
102
}
330
0
100
AcDbSymbolTable
 70
    11
  0
LAYER
  5
E
330
2
100
AcDbSymbolTableRecord
100
AcDbLayerTableRecord
  2
0
 70
     0
 62
     3
  6
CONTINUOUS
370
    25
390
33
  0
LAYER
  5
21
330
2
100
AcDbSymbolTableRecord
100
AcDbLayerTableRecord
  2
CEN
 70
     0
 62
     4
  6
CENTER
370
    18
390
33
  0
LAYER
  5
23
330
2
100
AcDbSymbolTableRecord
100
AcDbLayerTableRecord
  2
DIM
 70
     0
 62
     7
  6
CONTINUOUS
370
    18
390
33
  0
LAYER
  5
24
330
2
100
AcDbSymbolTableRecord
100
AcDbLayerTableRecord
  2
WAKU
 70
     0
 62
     3
  6
CONTINUOUS
370
    25
390
33
  0
LAYER
  5
25
330
2
100
AcDbSymbolTableRecord
100
AcDbLayerTableRecord
  2
HOJO
 70
     0
 62
     5
  6
CONTINUOUS
370
    18
390
33
  0
LAYER
  5
27
330
2
100
AcDbSymbolTableRecord
100
AcDbLayerTableRecord
  2
DIMTEXT
 70
     0
 62
     7
  6
CONTINUOUS
370
    18
390
33
  0
LAYER
  5
42A
330
2
100
AcDbSymbolTableRecord
100
AcDbLayerTableRecord
  2
Defpoints
 70
     0
 62
     7
  6
CONTINUOUS
290
     0
370
    -3
390
33
  0
LAYER
  5
1FD1
330
2
100
AcDbSymbolTableRecord
100
AcDbLayerTableRecord
  2
ZUKEI
 70
     0
 62
     2
  6
CONTINUOUS
370
    -3
390
33
  0
LAYER
  5
1A043
330
2
100
AcDbSymbolTableRecord
100
AcDbLayerTableRecord
  2
DASH
 70
     0
 62
     3
  6
HASEN2
370
    -3
390
33
  0
LAYER
  5
2CF82
330
2
100
AcDbSymbolTableRecord
100
AcDbLayerTableRecord
  2
BORDER
 70
     0
 62
     5
  6
CONTINUOUS
370
    -3
390
33
  0
LAYER
  5
2CF83
330
2
100
AcDbSymbolTableRecord
100
AcDbLayerTableRecord
  2
MCEN
 70
     0
 62
     4
  6
ITTEN1
370
    -3
390
33
  0
ENDTAB
  0
TABLE
  2
STYLE
  5
3
330
0
100
AcDbSymbolTable
 70
     1
  0
STYLE
  5
F
330
3
100
AcDbSymbolTableRecord
100
AcDbTextStyleTableRecord
  2
STANDARD
 70
     0
 40
0.0
 41
0.8
 50
0.0
 71
     0
 42
16.0
  3
sse
  4
bigfont
  0
ENDTAB
  0
TABLE
  2
VIEW
  5
6
330
0
100
AcDbSymbolTable
 70
     0
  0
ENDTAB
  0
TABLE
  2
UCS
  5
7
330
0
100
AcDbSymbolTable
 70
     0
  0
ENDTAB
  0
TABLE
  2
APPID
  5
9
330
0
100
AcDbSymbolTable
 70
    12
  0
APPID
  5
10
330
9
100
AcDbSymbolTableRecord
100
AcDbRegAppTableRecord
  2
ACAD
 70
     0
  0
APPID
  5
91
330
9
100
AcDbSymbolTableRecord
100
AcDbRegAppTableRecord
  2
SSE
 70
     0
  0
APPID
  5
92
330
9
100
AcDbSymbolTableRecord
100
AcDbRegAppTableRecord
  2
SSE_DIMTEXT
 70
     0
  0
APPID
  5
6B32
330
9
100
AcDbSymbolTableRecord
100
AcDbRegAppTableRecord
  2
GENIUS_GENODEF_13
 70
     0
  0
APPID
  5
6B33
330
9
100
AcDbSymbolTableRecord
100
AcDbRegAppTableRecord
  2
GENIUS_GENOBJ-N-CEN_13
 70
     0
  0
APPID
  5
6B34
330
9
100
AcDbSymbolTableRecord
100
AcDbRegAppTableRecord
  2
GENIUS_GENOBJ-N-FIL_13
 70
     0
  0
APPID
  5
B60B
330
9
100
AcDbSymbolTableRecord
100
AcDbRegAppTableRecord
  2
SSE_BALOON
 70
     0
  0
APPID
  5
1414F
330
9
100
AcDbSymbolTableRecord
100
AcDbRegAppTableRecord
  2
TYP
 70
     0
  0
APPID
  5
14150
330
9
100
AcDbSymbolTableRecord
100
AcDbRegAppTableRecord
  2
BNO
 70
     0
  0
APPID
  5
14151
330
9
100
AcDbSymbolTableRecord
100
AcDbRegAppTableRecord
  2
BLN
 70
     0
  0
APPID
  5
14152
330
9
100
AcDbSymbolTableRecord
100
AcDbRegAppTableRecord
  2
ETC
 70
     0
  0
APPID
  5
14153
330
9
100
AcDbSymbolTableRecord
100
AcDbRegAppTableRecord
  2
DEF
 70
     0
  0
ENDTAB
  0
TABLE
  2
DIMSTYLE
  5
A
330
0
100
AcDbSymbolTable
 70
     2
100
AcDbDimStyleTable
 71
     1
340
2C
  0
DIMSTYLE
105
2C
102
{ACAD_REACTORS
330
2D10E
330
2D10F
330
2D110
330
2D111
330
2D116
330
2D121
330
2D13A
330
2D13B
330
2D13C
330
2D1AC
330
2D1B3
330
2D4B1
330
2D4B5
330
2D4B6
330
2D4E1
330
2D51B
330
2D51C
102
}
330
A
100
AcDbSymbolTableRecord
100
AcDbDimStyleTableRecord
  2
STANDARD
 70
     0
 40
15.0
340
F
  0
DIMSTYLE
105
2DADF
330
A
100
AcDbSymbolTableRecord
100
AcDbDimStyleTableRecord
  2
ISO-25
 70
     0
 41
2.5
 42
0.625
 43
3.75
 44
1.25
 73
     0
 74
     0
 77
     1
 78
     8
140
2.5
141
2.5
143
0.03937007874016
147
0.625
171
     3
172
     1
271
     2
272
     2
274
     3
283
     0
284
     8
340
F
341
2DADC
  0
ENDTAB
  0
TABLE
  2
BLOCK_RECORD
  5
1
330
0
100
AcDbSymbolTable
 70
    25
  0
BLOCK_RECORD
  5
17
330
1
100
AcDbSymbolTableRecord
100
AcDbBlockTableRecord
  2
*MODEL_SPACE
340
36
  0
BLOCK_RECORD
  5
14
330
1
100
AcDbSymbolTableRecord
100
AcDbBlockTableRecord
  2
*PAPER_SPACE
340
37
  0
BLOCK_RECORD
  5
4A
330
1
100
AcDbSymbolTableRecord
100
AcDbBlockTableRecord
  2
_Open30
340
0
102
{BLKREFS
331
2D932
331
2D933
331
2D93D
331
2D93E
331
2D946
331
2D947
331
2D94F
331
2D950
331
2D958
331
2D959
331
2D961
331
2D962
331
2D96C
331
2D96D
331
2D975
331
2D976
331
2D97E
331
2D97F
331
2D989
331
2D98A
331
2D992
331
2D993
331
2D99D
331
2D99E
331
2D9A8
331
2D9A9
331
2D9B1
331
2D9B2
331
2D9B8
331
2D9B9
331
2D9C4
331
2D9C5
331
2D9C9
331
2D9CA
102
}
  0
BLOCK_RECORD
  5
2C2
330
1
100
AcDbSymbolTableRecord
100
AcDbBlockTableRecord
  2
dimstat
340
0
102
{BLKREFS
331
1549A
102
}
  0
BLOCK_RECORD
  5
2CD
330
1
100
AcDbSymbolTableRecord
100
AcDbBlockTableRecord
  2
dimstat2
340
0
102
{BLKREFS
331
15497
102
}
  0
BLOCK_RECORD
  5
5132
330
1
100
AcDbSymbolTableRecord
100
AcDbBlockTableRecord
  2
_DotSmall
340
0
  0
BLOCK_RECORD
  5
192FE
330
1
100
AcDbSymbolTableRecord
100
AcDbBlockTableRecord
  2
waku0
340
0
102
{BLKREFS
331
2B9C7
102
}
  0
BLOCK_RECORD
  5
2D294
330
1
100
AcDbSymbolTableRecord
100
AcDbBlockTableRecord
  2
*D5
340
0
  0
BLOCK_RECORD
  5
2D2A2
330
1
100
AcDbSymbolTableRecord
100
AcDbBlockTableRecord
  2
*D6
340
0
  0
BLOCK_RECORD
  5
2D2B0
330
1
100
AcDbSymbolTableRecord
100
AcDbBlockTableRecord
  2
*D7
340
0
  0
BLOCK_RECORD
  5
2D2BC
330
1
100
AcDbSymbolTableRecord
100
AcDbBlockTableRecord
  2
*D8
340
0
  0
BLOCK_RECORD
  5
2D2C8
330
1
100
AcDbSymbolTableRecord
100
AcDbBlockTableRecord
  2
*D9
340
0
  0
BLOCK_RECORD
  5
2D2D4
330
1
100
AcDbSymbolTableRecord
100
AcDbBlockTableRecord
  2
*D10
340
0
  0
BLOCK_RECORD
  5
2D2E2
330
1
100
AcDbSymbolTableRecord
100
AcDbBlockTableRecord
  2
*D11
340
0
  0
BLOCK_RECORD
  5
2D2EE
330
1
100
AcDbSymbolTableRecord
100
AcDbBlockTableRecord
  2
*D12
340
0
  0
BLOCK_RECORD
  5
2D2FA
330
1
100
AcDbSymbolTableRecord
100
AcDbBlockTableRecord
  2
*D13
340
0
  0
BLOCK_RECORD
  5
2D308
330
1
100
AcDbSymbolTableRecord
100
AcDbBlockTableRecord
  2
*D14
340
0
  0
BLOCK_RECORD
  5
2D316
330
1
100
AcDbSymbolTableRecord
100
AcDbBlockTableRecord
  2
*D15
340
0
  0
BLOCK_RECORD
  5
2D586
330
1
100
AcDbSymbolTableRecord
100
AcDbBlockTableRecord
  2
*D16
340
0
  0
BLOCK_RECORD
  5
2D591
330
1
100
AcDbSymbolTableRecord
100
AcDbBlockTableRecord
  2
*D17
340
0
  0
BLOCK_RECORD
  5
2D59D
330
1
100
AcDbSymbolTableRecord
100
AcDbBlockTableRecord
  2
*D18
340
0
  0
BLOCK_RECORD
  5
2D5A9
330
1
100
AcDbSymbolTableRecord
100
AcDbBlockTableRecord
  2
*D19
340
0
  0
BLOCK_RECORD
  5
2D5B5
330
1
100
AcDbSymbolTableRecord
100
AcDbBlockTableRecord
  2
*D20
340
0
  0
BLOCK_RECORD
  5
2D5C3
330
1
100
AcDbSymbolTableRecord
100
AcDbBlockTableRecord
  2
*D21
340
0
  0
BLOCK_RECORD
  5
2DADC
330
1
100
AcDbSymbolTableRecord
100
AcDbBlockTableRecord
  2
_None
340
0
  0
BLOCK_RECORD
  5
2DAE0
330
1
100
AcDbSymbolTableRecord
100
AcDbBlockTableRecord
  2
SSE_BALOON1
340
0
102
{BLKREFS
331
2DAE5
331
2DAEA
331
2DAEF
102
}
  0
BLOCK_RECORD
  5
2DB0C
330
1
100
AcDbSymbolTableRecord
100
AcDbBlockTableRecord
  2
A$C2FFA2AF1
340
0
102
{BLKREFS
331
2DB59
102
}
  0
ENDTAB
  0
ENDSEC
  0
SECTION
  2
BLOCKS
  0
BLOCK
  5
2A
330
17
100
AcDbEntity
  8
0
100
AcDbBlockBegin
  2
*MODEL_SPACE
 70
     0
 10
0.0
 20
0.0
 30
0.0
  3
*MODEL_SPACE
  1

  0
ENDBLK
  5
2B
330
17
100
AcDbEntity
  8
0
100
AcDbBlockEnd
  0
BLOCK
  5
28
330
14
100
AcDbEntity
 67
     1
  8
0
100
AcDbBlockBegin
  2
*PAPER_SPACE
 70
     0
 10
0.0
 20
0.0
 30
0.0
  3
*PAPER_SPACE
  1

  0
ENDBLK
  5
29
330
14
100
AcDbEntity
 67
     1
  8
0
100
AcDbBlockEnd
  0
BLOCK
  5
4E
330
4A
100
AcDbEntity
  8
0
100
AcDbBlockBegin
  2
_Open30
 70
     0
 10
0.0
 20
0.0
 30
0.0
  3
_Open30
  1

  0
LINE
  5
4B
330
4A
100
AcDbEntity
  8
0
  6
ByBlock
 62
     0
370
    -2
100
AcDbLine
 10
-1.0
 20
0.26794919
 30
0.0
 11
0.0
 21
0.0
 31
0.0
  0
LINE
  5
4C
330
4A
100
AcDbEntity
  8
0
  6
ByBlock
 62
     0
370
    -2
100
AcDbLine
 10
0.0
 20
0.0
 30
0.0
 11
-1.0
 21
-0.26794919
 31
0.0
  0
LINE
  5
4D
330
4A
100
AcDbEntity
  8
0
  6
ByBlock
 62
     0
370
    -2
100
AcDbLine
 10
0.0
 20
0.0
 30
0.0
 11
-1.0
 21
0.0
 31
0.0
  0
ENDBLK
  5
4F
330
4A
100
AcDbEntity
  8
0
100
AcDbBlockEnd
  0
BLOCK
  5
2C6
330
2C2
100
AcDbEntity
  8
0
100
AcDbBlockBegin
  2
dimstat
 70
     2
 10
0.0
 20
0.0
 30
0.0
  3
dimstat
  1

  0
ATTDEF
  5
2C3
330
2C2
100
AcDbEntity
  8
0
100
AcDbText
 10
0.0
 20
1.0
 30
0.0
 40
1.0
  1

 41
0.7
 51
15.0
100
AcDbAttributeDefinition
  3

  2
DIMEXT
 70
     1
  0
ATTDEF
  5
2C4
330
2C2
100
AcDbEntity
  8
0
100
AcDbText
 10
0.0
 20
0.0
 30
0.0
 40
1.0
  1

 41
0.7
 51
15.0
100
AcDbAttributeDefinition
  3

  2
DIMBAL
 70
     1
  0
ATTDEF
  5
2C5
330
2C2
100
AcDbEntity
  8
0
100
AcDbText
 10
1.50719045723035
 20
-0.911649989012119
 30
0.0
 40
1.0
  1

 41
0.7
 51
15.0
 72
     1
 11
1.50719045723035
 21
-0.911649989012119
 31
0.0
100
AcDbAttributeDefinition
  3

  2
SYMSCL
 70
     1
  0
ENDBLK
  5
2C7
330
2C2
100
AcDbEntity
  8
0
100
AcDbBlockEnd
  0
BLOCK
  5
2CF
330
2CD
100
AcDbEntity
  8
0
100
AcDbBlockBegin
  2
dimstat2
 70
     2
 10
0.0
 20
0.0
 30
0.0
  3
dimstat2
  1

  0
ATTDEF
  5
2CE
330
2CD
100
AcDbEntity
  8
0
100
AcDbText
 10
0.0
 20
0.0
 30
0.0
 40
1.0
  1

 41
0.7
100
AcDbAttributeDefinition
  3

  2
DIMSIZ
 70
     1
  0
ENDBLK
  5
2D0
330
2CD
100
AcDbEntity
  8
0
100
AcDbBlockEnd
  0
BLOCK
  5
5134
330
5132
100
AcDbEntity
  8
0
100
AcDbBlockBegin
  2
_DotSmall
 70
     0
 10
0.0
 20
0.0
 30
0.0
  3
_DotSmall
  1

  0
LWPOLYLINE
  5
5133
330
5132
100
AcDbEntity
  8
0
  6
ByBlock
 62
     0
100
AcDbPolyline
 90
        2
 70
     1
 43
0.5
 10
-0.0625
 20
0.0
 42
1.0
 10
0.0625
 20
0.0
 42
1.0
  0
ENDBLK
  5
5135
330
5132
100
AcDbEntity
  8
0
100
AcDbBlockEnd
  0
BLOCK
  5
19303
330
192FE
100
AcDbEntity
  8
0
100
AcDbBlockBegin
  2
waku0
 70
     0
 10
0.0
 20
0.0
 30
0.0
  3
waku0
  1

  0
LINE
  5
192FF
330
192FE
100
AcDbEntity
  8
0
100
AcDbLine
 10
0.0
 20
1.0
 30
0.0
 11
0.0
 21
0.0
 31
0.0
  0
LINE
  5
19300
330
192FE
100
AcDbEntity
  8
0
100
AcDbLine
 10
1.0
 20
1.0
 30
0.0
 11
0.0
 21
1.0
 31
0.0
  0
LINE
  5
19301
330
192FE
100
AcDbEntity
  8
0
100
AcDbLine
 10
1.0
 20
0.0
 30
0.0
 11
1.0
 21
1.0
 31
0.0
  0
LINE
  5
19302
330
192FE
100
AcDbEntity
  8
0
100
AcDbLine
 10
0.0
 20
0.0
 30
0.0
 11
1.0
 21
0.0
 31
0.0
  0
ENDBLK
  5
19304
330
192FE
100
AcDbEntity
  8
0
100
AcDbBlockEnd
  0
BLOCK
  5
2D2A0
330
2D294
100
AcDbEntity
  8
0
100
AcDbBlockBegin
  2
*D5
 70
     1
 10
0.0
 20
0.0
 30
0.0
  3
*D5
  1

  0
LINE
  5
2D97B
330
2D294
100
AcDbEntity
  8
DIM
 62
     0
370
    -2
100
AcDbLine
 10
985.1455509891684
 20
2626.373639567108
 30
0.0
 11
985.1455509891684
 21
2578.613266635366
 31
0.0
  0
LINE
  5
2D97C
330
2D294
100
AcDbEntity
  8
DIM
 62
     0
370
    -2
100
AcDbLine
 10
1293.87638732971
 20
2757.042556213648
 30
0.0
 11
1336.339229133407
 21
2706.437311942335
 31
0.0
  0
ARC
  5
2D97D
330
2D294
100
AcDbEntity
  8
DIM
 62
     0
370
    -2
100
AcDbCircle
 10
985.1455509891676
 20
3124.973639567106
 30
0.0
 40
516.3603729317393
100
AcDbArc
 50
274.9948191666799
 51
305.0051808333201
  0
INSERT
  5
2D97E
330
2D294
100
AcDbEntity
  8
DIM
 62
     0
370
    -2
100
AcDbBlockReference
  2
_Open30
 10
985.1455509891684
 20
2608.613266635366
 30
0.0
 41
45.0
 42
45.0
 43
45.0
 50
182.4974095833399
  0
INSERT
  5
2D97F
330
2D294
100
AcDbEntity
  8
DIM
 62
     0
370
    -2
100
AcDbBlockReference
  2
_Open30
 10
1317.05560084281
 20
2729.418645235904
 30
0.0
 41
45.0
 42
45.0
 43
45.0
 50
37.50259041666016
  0
MTEXT
  5
2D980
330
2D294
100
AcDbEntity
  8
DIM
 62
     0
370
    18
100
AcDbMText
 10
1148.412414157276
 20
2676.401619667541
 30
0.0
 40
48.0
 41
0.0
 71
     5
 72
     1
  1
\A1;40°
 11
0.9396926207859076
 21
0.3420201433256709
 31
0.0
 73
     1
 44
1.0
  0
POINT
  5
2D981
330
2D294
100
AcDbEntity
  8
Defpoints
 62
     0
100
AcDbPoint
 10
1104.226448009711
 20
2622.531827315192
 30
0.0
  0
POINT
  5
2D982
330
2D294
100
AcDbEntity
  8
Defpoints
 62
     0
100
AcDbPoint
 10
985.1455509891668
 20
3554.9736395671
 30
0.0
  0
POINT
  5
2D983
330
2D294
100
AcDbEntity
  8
Defpoints
 62
     0
100
AcDbPoint
 10
1097.398476851404
 20
2991.195811891574
 30
0.0
  0
POINT
  5
2D984
330
2D294
100
AcDbEntity
  8
Defpoints
 62
     0
100
AcDbPoint
 10
1274.592759039115
 20
2780.023889507218
 30
0.0
  0
POINT
  5
2D985
330
2D294
100
AcDbEntity
  8
Defpoints
 62
     0
100
AcDbPoint
 10
985.1455509891687
 20
2656.373639567107
 30
0.0
  0
ENDBLK
  5
2D2A1
330
2D294
100
AcDbEntity
  8
0
100
AcDbBlockEnd
  0
BLOCK
  5
2D2AE
330
2D2A2
100
AcDbEntity
  8
0
100
AcDbBlockBegin
  2
*D6
 70
     1
 10
0.0
 20
0.0
 30
0.0
  3
*D6
  1

  0
LINE
  5
2D98F
330
2D2A2
100
AcDbEntity
  8
DIM
 62
     0
370
    -2
100
AcDbLine
 10
688.3503893508787
 20
2769.734425666984
 30
0.0
 11
634.7906261349882
 21
2705.469422186093
 31
0.0
  0
LINE
  5
2D990
330
2D2A2
100
AcDbEntity
  8
DIM
 62
     0
370
    -2
100
AcDbLine
 10
985.1455509891684
 20
2626.373639567107
 30
0.0
 11
985.1455509891687
 21
2578.613266635366
 31
0.0
  0
ARC
  5
2D991
330
2D2A2
100
AcDbEntity
  8
DIM
 62
     0
370
    -2
100
AcDbCircle
 10
985.1455509891676
 20
3125.851423774572
 30
0.0
 40
517.2381571392054
100
AcDbArc
 50
235.177823159803
 51
265.0136626999489
  0
INSERT
  5
2D992
330
2D2A2
100
AcDbEntity
  8
DIM
 62
     0
370
    -2
100
AcDbBlockReference
  2
_Open30
 10
653.9973419103863
 20
2728.51507403461
 30
0.0
 41
45.0
 42
45.0
 43
45.0
 50
142.6846545097774
  0
INSERT
  5
2D993
330
2D2A2
100
AcDbEntity
  8
DIM
 62
     0
370
    -2
100
AcDbBlockReference
  2
_Open30
 10
985.1455509891684
 20
2608.613266635367
 30
0.0
 41
45.0
 42
45.0
 43
45.0
 50
357.5068313499745
  0
MTEXT
  5
2D994
330
2D2A2
100
AcDbEntity
  8
DIM
 62
     0
370
    18
100
AcDbMText
 10
822.3296513187369
 20
2676.181858695489
 30
0.0
 40
48.0
 41
0.0
 71
     5
 72
     1
  1
\A1;40°
 11
0.9402628342518333
 21
-0.340449412578006
 31
0.0
 73
     1
 44
1.0
  0
POINT
  5
2D995
330
2D2A2
100
AcDbEntity
  8
Defpoints
 62
     0
100
AcDbPoint
 10
754.0399116853286
 20
2663.114463198993
 30
0.0
  0
POINT
  5
2D996
330
2D2A2
100
AcDbEntity
  8
Defpoints
 62
     0
100
AcDbPoint
 10
707.5571051262768
 20
2792.780077515501
 30
0.0
  0
POINT
  5
2D997
330
2D2A2
100
AcDbEntity
  8
Defpoints
 62
     0
100
AcDbPoint
 10
985.1455509891664
 20
3554.9736395671
 30
0.0
  0
POINT
  5
2D998
330
2D2A2
100
AcDbEntity
  8
Defpoints
 62
     0
100
AcDbPoint
 10
985.1455509891684
 20
2656.373639567107
 30
0.0
  0
POINT
  5
2D999
330
2D2A2
100
AcDbEntity
  8
Defpoints
 62
     0
100
AcDbPoint
 10
877.0584555335416
 20
2996.16045524478
 30
0.0
  0
ENDBLK
  5
2D2AF
330
2D2A2
100
AcDbEntity
  8
0
100
AcDbBlockEnd
  0
BLOCK
  5
2D2BA
330
2D2B0
100
AcDbEntity
  8
0
100
AcDbBlockBegin
  2
*D7
 70
     1
 10
0.0
 20
0.0
 30
0.0
  3
*D7
  1

  0
LINE
  5
2D986
330
2D2B0
100
AcDbEntity
  8
DIM
 62
     0
370
    -2
100
AcDbLine
 10
962.1277411915055
 20
3144.213713166716
 30
0.0
 11
902.3064005152004
 21
3194.217037008443
 31
0.0
  0
LINE
  5
2D987
330
2D2B0
100
AcDbEntity
  8
DIM
 62
     0
370
    -2
100
AcDbLine
 10
713.2797264171227
 20
2846.505066526344
 30
0.0
 11
653.4583857408176
 21
2896.50839036807
 31
0.0
  0
LINE
  5
2D988
330
2D2B0
100
AcDbEntity
  8
DIM
 62
     0
370
    -2
100
AcDbLine
 10
896.4640999134399
 20
3140.450248712334
 30
0.0
 11
705.3363059379035
 21
2911.795031464949
 31
0.0
  0
INSERT
  5
2D989
330
2D2B0
100
AcDbEntity
  8
DIM
 62
     0
370
    -2
100
AcDbBlockReference
  2
_Open30
 10
925.3242103128632
 20
3174.976963408828
 30
0.0
 41
45.0
 42
45.0
 43
45.0
 50
50.10850198754646
  0
INSERT
  5
2D98A
330
2D2B0
100
AcDbEntity
  8
DIM
 62
     0
370
    -2
100
AcDbBlockReference
  2
_Open30
 10
676.4761955384803
 20
2877.268316768454
 30
0.0
 41
45.0
 42
45.0
 43
45.0
 50
230.1085019875461
  0
MTEXT
  5
2D98B
330
2D2B0
100
AcDbEntity
  8
DIM
 62
     0
370
    18
100
AcDbMText
 10
770.9770501887101
 20
3051.134735768141
 30
0.0
 40
48.0
 41
0.0
 71
     5
 72
     1
  1
\A1;388
 11
0.64133578665385
 21
0.767260326588758
 31
0.0
 73
     1
 44
1.0
  0
POINT
  5
2D98C
330
2D2B0
100
AcDbEntity
  8
Defpoints
 62
     0
100
AcDbPoint
 10
985.1455509891684
 20
3124.973639567102
 30
0.0
  0
POINT
  5
2D98D
330
2D2B0
100
AcDbEntity
  8
Defpoints
 62
     0
100
AcDbPoint
 10
736.2975362147855
 20
2827.264992926728
 30
0.0
  0
POINT
  5
2D98E
330
2D2B0
100
AcDbEntity
  8
Defpoints
 62
     0
100
AcDbPoint
 10
676.4761955384803
 20
2877.268316768454
 30
0.0
  0
ENDBLK
  5
2D2BB
330
2D2B0
100
AcDbEntity
  8
0
100
AcDbBlockEnd
  0
BLOCK
  5
2D2C6
330
2D2BC
100
AcDbEntity
  8
0
100
AcDbBlockBegin
  2
*D8
 70
     1
 10
0.0
 20
0.0
 30
0.0
  3
*D8
  1

  0
LINE
  5
2D955
330
2D2BC
100
AcDbEntity
  8
DIM
 62
     0
370
    -2
100
AcDbLine
 10
1027.65527974429
 20
3505.973639567101
 30
0.0
 11
1613.46565748925
 21
3505.973639567101
 31
0.0
  0
LINE
  5
2D956
330
2D2BC
100
AcDbEntity
  8
DIM
 62
     0
370
    -2
100
AcDbLine
 10
1015.145550989168
 20
2707.373639567107
 30
0.0
 11
1613.465657489249
 21
2707.373639567105
 31
0.0
  0
LINE
  5
2D957
330
2D2BC
100
AcDbEntity
  8
DIM
 62
     0
370
    -2
100
AcDbLine
 10
1583.46565748925
 20
3460.973639567101
 30
0.0
 11
1583.465657489249
 21
2752.373639567105
 31
0.0
  0
INSERT
  5
2D958
330
2D2BC
100
AcDbEntity
  8
DIM
 62
     0
370
    -2
100
AcDbBlockReference
  2
_Open30
 10
1583.46565748925
 20
3505.973639567101
 30
0.0
 41
45.0
 42
45.0
 43
45.0
 50
90.0
  0
INSERT
  5
2D959
330
2D2BC
100
AcDbEntity
  8
DIM
 62
     0
370
    -2
100
AcDbBlockReference
  2
_Open30
 10
1583.465657489249
 20
2707.373639567105
 30
0.0
 41
45.0
 42
45.0
 43
45.0
 50
270.0
  0
MTEXT
  5
2D95A
330
2D2BC
100
AcDbEntity
  8
DIM
 62
     0
370
    18
100
AcDbMText
 10
1544.465657489249
 20
3106.673639567104
 30
0.0
 40
48.0
 41
0.0
 71
     5
 72
     1
  1
\A1;（799）
 11
0.0000000000000001
 21
1.0
 31
0.0
 73
     1
 44
1.0
  0
POINT
  5
2D95B
330
2D2BC
100
AcDbEntity
  8
Defpoints
 62
     0
100
AcDbPoint
 10
997.65527974429
 20
3505.973639567101
 30
0.0
  0
POINT
  5
2D95C
330
2D2BC
100
AcDbEntity
  8
Defpoints
 62
     0
100
AcDbPoint
 10
985.1455509891684
 20
2707.373639567107
 30
0.0
  0
POINT
  5
2D95D
330
2D2BC
100
AcDbEntity
  8
Defpoints
 62
     0
100
AcDbPoint
 10
1583.465657489249
 20
2707.373639567105
 30
0.0
  0
ENDBLK
  5
2D2C7
330
2D2BC
100
AcDbEntity
  8
0
100
AcDbBlockEnd
  0
BLOCK
  5
2D2D2
330
2D2C8
100
AcDbEntity
  8
0
100
AcDbBlockBegin
  2
*D9
 70
     1
 10
0.0
 20
0.0
 30
0.0
  3
*D9
  1

  0
LINE
  5
2D972
330
2D2C8
100
AcDbEntity
  8
DIM
 62
     0
370
    -2
100
AcDbLine
 10
1406.245550989166
 20
3124.973639567102
 30
0.0
 11
1502.245550989166
 21
3124.973639567102
 31
0.0
  0
LINE
  5
2D973
330
2D2C8
100
AcDbEntity
  8
DIM
 62
     0
370
    -2
100
AcDbLine
 10
1015.145550989163
 20
2707.373639567107
 30
0.0
 11
1502.245550989166
 21
2707.373639567107
 31
0.0
  0
LINE
  5
2D974
330
2D2C8
100
AcDbEntity
  8
DIM
 62
     0
370
    -2
100
AcDbLine
 10
1472.245550989166
 20
3079.973639567102
 30
0.0
 11
1472.245550989166
 21
2752.373639567107
 31
0.0
  0
INSERT
  5
2D975
330
2D2C8
100
AcDbEntity
  8
DIM
 62
     0
370
    -2
100
AcDbBlockReference
  2
_Open30
 10
1472.245550989166
 20
3124.973639567102
 30
0.0
 41
45.0
 42
45.0
 43
45.0
 50
90.0
  0
INSERT
  5
2D976
330
2D2C8
100
AcDbEntity
  8
DIM
 62
     0
370
    -2
100
AcDbBlockReference
  2
_Open30
 10
1472.245550989166
 20
2707.373639567107
 30
0.0
 41
45.0
 42
45.0
 43
45.0
 50
270.0
  0
MTEXT
  5
2D977
330
2D2C8
100
AcDbEntity
  8
DIM
 62
     0
370
    18
100
AcDbMText
 10
1433.245550989165
 20
2916.173639567105
 30
0.0
 40
48.0
 41
0.0
 71
     5
 72
     1
  1
\A1;418
 11
0.0000000000000001
 21
1.0
 31
0.0
 73
     1
 44
1.0
  0
POINT
  5
2D978
330
2D2C8
100
AcDbEntity
  8
Defpoints
 62
     0
100
AcDbPoint
 10
1376.245550989166
 20
3124.973639567102
 30
0.0
  0
POINT
  5
2D979
330
2D2C8
100
AcDbEntity
  8
Defpoints
 62
     0
100
AcDbPoint
 10
985.145550989163
 20
2707.373639567107
 30
0.0
  0
POINT
  5
2D97A
330
2D2C8
100
AcDbEntity
  8
Defpoints
 62
     0
100
AcDbPoint
 10
1472.245550989166
 20
2707.373639567107
 30
0.0
  0
ENDBLK
  5
2D2D3
330
2D2C8
100
AcDbEntity
  8
0
100
AcDbBlockEnd
  0
BLOCK
  5
2D2E0
330
2D2D4
100
AcDbEntity
  8
0
100
AcDbBlockBegin
  2
*D10
 70
     1
 10
0.0
 20
0.0
 30
0.0
  3
*D10
  1

  0
LINE
  5
2D967
330
2D2D4
100
AcDbEntity
  8
DIM
 62
     0
370
    -2
100
AcDbLine
 10
583.2866596643316
 20
465.1662933402938
 30
0.0
 11
535.2866596643317
 21
465.1662933402938
 31
0.0
  0
LINE
  5
2D968
330
2D2D4
100
AcDbEntity
  8
DIM
 62
     0
370
    -2
100
AcDbLine
 10
705.9446517087954
 20
558.4662933402941
 30
0.0
 11
535.2866596643317
 21
558.4662933402941
 31
0.0
  0
LINE
  5
2D969
330
2D2D4
100
AcDbEntity
  8
DIM
 62
     0
370
    -2
100
AcDbLine
 10
565.2866596643317
 20
420.1662933402939
 30
0.0
 11
565.2866596643317
 21
375.1662933402939
 31
0.0
  0
LINE
  5
2D96A
330
2D2D4
100
AcDbEntity
  8
DIM
 62
     0
370
    -2
100
AcDbLine
 10
565.2866596643317
 20
603.4662933402941
 30
0.0
 11
565.2866596643317
 21
648.4662933402939
 31
0.0
  0
LINE
  5
2D96B
330
2D2D4
100
AcDbEntity
  8
DIM
 62
     0
370
    -2
100
AcDbLine
 10
565.2866596643317
 20
465.1662933402938
 30
0.0
 11
565.2866596643317
 21
558.4662933402941
 31
0.0
  0
INSERT
  5
2D96C
330
2D2D4
100
AcDbEntity
  8
DIM
 62
     0
370
    -2
100
AcDbBlockReference
  2
_Open30
 10
565.2866596643317
 20
465.1662933402938
 30
0.0
 41
45.0
 42
45.0
 43
45.0
 50
90.0
  0
INSERT
  5
2D96D
330
2D2D4
100
AcDbEntity
  8
DIM
 62
     0
370
    -2
100
AcDbBlockReference
  2
_Open30
 10
565.2866596643317
 20
558.4662933402941
 30
0.0
 41
45.0
 42
45.0
 43
45.0
 50
270.0
  0
MTEXT
  5
2D96E
330
2D2D4
100
AcDbEntity
  8
DIM
 62
     0
370
    18
100
AcDbMText
 10
526.2866596643316
 20
511.816293340294
 30
0.0
 40
48.0
 41
0.0
 71
     5
 72
     1
  1
\A1;90
 11
0.0000000000000001
 21
1.0
 31
0.0
 73
     1
 44
1.0
  0
POINT
  5
2D96F
330
2D2D4
100
AcDbEntity
  8
Defpoints
 62
     0
100
AcDbPoint
 10
613.2866596643316
 20
465.1662933402938
 30
0.0
  0
POINT
  5
2D970
330
2D2D4
100
AcDbEntity
  8
Defpoints
 62
     0
100
AcDbPoint
 10
735.9446517087953
 20
558.4662933402941
 30
0.0
  0
POINT
  5
2D971
330
2D2D4
100
AcDbEntity
  8
Defpoints
 62
     0
100
AcDbPoint
 10
565.2866596643317
 20
558.4662933402941
 30
0.0
  0
ENDBLK
  5
2D2E1
330
2D2D4
100
AcDbEntity
  8
0
100
AcDbBlockEnd
  0
BLOCK
  5
2D2EC
330
2D2E2
100
AcDbEntity
  8
0
100
AcDbBlockBegin
  2
*D11
 70
     1
 10
0.0
 20
0.0
 30
0.0
  3
*D11
  1

  0
LINE
  5
2D94C
330
2D2E2
100
AcDbEntity
  8
DIM
 62
     0
370
    -2
100
AcDbLine
 10
1028.745550989166
 20
2210.366293340296
 30
0.0
 11
1728.528057586674
 21
2210.366293340295
 31
0.0
  0
LINE
  5
2D94D
330
2D2E2
100
AcDbEntity
  8
DIM
 62
     0
370
    -2
100
AcDbLine
 10
1015.145550989166
 20
465.1662933402944
 30
0.0
 11
1728.528057586673
 21
465.1662933402942
 31
0.0
  0
LINE
  5
2D94E
330
2D2E2
100
AcDbEntity
  8
DIM
 62
     0
370
    -2
100
AcDbLine
 10
1698.528057586674
 20
2165.366293340295
 30
0.0
 11
1698.528057586673
 21
510.1662933402939
 31
0.0
  0
INSERT
  5
2D94F
330
2D2E2
100
AcDbEntity
  8
DIM
 62
     0
370
    -2
100
AcDbBlockReference
  2
_Open30
 10
1698.528057586674
 20
2210.366293340295
 30
0.0
 41
45.0
 42
45.0
 43
45.0
 50
90.0
  0
INSERT
  5
2D950
330
2D2E2
100
AcDbEntity
  8
DIM
 62
     0
370
    -2
100
AcDbBlockReference
  2
_Open30
 10
1698.528057586673
 20
465.1662933402942
 30
0.0
 41
45.0
 42
45.0
 43
45.0
 50
270.0
  0
MTEXT
  5
2D951
330
2D2E2
100
AcDbEntity
  8
DIM
 62
     0
370
    18
100
AcDbMText
 10
1659.528057586673
 20
1337.766293340295
 30
0.0
 40
48.0
 41
0.0
 71
     5
 72
     1
  1
\A1;1745
 11
0.0000000000000001
 21
1.0
 31
0.0
 73
     1
 44
1.0
  0
POINT
  5
2D952
330
2D2E2
100
AcDbEntity
  8
Defpoints
 62
     0
100
AcDbPoint
 10
998.7455509891679
 20
2210.366293340296
 30
0.0
  0
POINT
  5
2D953
330
2D2E2
100
AcDbEntity
  8
Defpoints
 62
     0
100
AcDbPoint
 10
985.1455509891666
 20
465.1662933402944
 30
0.0
  0
POINT
  5
2D954
330
2D2E2
100
AcDbEntity
  8
Defpoints
 62
     0
100
AcDbPoint
 10
1698.528057586673
 20
465.1662933402942
 30
0.0
  0
ENDBLK
  5
2D2ED
330
2D2E2
100
AcDbEntity
  8
0
100
AcDbBlockEnd
  0
BLOCK
  5
2D2F8
330
2D2EE
100
AcDbEntity
  8
0
100
AcDbBlockBegin
  2
*D12
 70
     1
 10
0.0
 20
0.0
 30
0.0
  3
*D12
  1

  0
LINE
  5
2D943
330
2D2EE
100
AcDbEntity
  8
DIM
 62
     0
370
    -2
100
AcDbLine
 10
1351.845550989168
 20
2150.366293340296
 30
0.0
 11
1613.46565748925
 21
2150.366293340296
 31
0.0
  0
LINE
  5
2D944
330
2D2EE
100
AcDbEntity
  8
DIM
 62
     0
370
    -2
100
AcDbLine
 10
1349.445550989167
 20
505.1662933402943
 30
0.0
 11
1613.465657489249
 21
505.1662933402943
 31
0.0
  0
LINE
  5
2D945
330
2D2EE
100
AcDbEntity
  8
DIM
 62
     0
370
    -2
100
AcDbLine
 10
1583.46565748925
 20
2105.366293340296
 30
0.0
 11
1583.465657489249
 21
550.1662933402941
 31
0.0
  0
INSERT
  5
2D946
330
2D2EE
100
AcDbEntity
  8
DIM
 62
     0
370
    -2
100
AcDbBlockReference
  2
_Open30
 10
1583.46565748925
 20
2150.366293340296
 30
0.0
 41
45.0
 42
45.0
 43
45.0
 50
90.0
  0
INSERT
  5
2D947
330
2D2EE
100
AcDbEntity
  8
DIM
 62
     0
370
    -2
100
AcDbBlockReference
  2
_Open30
 10
1583.465657489249
 20
505.1662933402943
 30
0.0
 41
45.0
 42
45.0
 43
45.0
 50
270.0
  0
MTEXT
  5
2D948
330
2D2EE
100
AcDbEntity
  8
DIM
 62
     0
370
    18
100
AcDbMText
 10
1544.465657489249
 20
1327.766293340295
 30
0.0
 40
48.0
 41
0.0
 71
     5
 72
     1
  1
\A1;1645
 11
0.0000000000000001
 21
1.0
 31
0.0
 73
     1
 44
1.0
  0
POINT
  5
2D949
330
2D2EE
100
AcDbEntity
  8
Defpoints
 62
     0
100
AcDbPoint
 10
1321.845550989168
 20
2150.366293340296
 30
0.0
  0
POINT
  5
2D94A
330
2D2EE
100
AcDbEntity
  8
Defpoints
 62
     0
100
AcDbPoint
 10
1319.445550989167
 20
505.1662933402943
 30
0.0
  0
POINT
  5
2D94B
330
2D2EE
100
AcDbEntity
  8
Defpoints
 62
     0
100
AcDbPoint
 10
1583.465657489249
 20
505.1662933402943
 30
0.0
  0
ENDBLK
  5
2D2F9
330
2D2EE
100
AcDbEntity
  8
0
100
AcDbBlockEnd
  0
BLOCK
  5
2D306
330
2D2FA
100
AcDbEntity
  8
0
100
AcDbBlockBegin
  2
*D13
 70
     1
 10
0.0
 20
0.0
 30
0.0
  3
*D13
  1

  0
LINE
  5
2D938
330
2D2FA
100
AcDbEntity
  8
DIM
 62
     0
370
    -2
100
AcDbLine
 10
1349.445572568353
 20
505.1662933402952
 30
0.0
 11
1613.465657489249
 21
505.1662933402952
 31
0.0
  0
LINE
  5
2D939
330
2D2FA
100
AcDbEntity
  8
DIM
 62
     0
370
    -2
100
AcDbLine
 10
1346.994795088375
 20
465.1662933402934
 30
0.0
 11
1613.465657489249
 21
465.1662933402934
 31
0.0
  0
LINE
  5
2D93A
330
2D2FA
100
AcDbEntity
  8
DIM
 62
     0
370
    -2
100
AcDbLine
 10
1583.465657489249
 20
550.166293340295
 30
0.0
 11
1583.465657489249
 21
595.1662933402952
 31
0.0
  0
LINE
  5
2D93B
330
2D2FA
100
AcDbEntity
  8
DIM
 62
     0
370
    -2
100
AcDbLine
 10
1583.465657489249
 20
420.1662933402934
 30
0.0
 11
1583.465657489249
 21
282.9948647688647
 31
0.0
  0
LINE
  5
2D93C
330
2D2FA
100
AcDbEntity
  8
DIM
 62
     0
370
    -2
100
AcDbLine
 10
1583.465657489249
 20
505.1662933402952
 30
0.0
 11
1583.465657489249
 21
465.1662933402934
 31
0.0
  0
INSERT
  5
2D93D
330
2D2FA
100
AcDbEntity
  8
DIM
 62
     0
370
    -2
100
AcDbBlockReference
  2
_Open30
 10
1583.465657489249
 20
505.1662933402952
 30
0.0
 41
45.0
 42
45.0
 43
45.0
 50
270.0
  0
INSERT
  5
2D93E
330
2D2FA
100
AcDbEntity
  8
DIM
 62
     0
370
    -2
100
AcDbBlockReference
  2
_Open30
 10
1583.465657489249
 20
465.1662933402934
 30
0.0
 41
45.0
 42
45.0
 43
45.0
 50
90.0
  0
MTEXT
  5
2D93F
330
2D2FA
100
AcDbEntity
  8
DIM
 62
     0
370
    18
100
AcDbMText
 10
1544.465657489249
 20
329.0805790545793
 30
0.0
 40
48.0
 41
0.0
 71
     5
 72
     1
  1
\A1;40
 11
0.0000000000000001
 21
1.0
 31
0.0
 73
     1
 44
1.0
  0
POINT
  5
2D940
330
2D2FA
100
AcDbEntity
  8
Defpoints
 62
     0
100
AcDbPoint
 10
1319.445572568353
 20
505.1662933402952
 30
0.0
  0
POINT
  5
2D941
330
2D2FA
100
AcDbEntity
  8
Defpoints
 62
     0
100
AcDbPoint
 10
1316.994795088375
 20
465.1662933402934
 30
0.0
  0
POINT
  5
2D942
330
2D2FA
100
AcDbEntity
  8
Defpoints
 62
     0
100
AcDbPoint
 10
1583.465657489249
 20
465.1662933402934
 30
0.0
  0
ENDBLK
  5
2D307
330
2D2FA
100
AcDbEntity
  8
0
100
AcDbBlockEnd
  0
BLOCK
  5
2D314
330
2D308
100
AcDbEntity
  8
0
100
AcDbBlockBegin
  2
*D14
 70
     1
 10
0.0
 20
0.0
 30
0.0
  3
*D14
  1

  0
LINE
  5
2D92D
330
2D308
100
AcDbEntity
  8
DIM
 62
     0
370
    -2
100
AcDbLine
 10
1351.845550989168
 20
2150.366293340296
 30
0.0
 11
1613.465657489249
 21
2150.366293340296
 31
0.0
  0
LINE
  5
2D92E
330
2D308
100
AcDbEntity
  8
DIM
 62
     0
370
    -2
100
AcDbLine
 10
1028.745550989166
 20
2210.366293340296
 30
0.0
 11
1613.465657489249
 21
2210.366293340295
 31
0.0
  0
LINE
  5
2D92F
330
2D308
100
AcDbEntity
  8
DIM
 62
     0
370
    -2
100
AcDbLine
 10
1583.465657489249
 20
2105.366293340296
 30
0.0
 11
1583.465657489249
 21
2060.366293340296
 31
0.0
  0
LINE
  5
2D930
330
2D308
100
AcDbEntity
  8
DIM
 62
     0
370
    -2
100
AcDbLine
 10
1583.465657489249
 20
2255.366293340296
 30
0.0
 11
1583.465657489249
 21
2392.537721911724
 31
0.0
  0
LINE
  5
2D931
330
2D308
100
AcDbEntity
  8
DIM
 62
     0
370
    -2
100
AcDbLine
 10
1583.465657489249
 20
2150.366293340296
 30
0.0
 11
1583.465657489249
 21
2210.366293340295
 31
0.0
  0
INSERT
  5
2D932
330
2D308
100
AcDbEntity
  8
DIM
 62
     0
370
    -2
100
AcDbBlockReference
  2
_Open30
 10
1583.465657489249
 20
2150.366293340296
 30
0.0
 41
45.0
 42
45.0
 43
45.0
 50
90.0
  0
INSERT
  5
2D933
330
2D308
100
AcDbEntity
  8
DIM
 62
     0
370
    -2
100
AcDbBlockReference
  2
_Open30
 10
1583.465657489249
 20
2210.366293340295
 30
0.0
 41
45.0
 42
45.0
 43
45.0
 50
270.0
  0
MTEXT
  5
2D934
330
2D308
100
AcDbEntity
  8
DIM
 62
     0
370
    18
100
AcDbMText
 10
1544.465657489249
 20
2346.45200762601
 30
0.0
 40
48.0
 41
0.0
 71
     5
 72
     1
  1
\A1;60
 11
0.0000000000000001
 21
1.0
 31
0.0
 73
     1
 44
1.0
  0
POINT
  5
2D935
330
2D308
100
AcDbEntity
  8
Defpoints
 62
     0
100
AcDbPoint
 10
1321.845550989168
 20
2150.366293340296
 30
0.0
  0
POINT
  5
2D936
330
2D308
100
AcDbEntity
  8
Defpoints
 62
     0
100
AcDbPoint
 10
998.7455509891679
 20
2210.366293340296
 30
0.0
  0
POINT
  5
2D937
330
2D308
100
AcDbEntity
  8
Defpoints
 62
     0
100
AcDbPoint
 10
1583.465657489249
 20
2210.366293340295
 30
0.0
  0
ENDBLK
  5
2D315
330
2D308
100
AcDbEntity
  8
0
100
AcDbBlockEnd
  0
BLOCK
  5
2D320
330
2D316
100
AcDbEntity
  8
0
100
AcDbBlockBegin
  2
*D15
 70
     1
 10
0.0
 20
0.0
 30
0.0
  3
*D15
  1

  0
LINE
  5
2D95E
330
2D316
100
AcDbEntity
  8
DIM
 62
     0
370
    -2
100
AcDbLine
 10
643.4455509890522
 20
2175.366293340296
 30
0.0
 11
643.4455509890522
 21
2337.366293340296
 31
0.0
  0
LINE
  5
2D95F
330
2D316
100
AcDbEntity
  8
DIM
 62
     0
370
    -2
100
AcDbLine
 10
1326.845550989284
 20
2175.366293340296
 30
0.0
 11
1326.845550989284
 21
2337.366293340296
 31
0.0
  0
LINE
  5
2D960
330
2D316
100
AcDbEntity
  8
DIM
 62
     0
370
    -2
100
AcDbLine
 10
688.445550989052
 20
2307.366293340296
 30
0.0
 11
1281.845550989284
 21
2307.366293340296
 31
0.0
  0
INSERT
  5
2D961
330
2D316
100
AcDbEntity
  8
DIM
 62
     0
370
    -2
100
AcDbBlockReference
  2
_Open30
 10
643.4455509890522
 20
2307.366293340296
 30
0.0
 41
45.0
 42
45.0
 43
45.0
 50
180.0
  0
INSERT
  5
2D962
330
2D316
100
AcDbEntity
  8
DIM
 62
     0
370
    -2
100
AcDbBlockReference
  2
_Open30
 10
1326.845550989284
 20
2307.366293340296
 30
0.0
 41
45.0
 42
45.0
 43
45.0
  0
MTEXT
  5
2D963
330
2D316
100
AcDbEntity
  8
DIM
 62
     0
370
    18
100
AcDbMText
 10
985.1455509891684
 20
2346.366293340296
 30
0.0
 40
48.0
 41
0.0
 71
     5
 72
     1
  1
\A1;φ683（直径）
 73
     1
 44
1.0
  0
POINT
  5
2D964
330
2D316
100
AcDbEntity
  8
Defpoints
 62
     0
100
AcDbPoint
 10
643.4455509890522
 20
2145.366293340296
 30
0.0
  0
POINT
  5
2D965
330
2D316
100
AcDbEntity
  8
Defpoints
 62
     0
100
AcDbPoint
 10
1326.845550989284
 20
2145.366293340296
 30
0.0
  0
POINT
  5
2D966
330
2D316
100
AcDbEntity
  8
Defpoints
 62
     0
100
AcDbPoint
 10
1326.845550989284
 20
2307.366293340296
 30
0.0
  0
ENDBLK
  5
2D321
330
2D316
100
AcDbEntity
  8
0
100
AcDbBlockEnd
  0
BLOCK
  5
2D58F
330
2D586
100
AcDbEntity
  8
0
100
AcDbBlockBegin
  2
*D16
 70
     1
 10
0.0
 20
0.0
 30
0.0
  3
*D16
  1

  0
LINE
  5
2D9C0
330
2D586
100
AcDbEntity
  8
DIM
 62
     0
370
    -2
100
AcDbLine
 10
2739.874261001179
 20
3508.903896845454
 30
0.0
 11
2632.697693215051
 21
3330.07583311157
 31
0.0
  0
LINE
  5
2D9C1
330
2D586
100
AcDbEntity
  8
DIM
 62
     0
370
    -2
100
AcDbLine
 10
2211.159047818056
 20
2626.723026593484
 30
0.0
 11
2188.0258294731
 21
2588.124396967492
 31
0.0
  0
MTEXT
  5
2D9C2
330
2D586
100
AcDbEntity
  8
DIM
 62
     0
370
    18
100
AcDbMText
 10
2664.400440604733
 20
3458.837969023805
 30
0.0
 40
48.0
 41
0.0
 71
     5
 72
     1
  1
\A1;\U+2205730
 11
0.5140715187768218
 21
0.8577473250220554
 31
0.0
 73
     1
 44
1.0
  0
LINE
  5
2D9C3
330
2D586
100
AcDbEntity
  8
DIM
 62
     0
370
    -2
100
AcDbLine
 10
2234.292266163014
 20
2665.321656219477
 30
0.0
 11
2609.564474870094
 21
3291.477203485578
 31
0.0
  0
INSERT
  5
2D9C4
330
2D586
100
AcDbEntity
  8
DIM
 62
     0
370
    -2
100
AcDbBlockReference
  2
_Open30
 10
2234.292266163014
 20
2665.321656219477
 30
0.0
 41
45.0
 42
45.0
 43
45.0
 50
59.06458581716195
  0
INSERT
  5
2D9C5
330
2D586
100
AcDbEntity
  8
DIM
 62
     0
370
    -2
100
AcDbBlockReference
  2
_Open30
 10
2609.564474870094
 20
3291.477203485578
 30
0.0
 41
45.0
 42
45.0
 43
45.0
 50
239.0645858171619
  0
POINT
  5
2D9C6
330
2D586
100
AcDbEntity
  8
Defpoints
 62
     0
100
AcDbPoint
 10
2609.564474870094
 20
3291.477203485578
 30
0.0
  0
POINT
  5
2D9C7
330
2D586
100
AcDbEntity
  8
Defpoints
 62
     0
100
AcDbPoint
 10
2234.292266163014
 20
2665.321656219477
 30
0.0
  0
ENDBLK
  5
2D590
330
2D586
100
AcDbEntity
  8
0
100
AcDbBlockEnd
  0
BLOCK
  5
2D59B
330
2D591
100
AcDbEntity
  8
0
100
AcDbBlockBegin
  2
*D17
 70
     1
 10
0.0
 20
0.0
 30
0.0
  3
*D17
  1

  0
ARC
  5
2D9B7
330
2D591
100
AcDbEntity
  8
DIM
 62
     0
370
    -2
100
AcDbCircle
 10
2421.928370516559
 20
2978.399429852529
 30
0.0
 40
150.8396731832274
100
AcDbArc
 50
347.157080511618
 51
72.84291948838165
  0
INSERT
  5
2D9B8
330
2D591
100
AcDbEntity
  8
DIM
 62
     0
370
    -2
100
AcDbBlockReference
  2
_Open30
 10
2552.559359391779
 20
2902.979593260915
 30
0.0
 41
45.0
 42
45.0
 43
45.0
 50
248.5785402558088
  0
INSERT
  5
2D9B9
330
2D591
100
AcDbEntity
  8
DIM
 62
     0
370
    -2
100
AcDbBlockReference
  2
_Open30
 10
2421.928370516562
 20
3129.239103035757
 30
0.0
 41
45.0
 42
45.0
 43
45.0
 50
171.4214597441908
  0
MTEXT
  5
2D9BA
330
2D591
100
AcDbEntity
  8
DIM
 62
     0
370
    18
100
AcDbMText
 10
2586.334350139372
 20
3073.319266444143
 30
0.0
 40
48.0
 41
0.0
 71
     5
 72
     1
  1
\A1;120°
 11
0.4999999999999973
 21
-0.8660254037844403
 31
0.0
 73
     1
 44
1.0
  0
POINT
  5
2D9BB
330
2D591
100
AcDbEntity
  8
Defpoints
 62
     0
100
AcDbPoint
 10
2570.476450129232
 20
3004.592464220671
 30
0.0
  0
POINT
  5
2D9BC
330
2D591
100
AcDbEntity
  8
Defpoints
 62
     0
100
AcDbPoint
 10
2747.370656857166
 20
2790.505238228091
 30
0.0
  0
POINT
  5
2D9BD
330
2D591
100
AcDbEntity
  8
Defpoints
 62
     0
100
AcDbPoint
 10
2421.928370516559
 20
2496.366833618837
 30
0.0
  0
POINT
  5
2D9BE
330
2D591
100
AcDbEntity
  8
Defpoints
 62
     0
100
AcDbPoint
 10
2421.928370516562
 20
3378.399429852524
 30
0.0
  0
POINT
  5
2D9BF
330
2D591
100
AcDbEntity
  8
Defpoints
 62
     0
100
AcDbPoint
 10
2421.928370516559
 20
2978.399429852529
 30
0.0
  0
ENDBLK
  5
2D59C
330
2D591
100
AcDbEntity
  8
0
100
AcDbBlockEnd
  0
BLOCK
  5
2D5A7
330
2D59D
100
AcDbEntity
  8
0
100
AcDbBlockBegin
  2
*D18
 70
     1
 10
0.0
 20
0.0
 30
0.0
  3
*D18
  1

  0
ARC
  5
2D9C8
330
2D59D
100
AcDbEntity
  8
DIM
 62
     0
370
    -2
100
AcDbCircle
 10
2421.928370516559
 20
2978.399429852528
 30
0.0
 40
150.8396731832253
100
AcDbArc
 50
107.1570805116184
 51
192.8429194883815
  0
INSERT
  5
2D9C9
330
2D59D
100
AcDbEntity
  8
DIM
 62
     0
370
    -2
100
AcDbBlockReference
  2
_Open30
 10
2421.928370516559
 20
3129.239103035754
 30
0.0
 41
45.0
 42
45.0
 43
45.0
 50
8.578540255809285
  0
INSERT
  5
2D9CA
330
2D59D
100
AcDbEntity
  8
DIM
 62
     0
370
    -2
100
AcDbBlockReference
  2
_Open30
 10
2291.297381641346
 20
2902.979593260915
 30
0.0
 41
45.0
 42
45.0
 43
45.0
 50
291.4214597441908
  0
MTEXT
  5
2D9CB
330
2D59D
100
AcDbEntity
  8
DIM
 62
     0
370
    18
100
AcDbMText
 10
2257.52239089375
 20
3073.319266444141
 30
0.0
 40
48.0
 41
0.0
 71
     5
 72
     1
  1
\A1;120°
 11
0.4999999999999984
 21
0.8660254037844396
 31
0.0
 73
     1
 44
1.0
  0
POINT
  5
2D9CC
330
2D59D
100
AcDbEntity
  8
Defpoints
 62
     0
100
AcDbPoint
 10
2324.970497545217
 20
3093.949323296421
 30
0.0
  0
POINT
  5
2D9CD
330
2D59D
100
AcDbEntity
  8
Defpoints
 62
     0
100
AcDbPoint
 10
2096.486084175954
 20
2790.50523822809
 30
0.0
  0
POINT
  5
2D9CE
330
2D59D
100
AcDbEntity
  8
Defpoints
 62
     0
100
AcDbPoint
 10
2421.928370516559
 20
2496.366833618836
 30
0.0
  0
POINT
  5
2D9CF
330
2D59D
100
AcDbEntity
  8
Defpoints
 62
     0
100
AcDbPoint
 10
2421.928370516559
 20
3378.399429852523
 30
0.0
  0
POINT
  5
2D9D0
330
2D59D
100
AcDbEntity
  8
Defpoints
 62
     0
100
AcDbPoint
 10
2421.928370516559
 20
2978.399429852528
 30
0.0
  0
ENDBLK
  5
2D5A8
330
2D59D
100
AcDbEntity
  8
0
100
AcDbBlockEnd
  0
BLOCK
  5
2D5B3
330
2D5A9
100
AcDbEntity
  8
0
100
AcDbBlockBegin
  2
*D19
 70
     1
 10
0.0
 20
0.0
 30
0.0
  3
*D19
  1

  0
LINE
  5
2D9AE
330
2D5A9
100
AcDbEntity
  8
DIM
 62
     0
370
    -2
100
AcDbLine
 10
2105.82909813524
 20
2825.899429852529
 30
0.0
 11
2105.82909813524
 21
3579.668391293538
 31
0.0
  0
LINE
  5
2D9AF
330
2D5A9
100
AcDbEntity
  8
DIM
 62
     0
370
    -2
100
AcDbLine
 10
2738.02764289788
 20
2825.899429852528
 30
0.0
 11
2738.02764289788
 21
3579.668391293538
 31
0.0
  0
LINE
  5
2D9B0
330
2D5A9
100
AcDbEntity
  8
DIM
 62
     0
370
    -2
100
AcDbLine
 10
2150.82909813524
 20
3549.668391293538
 30
0.0
 11
2693.02764289788
 21
3549.668391293538
 31
0.0
  0
INSERT
  5
2D9B1
330
2D5A9
100
AcDbEntity
  8
DIM
 62
     0
370
    -2
100
AcDbBlockReference
  2
_Open30
 10
2105.82909813524
 20
3549.668391293538
 30
0.0
 41
45.0
 42
45.0
 43
45.0
 50
180.0
  0
INSERT
  5
2D9B2
330
2D5A9
100
AcDbEntity
  8
DIM
 62
     0
370
    -2
100
AcDbBlockReference
  2
_Open30
 10
2738.02764289788
 20
3549.668391293538
 30
0.0
 41
45.0
 42
45.0
 43
45.0
  0
MTEXT
  5
2D9B3
330
2D5A9
100
AcDbEntity
  8
DIM
 62
     0
370
    18
100
AcDbMText
 10
2421.928370516559
 20
3588.668391293538
 30
0.0
 40
48.0
 41
0.0
 71
     5
 72
     1
  1
\A1;633
 73
     1
 44
1.0
  0
POINT
  5
2D9B4
330
2D5A9
100
AcDbEntity
  8
Defpoints
 62
     0
100
AcDbPoint
 10
2105.82909813524
 20
2795.899429852529
 30
0.0
  0
POINT
  5
2D9B5
330
2D5A9
100
AcDbEntity
  8
Defpoints
 62
     0
100
AcDbPoint
 10
2738.02764289788
 20
2795.899429852528
 30
0.0
  0
POINT
  5
2D9B6
330
2D5A9
100
AcDbEntity
  8
Defpoints
 62
     0
100
AcDbPoint
 10
2738.02764289788
 20
3549.668391293538
 30
0.0
  0
ENDBLK
  5
2D5B4
330
2D5A9
100
AcDbEntity
  8
0
100
AcDbBlockEnd
  0
BLOCK
  5
2D5C1
330
2D5B5
100
AcDbEntity
  8
0
100
AcDbBlockBegin
  2
*D20
 70
     1
 10
0.0
 20
0.0
 30
0.0
  3
*D20
  1

  0
LINE
  5
2D9A3
330
2D5B5
100
AcDbEntity
  8
DIM
 62
     0
370
    -2
100
AcDbLine
 10
2451.928370516561
 20
3343.399429852529
 30
0.0
 11
2937.928370516555
 21
3343.399429852529
 31
0.0
  0
LINE
  5
2D9A4
330
2D5B5
100
AcDbEntity
  8
DIM
 62
     0
370
    -2
100
AcDbLine
 10
2451.928370516561
 20
3358.399429852529
 30
0.0
 11
2937.928370516555
 21
3358.399429852529
 31
0.0
  0
LINE
  5
2D9A5
330
2D5B5
100
AcDbEntity
  8
DIM
 62
     0
370
    -2
100
AcDbLine
 10
2907.928370516556
 20
3298.399429852529
 30
0.0
 11
2907.928370516556
 21
3253.399429852529
 31
0.0
  0
LINE
  5
2D9A6
330
2D5B5
100
AcDbEntity
  8
DIM
 62
     0
370
    -2
100
AcDbLine
 10
2907.928370516556
 20
3403.399429852529
 30
0.0
 11
2907.928370516556
 21
3533.256572709671
 31
0.0
  0
LINE
  5
2D9A7
330
2D5B5
100
AcDbEntity
  8
DIM
 62
     0
370
    -2
100
AcDbLine
 10
2907.928370516556
 20
3343.399429852529
 30
0.0
 11
2907.928370516556
 21
3358.399429852529
 31
0.0
  0
INSERT
  5
2D9A8
330
2D5B5
100
AcDbEntity
  8
DIM
 62
     0
370
    -2
100
AcDbBlockReference
  2
_Open30
 10
2907.928370516556
 20
3343.399429852529
 30
0.0
 41
45.0
 42
45.0
 43
45.0
 50
90.0
  0
INSERT
  5
2D9A9
330
2D5B5
100
AcDbEntity
  8
DIM
 62
     0
370
    -2
100
AcDbBlockReference
  2
_Open30
 10
2907.928370516556
 20
3358.399429852529
 30
0.0
 41
45.0
 42
45.0
 43
45.0
 50
270.0
  0
MTEXT
  5
2D9AA
330
2D5B5
100
AcDbEntity
  8
DIM
 62
     0
370
    18
100
AcDbMText
 10
2868.928370516556
 20
3490.828001281101
 30
0.0
 40
48.0
 41
0.0
 71
     5
 72
     1
  1
\A1;15
 11
0.0000000000000001
 21
1.0
 31
0.0
 73
     1
 44
1.0
  0
POINT
  5
2D9AB
330
2D5B5
100
AcDbEntity
  8
Defpoints
 62
     0
100
AcDbPoint
 10
2421.928370516559
 20
3343.399429852529
 30
0.0
  0
POINT
  5
2D9AC
330
2D5B5
100
AcDbEntity
  8
Defpoints
 62
     0
100
AcDbPoint
 10
2421.928370516559
 20
3358.399429852529
 30
0.0
  0
POINT
  5
2D9AD
330
2D5B5
100
AcDbEntity
  8
Defpoints
 62
     0
100
AcDbPoint
 10
2907.928370516556
 20
3358.399429852529
 30
0.0
  0
ENDBLK
  5
2D5C2
330
2D5B5
100
AcDbEntity
  8
0
100
AcDbBlockEnd
  0
BLOCK
  5
2D5CD
330
2D5C3
100
AcDbEntity
  8
0
100
AcDbBlockBegin
  2
*D21
 70
     1
 10
0.0
 20
0.0
 30
0.0
  3
*D21
  1

  0
LINE
  5
2D99A
330
2D5C3
100
AcDbEntity
  8
DIM
 62
     0
370
    -2
100
AcDbLine
 10
2451.928370516561
 20
3343.399429852529
 30
0.0
 11
2937.928370516555
 21
3343.399429852529
 31
0.0
  0
LINE
  5
2D99B
330
2D5C3
100
AcDbEntity
  8
DIM
 62
     0
370
    -2
100
AcDbLine
 10
2768.027642897881
 20
2795.899429852528
 30
0.0
 11
2937.928370516555
 21
2795.899429852528
 31
0.0
  0
LINE
  5
2D99C
330
2D5C3
100
AcDbEntity
  8
DIM
 62
     0
370
    -2
100
AcDbLine
 10
2907.928370516556
 20
3298.399429852529
 30
0.0
 11
2907.928370516556
 21
2840.899429852528
 31
0.0
  0
INSERT
  5
2D99D
330
2D5C3
100
AcDbEntity
  8
DIM
 62
     0
370
    -2
100
AcDbBlockReference
  2
_Open30
 10
2907.928370516556
 20
3343.399429852529
 30
0.0
 41
45.0
 42
45.0
 43
45.0
 50
90.0
  0
INSERT
  5
2D99E
330
2D5C3
100
AcDbEntity
  8
DIM
 62
     0
370
    -2
100
AcDbBlockReference
  2
_Open30
 10
2907.928370516556
 20
2795.899429852528
 30
0.0
 41
45.0
 42
45.0
 43
45.0
 50
270.0
  0
MTEXT
  5
2D99F
330
2D5C3
100
AcDbEntity
  8
DIM
 62
     0
370
    18
100
AcDbMText
 10
2868.928370516556
 20
3069.649429852529
 30
0.0
 40
48.0
 41
0.0
 71
     5
 72
     1
  1
\A1;547.5
 11
0.0000000000000001
 21
1.0
 31
0.0
 73
     1
 44
1.0
  0
POINT
  5
2D9A0
330
2D5C3
100
AcDbEntity
  8
Defpoints
 62
     0
100
AcDbPoint
 10
2421.928370516559
 20
3343.399429852529
 30
0.0
  0
POINT
  5
2D9A1
330
2D5C3
100
AcDbEntity
  8
Defpoints
 62
     0
100
AcDbPoint
 10
2738.02764289788
 20
2795.899429852528
 30
0.0
  0
POINT
  5
2D9A2
330
2D5C3
100
AcDbEntity
  8
Defpoints
 62
     0
100
AcDbPoint
 10
2907.928370516556
 20
2795.899429852528
 30
0.0
  0
ENDBLK
  5
2D5CE
330
2D5C3
100
AcDbEntity
  8
0
100
AcDbBlockEnd
  0
BLOCK
  5
2DADD
330
2DADC
100
AcDbEntity
  8
0
100
AcDbBlockBegin
  2
_None
 70
     0
 10
0.0
 20
0.0
 30
0.0
  3
_None
  1

  0
ENDBLK
  5
2DADE
330
2DADC
100
AcDbEntity
  8
0
100
AcDbBlockEnd
  0
BLOCK
  5
2DAE3
330
2DAE0
100
AcDbEntity
  8
0
100
AcDbBlockBegin
  2
SSE_BALOON1
 70
     2
 10
0.0
 20
0.0
 30
0.0
  3
SSE_BALOON1
  1

  0
CIRCLE
  5
2DAE1
330
2DAE0
100
AcDbEntity
  8
0
  6
ByBlock
 62
     0
370
    -2
100
AcDbCircle
 10
0.0
 20
0.0
 30
0.0
 40
1.0
  0
ATTDEF
  5
2DAE2
330
2DAE0
100
AcDbEntity
  8
DIMTEXT
100
AcDbText
 10
0.0
 20
0.0
 30
0.0
 40
1.0
  1

 72
     4
 11
0.0
 21
0.0
 31
0.0
100
AcDbAttributeDefinition
  3
番号
  2
BAL_NUM
 70
     0
  0
ENDBLK
  5
2DAE4
330
2DAE0
100
AcDbEntity
  8
0
100
AcDbBlockEnd
  0
BLOCK
  5
2DB57
330
2DB0C
100
AcDbEntity
  8
0
100
AcDbBlockBegin
  2
A$C2FFA2AF1
 70
     0
 10
0.0
 20
0.0
 30
0.0
  3
A$C2FFA2AF1
  1

  0
LINE
  5
2DB0D
330
2DB0C
100
AcDbEntity
  8
WAKU
 62
     7
370
    25
100
AcDbLine
 10
0.0000049294658311
 20
575.1000018428089
 30
0.0
 11
1838.700004929464
 21
575.1000018428089
 31
0.0
  0
LINE
  5
2DB0E
330
2DB0C
100
AcDbEntity
  8
WAKU
 62
     7
370
    25
100
AcDbLine
 10
1838.700004929466
 20
445.5000018428086
 30
0.0
 11
299.7000049294674
 21
445.5000018428086
 31
0.0
  0
LINE
  5
2DB0F
330
2DB0C
100
AcDbEntity
  8
WAKU
 62
     7
370
    25
100
AcDbLine
 10
1838.700004929466
 20
510.3000018428097
 30
0.0
 11
299.7000049294665
 21
510.3000018428079
 31
0.0
  0
LINE
  5
2DB10
330
2DB0C
100
AcDbEntity
  8
WAKU
 62
     7
370
    25
100
AcDbLine
 10
1838.700004929466
 20
575.1000018428089
 30
0.0
 11
299.7000049294665
 21
575.1000018428089
 31
0.0
  0
LINE
  5
2DB11
330
2DB0C
100
AcDbEntity
  8
WAKU
 62
     7
370
    25
100
AcDbLine
 10
1838.700004929466
 20
380.7000018428075
 30
0.0
 11
299.7000049294665
 21
380.7000018428075
 31
0.0
  0
LINE
  5
2DB12
330
2DB0C
100
AcDbEntity
  8
WAKU
 62
     7
370
    25
100
AcDbLine
 10
1838.700004929466
 20
190.350001842808
 30
0.0
 11
299.7000049294656
 21
190.3500018428071
 31
0.0
  0
LINE
  5
2DB13
330
2DB0C
100
AcDbEntity
  8
WAKU
 62
     7
370
    25
100
AcDbLine
 10
299.7000049294665
 20
121.5000018428086
 30
0.0
 11
1838.700004929466
 21
121.5000018428086
 31
0.0
  0
LINE
  5
2DB14
330
2DB0C
100
AcDbEntity
  8
WAKU
 62
     7
370
    25
100
AcDbLine
 10
1838.700004929466
 20
251.100001842808
 30
0.0
 11
299.7000049294665
 21
251.1000018428089
 31
0.0
  0
LINE
  5
2DB15
330
2DB0C
100
AcDbEntity
  8
WAKU
 62
     7
370
    25
100
AcDbLine
 10
1838.700004929466
 20
311.8500018428089
 30
0.0
 11
299.7000049294656
 21
311.8500018428089
 31
0.0
  0
LINE
  5
2DB16
330
2DB0C
100
AcDbEntity
  8
WAKU
 62
     7
370
    25
100
AcDbLine
 10
299.7000049294665
 20
60.75000184280861
 30
0.0
 11
1838.700004929466
 21
60.75000184280861
 31
0.0
  0
LINE
  5
2DB17
330
2DB0C
100
AcDbEntity
  8
WAKU
 62
     7
370
    25
100
AcDbLine
 10
0.0000049294667406
 20
0.000001842806796
 30
0.0
 11
1838.700004929466
 21
0.0000018428077055
 31
0.0
  0
LINE
  5
2DB18
330
2DB0C
100
AcDbEntity
  8
WAKU
 62
     7
370
    25
100
AcDbLine
 10
1838.700004929464
 20
769.5000018428086
 30
0.0
 11
137.7000049294656
 21
769.5000018428068
 31
0.0
  0
LINE
  5
2DB19
330
2DB0C
100
AcDbEntity
  8
WAKU
 62
     7
370
    25
100
AcDbLine
 10
299.7000049294647
 20
639.9000018428083
 30
0.0
 11
1838.700004929464
 21
639.9000018428091
 31
0.0
  0
LINE
  5
2DB1A
330
2DB0C
100
AcDbEntity
  8
WAKU
 62
     7
370
    25
100
AcDbLine
 10
299.7000049294647
 20
704.7000018428093
 30
0.0
 11
1838.700004929466
 21
704.7000018428084
 31
0.0
  0
LINE
  5
2DB1B
330
2DB0C
100
AcDbEntity
  8
WAKU
 62
     7
370
    25
100
AcDbLine
 10
1838.700004929465
 20
834.3000018428096
 30
0.0
 11
0.0000049294658311
 21
834.3000018428078
 31
0.0
  0
LINE
  5
2DB1C
330
2DB0C
100
AcDbEntity
  8
WAKU
 62
     7
370
    25
100
AcDbLine
 10
0.0000049294658311
 20
769.5000018428077
 30
0.0
 11
1838.700004929466
 21
769.5000018428086
 31
0.0
  0
LINE
  5
2DB1D
330
2DB0C
100
AcDbEntity
  8
WAKU
 62
     7
370
    25
100
AcDbLine
 10
299.7000049294647
 20
769.5000018428077
 30
0.0
 11
299.7000049294656
 21
0.000001842806796
 31
0.0
  0
LINE
  5
2DB1E
330
2DB0C
100
AcDbEntity
  8
WAKU
 62
     7
370
    25
100
AcDbLine
 10
0.0000049294658311
 20
834.3000018428078
 30
0.0
 11
0.0000049294667406
 21
0.000001842806796
 31
0.0
  0
TEXT
  5
2DB1F
330
2DB0C
100
AcDbEntity
  8
DIMTEXT
 62
     7
370
    18
100
AcDbText
 10
80.5325192151805
 20
260.0053406244206
 30
0.0
 40
38.88
  1
（mm）
 41
0.8
 72
     1
 11
149.8500049294662
 21
279.4453406244206
 31
0.0
100
AcDbText
 73
     2
  0
TEXT
  5
2DB20
330
2DB0C
100
AcDbEntity
  8
DIMTEXT
 62
     7
370
    18
100
AcDbText
 10
116.6724049294661
 20
328.8553406244191
 30
0.0
 40
38.88
  1
寸法
 41
0.8
 72
     1
 11
149.8500049294662
 21
348.2953406244191
 31
0.0
100
AcDbText
 73
     2
  0
TEXT
  5
2DB21
330
2DB0C
100
AcDbEntity
  8
DIMTEXT
 62
     7
370
    18
100
AcDbText
 10
326.8928620723255
 20
8.910001842808977
 30
0.0
 40
38.88
  1
J（直径）
 41
0.8
 72
     1
 11
400.9500049294683
 21
28.35000184280898
 31
0.0
100
AcDbText
 73
     2
  0
TEXT
  5
2DB22
330
2DB0C
100
AcDbEntity
  8
DIMTEXT
 62
     7
370
    18
100
AcDbText
 10
390.5820049294683
 20
69.6600018428108
 30
0.0
 40
38.88
  1
H
 41
0.8
 72
     1
 11
400.9500049294683
 21
89.10000184281079
 31
0.0
100
AcDbText
 73
     2
  0
TEXT
  5
2DB23
330
2DB0C
100
AcDbEntity
  8
DIMTEXT
 62
     7
370
    18
100
AcDbText
 10
323.1900049294683
 20
328.8600018428097
 30
0.0
 40
38.88
  1
D（直径）
 41
0.8
 72
     1
 11
400.9500049294683
 21
348.3000018428096
 31
0.0
100
AcDbText
 73
     2
  0
TEXT
  5
2DB24
330
2DB0C
100
AcDbEntity
  8
DIMTEXT
 62
     7
370
    18
100
AcDbText
 10
389.8414335008969
 20
134.46000184281
 30
0.0
 40
38.88
  1
G
 41
0.8
 72
     1
 11
400.9500049294683
 21
153.90000184281
 31
0.0
100
AcDbText
 73
     2
  0
TEXT
  5
2DB25
330
2DB0C
100
AcDbEntity
  8
DIMTEXT
 62
     7
370
    18
100
AcDbText
 10
391.3225763580397
 20
264.0600018428086
 30
0.0
 40
38.88
  1
E
 41
0.8
 72
     1
 11
400.9500049294683
 21
283.5000018428086
 31
0.0
100
AcDbText
 73
     2
  0
TEXT
  5
2DB26
330
2DB0C
100
AcDbEntity
  8
DIMTEXT
 62
     7
370
    18
100
AcDbText
 10
391.3225763580397
 20
199.2600018428093
 30
0.0
 40
38.88
  1
F
 41
0.8
 72
     1
 11
400.9500049294683
 21
218.7000018428093
 31
0.0
100
AcDbText
 73
     2
  0
TEXT
  5
2DB27
330
2DB0C
100
AcDbEntity
  8
DIMTEXT
 62
     7
370
    18
100
AcDbText
 10
389.8414335008969
 20
393.660001842809
 30
0.0
 40
38.88
  1
C
 41
0.8
 72
     1
 11
400.9500049294683
 21
413.1000018428089
 31
0.0
100
AcDbText
 73
     2
  0
TEXT
  5
2DB28
330
2DB0C
100
AcDbEntity
  8
DIMTEXT
 62
     7
370
    18
100
AcDbText
 10
390.5820049294683
 20
458.4600018428083
 30
0.0
 40
38.88
  1
B
 41
0.8
 72
     1
 11
400.9500049294683
 21
477.9000018428082
 31
0.0
100
AcDbText
 73
     2
  0
TEXT
  5
2DB29
330
2DB0C
100
AcDbEntity
  8
DIMTEXT
 62
     7
370
    18
100
AcDbText
 10
118.2414906437518
 20
782.4600018428082
 30
0.0
 40
38.88
  1
タンク容量（L）
 41
0.8
 72
     1
 11
251.1000049294661
 21
801.9000018428082
 31
0.0
100
AcDbText
 73
     2
  0
TEXT
  5
2DB2A
330
2DB0C
100
AcDbEntity
  8
DIMTEXT
 62
     7
370
    18
100
AcDbText
 10
99.75338435933222
 20
612.4344099984864
 30
0.0
 40
38.88
  1
（kg）
 41
0.8
 72
     1
 11
151.2971557879036
 21
631.8744099984865
 31
0.0
100
AcDbText
 73
     2
  0
TEXT
  5
2DB2B
330
2DB0C
100
AcDbEntity
  8
DIMTEXT
 62
     7
370
    18
100
AcDbText
 10
120.4869566676334
 20
693.4344099984864
 30
0.0
 40
38.88
  1
質量
 41
0.8
 72
     1
 11
153.6645566676334
 21
712.8744099984865
 31
0.0
100
AcDbText
 73
     2
  0
TEXT
  5
2DB2C
330
2DB0C
100
AcDbEntity
  8
DIMTEXT
 62
     7
370
    18
100
AcDbText
 10
389.1008620723255
 20
523.2600018428074
 30
0.0
 40
38.88
  1
A
 41
0.8
 72
     1
 11
400.9500049294683
 21
542.7000018428075
 31
0.0
100
AcDbText
 73
     2
  0
TEXT
  5
2DB2D
330
2DB0C
100
AcDbEntity
  8
DIMTEXT
 62
     7
370
    18
100
AcDbText
 10
349.1100049294665
 20
588.0600018428085
 30
0.0
 40
38.88
  1
満水時
 41
0.8
 72
     1
 11
400.9500049294665
 21
607.5000018428085
 31
0.0
100
AcDbText
 73
     2
  0
TEXT
  5
2DB2E
330
2DB0C
100
AcDbEntity
  8
DIMTEXT
 62
     7
370
    18
100
AcDbText
 10
349.1100049294665
 20
652.8600018428078
 30
0.0
 40
38.88
  1
本　体
 41
0.8
 72
     1
 11
400.9500049294665
 21
672.3000018428079
 31
0.0
100
AcDbText
 73
     2
  0
TEXT
  5
2DB2F
330
2DB0C
100
AcDbEntity
  8
DIMTEXT
 62
     7
370
    18
100
AcDbText
 10
349.1100049294665
 20
717.6600018428071
 30
0.0
 40
38.88
  1
品　番
 41
0.8
 72
     1
 11
400.9500049294665
 21
737.1000018428071
 31
0.0
100
AcDbText
 73
     2
  0
TEXT
  5
2DB30
330
2DB0C
100
AcDbEntity
  8
DIMTEXT
 62
     7
370
    18
100
AcDbText
 10
1556.704290643755
 20
264.0600018428081
 30
0.0
 40
38.88
  1
1,882
 41
0.8
 72
     1
 11
1615.950004929469
 21
283.5000018428081
 31
0.0
100
AcDbText
 73
     2
  0
TEXT
  5
2DB31
330
2DB0C
100
AcDbEntity
  8
DIMTEXT
 62
     7
370
    18
100
AcDbText
 10
1556.704290643755
 20
199.2600018428079
 30
0.0
 40
38.88
  1
1,982
 41
0.8
 72
     1
 11
1615.950004929469
 21
218.7000018428079
 31
0.0
100
AcDbText
 73
     2
  0
TEXT
  5
2DB32
330
2DB0C
100
AcDbEntity
  8
DIMTEXT
 62
     7
370
    18
100
AcDbText
 10
1575.218576358039
 20
588.0600018428099
 30
0.0
 40
38.88
  1
624
 41
0.8
 72
     1
 11
1615.950004929467
 21
607.50000184281
 31
0.0
100
AcDbText
 73
     2
  0
TEXT
  5
2DB33
330
2DB0C
100
AcDbEntity
  8
DIMTEXT
 62
     7
370
    18
100
AcDbText
 10
1590.030004929467
 20
652.8600018428083
 30
0.0
 40
38.88
  1
74
 41
0.8
 72
     1
 11
1615.950004929467
 21
672.3000018428083
 31
0.0
100
AcDbText
 73
     2
  0
TEXT
  5
2DB34
330
2DB0C
100
AcDbEntity
  8
DIMTEXT
 62
     7
370
    18
100
AcDbText
 10
1575.95914778661
 20
782.4600018428077
 30
0.0
 40
38.88
  1
550
 41
0.8
 72
     1
 11
1615.950004929467
 21
801.9000018428078
 31
0.0
100
AcDbText
 73
     2
  0
TEXT
  5
2DB35
330
2DB0C
100
AcDbEntity
  8
DIMTEXT
 62
     7
370
    18
100
AcDbText
 10
1445.618576358037
 20
717.6600018428094
 30
0.0
 40
38.88
  1
UM855BB-H27
 41
0.8
 72
     1
 11
1615.950004929465
 21
737.1000018428094
 31
0.0
100
AcDbText
 73
     2
  0
TEXT
  5
2DB36
330
2DB0C
100
AcDbEntity
  8
DIMTEXT
 62
     7
370
    18
100
AcDbText
 10
1000.859147786609
 20
717.6600018428084
 30
0.0
 40
38.88
  1
UM846BB-H26
 41
0.8
 72
     1
 11
1170.450004929466
 21
737.1000018428085
 31
0.0
100
AcDbText
 73
     2
  0
LINE
  5
2DB37
330
2DB0C
100
AcDbEntity
  8
WAKU
 62
     7
370
    25
100
AcDbLine
 10
502.2000049294674
 20
834.3000018428096
 30
0.0
 11
502.2000049294674
 21
315.9000018428082
 31
0.0
  0
LINE
  5
2DB38
330
2DB0C
100
AcDbEntity
  8
WAKU
 62
     7
370
    25
100
AcDbLine
 10
947.7000049294675
 20
834.3000018428096
 30
0.0
 11
947.7000049294693
 21
315.9000018428082
 31
0.0
  0
LINE
  5
2DB39
330
2DB0C
100
AcDbEntity
  8
WAKU
 62
     7
370
    25
100
AcDbLine
 10
502.2000049294665
 20
777.6000018428072
 30
0.0
 11
502.2000049294684
 21
0.000001842806796
 31
0.0
  0
LINE
  5
2DB3A
330
2DB0C
100
AcDbEntity
  8
WAKU
 62
     7
370
    25
100
AcDbLine
 10
502.2000049294656
 20
834.3000018428078
 30
0.0
 11
502.2000049294674
 21
461.7000018428093
 31
0.0
  0
TEXT
  5
2DB3B
330
2DB0C
100
AcDbEntity
  8
DIMTEXT
 62
     7
370
    18
100
AcDbText
 10
684.9591477866112
 20
8.910001842808522
 30
0.0
 40
38.88
  1
730
 41
0.8
 72
     1
 11
724.9500049294684
 21
28.35000184280852
 31
0.0
100
AcDbText
 73
     2
  0
TEXT
  5
2DB3C
330
2DB0C
100
AcDbEntity
  8
DIMTEXT
 62
     7
370
    18
100
AcDbText
 10
684.9591477866129
 20
136.4850018428074
 30
0.0
 40
38.88
  1
633
 41
0.8
 72
     1
 11
724.9500049294701
 21
155.9250018428074
 31
0.0
100
AcDbText
 73
     2
  0
TEXT
  5
2DB3D
330
2DB0C
100
AcDbEntity
  8
DIMTEXT
 62
     7
370
    18
100
AcDbText
 10
665.7042906437559
 20
264.4915501886722
 30
0.0
 40
38.88
  1
1,645
 41
0.8
 72
     1
 11
724.9500049294701
 21
283.9315501886721
 31
0.0
100
AcDbText
 73
     2
  0
TEXT
  5
2DB3E
330
2DB0C
100
AcDbEntity
  8
DIMTEXT
 62
     7
370
    18
100
AcDbText
 10
665.7042906437559
 20
203.3100018428054
 30
0.0
 40
38.88
  1
1,745
 41
0.8
 72
     1
 11
724.9500049294701
 21
222.7500018428054
 31
0.0
100
AcDbText
 73
     2
  0
TEXT
  5
2DB3F
330
2DB0C
100
AcDbEntity
  8
DIMTEXT
 62
     7
370
    18
100
AcDbText
 10
684.9591477866129
 20
393.6600018428066
 30
0.0
 40
38.88
  1
388
 41
0.8
 72
     1
 11
724.9500049294701
 21
413.1000018428067
 31
0.0
100
AcDbText
 73
     2
  0
TEXT
  5
2DB40
330
2DB0C
100
AcDbEntity
  8
DIMTEXT
 62
     7
370
    18
100
AcDbText
 10
687.9214335008987
 20
458.4600018428068
 30
0.0
 40
38.88
  1
418
 41
0.8
 72
     1
 11
724.9500049294701
 21
477.9000018428068
 31
0.0
100
AcDbText
 73
     2
  0
TEXT
  5
2DB41
330
2DB0C
100
AcDbEntity
  8
DIMTEXT
 62
     7
370
    18
100
AcDbText
 10
684.9591477866129
 20
328.8600018428074
 30
0.0
 40
38.88
  1
683
 41
0.8
 72
     1
 11
724.9500049294701
 21
348.3000018428074
 31
0.0
100
AcDbText
 73
     2
  0
TEXT
  5
2DB42
330
2DB0C
100
AcDbEntity
  8
DIMTEXT
 62
     7
370
    18
100
AcDbText
 10
662.7420049294684
 20
69.66000184280852
 30
0.0
 40
38.88
  1
547.5
 41
0.8
 72
     1
 11
724.9500049294684
 21
89.10000184280852
 31
0.0
100
AcDbText
 73
     2
  0
LINE
  5
2DB43
330
2DB0C
100
AcDbEntity
  8
WAKU
 62
     7
370
    25
100
AcDbLine
 10
502.2000049294674
 20
186.3000018428087
 30
0.0
 11
502.2000049294674
 21
0.0000018428077055
 31
0.0
  0
LINE
  5
2DB44
330
2DB0C
100
AcDbEntity
  8
WAKU
 62
     7
370
    25
100
AcDbLine
 10
947.7000049294693
 20
186.3000018428087
 30
0.0
 11
947.7000049294693
 21
0.0000018428077055
 31
0.0
  0
TEXT
  5
2DB45
330
2DB0C
100
AcDbEntity
  8
DIMTEXT
 62
     7
370
    18
100
AcDbText
 10
684.9591477866112
 20
588.0600018428099
 30
0.0
 40
38.88
  1
425
 41
0.8
 72
     1
 11
724.9500049294684
 21
607.50000184281
 31
0.0
100
AcDbText
 73
     2
  0
TEXT
  5
2DB46
330
2DB0C
100
AcDbEntity
  8
DIMTEXT
 62
     7
370
    18
100
AcDbText
 10
685.6997192151844
 20
523.260001842807
 30
0.0
 40
38.88
  1
799
 41
0.8
 72
     1
 11
724.9500049294701
 21
542.7000018428071
 31
0.0
100
AcDbText
 73
     2
  0
TEXT
  5
2DB47
330
2DB0C
100
AcDbEntity
  8
DIMTEXT
 62
     7
370
    18
100
AcDbText
 10
554.6185763580398
 20
717.6600018428084
 30
0.0
 40
38.88
  1
UM837BB-H25
 41
0.8
 72
     1
 11
724.9500049294684
 21
737.1000018428085
 31
0.0
100
AcDbText
 73
     2
  0
TEXT
  5
2DB48
330
2DB0C
100
AcDbEntity
  8
DIMTEXT
 62
     7
370
    18
100
AcDbText
 10
684.9591477866112
 20
782.4600018428077
 30
0.0
 40
38.88
  1
370
 41
0.8
 72
     1
 11
724.9500049294684
 21
801.9000018428078
 31
0.0
100
AcDbText
 73
     2
  0
TEXT
  5
2DB49
330
2DB0C
100
AcDbEntity
  8
DIMTEXT
 62
     7
370
    18
100
AcDbText
 10
699.7705763580397
 20
652.8600018428083
 30
0.0
 40
38.88
  1
55
 41
0.8
 72
     1
 11
724.9500049294684
 21
672.3000018428083
 31
0.0
100
AcDbText
 73
     2
  0
TEXT
  5
2DB4A
330
2DB0C
100
AcDbEntity
  8
DIMTEXT
 62
     7
370
    18
100
AcDbText
 10
1352.761572083129
 20
8.931310622814233
 30
0.0
 40
38.88
  1
784
 41
0.8
 72
     1
 11
1393.493000654558
 21
28.37131062281423
 31
0.0
100
AcDbText
 73
     2
  0
TEXT
  5
2DB4B
330
2DB0C
100
AcDbEntity
  8
DIMTEXT
 62
     7
370
    18
100
AcDbText
 10
1353.502143511701
 20
69.68131062281514
 30
0.0
 40
38.88
  1
588
 41
0.8
 72
     1
 11
1393.493000654558
 21
89.12131062281515
 31
0.0
100
AcDbText
 73
     2
  0
TEXT
  5
2DB4C
330
2DB0C
100
AcDbEntity
  8
DIMTEXT
 62
     7
370
    18
100
AcDbText
 10
1353.949719215183
 20
134.4600018428096
 30
0.0
 40
38.88
  1
679
 41
0.8
 72
     1
 11
1393.200004929469
 21
153.9000018428096
 31
0.0
100
AcDbText
 73
     2
  0
LINE
  5
2DB4D
330
2DB0C
100
AcDbEntity
  8
WAKU
 62
     7
370
    25
100
AcDbLine
 10
1393.200004929466
 20
311.8500018428089
 30
0.0
 11
1393.200004929466
 21
190.350001842808
 31
0.0
  0
TEXT
  5
2DB4E
330
2DB0C
100
AcDbEntity
  8
DIMTEXT
 62
     7
370
    18
100
AcDbText
 10
1353.209147786612
 20
393.6600018428094
 30
0.0
 40
38.88
  1
425
 41
0.8
 72
     1
 11
1393.200004929469
 21
413.1000018428094
 31
0.0
100
AcDbText
 73
     2
  0
TEXT
  5
2DB4F
330
2DB0C
100
AcDbEntity
  8
DIMTEXT
 62
     7
370
    18
100
AcDbText
 10
1353.209147786612
 20
458.4600018428096
 30
0.0
 40
38.88
  1
448
 41
0.8
 72
     1
 11
1393.200004929469
 21
477.9000018428096
 31
0.0
100
AcDbText
 73
     2
  0
TEXT
  5
2DB50
330
2DB0C
100
AcDbEntity
  8
DIMTEXT
 62
     7
370
    18
100
AcDbText
 10
1353.209147786614
 20
328.8600018428074
 30
0.0
 40
38.88
  1
735
 41
0.8
 72
     1
 11
1393.200004929471
 21
348.3000018428074
 31
0.0
100
AcDbText
 73
     2
  0
TEXT
  5
2DB51
330
2DB0C
100
AcDbEntity
  8
DIMTEXT
 62
     7
370
    18
100
AcDbText
 10
1130.459147786611
 20
588.0600018428099
 30
0.0
 40
38.88
  1
527
 41
0.8
 72
     1
 11
1170.450004929468
 21
607.50000184281
 31
0.0
100
AcDbText
 73
     2
  0
TEXT
  5
2DB52
330
2DB0C
100
AcDbEntity
  8
DIMTEXT
 62
     7
370
    18
100
AcDbText
 10
1145.270576358039
 20
652.8600018428083
 30
0.0
 40
38.88
  1
67
 41
0.8
 72
     1
 11
1170.450004929468
 21
672.3000018428083
 31
0.0
100
AcDbText
 73
     2
  0
TEXT
  5
2DB53
330
2DB0C
100
AcDbEntity
  8
DIMTEXT
 62
     7
370
    18
100
AcDbText
 10
1130.459147786611
 20
782.4600018428077
 30
0.0
 40
38.88
  1
460
 41
0.8
 72
     1
 11
1170.450004929468
 21
801.9000018428078
 31
0.0
100
AcDbText
 73
     2
  0
LINE
  5
2DB54
330
2DB0C
100
AcDbEntity
  8
WAKU
 62
     7
370
    25
100
AcDbLine
 10
1393.200004929467
 20
834.3000018428096
 30
0.0
 11
1393.200004929464
 21
575.1000018428089
 31
0.0
  0
TEXT
  5
2DB55
330
2DB0C
100
AcDbEntity
  8
DIMTEXT
 62
     7
370
    18
100
AcDbText
 10
1353.209147786612
 20
523.2600018428088
 30
0.0
 40
38.88
  1
855
 41
0.8
 72
     1
 11
1393.200004929469
 21
542.7000018428088
 31
0.0
100
AcDbText
 73
     2
  0
LINE
  5
2DB56
330
2DB0C
100
AcDbEntity
  8
WAKU
 62
     7
370
    25
100
AcDbLine
 10
1838.700004929465
 20
834.3000018428096
 30
0.0
 11
1838.700004929465
 21
0.000001842808615
 31
0.0
  0
ENDBLK
  5
2DB58
330
2DB0C
100
AcDbEntity
  8
0
100
AcDbBlockEnd
  0
ENDSEC
  0
SECTION
  2
ENTITIES
  0
INSERT
  5
15497
330
17
100
AcDbEntity
  8
0
100
AcDbBlockReference
 66
     1
  2
dimstat2
 10
7723.001826654316
 20
1309.141213428434
 30
0.0
  0
ATTRIB
  5
15498
330
15497
100
AcDbEntity
  8
0
100
AcDbText
 10
7723.001826654316
 20
1309.141213428434
 30
0.0
 40
1.0
  1
(1.28 1.92 0 0 0 0 0 3.2 12 0 )
 41
0.7
100
AcDbAttribute
  2
DIMSIZ
 70
     1
  0
SEQEND
  5
15499
330
15497
100
AcDbEntity
  8
0
  0
INSERT
  5
1549A
330
17
100
AcDbEntity
  8
0
100
AcDbBlockReference
 66
     1
  2
dimstat
 10
7723.001826654316
 20
1309.141213428434
 30
0.0
  0
ATTRIB
  5
1549B
330
1549A
100
AcDbEntity
  8
0
100
AcDbText
 10
7723.001826654316
 20
1310.141213428434
 30
0.0
 40
1.0
  1
1
 41
0.7
 51
15.0
100
AcDbAttribute
  2
DIMEXT
 70
     1
  0
ATTRIB
  5
1549C
330
1549A
100
AcDbEntity
  8
0
100
AcDbText
 10
7723.001826654316
 20
1309.141213428434
 30
0.0
 40
1.0
  1
10 
 41
0.7
 51
15.0
100
AcDbAttribute
  2
DIMBAL
 70
     1
  0
ATTRIB
  5
1549D
330
1549A
100
AcDbEntity
  8
0
100
AcDbText
 10
7723.965683778215
 20
1308.229563439422
 30
0.0
 40
1.0
  1
4 
 41
0.7
 51
15.0
 72
     1
 11
7724.509017111548
 21
1308.229563439422
 31
0.0
100
AcDbAttribute
  2
SYMSCL
 70
     1
  0
SEQEND
  5
1549E
330
1549A
100
AcDbEntity
  8
0
  0
TEXT
  5
25323
330
17
100
AcDbEntity
  8
DIM
 62
     7
370
    18
100
AcDbText
 10
105.4854082039998
 20
4259.593765135567
 30
0.0
 40
80.0
  1
『給湯専用丸形３７０Ｌ外形図』
 41
0.8
100
AcDbText
  0
INSERT
  5
2B9C7
330
17
100
AcDbEntity
  8
WAKU
 62
     7
100
AcDbBlockReference
  2
waku0
 10
0.0
 20
0.0
 30
0.0
 41
3150.0
 42
4455.0
 43
3150.0
  0
TEXT
  5
2CE38
330
17
100
AcDbEntity
  8
DIMTEXT
 62
     7
100
AcDbText
 10
994.4306657098421
 20
3795.059326963268
 30
0.0
 40
48.0
  1
質量
 41
0.8
 72
     1
 11
1035.390665709842
 21
3819.059326963268
 31
0.0
100
AcDbText
 73
     2
  0
TEXT
  5
2CE39
330
17
100
AcDbEntity
  8
DIMTEXT
 62
     7
100
AcDbText
 10
964.6057614735493
 20
3725.434661831374
 30
0.0
 40
48.0
  1
（kg）
 41
0.8
 72
     1
 11
1028.240047187835
 21
3749.434661831374
 31
0.0
100
AcDbText
 73
     2
  0
LINE
  5
2CE3A
330
17
100
AcDbEntity
  8
WAKU
 62
     7
100
AcDbLine
 10
3037.687343440972
 20
4017.76907224851
 30
0.0
 11
1137.687343440971
 21
4017.76907224851
 31
0.0
  0
LINE
  5
2CE3B
330
17
100
AcDbEntity
  8
WAKU
 62
     7
100
AcDbLine
 10
937.6873434409743
 20
3697.769072248509
 30
0.0
 11
3037.687343440973
 21
3697.769072248509
 31
0.0
  0
LINE
  5
2CE3C
330
17
100
AcDbEntity
  8
WAKU
 62
     7
100
AcDbLine
 10
937.6873434409741
 20
4177.76907224851
 30
0.0
 11
937.6873434409743
 21
3697.769072248509
 31
0.0
  0
LINE
  5
2CE3D
330
17
100
AcDbEntity
  8
WAKU
 62
     7
100
AcDbLine
 10
1137.687343440973
 20
3857.769072248509
 30
0.0
 11
3037.687343440972
 21
3857.769072248509
 31
0.0
  0
LINE
  5
2CE3E
330
17
100
AcDbEntity
  8
WAKU
 62
     7
100
AcDbLine
 10
1137.687343440973
 20
3777.769072248508
 30
0.0
 11
3037.687343440973
 21
3777.769072248509
 31
0.0
  0
LINE
  5
2CE3F
330
17
100
AcDbEntity
  8
WAKU
 62
     7
100
AcDbLine
 10
1137.687343440971
 20
3937.76907224851
 30
0.0
 11
3037.687343440972
 21
3937.769072248509
 31
0.0
  0
LINE
  5
2CE41
330
17
100
AcDbEntity
  8
WAKU
 62
     7
100
AcDbLine
 10
1387.687343440971
 20
4177.76907224851
 30
0.0
 11
1387.687343440971
 21
3697.769072248509
 31
0.0
  0
LINE
  5
2CE42
330
17
100
AcDbEntity
  8
WAKU
 62
     7
100
AcDbLine
 10
1137.687343440971
 20
4177.76907224851
 30
0.0
 11
1137.687343440973
 21
3697.769072248509
 31
0.0
  0
TEXT
  5
2CE43
330
17
100
AcDbEntity
  8
DIMTEXT
 62
     7
100
AcDbText
 10
1199.967343440974
 20
3873.76907224851
 30
0.0
 40
48.0
  1
圧　力
 41
0.8
 72
     1
 11
1262.687343440974
 21
3897.76907224851
 31
0.0
100
AcDbText
 73
     2
  0
TEXT
  5
2CE44
330
17
100
AcDbEntity
  8
DIMTEXT
 62
     7
100
AcDbText
 10
1198.687343440974
 20
3793.769072248509
 30
0.0
 40
48.0
  1
本　体
 41
0.8
 72
     1
 11
1262.687343440974
 21
3817.769072248509
 31
0.0
100
AcDbText
 73
     2
  0
TEXT
  5
2CE45
330
17
100
AcDbEntity
  8
DIMTEXT
 62
     7
100
AcDbText
 10
1198.687343440974
 20
3713.76907224851
 30
0.0
 40
48.0
  1
満水時
 41
0.8
 72
     1
 11
1262.687343440974
 21
3737.76907224851
 31
0.0
100
AcDbText
 73
     2
  0
LINE
  5
2CE47
330
17
100
AcDbEntity
  8
WAKU
 62
     7
100
AcDbLine
 10
1387.687343440976
 20
3707.769072248508
 30
0.0
 11
1387.687343440976
 21
3697.769072248509
 31
0.0
  0
LINE
  5
2CE48
330
17
100
AcDbEntity
  8
WAKU
 62
     7
100
AcDbLine
 10
1937.687343440974
 20
4177.769072248509
 30
0.0
 11
1937.687343440975
 21
3937.76907224851
 31
0.0
  0
TEXT
  5
2CE49
330
17
100
AcDbEntity
  8
DIMTEXT
 62
     7
100
AcDbText
 10
1828.039795530647
 20
3873.76907224851
 30
0.0
 40
48.0
  1
標準圧タイプ
 41
0.8
 72
     1
 11
1961.159795530648
 21
3897.76907224851
 31
0.0
100
AcDbText
 73
     2
  0
TEXT
  5
2CE4A
330
17
100
AcDbEntity
  8
DIMTEXT
 62
     7
100
AcDbText
 10
1613.315914869547
 20
3713.769072248513
 30
0.0
 40
48.0
  1
420
 41
0.8
 72
     1
 11
1662.687343440976
 21
3737.769072248513
 31
0.0
100
AcDbText
 73
     2
  0
TEXT
  5
2CE4B
330
17
100
AcDbEntity
  8
DIMTEXT
 62
     7
100
AcDbText
 10
1631.601629155261
 20
3793.769072248512
 30
0.0
 40
48.0
  1
50
 41
0.8
 72
     1
 11
1662.687343440976
 21
3817.769072248512
 31
0.0
100
AcDbText
 73
     2
  0
TEXT
  5
2CE4E
330
17
100
AcDbEntity
  8
DIMTEXT
 62
     7
100
AcDbText
 10
2163.315914869546
 20
3713.769072248513
 30
0.0
 40
48.0
  1
422
 41
0.8
 72
     1
 11
2212.687343440975
 21
3737.769072248513
 31
0.0
100
AcDbText
 73
     2
  0
TEXT
  5
2CE4F
330
17
100
AcDbEntity
  8
DIMTEXT
 62
     7
100
AcDbText
 10
2181.60162915526
 20
3793.769072248512
 30
0.0
 40
48.0
  1
52
 41
0.8
 72
     1
 11
2212.687343440975
 21
3817.769072248512
 31
0.0
100
AcDbText
 73
     2
  0
LINE
  5
2CE50
330
17
100
AcDbEntity
  8
WAKU
 62
     7
100
AcDbLine
 10
2487.687343440973
 20
4177.769072248509
 30
0.0
 11
2487.687343440974
 21
3697.769072248509
 31
0.0
  0
TEXT
  5
2CE52
330
17
100
AcDbEntity
  8
DIMTEXT
 62
     7
100
AcDbText
 10
1458.80162915526
 20
4033.769072248511
 30
0.0
 40
48.0
  1
SM837BB-H19
 41
0.8
 72
     1
 11
1662.687343440975
 21
4057.769072248511
 31
0.0
100
AcDbText
 73
     2
  0
TEXT
  5
2CE7F
330
17
100
AcDbEntity
  8
DIMTEXT
 62
     7
100
AcDbText
 10
2731.60162915526
 20
3793.769072248512
 30
0.0
 40
48.0
  1
55
 41
0.8
 72
     1
 11
2762.687343440975
 21
3817.769072248512
 31
0.0
100
AcDbText
 73
     2
  0
TEXT
  5
2CE80
330
17
100
AcDbEntity
  8
DIMTEXT
 62
     7
100
AcDbText
 10
2713.315914869546
 20
3713.769072248513
 30
0.0
 40
48.0
  1
425
 41
0.8
 72
     1
 11
2762.687343440975
 21
3737.769072248513
 31
0.0
100
AcDbText
 73
     2
  0
TEXT
  5
2CE81
330
17
100
AcDbEntity
  8
DIMTEXT
 62
     7
100
AcDbText
 10
2652.607343440977
 20
3873.76907224851
 30
0.0
 40
48.0
  1
高圧タイプ
 41
0.8
 72
     1
 11
2762.687343440977
 21
3897.76907224851
 31
0.0
100
AcDbText
 73
     2
  0
LINE
  5
2CE82
330
17
100
AcDbEntity
  8
WAKU
 62
     7
100
AcDbLine
 10
3037.687343440971
 20
4177.769072248509
 30
0.0
 11
3037.687343440973
 21
3697.769072248509
 31
0.0
  0
TEXT
  5
2CE83
330
17
100
AcDbEntity
  8
DIMTEXT
 62
     7
100
AcDbText
 10
1982.287343440977
 20
4033.51172274268
 30
0.0
 40
48.0
  1
SM837BWB-H22
 41
0.8
 72
     1
 11
2212.687343440977
 21
4057.511722742679
 31
0.0
100
AcDbText
 73
     2
  0
TEXT
  5
2CE84
330
17
100
AcDbEntity
  8
DIMTEXT
 62
     7
100
AcDbText
 10
2552.401629155263
 20
4033.51172274268
 30
0.0
 40
48.0
  1
UM837BB-H25
 41
0.8
 72
     1
 11
2762.687343440977
 21
4057.511722742679
 31
0.0
100
AcDbText
 73
     2
  0
TEXT
  5
2CE85
330
17
100
AcDbEntity
  8
DIMTEXT
 62
     7
100
AcDbText
 10
1173.087343440974
 20
3953.769072248508
 30
0.0
 40
48.0
  1
ヒータ数
 41
0.8
 72
     1
 11
1262.687343440974
 21
3977.769072248508
 31
0.0
100
AcDbText
 73
     2
  0
TEXT
  5
2CE86
330
17
100
AcDbEntity
  8
DIMTEXT
 62
     7
100
AcDbText
 10
1658.115914869547
 20
3953.769072248511
 30
0.0
 40
48.0
  1
1
 41
0.8
 72
     1
 11
1662.687343440976
 21
3977.769072248511
 31
0.0
100
AcDbText
 73
     2
  0
TEXT
  5
2CE87
330
17
100
AcDbEntity
  8
DIMTEXT
 62
     7
100
AcDbText
 10
2199.887343440978
 20
3953.769072248511
 30
0.0
 40
48.0
  1
2
 41
0.8
 72
     1
 11
2212.687343440978
 21
3977.769072248511
 31
0.0
100
AcDbText
 73
     2
  0
TEXT
  5
2CE88
330
17
100
AcDbEntity
  8
DIMTEXT
 62
     7
100
AcDbText
 10
2758.115914869549
 20
3953.769072248511
 30
0.0
 40
48.0
  1
1
 41
0.8
 72
     1
 11
2762.687343440977
 21
3977.769072248511
 31
0.0
100
AcDbText
 73
     2
  0
LINE
  5
2CE89
330
17
100
AcDbEntity
  8
WAKU
 62
     7
100
AcDbLine
 10
1937.687343440974
 20
3857.769072248509
 30
0.0
 11
1937.687343440974
 21
3697.769072248508
 31
0.0
  0
DIMENSION
  5
2D10E
330
17
100
AcDbEntity
  8
DIM
 62
     7
370
    18
100
AcDbDimension
  2
*D5
 10
985.1455509891684
 20
2656.373639567107
 30
0.0
 11
1148.412414157277
 21
2676.401619667541
 31
0.0
 70
    34
 71
     5
 42
0.6981317007977319
  3
STANDARD
100
AcDb2LineAngularDimension
 13
1097.398476851404
 23
2991.195811891573
 33
0.0
 14
1274.592759039115
 24
2780.023889507218
 34
0.0
 15
985.1455509891666
 25
3554.9736395671
 35
0.0
 16
1104.226448009711
 26
2622.531827315192
 36
0.0
1001
ACAD
1000
DSTYLE
1002
{
1070
    41
1040
3.0
1070
    42
1040
2.0
1070
    43
1040
10.0
1070
    44
1040
2.0
1070
    73
1070
     0
1070
    74
1070
     0
1070
    77
1070
     1
1070
    78
1070
     8
1070
    79
1070
     2
1070
   140
1040
3.2
1070
   147
1040
0.9999999999999996
1070
   172
1070
     1
1070
   179
1070
     8
1070
   271
1070
     8
1070
   272
1070
     8
1070
   341
1005
4A
1070
   342
1005
4A
1002
}
  0
DIMENSION
  5
2D10F
330
17
100
AcDbEntity
  8
DIM
 62
     7
370
    18
100
AcDbDimension
  2
*D6
 10
877.0584555335418
 20
2996.16045524478
 30
0.0
 11
822.3296513187367
 21
2676.181858695489
 31
0.0
 70
    34
 71
     5
 42
0.6947896420740527
  3
STANDARD
100
AcDb2LineAngularDimension
 13
985.1455509891666
 23
3554.9736395671
 33
0.0
 14
985.1455509891684
 24
2656.373639567107
 34
0.0
 15
707.5571051262768
 25
2792.780077515501
 35
0.0
 16
754.0399116853286
 26
2663.114463198993
 36
0.0
1001
ACAD
1000
DSTYLE
1002
{
1070
    41
1040
3.0
1070
    42
1040
2.0
1070
    43
1040
10.0
1070
    44
1040
2.0
1070
    73
1070
     0
1070
    74
1070
     0
1070
    77
1070
     1
1070
    78
1070
     8
1070
    79
1070
     2
1070
   140
1040
3.2
1070
   147
1040
0.9999999999999996
1070
   172
1070
     1
1070
   179
1070
     0
1070
   271
1070
     8
1070
   272
1070
     8
1070
   341
1005
4A
1070
   342
1005
4A
1002
}
  0
DIMENSION
  5
2D110
330
17
100
AcDbEntity
  8
DIM
 62
     7
370
    18
100
AcDbDimension
  2
*D7
 10
676.4761955384803
 20
2877.268316768454
 30
0.0
 11
770.9770501887101
 21
3051.134735768141
 31
0.0
 70
    33
 71
     5
 42
388.015170762168
  3
STANDARD
100
AcDbAlignedDimension
 13
985.1455509891684
 23
3124.973639567102
 33
0.0
 14
736.2975362147854
 24
2827.264992926728
 34
0.0
1001
ACAD
1000
DSTYLE
1002
{
1070
    41
1040
3.0
1070
    42
1040
2.0
1070
    43
1040
10.0
1070
    44
1040
2.0
1070
    73
1070
     0
1070
    74
1070
     0
1070
    77
1070
     1
1070
    78
1070
     8
1070
    79
1070
     2
1070
   140
1040
3.2
1070
   147
1040
0.9999999999999996
1070
   172
1070
     1
1070
   179
1070
     8
1070
   271
1070
     0
1070
   272
1070
     8
1070
   341
1005
4A
1070
   342
1005
4A
1002
}
  0
DIMENSION
  5
2D111
330
17
100
AcDbEntity
  8
DIM
 62
     7
370
    18
100
AcDbDimension
  2
*D8
 10
1583.465657489249
 20
2707.373639567105
 30
0.0
 11
1544.465657489249
 21
3106.673639567104
 31
0.0
 70
    32
  1
（<>）
 71
     5
 42
798.5999999999944
  3
STANDARD
100
AcDbAlignedDimension
 13
997.65527974429
 23
3505.973639567101
 33
0.0
 14
985.1455509891684
 24
2707.373639567107
 34
0.0
 50
90.0
100
AcDbRotatedDimension
1001
ACAD
1000
DSTYLE
1002
{
1070
     3
1000
<>
1070
    41
1040
3.0
1070
    42
1040
2.0
1070
    43
1040
10.0
1070
    44
1040
2.0
1070
    73
1070
     0
1070
    74
1070
     0
1070
    77
1070
     1
1070
    78
1070
     8
1070
    79
1070
     2
1070
   140
1040
3.2
1070
   147
1040
0.9999999999999996
1070
   172
1070
     1
1070
   179
1070
     8
1070
   271
1070
     0
1070
   272
1070
     8
1070
   341
1005
4A
1070
   342
1005
4A
1002
}
  0
LINE
  5
2D112
330
17
100
AcDbEntity
  8
MCEN
 62
     7
370
    25
100
AcDbLine
 10
985.1455509891666
 20
3554.9736395671
 30
0.0
 11
985.1455509891684
 21
2656.373639567107
 31
0.0
  0
LINE
  5
2D113
330
17
100
AcDbEntity
  8
CEN
 62
     7
370
    25
100
AcDbLine
 10
707.5571051262768
 20
2792.780077515501
 30
0.0
 11
985.1455509891684
 21
3124.973639567102
 31
0.0
  0
ARC
  5
2D114
330
17
100
AcDbEntity
  8
ZUKEI
 62
     7
370
    25
100
AcDbCircle
 10
985.1455509891666
 20
3124.973639567101
 30
0.0
 40
341.1
100
AcDbArc
 50
295.1566944725929
 51
244.843305527407
  0
LINE
  5
2D115
330
17
100
AcDbEntity
  8
CEN
 62
     7
370
    25
100
AcDbLine
 10
985.1455509891684
 20
3124.973639567102
 30
0.0
 11
1274.592759039115
 21
2780.023889507218
 31
0.0
  0
DIMENSION
  5
2D116
330
17
100
AcDbEntity
  8
DIM
 62
     7
370
    18
100
AcDbDimension
  2
*D9
 10
1472.245550989166
 20
2707.373639567107
 30
0.0
 11
1433.245550989165
 21
2916.173639567105
 31
0.0
 70
    32
 71
     5
 42
417.5999999999953
  3
STANDARD
100
AcDbAlignedDimension
 13
1376.245550989166
 23
3124.973639567102
 33
0.0
 14
985.145550989163
 24
2707.373639567107
 34
0.0
 50
90.0
100
AcDbRotatedDimension
1001
ACAD
1000
DSTYLE
1002
{
1070
     3
1000
<>
1070
    41
1040
3.0
1070
    42
1040
2.0
1070
    43
1040
10.0
1070
    44
1040
2.0
1070
    73
1070
     0
1070
    74
1070
     0
1070
    77
1070
     1
1070
    78
1070
     8
1070
    79
1070
     2
1070
   140
1040
3.2
1070
   147
1040
0.9999999999999996
1070
   172
1070
     1
1070
   179
1070
     8
1070
   271
1070
     0
1070
   272
1070
     8
1070
   341
1005
4A
1070
   342
1005
4A
1002
}
  0
LEADER
  5
2D117
330
17
100
AcDbEntity
  8
DIM
 62
     7
370
    18
100
AcDbLeader
  3
STANDARD
 76
     2
 10
1245.009917363582
 20
484.946632108824
 30
0.0
 10
506.4327066421019
 20
336.2198915205171
 30
0.0
211
1.0
221
-0.0000000000000002
231
0.0
1001
ACAD
1000
DSTYLE
1002
{
1070
    41
1040
3.0
1070
    42
1040
2.0
1070
    43
1040
10.0
1070
    44
1040
2.0
1070
    73
1070
     0
1070
    74
1070
     0
1070
    77
1070
     1
1070
    78
1070
     8
1070
    79
1070
     2
1070
   140
1040
3.2
1070
   147
1040
0.9999999999999996
1070
   172
1070
     1
1070
   179
1070
     8
1070
   271
1070
     8
1070
   272
1070
     8
1070
   341
1005
5132
1070
   342
1005
4A
1002
}
  0
LEADER
  5
2D118
330
17
100
AcDbEntity
  8
DIM
 62
     7
370
    18
100
AcDbLeader
  3
STANDARD
 76
     2
 10
977.7377921736787
 20
483.6666626979035
 30
0.0
 10
506.4327066421019
 20
336.2198915205171
 30
0.0
211
1.0
221
-0.0000000000000002
231
0.0
1001
ACAD
1000
DSTYLE
1002
{
1070
    41
1040
3.0
1070
    42
1040
2.0
1070
    43
1040
10.0
1070
    44
1040
2.0
1070
    73
1070
     0
1070
    74
1070
     0
1070
    77
1070
     1
1070
    78
1070
     8
1070
    79
1070
     2
1070
   140
1040
3.2
1070
   147
1040
0.9999999999999996
1070
   172
1070
     1
1070
   179
1070
     8
1070
   271
1070
     8
1070
   272
1070
     8
1070
   341
1005
5132
1070
   342
1005
4A
1002
}
  0
LEADER
  5
2D119
330
17
100
AcDbEntity
  8
DIM
 62
     7
370
    18
100
AcDbLeader
  3
STANDARD
 76
     2
 10
716.2959289395638
 20
483.0717658929769
 30
0.0
 10
506.4327066421019
 20
336.2198915205171
 30
0.0
211
1.0
221
-0.0000000000000002
231
0.0
1001
ACAD
1000
DSTYLE
1002
{
1070
    41
1040
3.0
1070
    42
1040
2.0
1070
    43
1040
10.0
1070
    44
1040
2.0
1070
    73
1070
     0
1070
    74
1070
     0
1070
    77
1070
     1
1070
    78
1070
     8
1070
    79
1070
     2
1070
   140
1040
3.2
1070
   147
1040
0.9999999999999996
1070
   172
1070
     1
1070
   179
1070
     8
1070
   271
1070
     8
1070
   272
1070
     8
1070
   341
1005
5132
1070
   342
1005
4A
1002
}
  0
LEADER
  5
2D11A
330
17
100
AcDbEntity
  8
DIM
 62
     7
370
    18
100
AcDbLeader
  3
STANDARD
 76
     2
 10
762.6260411542307
 20
557.333219892406
 30
0.0
 10
602.9934773918397
 20
888.0874459873583
 30
0.0
211
1.0
221
-0.0000000000000002
231
0.0
1001
ACAD
1000
DSTYLE
1002
{
1070
    41
1040
3.0
1070
    42
1040
2.0
1070
    43
1040
10.0
1070
    44
1040
2.0
1070
    73
1070
     0
1070
    74
1070
     0
1070
    77
1070
     1
1070
    78
1070
     8
1070
    79
1070
     2
1070
   140
1040
3.2
1070
   147
1040
0.9999999999999996
1070
   172
1070
     1
1070
   179
1070
     8
1070
   271
1070
     8
1070
   272
1070
     8
1070
   341
1005
5132
1070
   342
1005
4A
1002
}
  0
LEADER
  5
2D11B
330
17
100
AcDbEntity
  8
DIM
 62
     7
370
    18
100
AcDbLeader
  3
STANDARD
 76
     2
 10
1207.523688790942
 20
558.4662933402918
 30
0.0
 10
602.9934773918397
 20
888.0874459873583
 30
0.0
211
1.0
221
-0.0000000000000002
231
0.0
1001
ACAD
1000
DSTYLE
1002
{
1070
    41
1040
3.0
1070
    42
1040
2.0
1070
    43
1040
10.0
1070
    44
1040
2.0
1070
    73
1070
     0
1070
    74
1070
     0
1070
    77
1070
     1
1070
    78
1070
     8
1070
    79
1070
     2
1070
   140
1040
3.2
1070
   147
1040
0.9999999999999996
1070
   172
1070
     1
1070
   179
1070
     8
1070
   271
1070
     8
1070
   272
1070
     8
1070
   341
1005
5132
1070
   342
1005
4A
1002
}
  0
LEADER
  5
2D11C
330
17
100
AcDbEntity
  8
DIM
 62
     7
370
    18
100
AcDbLeader
  3
STANDARD
 76
     2
 10
1178.645550989166
 20
749.4083332276399
 30
0.0
 10
602.9934773918397
 20
1007.270742782438
 30
0.0
211
1.0
221
-0.0000000000000002
231
0.0
1001
ACAD
1000
DSTYLE
1002
{
1070
    41
1040
3.0
1070
    42
1040
2.0
1070
    43
1040
10.0
1070
    44
1040
2.0
1070
    73
1070
     0
1070
    74
1070
     0
1070
    77
1070
     1
1070
    78
1070
     8
1070
    79
1070
     2
1070
   140
1040
3.2
1070
   147
1040
0.9999999999999996
1070
   172
1070
     1
1070
   179
1070
     8
1070
   271
1070
     8
1070
   272
1070
     8
1070
   341
1005
5132
1070
   342
1005
4A
1002
}
  0
LEADER
  5
2D11D
330
17
100
AcDbEntity
  8
DIM
 62
     7
370
    18
100
AcDbLeader
  3
STANDARD
 76
     2
 10
901.6455509891555
 20
1074.737134448771
 30
0.0
 10
602.9934773918397
 20
1126.454039577519
 30
0.0
211
1.0
221
-0.0000000000000002
231
0.0
1001
ACAD
1000
DSTYLE
1002
{
1070
    41
1040
3.0
1070
    42
1040
2.0
1070
    43
1040
10.0
1070
    44
1040
2.0
1070
    73
1070
     0
1070
    74
1070
     0
1070
    77
1070
     1
1070
    78
1070
     8
1070
    79
1070
     2
1070
   140
1040
3.2
1070
   147
1040
0.9999999999999996
1070
   172
1070
     1
1070
   179
1070
     8
1070
   271
1070
     8
1070
   272
1070
     8
1070
   341
1005
4A
1070
   342
1005
4A
1002
}
  0
LEADER
  5
2D11E
330
17
100
AcDbEntity
  8
DIM
 62
     7
370
    18
100
AcDbLeader
  3
STANDARD
 76
     2
 10
1010.145550989166
 20
1095.166293340295
 30
0.0
 10
605.9851990118529
 20
1379.115176047085
 30
0.0
211
1.0
221
-0.0000000000000002
231
0.0
1001
ACAD
1000
DSTYLE
1002
{
1070
    41
1040
3.0
1070
    42
1040
2.0
1070
    43
1040
10.0
1070
    44
1040
2.0
1070
    73
1070
     0
1070
    74
1070
     0
1070
    77
1070
     1
1070
    78
1070
     8
1070
    79
1070
     2
1070
   140
1040
3.2
1070
   147
1040
0.9999999999999996
1070
   172
1070
     1
1070
   179
1070
     8
1070
   271
1070
     8
1070
   272
1070
     8
1070
   341
1005
4A
1070
   342
1005
4A
1002
}
  0
LEADER
  5
2D11F
330
17
100
AcDbEntity
  8
DIM
 62
     7
370
    18
100
AcDbLeader
  3
STANDARD
 76
     2
 10
947.6455509891556
 20
1095.905173445715
 30
0.0
 10
605.9851990118529
 20
1245.765835267018
 30
0.0
211
1.0
221
-0.0000000000000002
231
0.0
1001
ACAD
1000
DSTYLE
1002
{
1070
    41
1040
3.0
1070
    42
1040
2.0
1070
    43
1040
10.0
1070
    44
1040
2.0
1070
    73
1070
     0
1070
    74
1070
     0
1070
    77
1070
     1
1070
    78
1070
     8
1070
    79
1070
     2
1070
   140
1040
3.2
1070
   147
1040
0.9999999999999996
1070
   172
1070
     1
1070
   179
1070
     8
1070
   271
1070
     8
1070
   272
1070
     8
1070
   341
1005
5132
1070
   342
1005
4A
1002
}
  0
LEADER
  5
2D120
330
17
100
AcDbEntity
  8
DIM
 62
     7
370
    18
100
AcDbLeader
  3
STANDARD
 76
     2
 10
985.1455509891676
 20
2186.213882634651
 30
0.0
 10
590.0604826568832
 20
2274.364684423203
 30
0.0
211
1.0
221
-0.0000000000000002
231
0.0
1001
ACAD
1000
DSTYLE
1002
{
1070
    41
1040
3.0
1070
    42
1040
2.0
1070
    43
1040
10.0
1070
    44
1040
2.0
1070
    73
1070
     0
1070
    74
1070
     0
1070
    77
1070
     1
1070
    78
1070
     8
1070
    79
1070
     2
1070
   140
1040
3.2
1070
   147
1040
0.9999999999999996
1070
   172
1070
     1
1070
   179
1070
     8
1070
   271
1070
     8
1070
   272
1070
     8
1070
   341
1005
5132
1070
   342
1005
4A
1002
}
  0
DIMENSION
  5
2D121
330
17
100
AcDbEntity
  8
DIM
 62
     7
370
    18
100
AcDbDimension
  2
*D10
 10
565.2866596643317
 20
558.4662933402941
 30
0.0
 11
565.2866596643316
 21
511.816293340294
 31
0.0
 70
   160
 71
     5
 42
93.30000000000016
  3
STANDARD
100
AcDbAlignedDimension
 13
613.2866596643316
 23
465.1662933402938
 33
0.0
 14
735.9446517087953
 24
558.4662933402941
 34
0.0
 50
90.0
100
AcDbRotatedDimension
1001
ACAD
1000
DSTYLE
1002
{
1070
    45
1040
10.0
1070
    41
1040
3.0
1070
    42
1040
2.0
1070
    43
1040
10.0
1070
    44
1040
2.0
1070
    73
1070
     0
1070
    74
1070
     0
1070
    77
1070
     1
1070
    78
1070
     8
1070
    79
1070
     2
1070
   140
1040
3.2
1070
   147
1040
0.9999999999999996
1070
   172
1070
     1
1070
   179
1070
     8
1070
   271
1070
     0
1070
   272
1070
     8
1070
   341
1005
4A
1070
   342
1005
4A
1002
}
  0
LINE
  5
2D122
330
17
100
AcDbEntity
  8
0
 62
     7
370
    25
100
AcDbLine
 10
613.2866596643325
 20
465.1662933402938
 30
0.0
 11
1881.794107252929
 21
465.1662933402944
 31
0.0
  0
LINE
  5
2D123
330
17
100
AcDbEntity
  8
DIM
 62
     7
370
    18
100
AcDbLine
 10
506.4327066421019
 20
336.2198915205171
 30
0.0
 11
388.5599342867287
 21
336.2198915205171
 31
0.0
  0
TEXT
  5
2D124
330
17
100
AcDbEntity
  8
DIM
 62
     7
370
    18
100
AcDbText
 10
35.98144569713253
 20
897.7124459873584
 30
0.0
 40
48.0
  1
給排水口　R3／4（20A）
 41
0.8
 11
35.98144569713253
 21
921.7124459873584
 31
0.0
100
AcDbText
 73
     2
  0
LINE
  5
2D125
330
17
100
AcDbEntity
  8
DIM
 62
     7
370
    18
100
AcDbLine
 10
602.9934773918397
 20
888.0874459873583
 30
0.0
 11
27.14623907078317
 21
888.0874459873583
 31
0.0
  0
LINE
  5
2D126
330
17
100
AcDbEntity
  8
DIM
 62
     7
370
    18
100
AcDbLine
 10
602.9934773918397
 20
1007.270742782438
 30
0.0
 11
27.14623907078318
 21
1007.270742782438
 31
0.0
  0
LINE
  5
2D127
330
17
100
AcDbEntity
  8
DIM
 62
     7
370
    18
100
AcDbLine
 10
602.9934773918397
 20
1126.454039577519
 30
0.0
 11
27.14623907078319
 21
1126.454039577519
 31
0.0
  0
TEXT
  5
2D128
330
17
100
AcDbEntity
  8
DIM
 62
     7
370
    18
100
AcDbText
 10
35.98144569713253
 20
1016.895742782438
 30
0.0
 40
48.0
  1
型式銘板
 41
0.8
 11
35.98144569713253
 21
1040.895742782439
 31
0.0
100
AcDbText
 73
     2
  0
TEXT
  5
2D129
330
17
100
AcDbEntity
  8
DIM
 62
     7
370
    18
100
AcDbText
 10
405.3429196220394
 20
345.844891520517
 30
0.0
 40
48.0
  1
脚
 41
0.8
 11
405.3429196220394
 21
369.844891520517
 31
0.0
100
AcDbText
 73
     2
  0
LINE
  5
2D12A
330
17
100
AcDbEntity
  8
DIM
 62
     7
370
    18
100
AcDbLine
 10
605.9851990118529
 20
1245.765835267018
 30
0.0
 11
27.14623907078319
 21
1245.765835267018
 31
0.0
  0
TEXT
  5
2D12B
330
17
100
AcDbEntity
  8
DIM
 62
     7
370
    18
100
AcDbText
 10
35.98144569713253
 20
1255.390835267018
 30
0.0
 40
48.0
  1
漏電しゃ断器
 41
0.8
 11
35.98144569713253
 21
1279.390835267018
 31
0.0
100
AcDbText
 73
     2
  0
LINE
  5
2D12C
330
17
100
AcDbEntity
  8
DIM
 62
     7
370
    18
100
AcDbLine
 10
605.9851990118529
 20
1379.115176047085
 30
0.0
 11
27.1462390707832
 21
1379.115176047085
 31
0.0
  0
TEXT
  5
2D12D
330
17
100
AcDbEntity
  8
DIM
 62
     7
370
    18
100
AcDbText
 10
35.98144569713253
 20
1388.740176047085
 30
0.0
 40
48.0
  1
湯温設定スイッチ
 41
0.8
 11
35.98144569713253
 21
1412.740176047085
 31
0.0
100
AcDbText
 73
     2
  0
TEXT
  5
2D12E
330
17
100
AcDbEntity
  8
DIM
 62
     7
370
    18
100
AcDbText
 10
35.98144569713253
 20
1136.079039577519
 30
0.0
 40
48.0
  1
操作カバー
 41
0.8
 11
35.98144569713253
 21
1160.07903957752
 31
0.0
100
AcDbText
 73
     2
  0
LINE
  5
2D12F
330
17
100
AcDbEntity
  8
DIM
 62
     7
370
    18
100
AcDbLine
 10
590.0604826568832
 20
2274.364684423203
 30
0.0
 11
25.98176734515283
 21
2274.364684423203
 31
0.0
  0
TEXT
  5
2D130
330
17
100
AcDbEntity
  8
DIM
 62
     7
370
    18
100
AcDbText
 10
35.98144569713253
 20
2283.989684423203
 30
0.0
 40
48.0
  1
給湯口　R3／4（20A）
 41
0.8
 11
35.98144569713253
 21
2307.989684423203
 31
0.0
100
AcDbText
 73
     2
  0
LINE
  5
2D131
330
17
100
AcDbEntity
  8
ZUKEI
 62
     7
370
    25
100
AcDbLine
 10
1068.645550989155
 20
1147.666293340295
 30
0.0
 11
1068.645550989155
 21
1053.666293340294
 31
0.0
  0
LINE
  5
2D132
330
17
100
AcDbEntity
  8
ZUKEI
 62
     7
370
    25
100
AcDbLine
 10
1057.645550989155
 20
1153.166293340295
 30
0.0
 11
1057.645550989155
 21
1048.166293340294
 31
0.0
  0
LINE
  5
2D133
330
17
100
AcDbEntity
  8
ZUKEI
 62
     7
370
    25
100
AcDbLine
 10
901.6455509891555
 20
1147.666293340295
 30
0.0
 11
901.6455509891555
 21
1053.666293340294
 31
0.0
  0
LINE
  5
2D134
330
17
100
AcDbEntity
  8
ZUKEI
 62
     7
370
    25
100
AcDbLine
 10
913.6455509891558
 20
1153.166293340295
 30
0.0
 11
913.6455509891558
 21
1048.166293340295
 31
0.0
  0
LINE
  5
2D135
330
17
100
AcDbEntity
  8
MCEN
 62
     7
370
    25
100
AcDbLine
 10
985.1455509891676
 20
2260.366293340296
 30
0.0
 11
985.1455509891666
 21
441.4733603756061
 31
0.0
  0
LINE
  5
2D136
330
17
100
AcDbEntity
  8
ZUKEI
 62
     7
370
    25
100
AcDbLine
 10
1326.245550989167
 20
2115.366293340294
 30
0.0
 11
1326.245550989167
 21
511.1662933402953
 31
0.0
  0
LINE
  5
2D137
330
17
100
AcDbEntity
  8
ZUKEI
 62
     7
370
    25
100
AcDbLine
 10
644.0455509892763
 20
2115.3662933403
 30
0.0
 11
644.0455509892763
 21
511.1662933402775
 31
0.0
  0
LINE
  5
2D138
330
17
100
AcDbEntity
  8
ZUKEI
 62
     7
370
    25
100
AcDbLine
 10
1116.145550989167
 20
2091.866293340303
 30
0.0
 11
1116.145550989166
 21
552.1662933402941
 31
0.0
  0
LINE
  5
2D139
330
17
100
AcDbEntity
  8
ZUKEI
 62
     7
370
    25
100
AcDbLine
 10
854.1455509891665
 20
2091.866293340303
 30
0.0
 11
854.1455509891665
 21
552.1662933402948
 31
0.0
  0
DIMENSION
  5
2D13A
330
17
100
AcDbEntity
  8
DIM
 62
     7
370
    18
100
AcDbDimension
  2
*D11
 10
1698.528057586673
 20
465.1662933402942
 30
0.0
 11
1659.528057586673
 21
1337.766293340295
 31
0.0
 70
    32
 71
     5
 42
1745.200000000001
  3
STANDARD
100
AcDbAlignedDimension
 13
998.7455509891679
 23
2210.366293340296
 33
0.0
 14
985.1455509891666
 24
465.1662933402944
 34
0.0
 50
90.0
100
AcDbRotatedDimension
1001
ACAD
1000
DSTYLE
1002
{
1070
    41
1040
3.0
1070
    42
1040
2.0
1070
    43
1040
10.0
1070
    44
1040
2.0
1070
    73
1070
     0
1070
    74
1070
     0
1070
    77
1070
     1
1070
    78
1070
     8
1070
    79
1070
     2
1070
   140
1040
3.2
1070
   147
1040
0.9999999999999996
1070
   172
1070
     1
1070
   179
1070
     8
1070
   271
1070
     0
1070
   272
1070
     8
1070
   341
1005
4A
1070
   342
1005
4A
1002
}
  0
DIMENSION
  5
2D13B
330
17
100
AcDbEntity
  8
DIM
 62
     7
370
    18
100
AcDbDimension
  2
*D12
 10
1583.465657489249
 20
505.1662933402943
 30
0.0
 11
1544.465657489249
 21
1327.766293340295
 31
0.0
 70
    32
 71
     5
 42
1645.200000000002
  3
STANDARD
100
AcDbAlignedDimension
 13
1321.845550989168
 23
2150.366293340296
 33
0.0
 14
1319.445550989167
 24
505.1662933402943
 34
0.0
 50
90.0
100
AcDbRotatedDimension
1001
ACAD
1000
DSTYLE
1002
{
1070
    41
1040
3.0
1070
    42
1040
2.0
1070
    43
1040
10.0
1070
    44
1040
2.0
1070
    73
1070
     0
1070
    74
1070
     0
1070
    77
1070
     1
1070
    78
1070
     8
1070
    79
1070
     2
1070
   140
1040
3.2
1070
   147
1040
0.9999999999999996
1070
   172
1070
     1
1070
   179
1070
     8
1070
   271
1070
     0
1070
   272
1070
     8
1070
   341
1005
4A
1070
   342
1005
4A
1002
}
  0
DIMENSION
  5
2D13C
330
17
100
AcDbEntity
  8
DIM
 62
     7
370
    18
100
AcDbDimension
  2
*D13
 10
1583.465657489249
 20
465.1662933402934
 30
0.0
 11
1544.465657489249
 21
329.0805790545793
 31
0.0
 70
    32
 71
     5
 42
40.00000000000182
  3
STANDARD
100
AcDbAlignedDimension
 13
1319.445572568353
 23
505.1662933402952
 33
0.0
 14
1316.994795088375
 24
465.1662933402934
 34
0.0
 50
90.0
100
AcDbRotatedDimension
1001
ACAD
1000
DSTYLE
1002
{
1070
    41
1040
3.0
1070
    42
1040
2.0
1070
    43
1040
10.0
1070
    44
1040
2.0
1070
    73
1070
     0
1070
    74
1070
     0
1070
    77
1070
     1
1070
    78
1070
     8
1070
    79
1070
     2
1070
   140
1040
3.2
1070
   147
1040
0.9999999999999996
1070
   172
1070
     1
1070
   179
1070
     8
1070
   271
1070
     8
1070
   272
1070
     8
1070
   341
1005
4A
1070
   342
1005
4A
1002
}
  0
LINE
  5
2D13D
330
17
100
AcDbEntity
  8
DIM
 62
     7
370
    18
100
AcDbLine
 10
1348.845156833873
 20
465.1662933402934
 30
0.0
 11
1493.867802181913
 21
465.1662933402934
 31
0.0
  0
LINE
  5
2D13E
330
17
100
AcDbEntity
  8
DIM
 62
     7
370
    18
100
AcDbLine
 10
1350.695518579372
 20
465.1662933402934
 30
0.0
 11
1614.573846559254
 21
465.1662933402934
 31
0.0
  0
LINE
  5
2D13F
330
17
100
AcDbEntity
  8
ZUKEI
 62
     7
370
    25
100
AcDbLine
 10
918.6455509891557
 20
1036.666293340295
 30
0.0
 11
1051.645550989155
 21
1036.666293340294
 31
0.0
  0
LINE
  5
2D140
330
17
100
AcDbEntity
  8
ZUKEI
 62
     7
370
    25
100
AcDbLine
 10
913.6455509891558
 20
1048.166293340295
 30
0.0
 11
1057.645550989155
 21
1048.166293340294
 31
0.0
  0
LINE
  5
2D141
330
17
100
AcDbEntity
  8
ZUKEI
 62
     7
370
    25
100
AcDbLine
 10
650.8455509892756
 20
505.1662933402948
 30
0.0
 11
1287.333834522
 21
505.1662933402943
 31
0.0
  0
LINE
  5
2D142
330
17
100
AcDbEntity
  8
ZUKEI
 62
     7
370
    25
100
AcDbLine
 10
852.1455509891666
 20
552.1662933402948
 30
0.0
 11
1118.145550989166
 21
552.1662933402941
 31
0.0
  0
LINE
  5
2D143
330
17
100
AcDbEntity
  8
ZUKEI
 62
     7
370
    25
100
AcDbLine
 10
852.1455509891666
 20
530.1662933402948
 30
0.0
 11
1118.145550989166
 21
530.1662933402941
 31
0.0
  0
LINE
  5
2D144
330
17
100
AcDbEntity
  8
ZUKEI
 62
     7
370
    25
100
AcDbLine
 10
852.1455509891666
 20
515.1662933402948
 30
0.0
 11
1118.145550989166
 21
515.1662933402944
 31
0.0
  0
LINE
  5
2D145
330
17
100
AcDbEntity
  8
ZUKEI
 62
     7
370
    25
100
AcDbLine
 10
735.1455509891666
 20
500.1662933402948
 30
0.0
 11
1235.145550989166
 21
500.1662933402942
 31
0.0
  0
LINE
  5
2D146
330
17
100
AcDbEntity
  8
ZUKEI
 62
     7
370
    25
100
AcDbLine
 10
644.0455509892763
 20
511.1662933402956
 30
0.0
 11
854.1455509891884
 21
511.1662933402956
 31
0.0
  0
LWPOLYLINE
  5
2D147
330
17
100
AcDbEntity
  8
ZUKEI
 62
     7
370
    25
100
AcDbPolyline
 90
       15
 70
     0
 43
0.0
 10
746.4908201751341
 20
544.8444873123333
 42
0.0699238280844273
 10
750.6182394436591
 20
537.2530899046977
 42
0.106239636795507
 10
758.7404007730973
 20
530.1078253338125
 42
0.1495559562006099
 10
766.333783730667
 20
528.4662933402938
 42
0.1281482373363467
 10
774.471653865251
 20
530.5868240605575
 42
0.1062396367955064
 10
782.0493280176751
 20
537.2530899046977
 42
0.0851721693417716
 10
786.7831015965029
 20
546.626021007064
 42
0.0745735507777748
 10
788.5589196014286
 20
558.4662933402941
 42
0.0745735507777815
 10
786.7831015965029
 20
570.3065656735251
 42
0.0851721693417771
 10
782.0493280176751
 20
579.6794967758905
 42
0.1062396367955404
 10
774.471653865251
 20
586.3457626200305
 42
0.1281482373363777
 10
766.333783730667
 20
588.4662933402941
 42
0.1281482373363703
 10
758.1959135960815
 20
586.3457626200296
 42
0.106239636795517
 10
750.6182394436591
 20
579.6794967758905
 42
0.0702487340430201
 10
746.4767620736084
 20
572.0504914227957
 42
0.0745735507777661
  0
LINE
  5
2D148
330
17
100
AcDbEntity
  8
ZUKEI
 62
     7
370
    25
100
AcDbLine
 10
754.4833731626757
 20
505.1662933402948
 30
0.0
 11
701.4464764823624
 21
505.1662933402939
 31
0.0
  0
LINE
  5
2D149
330
17
100
AcDbEntity
  8
ZUKEI
 62
     7
370
    25
100
AcDbLine
 10
646.4464764823615
 20
469.1662933402938
 30
0.0
 11
779.295550989168
 21
469.1662933402938
 31
0.0
  0
LINE
  5
2D14A
330
17
100
AcDbEntity
  8
ZUKEI
 62
     7
370
    25
100
AcDbLine
 10
779.295550989168
 20
465.1662933402938
 30
0.0
 11
653.2963068899598
 21
465.1662933402938
 31
0.0
  0
ARC
  5
2D14B
330
17
100
AcDbEntity
  8
ZUKEI
 62
     7
370
    25
100
AcDbCircle
 10
695.1199251469643
 20
485.1662933402939
 30
0.0
 40
20.0
100
AcDbArc
 50
90.0
 51
180.0
  0
ARC
  5
2D14C
330
17
100
AcDbEntity
  8
ZUKEI
 62
     7
370
    25
100
AcDbCircle
 10
650.8455509892765
 20
510.966293340295
 30
0.0
 40
5.799999999999998
100
AcDbArc
 50
180.0
 51
270.0
  0
LINE
  5
2D14D
330
17
100
AcDbEntity
  8
ZUKEI
 62
     7
370
    25
100
AcDbLine
 10
645.0455509892763
 20
510.966293340295
 30
0.0
 11
645.0455509892763
 21
511.1662933402956
 31
0.0
  0
ARC
  5
2D14E
330
17
100
AcDbEntity
  8
ZUKEI
 62
     7
370
    25
100
AcDbCircle
 10
649.4464764823614
 20
468.1662933402939
 30
0.0
 40
3.0
100
AcDbArc
 50
180.0
 51
270.0
  0
LINE
  5
2D14F
330
17
100
AcDbEntity
  8
ZUKEI
 62
     7
370
    25
100
AcDbLine
 10
646.4464764823615
 20
470.1662933402939
 30
0.0
 11
648.0464764823608
 21
470.1662933402939
 31
0.0
  0
LINE
  5
2D150
330
17
100
AcDbEntity
  8
ZUKEI
 62
     7
370
    25
100
AcDbLine
 10
648.0464764823608
 20
469.1662933402938
 30
0.0
 11
648.0464764823608
 21
470.1662933402939
 31
0.0
  0
LINE
  5
2D151
330
17
100
AcDbEntity
  8
ZUKEI
 62
     7
370
    25
100
AcDbLine
 10
646.4464764823615
 20
468.1662933402939
 30
0.0
 11
646.4464764823615
 21
470.1662933402939
 31
0.0
  0
LINE
  5
2D152
330
17
100
AcDbEntity
  8
ZUKEI
 62
     7
370
    25
100
AcDbLine
 10
646.4464764823615
 20
468.1662933402939
 30
0.0
 11
646.4464764823615
 21
470.1662933402939
 31
0.0
  0
LINE
  5
2D153
330
17
100
AcDbEntity
  8
ZUKEI
 62
     7
370
    25
100
AcDbLine
 10
675.1199251469643
 20
476.7662933402943
 30
0.0
 11
675.1199251469643
 21
485.1662933402939
 31
0.0
  0
ARC
  5
2D154
330
17
100
AcDbEntity
  8
ZUKEI
 62
     7
370
    25
100
AcDbCircle
 10
665.1199251469652
 20
476.7662933402943
 30
0.0
 40
10.0
100
AcDbArc
 50
310.5358021113377
 51
0.0
  0
LINE
  5
2D155
330
17
100
AcDbEntity
  8
ZUKEI
 62
     7
370
    25
100
AcDbLine
 10
653.2963068899598
 20
465.1662933402938
 30
0.0
 11
649.5955833989619
 21
465.1662933402938
 31
0.0
  0
LINE
  5
2D156
330
17
100
AcDbEntity
  8
ZUKEI
 62
     7
370
    25
100
AcDbLine
 10
695.1199251469643
 20
505.1662933402939
 30
0.0
 11
701.4464764823624
 21
505.1662933402939
 31
0.0
  0
LINE
  5
2D157
330
17
100
AcDbEntity
  8
ZUKEI
 62
     7
370
    25
100
AcDbLine
 10
735.1455509891666
 20
500.1662933402948
 30
0.0
 11
730.1455509891666
 21
505.1662933402948
 31
0.0
  0
LINE
  5
2D158
330
17
100
AcDbEntity
  8
ZUKEI
 62
     7
370
    25
100
AcDbLine
 10
779.295550989168
 20
469.1662933402938
 30
0.0
 11
779.295550989168
 21
465.1662933402938
 31
0.0
  0
LINE
  5
2D159
330
17
100
AcDbEntity
  8
ZUKEI
 62
     7
370
    25
100
AcDbLine
 10
774.6955509891677
 20
465.1662933402938
 30
0.0
 11
770.5893807772491
 21
465.1662933402938
 31
0.0
  0
LINE
  5
2D15A
330
17
100
AcDbEntity
  8
ZUKEI
 62
     7
370
    25
100
AcDbLine
 10
769.4833731626759
 20
469.1662933402938
 30
0.0
 11
769.4833731626759
 21
490.1662933402938
 31
0.0
  0
ARC
  5
2D15B
330
17
100
AcDbEntity
  8
ZUKEI
 62
     7
370
    25
100
AcDbCircle
 10
754.4833731626757
 20
490.1662933402938
 30
0.0
 40
15.0
100
AcDbArc
 50
0.0
 51
90.0
  0
LWPOLYLINE
  5
2D15C
330
17
100
AcDbEntity
  8
ZUKEI
 62
     7
370
    25
100
AcDbPolyline
 90
       16
 70
     1
 43
0.0
 10
745.1054486865642
 20
558.4662933402941
 42
-0.0769657557824258
 10
744.3355343239154
 20
553.4942535549588
 42
-0.0868255636404355
 10
742.3132483342424
 20
549.6142962398248
 42
-0.1057457995553319
 10
738.9236599432067
 20
546.7220172729802
 42
-0.1481106049023757
 10
735.9972081305595
 20
546.1239036574879
 42
-0.1265208152647925
 10
732.7065583602989
 20
546.9430902587354
 42
-0.1057457995553346
 10
729.5760550833484
 20
549.6142962398248
 42
-0.0868255636404375
 10
727.5537690936753
 20
553.4942535549588
 42
-0.0769657557824208
 10
726.7838547310266
 20
558.4662933402941
 42
-0.076965755782424
 10
727.5537690936753
 20
563.4383331256294
 42
-0.0868255636404604
 10
729.5760550833484
 20
567.318290440763
 42
-0.1057457995553532
 10
732.7065583603007
 20
569.9894964218525
 42
-0.1245603994657762
 10
735.9446517087953
 20
570.8088858916442
 42
-0.1245603994658014
 10
739.1827450572917
 20
569.9894964218525
 42
-0.1057457995553058
 10
742.3132483342424
 20
567.318290440763
 42
-0.0868255636404388
 10
744.3355343239154
 20
563.4383331256294
 42
-0.0769657557824121
  0
LWPOLYLINE
  5
2D15D
330
17
100
AcDbEntity
  8
ZUKEI
 62
     7
370
    25
100
AcDbPolyline
 90
       16
 70
     1
 43
0.0
 10
746.3628561352134
 20
558.4662933402941
 42
-0.0769657557824256
 10
745.5340532053606
 20
553.1139563254945
 42
-0.0868255636404357
 10
743.3114347065029
 20
548.8496411161576
 42
-0.1057457995553347
 10
739.5217299876776
 20
545.615949592489
 42
-0.1455683687626903
 10
735.9446517087953
 20
544.8662933402946
 42
-0.1245603994657995
 10
732.1084883158301
 20
545.8370225782442
 42
-0.1057457995553349
 10
728.5778687110878
 20
548.8496411161576
 42
-0.0868255636404369
 10
726.3552502122299
 20
553.1139563254945
 42
-0.0769657557824217
 10
725.5264472823774
 20
558.4662933402941
 42
-0.0769657557824225
 10
726.3552502122299
 20
563.8186303550927
 42
-0.086825563640458
 10
728.5778687110878
 20
568.0829455644306
 42
-0.1057457995553575
 10
732.1084883158301
 20
571.0955641023446
 42
-0.1245603994657739
 10
735.9446517087953
 20
572.0662933402935
 42
-0.1245603994658063
 10
739.7808151017625
 20
571.0955641023437
 42
-0.1057457995553055
 10
743.3114347065029
 20
568.0829455644315
 42
-0.0868255636404378
 10
745.5340532053606
 20
563.8186303550935
 42
-0.0769657557824121
  0
LINE
  5
2D15E
330
17
100
AcDbEntity
  8
ZUKEI
 62
     7
370
    25
100
AcDbLine
 10
766.333783730667
 20
544.8662933402697
 30
0.0
 11
735.553933993503
 21
544.8662933403101
 31
0.0
  0
LINE
  5
2D15F
330
17
100
AcDbEntity
  8
ZUKEI
 62
     7
370
    25
100
AcDbLine
 10
766.333783730667
 20
572.0662933402926
 30
0.0
 11
735.553933993503
 21
572.0662933402961
 31
0.0
  0
LWPOLYLINE
  5
2D160
330
17
100
AcDbEntity
  8
ZUKEI
 62
     7
370
    25
100
AcDbPolyline
 90
        5
 70
     0
 43
0.0
 10
744.0309970630469
 20
572.0662933402935
 42
-0.1245603994658063
 10
747.867160456014
 20
571.0955641023437
 42
-0.1057457995553055
 10
751.3977800607563
 20
568.0829455644315
 42
-0.0868255636404378
 10
753.6203985596139
 20
563.8186303550935
 42
-0.0769657557824121
 10
754.4492014894666
 20
558.4662933402941
 42
-0.0769657557824256
  0
LWPOLYLINE
  5
2D161
330
17
100
AcDbEntity
  8
ZUKEI
 62
     7
370
    25
100
AcDbPolyline
 90
        5
 70
     0
 43
0.0
 10
754.4492014894666
 20
558.4662933402941
 42
-0.0769657557824256
 10
753.6203985596139
 20
553.1139563254945
 42
-0.0868255636404357
 10
751.3977800607563
 20
548.8496411161576
 42
-0.1057457995553347
 10
747.6080753419291
 20
545.615949592489
 42
-0.1455683687624852
 10
744.0309970630469
 20
544.8662933403201
 42
-0.1245603994657995
  0
LWPOLYLINE
  5
2D162
330
17
100
AcDbEntity
  8
ZUKEI
 62
     7
370
    25
100
AcDbPolyline
 90
        5
 70
     0
 43
0.0
 10
766.333783730667
 20
572.0662933402935
 42
-0.1245603994658063
 10
770.1699471236342
 20
571.0955641023437
 42
-0.1057457995553055
 10
773.7005667283747
 20
568.0829455644306
 42
-0.0868255636404378
 10
775.9231852272342
 20
563.8186303550927
 42
-0.0769657557824121
 10
776.7519881570851
 20
558.4662933402941
 42
-0.0769657557824256
  0
LWPOLYLINE
  5
2D163
330
17
100
AcDbEntity
  8
ZUKEI
 62
     7
370
    25
100
AcDbPolyline
 90
        5
 70
     0
 43
0.0
 10
776.7519881570851
 20
558.4662933402941
 42
-0.0769657557824256
 10
775.9231852272323
 20
553.1139563254945
 42
-0.0868255636404357
 10
773.7005667283765
 20
548.8496411161576
 42
-0.1057457995553347
 10
769.9108620095494
 20
545.6159495924882
 42
-0.1455683687624852
 10
766.333783730667
 20
544.8662933403201
 42
-0.1245603994657995
  0
LINE
  5
2D164
330
17
100
AcDbEntity
  8
ZUKEI
 62
     7
370
    25
100
AcDbLine
 10
852.1455509891666
 20
552.1662933402948
 30
0.0
 11
852.1455509891666
 21
515.1662933402948
 31
0.0
  0
LINE
  5
2D165
330
17
100
AcDbEntity
  8
ZUKEI
 62
     7
370
    25
100
AcDbLine
 10
854.1455509891884
 20
515.1662933402948
 30
0.0
 11
854.1455509891884
 21
511.1662933402956
 31
0.0
  0
LINE
  5
2D166
330
17
100
AcDbEntity
  8
ZUKEI
 62
     7
370
    25
100
AcDbLine
 10
965.1504223147632
 20
505.1662933402943
 30
0.0
 11
1005.150422314763
 21
505.1662933402943
 31
0.0
  0
LINE
  5
2D167
330
17
100
AcDbEntity
  8
ZUKEI
 62
     7
370
    25
100
AcDbLine
 10
985.1455509891666
 20
469.1662933402944
 30
0.0
 11
947.6455509891666
 21
469.1662933402944
 31
0.0
  0
LINE
  5
2D168
330
17
100
AcDbEntity
  8
ZUKEI
 62
     7
370
    25
100
AcDbLine
 10
1019.150408418691
 20
465.1662933402944
 30
0.0
 11
971.1455509891663
 21
465.1662933402944
 31
0.0
  0
LINE
  5
2D169
330
17
100
AcDbEntity
  8
ZUKEI
 62
     7
370
    25
100
AcDbLine
 10
951.1406935596431
 20
465.1662933402944
 30
0.0
 11
971.1455509891663
 21
465.1662933402944
 31
0.0
  0
LINE
  5
2D16A
330
17
100
AcDbEntity
  8
ZUKEI
 62
     7
370
    25
100
AcDbLine
 10
947.6455509891666
 20
469.1662933402944
 30
0.0
 11
947.6455509891666
 21
468.4819609990021
 31
0.0
  0
ARC
  5
2D16B
330
17
100
AcDbEntity
  8
ZUKEI
 62
     7
370
    25
100
AcDbCircle
 10
951.1406935596415
 20
468.6662933402943
 30
0.0
 40
3.5
100
AcDbArc
 50
183.0189582176645
 51
270.0
  0
LINE
  5
2D16C
330
17
100
AcDbEntity
  8
ZUKEI
 62
     7
370
    25
100
AcDbLine
 10
955.1504223147631
 20
495.1662933402944
 30
0.0
 11
955.1504223147631
 21
469.1662933402944
 31
0.0
  0
ARC
  5
2D16D
330
17
100
AcDbEntity
  8
ZUKEI
 62
     7
370
    25
100
AcDbCircle
 10
965.1504223147632
 20
495.1662933402944
 30
0.0
 40
10.0
100
AcDbArc
 50
90.0
 51
180.0
  0
LINE
  5
2D16E
330
17
100
AcDbEntity
  8
ZUKEI
 62
     7
370
    25
100
AcDbLine
 10
1017.714520094691
 20
465.1662933402944
 30
0.0
 11
1001.816468974656
 21
465.1662933402944
 31
0.0
  0
LINE
  5
2D16F
330
17
100
AcDbEntity
  8
ZUKEI
 62
     7
370
    25
100
AcDbLine
 10
1017.714520094691
 20
465.1662933402944
 30
0.0
 11
1001.816468974656
 21
465.1662933402944
 31
0.0
  0
LINE
  5
2D170
330
17
100
AcDbEntity
  8
ZUKEI
 62
     7
370
    25
100
AcDbLine
 10
1022.650408418691
 20
468.6662933402943
 30
0.0
 11
1022.650408418691
 21
469.1662933402944
 31
0.0
  0
ARC
  5
2D171
330
17
100
AcDbEntity
  8
ZUKEI
 62
     7
370
    25
100
AcDbCircle
 10
1019.150408418689
 20
468.6662933402943
 30
0.0
 40
3.5
100
AcDbArc
 50
270.0
 51
0.0
  0
LINE
  5
2D172
330
17
100
AcDbEntity
  8
ZUKEI
 62
     7
370
    25
100
AcDbLine
 10
1022.650408418691
 20
469.1662933402944
 30
0.0
 11
985.1455509891684
 21
469.1662933402944
 31
0.0
  0
LINE
  5
2D173
330
17
100
AcDbEntity
  8
ZUKEI
 62
     7
370
    25
100
AcDbLine
 10
1015.14067966357
 20
495.1662933402944
 30
0.0
 11
1015.14067966357
 21
469.1662933402944
 31
0.0
  0
ARC
  5
2D174
330
17
100
AcDbEntity
  8
ZUKEI
 62
     7
370
    25
100
AcDbCircle
 10
1005.150422314763
 20
495.1662933402944
 30
0.0
 40
10.0
100
AcDbArc
 50
0.0
 51
90.0
  0
LINE
  5
2D175
330
17
100
AcDbEntity
  8
DASH
 62
     7
370
    18
100
AcDbLine
 10
931.1455509891557
 20
1128.666293340295
 30
0.0
 11
964.1455509891555
 21
1128.666293340294
 31
0.0
  0
LINE
  5
2D176
330
17
100
AcDbEntity
  8
DASH
 62
     7
370
    18
100
AcDbLine
 10
931.1455509891557
 20
1063.666293340294
 30
0.0
 11
964.1455509891555
 21
1063.666293340294
 31
0.0
  0
ARC
  5
2D177
330
17
100
AcDbEntity
  8
ZUKEI
 62
     7
370
    25
100
AcDbCircle
 10
918.6455509891541
 20
1053.666293340294
 30
0.0
 40
17.0
100
AcDbArc
 50
180.0
 51
270.0
  0
LINE
  5
2D178
330
17
100
AcDbEntity
  8
DASH
 62
     7
370
    18
100
AcDbLine
 10
931.1455509891557
 20
1128.666293340295
 30
0.0
 11
931.1455509891557
 21
1063.666293340294
 31
0.0
  0
LINE
  5
2D179
330
17
100
AcDbEntity
  8
DASH
 62
     7
370
    18
100
AcDbLine
 10
964.1455509891555
 20
1128.666293340294
 30
0.0
 11
964.1455509891555
 21
1063.666293340294
 31
0.0
  0
LINE
  5
2D17A
330
17
100
AcDbEntity
  8
ZUKEI
 62
     7
370
    25
100
AcDbLine
 10
1026.145550989165
 20
1095.166293340295
 30
0.0
 11
1026.145550989165
 21
1087.166293340295
 31
0.0
  0
LINE
  5
2D17B
330
17
100
AcDbEntity
  8
ZUKEI
 62
     7
370
    25
100
AcDbLine
 10
1026.145550989165
 20
1080.166293340295
 30
0.0
 11
1026.145550989165
 21
1072.166293340294
 31
0.0
  0
LINE
  5
2D17C
330
17
100
AcDbEntity
  8
ZUKEI
 62
     7
370
    25
100
AcDbLine
 10
1010.145550989166
 20
1080.166293340295
 30
0.0
 11
1010.145550989166
 21
1072.166293340294
 31
0.0
  0
LINE
  5
2D17D
330
17
100
AcDbEntity
  8
ZUKEI
 62
     7
370
    25
100
AcDbLine
 10
1010.145550989166
 20
1095.166293340295
 30
0.0
 11
1010.145550989166
 21
1087.166293340295
 31
0.0
  0
LINE
  5
2D17E
330
17
100
AcDbEntity
  8
ZUKEI
 62
     7
370
    25
100
AcDbLine
 10
1026.145550989165
 20
1072.166293340294
 30
0.0
 11
1010.145550989166
 21
1072.166293340294
 31
0.0
  0
LINE
  5
2D17F
330
17
100
AcDbEntity
  8
ZUKEI
 62
     7
370
    25
100
AcDbLine
 10
1010.145550989166
 20
1080.166293340295
 30
0.0
 11
1026.145550989165
 21
1080.166293340295
 31
0.0
  0
LINE
  5
2D180
330
17
100
AcDbEntity
  8
ZUKEI
 62
     7
370
    25
100
AcDbLine
 10
1010.145550989166
 20
1087.166293340295
 30
0.0
 11
1026.145550989165
 21
1087.166293340295
 31
0.0
  0
LINE
  5
2D181
330
17
100
AcDbEntity
  8
ZUKEI
 62
     7
370
    25
100
AcDbLine
 10
1010.145550989166
 20
1095.166293340295
 30
0.0
 11
1026.145550989165
 21
1095.166293340295
 31
0.0
  0
LINE
  5
2D182
330
17
100
AcDbEntity
  8
DIM
 62
     7
370
    18
100
AcDbLine
 10
1221.145550989165
 20
812.2427321892159
 30
0.0
 11
1221.145550989165
 21
682.2427321892156
 31
0.0
  0
LINE
  5
2D183
330
17
100
AcDbEntity
  8
DIM
 62
     7
370
    18
100
AcDbLine
 10
1136.145550989166
 20
812.2427321892159
 30
0.0
 11
1136.145550989166
 21
682.2427321892156
 31
0.0
  0
LINE
  5
2D184
330
17
100
AcDbEntity
  8
ZUKEI
 62
     7
370
    25
100
AcDbLine
 10
1215.807728815657
 20
505.1662933402943
 30
0.0
 11
1268.844625495973
 21
505.1662933402933
 31
0.0
  0
LINE
  5
2D185
330
17
100
AcDbEntity
  8
ZUKEI
 62
     7
370
    25
100
AcDbLine
 10
1229.855095913163
 20
505.1662933402943
 30
0.0
 11
1287.316858903147
 21
505.1662933402943
 31
0.0
  0
LWPOLYLINE
  5
2D186
330
17
100
AcDbEntity
  8
ZUKEI
 62
     7
370
    25
100
AcDbPolyline
 90
       16
 70
     1
 43
0.0
 10
1223.928245843119
 20
558.4662933402936
 42
0.0769657557824256
 10
1224.757048772971
 20
553.113956325494
 42
0.0868255636404357
 10
1226.97966727183
 20
548.849641116157
 42
0.1057457995553347
 10
1230.769371990657
 20
545.6159495924888
 42
0.1455683687626903
 10
1234.346450269538
 20
544.8662933402942
 42
0.1245603994657995
 10
1238.182613662505
 20
545.837022578244
 42
0.1057457995553349
 10
1241.713233267247
 20
548.849641116157
 42
0.0868255636404369
 10
1243.935851766104
 20
553.113956325494
 42
0.0769657557824217
 10
1244.764654695957
 20
558.4662933402936
 42
0.0769657557824225
 10
1243.935851766104
 20
563.8186303550923
 42
0.086825563640458
 10
1241.713233267247
 20
568.0829455644301
 42
0.1057457995553575
 10
1238.182613662502
 20
571.0955641023441
 42
0.1245603994657739
 10
1234.346450269539
 20
572.0662933402929
 42
0.1245603994658063
 10
1230.510286876572
 20
571.0955641023432
 42
0.1057457995553055
 10
1226.97966727183
 20
568.082945564431
 42
0.0868255636404378
 10
1224.757048772971
 20
563.8186303550932
 42
0.0769657557824121
  0
LWPOLYLINE
  5
2D187
330
17
100
AcDbEntity
  8
ZUKEI
 62
     7
370
    25
100
AcDbPolyline
 90
       16
 70
     1
 43
0.0
 10
1225.185653291771
 20
558.4662933402936
 42
0.0769657557824258
 10
1225.955567654418
 20
553.4942535549584
 42
0.0868255636404355
 10
1227.977853644091
 20
549.6142962398247
 42
0.1057457995553319
 10
1231.367442035128
 20
546.7220172729796
 42
0.1481106049023757
 10
1234.293893847772
 20
546.1239036574871
 42
0.1265208152647925
 10
1237.584543618034
 20
546.9430902587348
 42
0.1057457995553346
 10
1240.715046894985
 20
549.6142962398247
 42
0.0868255636404375
 10
1242.737332884658
 20
553.4942535549584
 42
0.0769657557824208
 10
1243.507247247306
 20
558.4662933402936
 42
0.076965755782424
 10
1242.737332884659
 20
563.4383331256286
 42
0.0868255636404604
 10
1240.715046894985
 20
567.3182904407625
 42
0.1057457995553532
 10
1237.584543618034
 20
569.9894964218523
 42
0.1245603994657762
 10
1234.346450269539
 20
570.8088858916438
 42
0.1245603994658014
 10
1231.108356921043
 20
569.9894964218523
 42
0.1057457995553058
 10
1227.977853644091
 20
567.3182904407625
 42
0.0868255636404388
 10
1225.955567654418
 20
563.4383331256286
 42
0.0769657557824121
  0
LINE
  5
2D188
330
17
100
AcDbEntity
  8
ZUKEI
 62
     7
370
    25
100
AcDbLine
 10
1203.957318247667
 20
544.8662933402696
 30
0.0
 11
1234.73716798483
 21
544.8662933403096
 31
0.0
  0
LINE
  5
2D189
330
17
100
AcDbEntity
  8
ZUKEI
 62
     7
370
    25
100
AcDbLine
 10
1203.957318247667
 20
572.0662933402921
 30
0.0
 11
1234.73716798483
 21
572.0662933402958
 31
0.0
  0
LINE
  5
2D18A
330
17
100
AcDbEntity
  8
ZUKEI
 62
     7
370
    25
100
AcDbLine
 10
1116.145550989166
 20
511.1662933402953
 30
0.0
 11
1287.316858903147
 21
511.1662933402944
 31
0.0
  0
LINE
  5
2D18B
330
17
100
AcDbEntity
  8
HOJO
 62
     7
370
    18
100
AcDbLine
 10
1190.995550989166
 20
465.1662933402934
 30
0.0
 11
1316.994795088375
 21
465.1662933402934
 31
0.0
  0
LINE
  5
2D18C
330
17
100
AcDbEntity
  8
ZUKEI
 62
     7
370
    25
100
AcDbLine
 10
1323.844625495973
 20
469.1662933402934
 30
0.0
 11
1190.995550989166
 21
469.1662933402934
 31
0.0
  0
LWPOLYLINE
  5
2D18D
330
17
100
AcDbEntity
  8
ZUKEI
 62
     7
370
    25
100
AcDbPolyline
 90
       15
 70
     0
 43
0.0
 10
1223.800281803198
 20
544.8444873123329
 42
-0.0699238280844273
 10
1219.672862534674
 20
537.2530899046973
 42
-0.106239636795507
 10
1211.550701205237
 20
530.1078253338122
 42
-0.1495559562006099
 10
1203.957318247667
 20
528.4662933402936
 42
-0.1281482373363467
 10
1195.819448113082
 20
530.5868240605572
 42
-0.1062396367955064
 10
1188.241773960658
 20
537.2530899046973
 42
-0.0851721693417716
 10
1183.50800038183
 20
546.6260210070635
 42
-0.0745735507777748
 10
1181.732182376906
 20
558.4662933402936
 42
-0.0745735507777815
 10
1183.508000381832
 20
570.3065656735247
 42
-0.0851721693417771
 10
1188.241773960658
 20
579.6794967758899
 42
-0.1062396367955404
 10
1195.819448113084
 20
586.3457626200299
 42
-0.1281482373363777
 10
1203.957318247667
 20
588.4662933402936
 42
-0.1281482373363703
 10
1212.095188382251
 20
586.3457626200291
 42
-0.106239636795517
 10
1219.672862534675
 20
579.6794967758899
 42
-0.0702487340430201
 10
1223.814339904726
 20
572.0504914227952
 42
-0.0745735507777661
  0
LINE
  5
2D18E
330
17
100
AcDbEntity
  8
ZUKEI
 62
     7
370
    25
100
AcDbLine
 10
1118.145550989166
 20
552.1662933402941
 30
0.0
 11
1118.145550989166
 21
515.1662933402944
 31
0.0
  0
LINE
  5
2D18F
330
17
100
AcDbEntity
  8
ZUKEI
 62
     7
370
    25
100
AcDbLine
 10
1116.145550989166
 20
515.1662933402944
 30
0.0
 11
1116.145550989166
 21
511.1662933402944
 31
0.0
  0
LINE
  5
2D190
330
17
100
AcDbEntity
  8
ZUKEI
 62
     7
370
    25
100
AcDbLine
 10
1200.807728815659
 20
469.1662933402934
 30
0.0
 11
1200.807728815656
 21
490.1662933402934
 31
0.0
  0
LINE
  5
2D191
330
17
100
AcDbEntity
  8
ZUKEI
 62
     7
370
    25
100
AcDbLine
 10
1195.595550989166
 20
465.1662933402934
 30
0.0
 11
1199.701721201084
 21
465.1662933402934
 31
0.0
  0
LINE
  5
2D192
330
17
100
AcDbEntity
  8
ZUKEI
 62
     7
370
    25
100
AcDbLine
 10
1190.995550989166
 20
469.1662933402934
 30
0.0
 11
1190.995550989166
 21
465.1662933402934
 31
0.0
  0
ARC
  5
2D193
330
17
100
AcDbEntity
  8
DIMTEXT
 62
     7
370
    18
100
AcDbCircle
 10
1215.807728815657
 20
490.1662933402934
 30
0.0
 40
15.0
100
AcDbArc
 50
90.0
 51
180.0
  0
LWPOLYLINE
  5
2D194
330
17
100
AcDbEntity
  8
ZUKEI
 62
     7
370
    25
100
AcDbPolyline
 90
        5
 70
     0
 43
0.0
 10
1226.260104915286
 20
572.0662933402929
 42
0.1245603994658063
 10
1222.423941522321
 20
571.0955641023432
 42
0.1057457995553055
 10
1218.893321917578
 20
568.082945564431
 42
0.0868255636404378
 10
1216.67070341872
 20
563.8186303550932
 42
0.0769657557824121
 10
1215.841900488868
 20
558.4662933402936
 42
0.0769657557824256
  0
LWPOLYLINE
  5
2D195
330
17
100
AcDbEntity
  8
ZUKEI
 62
     7
370
    25
100
AcDbPolyline
 90
        5
 70
     0
 43
0.0
 10
1215.841900488868
 20
558.4662933402936
 42
0.0769657557824256
 10
1216.67070341872
 20
553.113956325494
 42
0.0868255636404357
 10
1218.893321917578
 20
548.849641116157
 42
0.1057457995553347
 10
1222.683026636404
 20
545.6159495924888
 42
0.1455683687624852
 10
1226.260104915286
 20
544.8662933403197
 42
0.1245603994657995
  0
LWPOLYLINE
  5
2D196
330
17
100
AcDbEntity
  8
ZUKEI
 62
     7
370
    25
100
AcDbPolyline
 90
        5
 70
     0
 43
0.0
 10
1203.957318247667
 20
572.0662933402929
 42
0.1245603994658063
 10
1200.1211548547
 20
571.0955641023432
 42
0.1057457995553055
 10
1196.590535249958
 20
568.0829455644301
 42
0.0868255636404378
 10
1194.3679167511
 20
563.8186303550923
 42
0.0769657557824121
 10
1193.539113821248
 20
558.4662933402936
 42
0.0769657557824256
  0
LWPOLYLINE
  5
2D197
330
17
100
AcDbEntity
  8
ZUKEI
 62
     7
370
    25
100
AcDbPolyline
 90
        5
 70
     0
 43
0.0
 10
1193.539113821248
 20
558.4662933402936
 42
0.0769657557824256
 10
1194.3679167511
 20
553.113956325494
 42
0.0868255636404357
 10
1196.590535249958
 20
548.849641116157
 42
0.1057457995553347
 10
1200.380239968785
 20
545.6159495924879
 42
0.1455683687624852
 10
1203.957318247667
 20
544.8662933403197
 42
0.1245603994657995
  0
LINE
  5
2D198
330
17
100
AcDbEntity
  8
DIM
 62
     7
370
    18
100
AcDbLine
 10
1136.145550989166
 20
682.2427321892156
 30
0.0
 11
1221.145550989165
 21
682.2427321892156
 31
0.0
  0
ARC
  5
2D199
330
17
100
AcDbEntity
  8
ZUKEI
 62
     7
370
    25
100
AcDbCircle
 10
1275.17117683137
 20
485.1662933402931
 30
0.0
 40
20.0
100
AcDbArc
 50
0.0
 51
90.0
  0
LINE
  5
2D19A
330
17
100
AcDbEntity
  8
ZUKEI
 62
     7
370
    25
100
AcDbLine
 10
1275.17117683137
 20
505.1662933402933
 30
0.0
 11
1268.844625495973
 21
505.1662933402933
 31
0.0
  0
LINE
  5
2D19B
330
17
100
AcDbEntity
  8
ZUKEI
 62
     7
370
    25
100
AcDbLine
 10
1235.145550989166
 20
500.1662933402942
 30
0.0
 11
1240.145550989166
 21
505.1662933402943
 31
0.0
  0
LINE
  5
2D19C
330
17
100
AcDbEntity
  8
ZUKEI
 62
     7
370
    25
100
AcDbLine
 10
1292.210194995231
 20
511.1662933402944
 30
0.0
 11
1326.245550989167
 21
511.1662933402953
 31
0.0
  0
LINE
  5
2D19D
330
17
100
AcDbEntity
  8
ZUKEI
 62
     7
370
    25
100
AcDbLine
 10
1292.210194995231
 20
505.1662933402943
 30
0.0
 11
1319.445572568353
 21
505.1662933402952
 31
0.0
  0
ARC
  5
2D19E
330
17
100
AcDbEntity
  8
ZUKEI
 62
     7
370
    25
100
AcDbCircle
 10
1319.445550989167
 20
510.9662933402945
 30
0.0
 40
5.799999999999998
100
AcDbArc
 50
270.0
 51
0.0
  0
LINE
  5
2D19F
330
17
100
AcDbEntity
  8
ZUKEI
 62
     7
370
    25
100
AcDbLine
 10
1325.245550989167
 20
510.9662933402945
 30
0.0
 11
1325.245550989167
 21
511.1662933402944
 31
0.0
  0
ARC
  5
2D1A0
330
17
100
AcDbEntity
  8
ZUKEI
 62
     7
370
    25
100
AcDbCircle
 10
1305.171176831368
 20
476.7662933402938
 30
0.0
 40
10.0
100
AcDbArc
 50
180.0
 51
229.464197888662
  0
LINE
  5
2D1A1
330
17
100
AcDbEntity
  8
ZUKEI
 62
     7
370
    25
100
AcDbLine
 10
1295.171176831368
 20
476.7662933402938
 30
0.0
 11
1295.171176831368
 21
485.1662933402931
 31
0.0
  0
LINE
  5
2D1A2
330
17
100
AcDbEntity
  8
ZUKEI
 62
     7
370
    25
100
AcDbLine
 10
1323.844625495973
 20
468.1662933402932
 30
0.0
 11
1323.844625495973
 21
470.1662933402935
 31
0.0
  0
LINE
  5
2D1A3
330
17
100
AcDbEntity
  8
ZUKEI
 62
     7
370
    25
100
AcDbLine
 10
1323.844625495973
 20
468.1662933402932
 30
0.0
 11
1323.844625495973
 21
470.1662933402935
 31
0.0
  0
LINE
  5
2D1A4
330
17
100
AcDbEntity
  8
ZUKEI
 62
     7
370
    25
100
AcDbLine
 10
1322.244625495972
 20
469.1662933402934
 30
0.0
 11
1322.244625495972
 21
470.1662933402935
 31
0.0
  0
LINE
  5
2D1A5
330
17
100
AcDbEntity
  8
ZUKEI
 62
     7
370
    25
100
AcDbLine
 10
1316.994795088375
 20
465.1662933402934
 30
0.0
 11
1320.695518579372
 21
465.1662933402934
 31
0.0
  0
LINE
  5
2D1A6
330
17
100
AcDbEntity
  8
ZUKEI
 62
     7
370
    25
100
AcDbLine
 10
1323.844625495973
 20
470.1662933402935
 30
0.0
 11
1322.244625495972
 21
470.1662933402935
 31
0.0
  0
ARC
  5
2D1A7
330
17
100
AcDbEntity
  8
ZUKEI
 62
     7
370
    25
100
AcDbCircle
 10
1320.844625495971
 20
468.1662933402932
 30
0.0
 40
3.0
100
AcDbArc
 50
270.0
 51
0.0
  0
LINE
  5
2D1A8
330
17
100
AcDbEntity
  8
DIM
 62
     7
370
    18
100
AcDbLine
 10
1136.145550989166
 20
812.2427321892159
 30
0.0
 11
1221.145550989165
 21
812.2427321892159
 31
0.0
  0
ARC
  5
2D1A9
330
17
100
AcDbEntity
  8
ZUKEI
 62
     7
370
    25
100
AcDbCircle
 10
1051.645550989154
 20
1053.666293340294
 30
0.0
 40
17.0
100
AcDbArc
 50
270.0
 51
0.0
  0
CIRCLE
  5
2D1AA
330
17
100
AcDbEntity
  8
ZUKEI
 62
     7
370
    25
100
AcDbCircle
 10
1047.395550989153
 20
1100.666293340294
 30
0.0
 40
9.0
  0
TEXT
  5
2D1AB
330
17
100
AcDbEntity
  8
DIM
 62
     7
370
    18
100
AcDbText
 10
1794.136230442452
 20
487.6103102306646
 30
0.0
 40
51.2
  1
GL
 41
0.8
100
AcDbText
  0
DIMENSION
  5
2D1AC
330
17
100
AcDbEntity
  8
DIM
 62
     7
370
    18
100
AcDbDimension
  2
*D14
 10
1583.465657489249
 20
2210.366293340295
 30
0.0
 11
1544.465657489249
 21
2346.45200762601
 31
0.0
 70
    32
 71
     5
 42
59.99999999999953
  3
STANDARD
100
AcDbAlignedDimension
 13
1321.845550989168
 23
2150.366293340296
 33
0.0
 14
998.7455509891679
 24
2210.366293340296
 34
0.0
 50
90.0
100
AcDbRotatedDimension
1001
ACAD
1000
DSTYLE
1002
{
1070
    41
1040
3.0
1070
    42
1040
2.0
1070
    43
1040
10.0
1070
    44
1040
2.0
1070
    73
1070
     0
1070
    74
1070
     0
1070
    77
1070
     1
1070
    78
1070
     8
1070
    79
1070
     2
1070
   140
1040
3.2
1070
   147
1040
0.9999999999999996
1070
   172
1070
     1
1070
   179
1070
     8
1070
   271
1070
     8
1070
   272
1070
     8
1070
   341
1005
4A
1070
   342
1005
4A
1002
}
  0
LINE
  5
2D1AF
330
17
100
AcDbEntity
  8
ZUKEI
 62
     7
370
    25
100
AcDbLine
 10
918.6455509891557
 20
1164.666293340294
 30
0.0
 11
1051.645550989155
 21
1164.666293340294
 31
0.0
  0
LINE
  5
2D1B0
330
17
100
AcDbEntity
  8
ZUKEI
 62
     7
370
    25
100
AcDbLine
 10
913.6455509891558
 20
1153.166293340295
 30
0.0
 11
1057.645550989155
 21
1153.166293340295
 31
0.0
  0
ARC
  5
2D1B1
330
17
100
AcDbEntity
  8
ZUKEI
 62
     7
370
    25
100
AcDbCircle
 10
918.6455509891541
 20
1147.666293340295
 30
0.0
 40
17.0
100
AcDbArc
 50
90.0
 51
180.0
  0
ARC
  5
2D1B2
330
17
100
AcDbEntity
  8
ZUKEI
 62
     7
370
    25
100
AcDbCircle
 10
1051.645550989155
 20
1147.666293340295
 30
0.0
 40
17.0
100
AcDbArc
 50
0.0
 51
90.0
  0
DIMENSION
  5
2D1B3
330
17
100
AcDbEntity
  8
DIM
 62
     7
370
    18
100
AcDbDimension
  2
*D15
 10
1326.845550989284
 20
2307.366293340296
 30
0.0
 11
985.1455509891684
 21
2346.366293340296
 31
0.0
 70
    32
  1
φ<>（直径）
 71
     5
 42
683.4000000002323
  3
STANDARD
100
AcDbAlignedDimension
 13
643.4455509890522
 23
2145.366293340296
 33
0.0
 14
1326.845550989284
 24
2145.366293340296
 34
0.0
100
AcDbRotatedDimension
1001
ACAD
1000
DSTYLE
1002
{
1070
    41
1040
3.0
1070
    42
1040
2.0
1070
    43
1040
10.0
1070
    44
1040
2.0
1070
    73
1070
     0
1070
    74
1070
     0
1070
    77
1070
     1
1070
    78
1070
     8
1070
    79
1070
     2
1070
   140
1040
3.2
1070
   147
1040
0.9999999999999996
1070
   172
1070
     1
1070
   179
1070
     8
1070
   271
1070
     0
1070
   272
1070
     8
1070
   341
1005
4A
1070
   342
1005
4A
1002
}
  0
ARC
  5
2D1B4
330
17
100
AcDbEntity
  8
ZUKEI
 62
     7
370
    25
100
AcDbCircle
 10
1027.145550989167
 20
2152.366293340302
 30
0.0
 40
8.0
100
AcDbArc
 50
18.20995686399855
 51
90.0
  0
LINE
  5
2D1B5
330
17
100
AcDbEntity
  8
ZUKEI
 62
     7
370
    25
100
AcDbLine
 10
841.1455509891693
 20
2154.866293340303
 30
0.0
 11
1129.145550989167
 21
2154.866293340303
 31
0.0
  0
LINE
  5
2D1B6
330
17
100
AcDbEntity
  8
ZUKEI
 62
     7
370
    25
100
AcDbLine
 10
840.1455509891693
 20
2091.866293340303
 30
0.0
 11
1130.145550989167
 21
2091.866293340303
 31
0.0
  0
LINE
  5
2D1B7
330
17
100
AcDbEntity
  8
ZUKEI
 62
     7
370
    25
100
AcDbLine
 10
856.0221132451042
 20
2131.866293340303
 30
0.0
 11
1114.268988733231
 21
2131.866293340303
 31
0.0
  0
ARC
  5
2D1B8
330
17
100
AcDbEntity
  8
ZUKEI
 62
     7
370
    25
100
AcDbCircle
 10
985.1455509891684
 20
3122.373639567106
 30
0.0
 40
415.0
100
AcDbArc
 50
252.859831843952
 51
287.1401681560478
  0
LINE
  5
2D1B9
330
17
100
AcDbEntity
  8
ZUKEI
 62
     7
370
    25
100
AcDbLine
 10
840.1455509891684
 20
2836.873639567099
 30
0.0
 11
1130.145550989168
 21
2836.873639567102
 31
0.0
  0
ARC
  5
2D1BA
330
17
100
AcDbEntity
  8
ZUKEI
 62
     7
370
    25
100
AcDbCircle
 10
985.1455509891684
 20
3081.873639567107
 30
0.0
 40
315.5
100
AcDbArc
 50
242.6394777708873
 51
297.3605222291125
  0
LINE
  5
2D1BB
330
17
100
AcDbEntity
  8
ZUKEI
 62
     7
370
    25
100
AcDbLine
 10
785.9813068591846
 20
2180.366293340298
 30
0.0
 11
884.3098256367301
 21
2180.366293340298
 31
0.0
  0
LINE
  5
2D1BC
330
17
100
AcDbEntity
  8
ZUKEI
 62
     7
370
    25
100
AcDbLine
 10
787.4947932803697
 20
2178.366293340298
 30
0.0
 11
882.7963302771532
 21
2178.366293340298
 31
0.0
  0
LINE
  5
2D1BD
330
17
100
AcDbEntity
  8
ZUKEI
 62
     7
370
    25
100
AcDbLine
 10
788.8440355715738
 20
2176.366293340298
 30
0.0
 11
881.4471121831321
 21
2176.366293340298
 31
0.0
  0
LINE
  5
2D1BE
330
17
100
AcDbEntity
  8
ZUKEI
 62
     7
370
    25
100
AcDbLine
 10
840.1455509891693
 20
2150.366293340296
 30
0.0
 11
648.4455509891686
 21
2150.366293340296
 31
0.0
  0
LINE
  5
2D1BF
330
17
100
AcDbEntity
  8
ZUKEI
 62
     7
370
    25
100
AcDbLine
 10
840.1455509891693
 20
2115.366293340296
 30
0.0
 11
643.4455509890522
 21
2115.366293340294
 31
0.0
  0
LINE
  5
2D1C0
330
17
100
AcDbEntity
  8
ZUKEI
 62
     7
370
    25
100
AcDbLine
 10
643.4455509890522
 20
2145.366293340296
 30
0.0
 11
643.4455509890522
 21
2115.366293340296
 31
0.0
  0
ARC
  5
2D1C1
330
17
100
AcDbEntity
  8
ZUKEI
 62
     7
370
    25
100
AcDbCircle
 10
648.4455509890531
 20
2145.366293340296
 30
0.0
 40
5.0
100
AcDbArc
 50
90.0
 51
180.0
  0
ARC
  5
2D1C2
330
17
100
AcDbEntity
  8
ZUKEI
 62
     7
370
    25
100
AcDbCircle
 10
787.4947932803697
 20
2174.366293340298
 30
0.0
 40
4.000000000000047
100
AcDbArc
 50
90.0
 51
158.008870082853
  0
ARC
  5
2D1C3
330
17
100
AcDbEntity
  8
ZUKEI
 62
     7
370
    25
100
AcDbCircle
 10
788.8440355715702
 20
2172.366293340298
 30
0.0
 40
4.000000000000047
100
AcDbArc
 50
90.0
 51
158.0088700828588
  0
ARC
  5
2D1C4
330
17
100
AcDbEntity
  8
ZUKEI
 62
     7
370
    25
100
AcDbCircle
 10
785.9813068591829
 20
2176.366293340298
 30
0.0
 40
4.000000000000047
100
AcDbArc
 50
90.0
 51
139.304468960487
  0
ARC
  5
2D1C5
330
17
100
AcDbEntity
  8
ZUKEI
 62
     7
370
    25
100
AcDbCircle
 10
772.9470664067648
 20
2154.3662933403
 30
0.0
 40
4.000000000000047
100
AcDbArc
 50
269.9999999999478
 51
338.0088700827792
  0
ARC
  5
2D1C6
330
17
100
AcDbEntity
  8
ZUKEI
 62
     7
370
    25
100
AcDbCircle
 10
772.8093625771034
 20
2159.366293340303
 30
0.0
 40
4.000000000000047
100
AcDbArc
 50
270.0
 51
338.008870082853
  0
ARC
  5
2D1C7
330
17
100
AcDbEntity
  8
ZUKEI
 62
     7
370
    25
100
AcDbCircle
 10
761.268734086656
 20
2158.366293340298
 30
0.0
 40
3.00000000000005
100
AcDbArc
 50
270.0000000000521
 51
319.304468960487
  0
LINE
  5
2D1C8
330
17
100
AcDbEntity
  8
ZUKEI
 62
     7
370
    25
100
AcDbLine
 10
757.6455509891693
 20
2155.366293340298
 30
0.0
 11
757.6455509891693
 21
2150.366293340298
 31
0.0
  0
LINE
  5
2D1C9
330
17
100
AcDbEntity
  8
ZUKEI
 62
     7
370
    25
100
AcDbLine
 10
757.6455509891693
 20
2155.366293340298
 30
0.0
 11
773.1003829420024
 21
2155.366293340299
 31
0.0
  0
LINE
  5
2D1CA
330
17
100
AcDbEntity
  8
ZUKEI
 62
     7
370
    25
100
AcDbLine
 10
783.7858259319382
 20
2175.864145538703
 30
0.0
 11
776.5183299255368
 21
2157.868441141898
 31
0.0
  0
LINE
  5
2D1CB
330
17
100
AcDbEntity
  8
ZUKEI
 62
     7
370
    25
100
AcDbLine
 10
785.1350682231402
 20
2173.864145538701
 30
0.0
 11
776.6560337551982
 21
2152.868441141893
 31
0.0
  0
LINE
  5
2D1CC
330
17
100
AcDbEntity
  8
ZUKEI
 62
     7
370
    25
100
AcDbLine
 10
763.5432896755919
 20
2156.410175533812
 30
0.0
 11
782.9485660739374
 21
2178.97445041561
 31
0.0
  0
LINE
  5
2D1CD
330
17
100
AcDbEntity
  8
ZUKEI
 62
     7
370
    25
100
AcDbLine
 10
840.1455509891693
 20
2153.866293340302
 30
0.0
 11
840.1455509891693
 21
2091.866293340303
 31
0.0
  0
LINE
  5
2D1CE
330
17
100
AcDbEntity
  8
ZUKEI
 62
     7
370
    25
100
AcDbLine
 10
851.0236750130625
 20
2126.991254296103
 30
0.0
 11
850.1455509891693
 21
2091.866293340303
 31
0.0
  0
ARC
  5
2D1D0
330
17
100
AcDbEntity
  8
ZUKEI
 62
     7
370
    25
100
AcDbCircle
 10
943.1455509891677
 20
2152.366293340301
 30
0.0
 40
8.0
100
AcDbArc
 50
90.0
 51
161.7900431360014
  0
ARC
  5
2D1D1
330
17
100
AcDbEntity
  8
ZUKEI
 62
     7
370
    25
100
AcDbCircle
 10
882.7963086979652
 20
2174.366293340298
 30
0.0
 40
4.000000000000047
100
AcDbArc
 50
21.99112991714692
 51
90.0
  0
ARC
  5
2D1D2
330
17
100
AcDbEntity
  8
ZUKEI
 62
     7
370
    25
100
AcDbCircle
 10
884.3097951191522
 20
2176.366293340298
 30
0.0
 40
4.000000000000047
100
AcDbArc
 50
40.69553103951295
 51
90.0
  0
LINE
  5
2D1D3
330
17
100
AcDbEntity
  8
ZUKEI
 62
     7
370
    25
100
AcDbLine
 10
885.1560337551982
 20
2173.864145538701
 30
0.0
 11
892.828243296859
 21
2154.866293340303
 31
0.0
  0
ARC
  5
2D1D4
330
17
100
AcDbEntity
  8
ZUKEI
 62
     7
370
    25
100
AcDbCircle
 10
881.4470664067647
 20
2172.366293340298
 30
0.0
 40
4.000000000000047
100
AcDbArc
 50
21.99112991714089
 51
90.0
  0
ARC
  5
2D1D5
330
17
100
AcDbEntity
  8
ZUKEI
 62
     7
370
    25
100
AcDbCircle
 10
841.1455509891675
 20
2153.866293340302
 30
0.0
 40
1.0
100
AcDbArc
 50
90.0
 51
180.0
  0
ARC
  5
2D1D6
330
17
100
AcDbEntity
  8
ZUKEI
 62
     7
370
    25
100
AcDbCircle
 10
856.0221132451024
 20
2126.866293340303
 30
0.0
 40
5.0
100
AcDbArc
 50
90.0
 51
178.5679038158353
  0
LINE
  5
2D1D7
330
17
100
AcDbEntity
  8
ZUKEI
 62
     7
370
    25
100
AcDbLine
 10
912.6455725683536
 20
2155.366293340298
 30
0.0
 11
912.6455725683536
 21
2154.866293340303
 31
0.0
  0
LINE
  5
2D1D8
330
17
100
AcDbEntity
  8
ZUKEI
 62
     7
370
    25
100
AcDbLine
 10
912.6455509891693
 20
2155.366293340298
 30
0.0
 11
897.1907190363344
 21
2155.366293340299
 31
0.0
  0
ARC
  5
2D1D9
330
17
100
AcDbEntity
  8
ZUKEI
 62
     7
370
    25
100
AcDbCircle
 10
909.0223678916792
 20
2158.366293340298
 30
0.0
 40
3.00000000000005
100
AcDbArc
 50
220.6955310395128
 51
269.9999999999478
  0
ARC
  5
2D1DA
330
17
100
AcDbEntity
  8
ZUKEI
 62
     7
370
    25
100
AcDbCircle
 10
897.4817394012315
 20
2159.366293340303
 30
0.0
 40
4.000000000000047
100
AcDbArc
 50
201.9911299171468
 51
270.0
  0
LINE
  5
2D1DB
330
17
100
AcDbEntity
  8
ZUKEI
 62
     7
370
    25
100
AcDbLine
 10
886.5052760463987
 20
2175.864145538703
 30
0.0
 11
893.7727720528018
 21
2157.868441141898
 31
0.0
  0
LINE
  5
2D1DC
330
17
100
AcDbEntity
  8
ZUKEI
 62
     7
370
    25
100
AcDbLine
 10
906.7478123027449
 20
2156.410175533812
 30
0.0
 11
887.3425359043995
 21
2178.97445041561
 31
0.0
  0
LINE
  5
2D1DD
330
17
100
AcDbEntity
  8
ZUKEI
 62
     7
370
    25
100
AcDbLine
 10
968.1455509891677
 20
2172.366293340301
 30
0.0
 11
1002.145550989167
 21
2172.366293340302
 31
0.0
  0
LINE
  5
2D1DE
330
17
100
AcDbEntity
  8
ZUKEI
 62
     7
370
    25
100
AcDbLine
 10
971.545550989169
 20
2210.366293340296
 30
0.0
 11
998.7455509891679
 21
2210.366293340296
 31
0.0
  0
LINE
  5
2D1DF
330
17
100
AcDbEntity
  8
ZUKEI
 62
     7
370
    25
100
AcDbLine
 10
968.1455509891677
 20
2174.366293340303
 30
0.0
 11
1002.145550989167
 21
2174.366293340303
 31
0.0
  0
LINE
  5
2D1E0
330
17
100
AcDbEntity
  8
ZUKEI
 62
     7
370
    25
100
AcDbLine
 10
971.545550989169
 20
2195.836293340295
 30
0.0
 11
998.7455509891679
 21
2195.836293340295
 31
0.0
  0
ARC
  5
2D1E1
330
17
100
AcDbEntity
  8
ZUKEI
 62
     7
370
    25
100
AcDbCircle
 10
968.1455509891527
 20
2173.366293340599
 30
0.0
 40
1.000000000633006
100
AcDbArc
 50
90.00247279174109
 51
270.0000000008337
  0
ARC
  5
2D1E2
330
17
100
AcDbEntity
  8
BORDER
 62
     7
370
    18
100
AcDbCircle
 10
968.1455509891677
 20
2174.366293340303
 30
0.0
 40
0.0
100
AcDbArc
 50
180.0
 51
0.0
  0
LINE
  5
2D1E3
330
17
100
AcDbEntity
  8
ZUKEI
 62
     7
370
    25
100
AcDbLine
 10
971.545550989169
 20
2194.236293340293
 30
0.0
 11
973.1455509891711
 21
2195.836293340295
 31
0.0
  0
LINE
  5
2D1E4
330
17
100
AcDbEntity
  8
ZUKEI
 62
     7
370
    25
100
AcDbLine
 10
971.545550989169
 20
2210.366293340296
 30
0.0
 11
971.545550989169
 21
2174.366293340303
 31
0.0
  0
LINE
  5
2D1E5
330
17
100
AcDbEntity
  8
ZUKEI
 62
     7
370
    25
100
AcDbLine
 10
973.1455509891691
 20
2210.366293340298
 30
0.0
 11
973.1455509891675
 21
2195.836293340295
 31
0.0
  0
ARC
  5
2D1E6
330
17
100
AcDbEntity
  8
ZUKEI
 62
     7
370
    25
100
AcDbCircle
 10
966.1455509891693
 20
2162.366293340301
 30
0.0
 40
2.0
100
AcDbArc
 50
270.0
 51
0.0000000000065138
  0
LINE
  5
2D1E7
330
17
100
AcDbEntity
  8
ZUKEI
 62
     7
370
    25
100
AcDbLine
 10
943.1455509891693
 20
2160.366293340301
 30
0.0
 11
966.1455509891693
 21
2160.366293340301
 31
0.0
  0
LINE
  5
2D1E8
330
17
100
AcDbEntity
  8
ZUKEI
 62
     7
370
    25
100
AcDbLine
 10
968.1455509891677
 20
2172.366293340301
 30
0.0
 11
968.1455509891693
 21
2162.366293340301
 31
0.0
  0
ARC
  5
2D1E9
330
17
100
AcDbEntity
  8
ZUKEI
 62
     7
370
    25
100
AcDbCircle
 10
1002.145550989418
 20
2173.36629334052
 30
0.0
 40
0.99999999978354
100
AcDbArc
 50
269.9999999856697
 51
90.00000001433033
  0
LINE
  5
2D1EA
330
17
100
AcDbEntity
  8
ZUKEI
 62
     7
370
    25
100
AcDbLine
 10
998.7455509891679
 20
2194.236293340293
 30
0.0
 11
997.1455509891656
 21
2195.836293340295
 31
0.0
  0
LINE
  5
2D1EB
330
17
100
AcDbEntity
  8
ZUKEI
 62
     7
370
    25
100
AcDbLine
 10
998.7455509891679
 20
2210.366293340296
 30
0.0
 11
998.7455509891679
 21
2174.366293340303
 31
0.0
  0
LINE
  5
2D1EC
330
17
100
AcDbEntity
  8
ZUKEI
 62
     7
370
    25
100
AcDbLine
 10
997.1455509891676
 20
2210.366293340296
 30
0.0
 11
997.1455509891676
 21
2195.836293340295
 31
0.0
  0
ARC
  5
2D1ED
330
17
100
AcDbEntity
  8
ZUKEI
 62
     7
370
    25
100
AcDbCircle
 10
1004.145550989167
 20
2162.366293340303
 30
0.0
 40
2.0
100
AcDbArc
 50
180.0
 51
270.0
  0
LINE
  5
2D1EE
330
17
100
AcDbEntity
  8
ZUKEI
 62
     7
370
    25
100
AcDbLine
 10
1002.145550989167
 20
2172.366293340302
 30
0.0
 11
1002.145550989167
 21
2162.366293340303
 31
0.0
  0
LINE
  5
2D1EF
330
17
100
AcDbEntity
  8
ZUKEI
 62
     7
370
    25
100
AcDbLine
 10
1004.145550989167
 20
2160.366293340302
 30
0.0
 11
1027.145550989167
 21
2160.366293340302
 31
0.0
  0
ARC
  5
2D1F0
330
17
100
AcDbEntity
  8
ZUKEI
 62
     7
370
    25
100
AcDbCircle
 10
1003.169305546312
 20
3145.076979380764
 30
0.0
 40
415.0
100
AcDbArc
 50
228.1220189339868
 51
231.8779810659834
  0
ARC
  5
2D1F1
330
17
100
AcDbEntity
  8
ZUKEI
 62
     7
370
    25
100
AcDbCircle
 10
1003.169305546312
 20
3145.076979380764
 30
0.0
 40
400.47
100
AcDbArc
 50
228.1220189339868
 51
231.8779810659834
  0
LINE
  5
2D1F2
330
17
100
AcDbEntity
  8
ZUKEI
 62
     7
370
    25
100
AcDbLine
 10
726.1375225382208
 20
2836.081200763385
 30
0.0
 11
756.3026921528171
 21
2872.030650022794
 31
0.0
  0
LINE
  5
2D1F3
330
17
100
AcDbEntity
  8
ZUKEI
 62
     7
370
    25
100
AcDbLine
 10
727.3314573076468
 20
2835.014918691195
 30
0.0
 11
736.6752101104384
 21
2846.150369662233
 31
0.0
  0
LINE
  5
2D1F4
330
17
100
AcDbEntity
  8
ZUKEI
 62
     7
370
    25
100
AcDbLine
 10
745.7165239425021
 20
2819.588016058718
 30
0.0
 11
755.0602767452938
 21
2830.723467029758
 31
0.0
  0
LINE
  5
2D1F5
330
17
100
AcDbEntity
  8
ZUKEI
 62
     7
370
    25
100
AcDbLine
 10
746.9739313910641
 20
2818.597377779919
 30
0.0
 11
777.1844905889929
 21
2854.60092023833
 31
0.0
  0
ARC
  5
2D1F6
330
17
100
AcDbEntity
  8
ZUKEI
 62
     7
370
    25
100
AcDbCircle
 10
868.1455509891684
 20
2743.005744246483
 30
0.0
 40
18.0
100
AcDbArc
 50
180.0
 51
252.859831843952
  0
LINE
  5
2D1F7
330
17
100
AcDbEntity
  8
ZUKEI
 62
     7
370
    25
100
AcDbLine
 10
850.1455509891684
 20
2797.715350190838
 30
0.0
 11
850.1455509891684
 21
2743.005744246484
 31
0.0
  0
CIRCLE
  5
2D1F8
330
17
100
AcDbEntity
  8
ZUKEI
 62
     7
370
    25
100
AcDbCircle
 10
855.1455509891685
 20
2826.873639567101
 30
0.0
 40
3.0
  0
LINE
  5
2D1F9
330
17
100
AcDbEntity
  8
ZUKEI
 62
     7
370
    25
100
AcDbLine
 10
840.1455509891684
 20
2836.873639567099
 30
0.0
 11
840.1455509891684
 21
2801.667911574261
 31
0.0
  0
CIRCLE
  5
2D1FA
330
17
100
AcDbEntity
  8
ZUKEI
 62
     7
370
    25
100
AcDbCircle
 10
985.1455509891684
 20
2821.873639567101
 30
0.0
 40
3.0
  0
LINE
  5
2D1FB
330
17
100
AcDbEntity
  8
ZUKEI
 62
     7
370
    25
100
AcDbLine
 10
1130.145550989167
 20
2150.366293340296
 30
0.0
 11
1321.845550989168
 21
2150.366293340296
 31
0.0
  0
LINE
  5
2D1FC
330
17
100
AcDbEntity
  8
ZUKEI
 62
     7
370
    25
100
AcDbLine
 10
1130.145550989167
 20
2115.366293340296
 30
0.0
 11
1326.845550989284
 21
2115.366293340294
 31
0.0
  0
LINE
  5
2D1FD
330
17
100
AcDbEntity
  8
ZUKEI
 62
     7
370
    25
100
AcDbLine
 10
1130.145550989167
 20
2153.866293340302
 30
0.0
 11
1130.145550989167
 21
2091.866293340303
 31
0.0
  0
LINE
  5
2D1FE
330
17
100
AcDbEntity
  8
ZUKEI
 62
     7
370
    25
100
AcDbLine
 10
1119.267426965274
 20
2126.991254296103
 30
0.0
 11
1120.145550989167
 21
2091.866293340303
 31
0.0
  0
LINE
  5
2D1FF
330
17
100
AcDbEntity
  8
ZUKEI
 62
     7
370
    25
100
AcDbLine
 10
1184.309795119152
 20
2180.366293340298
 30
0.0
 11
1085.981276341606
 21
2180.366293340298
 31
0.0
  0
LINE
  5
2D200
330
17
100
AcDbEntity
  8
ZUKEI
 62
     7
370
    25
100
AcDbLine
 10
1181.447066406763
 20
2176.366293340298
 30
0.0
 11
1088.843989795204
 21
2176.366293340298
 31
0.0
  0
LINE
  5
2D201
330
17
100
AcDbEntity
  8
ZUKEI
 62
     7
370
    25
100
AcDbLine
 10
1182.796308697967
 20
2178.366293340298
 30
0.0
 11
1087.494771701183
 21
2178.366293340298
 31
0.0
  0
LINE
  5
2D202
330
17
100
AcDbEntity
  8
ZUKEI
 62
     7
370
    25
100
AcDbLine
 10
1083.785825931938
 20
2175.864145538703
 30
0.0
 11
1076.518329925534
 21
2157.868441141898
 31
0.0
  0
LINE
  5
2D203
330
17
100
AcDbEntity
  8
ZUKEI
 62
     7
370
    25
100
AcDbLine
 10
1085.135068223137
 20
2173.864145538701
 30
0.0
 11
1077.462858681478
 21
2154.866293340303
 31
0.0
  0
LINE
  5
2D204
330
17
100
AcDbEntity
  8
ZUKEI
 62
     7
370
    25
100
AcDbLine
 10
1063.543289675592
 20
2156.410175533812
 30
0.0
 11
1082.948566073937
 21
2178.97445041561
 31
0.0
  0
LINE
  5
2D205
330
17
100
AcDbEntity
  8
ZUKEI
 62
     7
370
    25
100
AcDbLine
 10
1057.645529409981
 20
2155.366293340298
 30
0.0
 11
1057.645529409981
 21
2154.866293340303
 31
0.0
  0
ARC
  5
2D206
330
17
100
AcDbEntity
  8
ZUKEI
 62
     7
370
    25
100
AcDbCircle
 10
1072.809362577103
 20
2159.366293340303
 30
0.0
 40
4.000000000000047
100
AcDbArc
 50
270.0
 51
338.008870082853
  0
ARC
  5
2D207
330
17
100
AcDbEntity
  8
ZUKEI
 62
     7
370
    25
100
AcDbCircle
 10
1061.268734086656
 20
2158.366293340298
 30
0.0
 40
3.00000000000005
100
AcDbArc
 50
270.0000000000521
 51
319.304468960487
  0
LINE
  5
2D208
330
17
100
AcDbEntity
  8
ZUKEI
 62
     7
370
    25
100
AcDbLine
 10
1057.645550989167
 20
2155.366293340298
 30
0.0
 11
1073.100382942002
 21
2155.366293340299
 31
0.0
  0
ARC
  5
2D209
330
17
100
AcDbEntity
  8
ZUKEI
 62
     7
370
    25
100
AcDbCircle
 10
1085.981306859183
 20
2176.366293340298
 30
0.0
 40
4.000000000000047
100
AcDbArc
 50
90.0
 51
139.304468960487
  0
ARC
  5
2D20A
330
17
100
AcDbEntity
  8
ZUKEI
 62
     7
370
    25
100
AcDbCircle
 10
1087.494793280369
 20
2174.366293340298
 30
0.0
 40
4.000000000000047
100
AcDbArc
 50
90.0
 51
158.008870082853
  0
ARC
  5
2D20B
330
17
100
AcDbEntity
  8
ZUKEI
 62
     7
370
    25
100
AcDbCircle
 10
1088.84403557157
 20
2172.366293340298
 30
0.0
 40
4.000000000000047
100
AcDbArc
 50
90.0
 51
158.0088700828588
  0
ARC
  5
2D20C
330
17
100
AcDbEntity
  8
ZUKEI
 62
     7
370
    25
100
AcDbCircle
 10
1129.145550989167
 20
2153.866293340302
 30
0.0
 40
1.0
100
AcDbArc
 50
0.0
 51
90.0
  0
ARC
  5
2D20D
330
17
100
AcDbEntity
  8
ZUKEI
 62
     7
370
    25
100
AcDbCircle
 10
1114.268988733231
 20
2126.866293340303
 30
0.0
 40
5.0
100
AcDbArc
 50
1.432096184164646
 51
90.0
  0
ARC
  5
2D20E
330
17
100
AcDbEntity
  8
ZUKEI
 62
     7
370
    25
100
AcDbCircle
 10
1129.145550989167
 20
2153.866293340302
 30
0.0
 40
1.0
100
AcDbArc
 50
0.0
 51
90.0
  0
ARC
  5
2D20F
330
17
100
AcDbEntity
  8
ZUKEI
 62
     7
370
    25
100
AcDbCircle
 10
1181.447066406764
 20
2172.366293340298
 30
0.0
 40
4.000000000000047
100
AcDbArc
 50
21.99112991714089
 51
90.0
  0
ARC
  5
2D210
330
17
100
AcDbEntity
  8
ZUKEI
 62
     7
370
    25
100
AcDbCircle
 10
1182.796308697965
 20
2174.366293340298
 30
0.0
 40
4.000000000000047
100
AcDbArc
 50
21.99112991714692
 51
90.0
  0
ARC
  5
2D211
330
17
100
AcDbEntity
  8
ZUKEI
 62
     7
370
    25
100
AcDbCircle
 10
1184.309795119152
 20
2176.366293340298
 30
0.0
 40
4.000000000000047
100
AcDbArc
 50
40.69553103951295
 51
90.0
  0
LINE
  5
2D212
330
17
100
AcDbEntity
  8
ZUKEI
 62
     7
370
    25
100
AcDbLine
 10
1212.645550989167
 20
2155.366293340298
 30
0.0
 11
1212.645550989167
 21
2150.366293340298
 31
0.0
  0
LINE
  5
2D213
330
17
100
AcDbEntity
  8
ZUKEI
 62
     7
370
    25
100
AcDbLine
 10
1212.645550989167
 20
2155.366293340298
 30
0.0
 11
1197.190719036334
 21
2155.366293340299
 31
0.0
  0
ARC
  5
2D214
330
17
100
AcDbEntity
  8
ZUKEI
 62
     7
370
    25
100
AcDbCircle
 10
1197.48173940123
 20
2159.366293340303
 30
0.0
 40
4.000000000000047
100
AcDbArc
 50
201.9911299171468
 51
270.0
  0
ARC
  5
2D215
330
17
100
AcDbEntity
  8
ZUKEI
 62
     7
370
    25
100
AcDbCircle
 10
1197.34403557157
 20
2154.3662933403
 30
0.0
 40
4.000000000000047
100
AcDbArc
 50
201.9911299172207
 51
270.0000000000521
  0
ARC
  5
2D216
330
17
100
AcDbEntity
  8
ZUKEI
 62
     7
370
    25
100
AcDbCircle
 10
1209.022367891679
 20
2158.366293340298
 30
0.0
 40
3.00000000000005
100
AcDbArc
 50
220.6955310395128
 51
269.9999999999478
  0
LINE
  5
2D217
330
17
100
AcDbEntity
  8
ZUKEI
 62
     7
370
    25
100
AcDbLine
 10
1185.156033755196
 20
2173.864145538701
 30
0.0
 11
1193.635068223138
 21
2152.868441141893
 31
0.0
  0
LINE
  5
2D218
330
17
100
AcDbEntity
  8
ZUKEI
 62
     7
370
    25
100
AcDbLine
 10
1186.505276046398
 20
2175.864145538703
 30
0.0
 11
1193.7727720528
 21
2157.868441141898
 31
0.0
  0
LINE
  5
2D219
330
17
100
AcDbEntity
  8
ZUKEI
 62
     7
370
    25
100
AcDbLine
 10
1206.747812302745
 20
2156.410175533812
 30
0.0
 11
1187.342535904399
 21
2178.97445041561
 31
0.0
  0
LINE
  5
2D21A
330
17
100
AcDbEntity
  8
ZUKEI
 62
     7
370
    25
100
AcDbLine
 10
1326.845550989284
 20
2145.366293340296
 30
0.0
 11
1326.845550989284
 21
2115.366293340296
 31
0.0
  0
ARC
  5
2D21B
330
17
100
AcDbEntity
  8
ZUKEI
 62
     7
370
    25
100
AcDbCircle
 10
1321.845550989283
 20
2145.366293340296
 30
0.0
 40
5.0
100
AcDbArc
 50
0.0
 51
90.0
  0
ARC
  5
2D21C
330
17
100
AcDbEntity
  8
ZUKEI
 62
     7
370
    25
100
AcDbCircle
 10
967.1217964320247
 20
3145.076979380764
 30
0.0
 40
400.47
100
AcDbArc
 50
308.1220189340165
 51
311.8779810660129
  0
ARC
  5
2D21D
330
17
100
AcDbEntity
  8
ZUKEI
 62
     7
370
    25
100
AcDbCircle
 10
967.1217964320247
 20
3145.076979380764
 30
0.0
 40
415.0
100
AcDbArc
 50
308.1220189340165
 51
311.8779810660129
  0
LINE
  5
2D21E
330
17
100
AcDbEntity
  8
ZUKEI
 62
     7
370
    25
100
AcDbLine
 10
1244.153579440117
 20
2836.081200763385
 30
0.0
 11
1213.988409825516
 21
2872.030650022798
 31
0.0
  0
LINE
  5
2D21F
330
17
100
AcDbEntity
  8
ZUKEI
 62
     7
370
    25
100
AcDbLine
 10
1120.145550989168
 20
2797.715350190838
 30
0.0
 11
1120.145550989168
 21
2743.005744246484
 31
0.0
  0
ARC
  5
2D220
330
17
100
AcDbEntity
  8
ZUKEI
 62
     7
370
    25
100
AcDbCircle
 10
1102.145550989167
 20
2743.005744246483
 30
0.0
 40
18.0
100
AcDbArc
 50
287.1401681560478
 51
0.0
  0
LINE
  5
2D221
330
17
100
AcDbEntity
  8
ZUKEI
 62
     7
370
    25
100
AcDbLine
 10
1130.145550989168
 20
2836.873639567102
 30
0.0
 11
1130.145550989168
 21
2801.667911574261
 31
0.0
  0
CIRCLE
  5
2D222
330
17
100
AcDbEntity
  8
ZUKEI
 62
     7
370
    25
100
AcDbCircle
 10
1115.145550989168
 20
2826.873639567101
 30
0.0
 40
3.0
  0
LINE
  5
2D223
330
17
100
AcDbEntity
  8
ZUKEI
 62
     7
370
    25
100
AcDbLine
 10
1224.574578035834
 20
2819.588016058718
 30
0.0
 11
1215.230825233043
 21
2830.723467029758
 31
0.0
  0
LINE
  5
2D224
330
17
100
AcDbEntity
  8
ZUKEI
 62
     7
370
    25
100
AcDbLine
 10
1223.317170587274
 20
2818.597377779919
 30
0.0
 11
1193.106611389347
 21
2854.600920238326
 31
0.0
  0
LINE
  5
2D225
330
17
100
AcDbEntity
  8
ZUKEI
 62
     7
370
    25
100
AcDbLine
 10
1242.95964467069
 20
2835.014918691195
 30
0.0
 11
1233.6158918679
 21
2846.150369662233
 31
0.0
  0
LEADER
  5
2D226
330
17
100
AcDbEntity
  8
DIM
 62
     7
370
    18
100
AcDbLeader
  3
STANDARD
 76
     2
 10
1135.145550989168
 20
3234.973639567103
 30
0.0
 10
573.9434852359226
 20
3498.257768515568
 30
0.0
211
1.0
221
-0.0000000000000002
231
0.0
1001
ACAD
1000
DSTYLE
1002
{
1070
    41
1040
3.0
1070
    42
1040
2.0
1070
    43
1040
10.0
1070
    44
1040
2.0
1070
    73
1070
     0
1070
    74
1070
     0
1070
    77
1070
     1
1070
    78
1070
     8
1070
    79
1070
     2
1070
   140
1040
3.2
1070
   147
1040
0.9999999999999996
1070
   172
1070
     1
1070
   179
1070
     8
1070
   271
1070
     8
1070
   272
1070
     8
1070
   341
1005
4A
1070
   342
1005
4A
1002
}
  0
LEADER
  5
2D227
330
17
100
AcDbEntity
  8
DIM
 62
     7
370
    18
100
AcDbLeader
  3
STANDARD
 76
     2
 10
835.1455509891684
 20
3234.973639567103
 30
0.0
 10
573.9434852359226
 20
3498.257768515568
 30
0.0
211
1.0
221
-0.0000000000000002
231
0.0
1001
ACAD
1000
DSTYLE
1002
{
1070
    41
1040
3.0
1070
    42
1040
2.0
1070
    43
1040
10.0
1070
    44
1040
2.0
1070
    73
1070
     0
1070
    74
1070
     0
1070
    77
1070
     1
1070
    78
1070
     8
1070
    79
1070
     2
1070
   140
1040
3.2
1070
   147
1040
0.9999999999999996
1070
   172
1070
     1
1070
   179
1070
     8
1070
   271
1070
     8
1070
   272
1070
     8
1070
   341
1005
4A
1070
   342
1005
4A
1002
}
  0
LINE
  5
2D228
330
17
100
AcDbEntity
  8
MCEN
 62
     7
370
    25
100
AcDbLine
 10
594.0455509891672
 20
3124.973639567102
 30
0.0
 11
1376.245550989166
 21
3124.973639567102
 31
0.0
  0
LINE
  5
2D229
330
17
100
AcDbEntity
  8
DIM
 62
     7
370
    18
100
AcDbLine
 10
573.9434852359226
 20
3498.257768515569
 30
0.0
 11
388.5599342867287
 21
3498.257768515569
 31
0.0
  0
TEXT
  5
2D22A
330
17
100
AcDbEntity
  8
DIM
 62
     7
370
    18
100
AcDbText
 10
405.3429196220402
 20
3507.882768515568
 30
0.0
 40
48.0
  1
取　手
 41
0.8
 11
405.3429196220402
 21
3531.882768515568
 31
0.0
100
AcDbText
 73
     2
  0
CIRCLE
  5
2D22B
330
17
100
AcDbEntity
  8
ZUKEI
 62
     7
370
    25
100
AcDbCircle
 10
985.1455509891666
 20
3124.973639567101
 30
0.0
 40
50.0
  0
LINE
  5
2D22C
330
17
100
AcDbEntity
  8
ZUKEI
 62
     7
370
    25
100
AcDbLine
 10
757.6455509891684
 20
3216.973639567102
 30
0.0
 11
912.6455509891684
 21
3216.973639567102
 31
0.0
  0
LINE
  5
2D22D
330
17
100
AcDbEntity
  8
ZUKEI
 62
     7
370
    25
100
AcDbLine
 10
757.6455509891684
 20
3232.973639567102
 30
0.0
 11
912.6455509891684
 21
3232.973639567102
 31
0.0
  0
LINE
  5
2D22E
330
17
100
AcDbEntity
  8
ZUKEI
 62
     7
370
    25
100
AcDbLine
 10
757.6455509891684
 20
3214.973639567102
 30
0.0
 11
912.6455509891684
 21
3214.973639567102
 31
0.0
  0
LINE
  5
2D22F
330
17
100
AcDbEntity
  8
ZUKEI
 62
     7
370
    25
100
AcDbLine
 10
757.6455509891684
 20
3234.973639567102
 30
0.0
 11
912.6455509891684
 21
3234.973639567102
 31
0.0
  0
LINE
  5
2D230
330
17
100
AcDbEntity
  8
ZUKEI
 62
     7
370
    25
100
AcDbLine
 10
693.5203765220237
 20
2939.283258510333
 30
0.0
 11
678.5203765220231
 21
2965.264020623866
 31
0.0
  0
ARC
  5
2D231
330
17
100
AcDbEntity
  8
ZUKEI
 62
     7
370
    25
100
AcDbCircle
 10
689.6514509717235
 20
2928.966629533736
 30
0.0
 40
8.0
100
AcDbArc
 50
47.71893187343301
 51
120.0000000000005
  0
ARC
  5
2D232
330
17
100
AcDbEntity
  8
ZUKEI
 62
     7
370
    25
100
AcDbCircle
 10
683.9613970232527
 20
2936.63989667071
 30
0.0
 40
25.0
100
AcDbArc
 50
210.0000000000215
 51
298.4015084429243
  0
ARC
  5
2D233
330
17
100
AcDbEntity
  8
ZUKEI
 62
     7
370
    25
100
AcDbCircle
 10
683.9613970232527
 20
2936.63989667071
 30
0.0
 40
23.39999999999999
100
AcDbArc
 50
210.0000000000215
 51
298.347759035625
  0
ARC
  5
2D234
330
17
100
AcDbEntity
  8
ZUKEI
 62
     7
370
    25
100
AcDbCircle
 10
689.6514509717235
 20
2928.966629533736
 30
0.0
 40
9.599999999999999
100
AcDbArc
 50
47.71893187343301
 51
120.0000000000005
  0
LINE
  5
2D235
330
17
100
AcDbEntity
  8
ZUKEI
 62
     7
370
    25
100
AcDbLine
 10
692.1347358759676
 20
2938.483258510331
 30
0.0
 11
677.1347358759676
 21
2964.464020623865
 31
0.0
  0
ARC
  5
2D236
330
17
100
AcDbEntity
  8
ZUKEI
 62
     7
370
    25
100
AcDbCircle
 10
690.1251169327352
 20
2971.964020623864
 30
0.0
 40
15.0
100
AcDbArc
 50
148.5832703310769
 51
210.0000000000215
  0
ARC
  5
2D237
330
17
100
AcDbEntity
  8
ZUKEI
 62
     7
370
    25
100
AcDbCircle
 10
690.1251169327352
 20
2971.964020623864
 30
0.0
 40
13.4
100
AcDbArc
 50
153.293314037787
 51
210.0000000000215
  0
ARC
  5
2D238
330
17
100
AcDbEntity
  8
ZUKEI
 62
     7
370
    25
100
AcDbCircle
 10
667.6514509717235
 20
2967.071747300252
 30
0.0
 40
9.599999999999999
100
AcDbArc
 50
300.0000000000005
 51
12.28106812660586
  0
ARC
  5
2D239
330
17
100
AcDbEntity
  8
ZUKEI
 62
     7
370
    25
100
AcDbCircle
 10
667.6514509717235
 20
2967.071747300252
 30
0.0
 40
8.0
100
AcDbArc
 50
300.0000000000005
 51
12.28106812660586
  0
LINE
  5
2D23A
330
17
100
AcDbEntity
  8
ZUKEI
 62
     7
370
    25
100
AcDbLine
 10
673.5482219792555
 20
2988.374107973679
 30
0.0
 11
658.3525812150983
 21
2979.600900687985
 31
0.0
  0
LINE
  5
2D23B
330
17
100
AcDbEntity
  8
ZUKEI
 62
     7
370
    25
100
AcDbLine
 10
674.177716992227
 20
2986.890026227465
 30
0.0
 11
659.1525812150985
 21
2978.21526004193
 31
0.0
  0
LINE
  5
2D23C
330
17
100
AcDbEntity
  8
ZUKEI
 62
     7
370
    25
100
AcDbLine
 10
671.6514509717235
 20
2960.143544069979
 30
0.0
 11
650.6659635408102
 21
2948.027567252666
 31
0.0
  0
LINE
  5
2D23D
330
17
100
AcDbEntity
  8
ZUKEI
 62
     7
370
    25
100
AcDbLine
 10
672.4514509717237
 20
2958.757903423923
 30
0.0
 11
651.4659635408105
 21
2946.641926606609
 31
0.0
  0
ARC
  5
2D23E
330
17
100
AcDbEntity
  8
ZUKEI
 62
     7
370
    25
100
AcDbCircle
 10
671.4516682681312
 20
2958.307382463484
 30
0.0
 40
25.0
100
AcDbArc
 50
121.5984915570245
 51
210.0000000000215
  0
ARC
  5
2D23F
330
17
100
AcDbEntity
  8
ZUKEI
 62
     7
370
    25
100
AcDbCircle
 10
671.4516682681312
 20
2958.307382463484
 30
0.0
 40
23.39999999999999
100
AcDbArc
 50
121.6522409643406
 51
210.0000000000215
  0
LINE
  5
2D240
330
17
100
AcDbEntity
  8
ZUKEI
 62
     7
370
    25
100
AcDbLine
 10
662.3107619286411
 20
2924.139896670713
 30
0.0
 11
656.0558975510812
 21
2934.973639567099
 31
0.0
  0
LINE
  5
2D241
330
17
100
AcDbEntity
  8
ZUKEI
 62
     7
370
    25
100
AcDbLine
 10
663.6964025746965
 20
2924.939896670712
 30
0.0
 11
657.4415381971366
 21
2935.7736395671
 31
0.0
  0
LINE
  5
2D242
330
17
100
AcDbEntity
  8
ZUKEI
 62
     7
370
    25
100
AcDbLine
 10
684.8514509717241
 20
2937.28047341007
 30
0.0
 11
663.8659635408103
 21
2925.164496592755
 31
0.0
  0
LINE
  5
2D243
330
17
100
AcDbEntity
  8
ZUKEI
 62
     7
370
    25
100
AcDbLine
 10
685.6514509717244
 20
2935.894832764013
 30
0.0
 11
664.6659635408105
 21
2923.778855946701
 31
0.0
  0
LINE
  5
2D244
330
17
100
AcDbEntity
  8
ZUKEI
 62
     7
370
    25
100
AcDbLine
 10
649.8010331735213
 20
2945.807382463486
 30
0.0
 11
656.0558975510812
 21
2934.973639567099
 31
0.0
  0
LINE
  5
2D245
330
17
100
AcDbEntity
  8
ZUKEI
 62
     7
370
    25
100
AcDbLine
 10
651.1866738195758
 20
2946.607382463485
 30
0.0
 11
657.4415381971366
 21
2935.7736395671
 31
0.0
  0
CIRCLE
  5
2D246
330
17
100
AcDbEntity
  8
ZUKEI
 62
     7
370
    25
100
AcDbCircle
 10
669.0462786078478
 20
2942.473639567098
 30
0.0
 40
8.0
  0
LINE
  5
2D247
330
17
100
AcDbEntity
  8
ZUKEI
 62
     7
370
    25
100
AcDbLine
 10
711.0482219792563
 20
2923.422202689847
 30
0.0
 11
695.8525812150972
 21
2914.648995404152
 31
0.0
  0
LINE
  5
2D248
330
17
100
AcDbEntity
  8
ZUKEI
 62
     7
370
    25
100
AcDbLine
 10
710.0777169922267
 20
2924.709402235742
 30
0.0
 11
695.0525812150981
 21
2916.034636050206
 31
0.0
  0
ARC
  5
2D249
330
17
100
AcDbEntity
  8
ZUKEI
 62
     7
370
    25
100
AcDbCircle
 10
705.1251169327342
 20
2945.98325851033
 30
0.0
 40
15.0
100
AcDbArc
 50
210.0000000000215
 51
271.4167296689018
  0
ARC
  5
2D24A
330
17
100
AcDbEntity
  8
ZUKEI
 62
     7
370
    25
100
AcDbCircle
 10
705.1251169327342
 20
2945.98325851033
 30
0.0
 40
13.4
100
AcDbArc
 50
210.0000000000215
 51
266.7066859622378
  0
CIRCLE
  5
2D24B
330
17
100
AcDbEntity
  8
ZUKEI
 62
     7
370
    25
100
AcDbCircle
 10
767.6455509891684
 20
3224.973639567102
 30
0.0
 40
2.5
  0
LINE
  5
2D24C
330
17
100
AcDbEntity
  8
ZUKEI
 62
     7
370
    25
100
AcDbLine
 10
757.6455509891684
 20
3234.973639567102
 30
0.0
 11
757.6455509891684
 21
3214.973639567102
 31
0.0
  0
LINE
  5
2D24D
330
17
100
AcDbEntity
  8
ZUKEI
 62
     7
370
    25
100
AcDbLine
 10
789.1455509891684
 20
3234.973639567102
 30
0.0
 11
789.1455509891684
 21
3214.973639567102
 31
0.0
  0
LINE
  5
2D24E
330
17
100
AcDbEntity
  8
ZUKEI
 62
     7
370
    25
100
AcDbLine
 10
881.1455509891684
 20
3234.973639567102
 30
0.0
 11
881.1455509891684
 21
3214.973639567102
 31
0.0
  0
CIRCLE
  5
2D24F
330
17
100
AcDbEntity
  8
ZUKEI
 62
     7
370
    25
100
AcDbCircle
 10
902.6455509891684
 20
3224.973639567101
 30
0.0
 40
2.5
  0
LINE
  5
2D250
330
17
100
AcDbEntity
  8
ZUKEI
 62
     7
370
    25
100
AcDbLine
 10
912.6455509891684
 20
3234.973639567102
 30
0.0
 11
912.6455509891684
 21
3214.973639567102
 31
0.0
  0
CIRCLE
  5
2D251
330
17
100
AcDbEntity
  8
ZUKEI
 62
     7
370
    25
100
AcDbCircle
 10
985.1455509891684
 20
3124.973639567101
 30
0.0
 40
13.6
  0
CIRCLE
  5
2D252
330
17
100
AcDbEntity
  8
ZUKEI
 62
     7
370
    25
100
AcDbCircle
 10
985.1455509891684
 20
3124.973639567101
 30
0.0
 40
18.0
  0
ARC
  5
2D253
330
17
100
AcDbEntity
  8
ZUKEI
 62
     7
370
    25
100
AcDbCircle
 10
972.6358222340468
 20
3480.973639567098
 30
0.0
 40
25.0
100
AcDbArc
 50
90.0
 51
178.4015084429456
  0
ARC
  5
2D254
330
17
100
AcDbEntity
  8
ZUKEI
 62
     7
370
    25
100
AcDbCircle
 10
972.6358222340468
 20
3480.973639567098
 30
0.0
 40
23.39999999999999
100
AcDbArc
 50
90.0
 51
178.3477590356371
  0
LINE
  5
2D255
330
17
100
AcDbEntity
  8
ZUKEI
 62
     7
370
    25
100
AcDbLine
 10
971.1455509891704
 20
3479.882541867308
 30
0.0
 11
971.1455509891704
 21
3504.114495501934
 31
0.0
  0
LINE
  5
2D256
330
17
100
AcDbEntity
  8
ZUKEI
 62
     7
370
    25
100
AcDbLine
 10
972.7455509891688
 20
3479.882541867306
 30
0.0
 11
972.7455509891706
 21
3504.114495501934
 31
0.0
  0
CIRCLE
  5
2D257
330
17
100
AcDbEntity
  8
ZUKEI
 62
     7
370
    25
100
AcDbCircle
 10
985.1455509891684
 20
3490.973639567099
 30
0.0
 40
8.0
  0
ARC
  5
2D258
330
17
100
AcDbEntity
  8
ZUKEI
 62
     7
370
    25
100
AcDbCircle
 10
997.6552797442883
 20
3480.973639567098
 30
0.0
 40
25.0
100
AcDbArc
 50
1.598491557047823
 51
90.0
  0
ARC
  5
2D259
330
17
100
AcDbEntity
  8
ZUKEI
 62
     7
370
    25
100
AcDbCircle
 10
997.6552797442883
 20
3480.973639567098
 30
0.0
 40
23.39999999999999
100
AcDbArc
 50
1.652240964362917
 51
90.0
  0
LINE
  5
2D25A
330
17
100
AcDbEntity
  8
ZUKEI
 62
     7
370
    25
100
AcDbLine
 10
999.1455509891702
 20
3479.882541867306
 30
0.0
 11
999.1455509891702
 21
3504.114495501934
 31
0.0
  0
LINE
  5
2D25B
330
17
100
AcDbEntity
  8
ZUKEI
 62
     7
370
    25
100
AcDbLine
 10
997.5455509891698
 20
3479.882541867306
 30
0.0
 11
997.5455509891698
 21
3504.114495501934
 31
0.0
  0
LINE
  5
2D25C
330
17
100
AcDbEntity
  8
ZUKEI
 62
     7
370
    25
100
AcDbLine
 10
1000.14555098917
 20
3472.973639567102
 30
0.0
 11
970.1455509891703
 21
3472.973639567102
 31
0.0
  0
LINE
  5
2D25D
330
17
100
AcDbEntity
  8
ZUKEI
 62
     7
370
    25
100
AcDbLine
 10
1000.14555098917
 20
3471.373639567099
 30
0.0
 11
970.1455509891703
 21
3471.373639567099
 31
0.0
  0
ARC
  5
2D25E
330
17
100
AcDbEntity
  8
ZUKEI
 62
     7
370
    25
100
AcDbCircle
 10
963.1455509891663
 20
3479.882541867306
 30
0.0
 40
9.599999999999999
100
AcDbArc
 50
287.7189318734098
 51
0.0
  0
ARC
  5
2D25F
330
17
100
AcDbEntity
  8
ZUKEI
 62
     7
370
    25
100
AcDbCircle
 10
970.1455509891664
 20
3457.973639567099
 30
0.0
 40
15.0
100
AcDbArc
 50
90.0
 51
151.4167296688781
  0
ARC
  5
2D260
330
17
100
AcDbEntity
  8
ZUKEI
 62
     7
370
    25
100
AcDbCircle
 10
970.1455509891664
 20
3457.973639567099
 30
0.0
 40
13.4
100
AcDbArc
 50
90.0
 51
146.7066859622632
  0
ARC
  5
2D261
330
17
100
AcDbEntity
  8
ZUKEI
 62
     7
370
    25
100
AcDbCircle
 10
963.1455509891663
 20
3479.882541867306
 30
0.0
 40
8.0
100
AcDbArc
 50
287.7189318734098
 51
0.0
  0
LINE
  5
2D262
330
17
100
AcDbEntity
  8
ZUKEI
 62
     7
370
    25
100
AcDbLine
 10
949.2455509891708
 20
3464.32149023809
 30
0.0
 11
949.2455509891708
 21
3481.671022609162
 31
0.0
  0
LINE
  5
2D263
330
17
100
AcDbEntity
  8
ZUKEI
 62
     7
370
    25
100
AcDbLine
 10
947.6455509891703
 20
3464.124608037772
 30
0.0
 11
947.6455509891703
 21
3481.671022609162
 31
0.0
  0
ARC
  5
2D264
330
17
100
AcDbEntity
  8
ZUKEI
 62
     7
370
    25
100
AcDbCircle
 10
1007.145550989168
 20
3479.882541867306
 30
0.0
 40
9.599999999999999
100
AcDbArc
 50
180.0
 51
252.2810681265901
  0
ARC
  5
2D265
330
17
100
AcDbEntity
  8
ZUKEI
 62
     7
370
    25
100
AcDbCircle
 10
1007.145550989168
 20
3479.882541867306
 30
0.0
 40
8.0
100
AcDbArc
 50
180.0
 51
252.2810681265901
  0
ARC
  5
2D266
330
17
100
AcDbEntity
  8
ZUKEI
 62
     7
370
    25
100
AcDbCircle
 10
1000.145550989168
 20
3457.973639567099
 30
0.0
 40
13.4
100
AcDbArc
 50
33.29331403773678
 51
90.0
  0
ARC
  5
2D267
330
17
100
AcDbEntity
  8
ZUKEI
 62
     7
370
    25
100
AcDbCircle
 10
1000.145550989168
 20
3457.973639567099
 30
0.0
 40
15.0
100
AcDbArc
 50
28.58327033112187
 51
90.0
  0
LINE
  5
2D268
330
17
100
AcDbEntity
  8
ZUKEI
 62
     7
370
    25
100
AcDbLine
 10
1021.04555098917
 20
3464.32149023809
 30
0.0
 11
1021.04555098917
 21
3481.671022609164
 31
0.0
  0
LINE
  5
2D269
330
17
100
AcDbEntity
  8
ZUKEI
 62
     7
370
    25
100
AcDbLine
 10
1022.64555098917
 20
3464.124608037772
 30
0.0
 11
1022.64555098917
 21
3481.671022609162
 31
0.0
  0
LINE
  5
2D26A
330
17
100
AcDbEntity
  8
ZUKEI
 62
     7
370
    25
100
AcDbLine
 10
972.6358222340486
 20
3505.973639567101
 30
0.0
 11
985.1455509891703
 21
3505.973639567101
 31
0.0
  0
LINE
  5
2D26B
330
17
100
AcDbEntity
  8
ZUKEI
 62
     7
370
    25
100
AcDbLine
 10
972.6358222340504
 20
3504.373639567101
 30
0.0
 11
985.1455509891703
 21
3504.373639567101
 31
0.0
  0
LINE
  5
2D26C
330
17
100
AcDbEntity
  8
ZUKEI
 62
     7
370
    25
100
AcDbLine
 10
997.65527974429
 20
3505.973639567101
 30
0.0
 11
985.1455509891703
 21
3505.973639567101
 31
0.0
  0
LINE
  5
2D26D
330
17
100
AcDbEntity
  8
ZUKEI
 62
     7
370
    25
100
AcDbLine
 10
997.65527974429
 20
3504.373639567101
 30
0.0
 11
985.1455509891703
 21
3504.373639567101
 31
0.0
  0
LINE
  5
2D26E
330
17
100
AcDbEntity
  8
ZUKEI
 62
     7
370
    25
100
AcDbLine
 10
1212.645550989168
 20
3216.973639567102
 30
0.0
 11
1057.645550989168
 21
3216.973639567102
 31
0.0
  0
LINE
  5
2D26F
330
17
100
AcDbEntity
  8
ZUKEI
 62
     7
370
    25
100
AcDbLine
 10
1212.645550989168
 20
3232.973639567102
 30
0.0
 11
1057.645550989168
 21
3232.973639567102
 31
0.0
  0
LINE
  5
2D270
330
17
100
AcDbEntity
  8
ZUKEI
 62
     7
370
    25
100
AcDbLine
 10
1212.645550989168
 20
3214.973639567102
 30
0.0
 11
1057.645550989168
 21
3214.973639567102
 31
0.0
  0
LINE
  5
2D271
330
17
100
AcDbEntity
  8
ZUKEI
 62
     7
370
    25
100
AcDbLine
 10
1212.645550989168
 20
3234.973639567102
 30
0.0
 11
1057.645550989168
 21
3234.973639567102
 31
0.0
  0
CIRCLE
  5
2D272
330
17
100
AcDbEntity
  8
ZUKEI
 62
     7
370
    25
100
AcDbCircle
 10
1067.645550989168
 20
3224.973639567102
 30
0.0
 40
2.5
  0
LINE
  5
2D273
330
17
100
AcDbEntity
  8
ZUKEI
 62
     7
370
    25
100
AcDbLine
 10
1057.645550989168
 20
3234.973639567102
 30
0.0
 11
1057.645550989168
 21
3214.973639567102
 31
0.0
  0
LINE
  5
2D274
330
17
100
AcDbEntity
  8
ZUKEI
 62
     7
370
    25
100
AcDbLine
 10
1089.145550989168
 20
3234.973639567102
 30
0.0
 11
1089.145550989168
 21
3214.973639567102
 31
0.0
  0
LINE
  5
2D275
330
17
100
AcDbEntity
  8
ZUKEI
 62
     7
370
    25
100
AcDbLine
 10
1181.145550989168
 20
3234.973639567102
 30
0.0
 11
1181.145550989168
 21
3214.973639567102
 31
0.0
  0
CIRCLE
  5
2D276
330
17
100
AcDbEntity
  8
ZUKEI
 62
     7
370
    25
100
AcDbCircle
 10
1202.645550989168
 20
3224.973639567103
 30
0.0
 40
2.5
  0
LINE
  5
2D277
330
17
100
AcDbEntity
  8
ZUKEI
 62
     7
370
    25
100
AcDbLine
 10
1212.645550989168
 20
3234.973639567102
 30
0.0
 11
1212.645550989168
 21
3214.973639567102
 31
0.0
  0
LINE
  5
2D278
330
17
100
AcDbEntity
  8
ZUKEI
 62
     7
370
    25
100
AcDbLine
 10
1276.770725456314
 20
2939.283258510333
 30
0.0
 11
1291.770725456314
 21
2965.264020623866
 31
0.0
  0
ARC
  5
2D279
330
17
100
AcDbEntity
  8
ZUKEI
 62
     7
370
    25
100
AcDbCircle
 10
1280.639651006612
 20
2928.966629533736
 30
0.0
 40
8.0
100
AcDbArc
 50
59.99999999999946
 51
132.2810681265669
  0
ARC
  5
2D27A
330
17
100
AcDbEntity
  8
ZUKEI
 62
     7
370
    25
100
AcDbCircle
 10
1286.329704955084
 20
2936.63989667071
 30
0.0
 40
25.0
100
AcDbArc
 50
241.5984915570757
 51
329.9999999999783
  0
ARC
  5
2D27B
330
17
100
AcDbEntity
  8
ZUKEI
 62
     7
370
    25
100
AcDbCircle
 10
1286.329704955084
 20
2936.63989667071
 30
0.0
 40
23.39999999999999
100
AcDbArc
 50
241.6522409643749
 51
329.9999999999783
  0
ARC
  5
2D27C
330
17
100
AcDbEntity
  8
ZUKEI
 62
     7
370
    25
100
AcDbCircle
 10
1280.639651006612
 20
2928.966629533736
 30
0.0
 40
9.599999999999999
100
AcDbArc
 50
59.99999999999946
 51
132.2810681265669
  0
LINE
  5
2D27D
330
17
100
AcDbEntity
  8
ZUKEI
 62
     7
370
    25
100
AcDbLine
 10
1278.156366102369
 20
2938.483258510331
 30
0.0
 11
1293.156366102369
 21
2964.464020623865
 31
0.0
  0
ARC
  5
2D27E
330
17
100
AcDbEntity
  8
ZUKEI
 62
     7
370
    25
100
AcDbCircle
 10
1265.165985045602
 20
2945.98325851033
 30
0.0
 40
15.0
100
AcDbArc
 50
268.5832703310981
 51
329.9999999999783
  0
LINE
  5
2D27F
330
17
100
AcDbEntity
  8
ZUKEI
 62
     7
370
    25
100
AcDbLine
 10
1259.242879999082
 20
2923.422202689847
 30
0.0
 11
1274.438520763239
 21
2914.648995404152
 31
0.0
  0
LINE
  5
2D280
330
17
100
AcDbEntity
  8
ZUKEI
 62
     7
370
    25
100
AcDbLine
 10
1260.21338498611
 20
2924.709402235742
 30
0.0
 11
1275.23852076324
 21
2916.034636050206
 31
0.0
  0
ARC
  5
2D281
330
17
100
AcDbEntity
  8
ZUKEI
 62
     7
370
    25
100
AcDbCircle
 10
1265.165985045602
 20
2945.98325851033
 30
0.0
 40
13.4
100
AcDbArc
 50
273.293314037762
 51
329.9999999999783
  0
ARC
  5
2D282
330
17
100
AcDbEntity
  8
ZUKEI
 62
     7
370
    25
100
AcDbCircle
 10
1298.839433710204
 20
2958.307382463484
 30
0.0
 40
25.0
100
AcDbArc
 50
329.9999999999783
 51
58.40150844297548
  0
ARC
  5
2D283
330
17
100
AcDbEntity
  8
ZUKEI
 62
     7
370
    25
100
AcDbCircle
 10
1298.839433710204
 20
2958.307382463484
 30
0.0
 40
23.39999999999999
100
AcDbArc
 50
329.9999999999783
 51
58.34775903565938
  0
ARC
  5
2D284
330
17
100
AcDbEntity
  8
ZUKEI
 62
     7
370
    25
100
AcDbCircle
 10
1280.165985045601
 20
2971.964020623864
 30
0.0
 40
15.0
100
AcDbArc
 50
329.9999999999783
 51
31.41672966891721
  0
ARC
  5
2D285
330
17
100
AcDbEntity
  8
ZUKEI
 62
     7
370
    25
100
AcDbCircle
 10
1280.165985045601
 20
2971.964020623864
 30
0.0
 40
13.4
100
AcDbArc
 50
329.9999999999783
 51
26.70668596221289
  0
ARC
  5
2D286
330
17
100
AcDbEntity
  8
ZUKEI
 62
     7
370
    25
100
AcDbCircle
 10
1302.639651006612
 20
2967.071747300252
 30
0.0
 40
9.599999999999999
100
AcDbArc
 50
167.7189318733941
 51
239.9999999999994
  0
ARC
  5
2D287
330
17
100
AcDbEntity
  8
ZUKEI
 62
     7
370
    25
100
AcDbCircle
 10
1302.639651006612
 20
2967.071747300252
 30
0.0
 40
8.0
100
AcDbArc
 50
167.7189318733941
 51
239.9999999999994
  0
LINE
  5
2D288
330
17
100
AcDbEntity
  8
ZUKEI
 62
     7
370
    25
100
AcDbLine
 10
1296.742879999082
 20
2988.374107973679
 30
0.0
 11
1311.938520763239
 21
2979.600900687985
 31
0.0
  0
LINE
  5
2D289
330
17
100
AcDbEntity
  8
ZUKEI
 62
     7
370
    25
100
AcDbLine
 10
1296.113384986109
 20
2986.890026227465
 30
0.0
 11
1311.138520763238
 21
2978.21526004193
 31
0.0
  0
LINE
  5
2D28A
330
17
100
AcDbEntity
  8
ZUKEI
 62
     7
370
    25
100
AcDbLine
 10
1298.639651006614
 20
2960.143544069979
 30
0.0
 11
1319.625138437527
 21
2948.027567252666
 31
0.0
  0
LINE
  5
2D28B
330
17
100
AcDbEntity
  8
ZUKEI
 62
     7
370
    25
100
AcDbLine
 10
1297.839651006613
 20
2958.757903423923
 30
0.0
 11
1318.825138437528
 21
2946.641926606609
 31
0.0
  0
LINE
  5
2D28C
330
17
100
AcDbEntity
  8
ZUKEI
 62
     7
370
    25
100
AcDbLine
 10
1307.980340049695
 20
2924.139896670713
 30
0.0
 11
1314.235204427256
 21
2934.973639567099
 31
0.0
  0
LINE
  5
2D28D
330
17
100
AcDbEntity
  8
ZUKEI
 62
     7
370
    25
100
AcDbLine
 10
1306.594699403641
 20
2924.939896670712
 30
0.0
 11
1312.849563781202
 21
2935.7736395671
 31
0.0
  0
LINE
  5
2D28E
330
17
100
AcDbEntity
  8
ZUKEI
 62
     7
370
    25
100
AcDbLine
 10
1284.639651006614
 20
2935.894832764013
 30
0.0
 11
1305.625138437527
 21
2923.778855946701
 31
0.0
  0
LINE
  5
2D28F
330
17
100
AcDbEntity
  8
ZUKEI
 62
     7
370
    25
100
AcDbLine
 10
1285.439651006613
 20
2937.28047341007
 30
0.0
 11
1306.425138437526
 21
2925.164496592755
 31
0.0
  0
CIRCLE
  5
2D290
330
17
100
AcDbEntity
  8
ZUKEI
 62
     7
370
    25
100
AcDbCircle
 10
1301.244823370488
 20
2942.473639567098
 30
0.0
 40
8.0
  0
LINE
  5
2D291
330
17
100
AcDbEntity
  8
ZUKEI
 62
     7
370
    25
100
AcDbLine
 10
1320.490068804817
 20
2945.807382463486
 30
0.0
 11
1314.235204427256
 21
2934.973639567099
 31
0.0
  0
LINE
  5
2D292
330
17
100
AcDbEntity
  8
ZUKEI
 62
     7
370
    25
100
AcDbLine
 10
1319.104428158761
 20
2946.607382463485
 30
0.0
 11
1312.849563781202
 21
2935.7736395671
 31
0.0
  0
MTEXT
  5
2D293
330
17
100
AcDbEntity
  8
DIM
 62
     7
370
    18
100
AcDbMText
 10
1616.476832930168
 20
3116.697436055438
 30
0.0
 40
48.0
 41
0.0
 71
     5
 72
     1
  1
（最大奥行き寸法）
 11
-0.0000000000000003
 21
1.0
 31
0.0
 73
     1
 44
1.0
  0
DIMENSION
  5
2D4B1
330
17
100
AcDbEntity
  8
DIM
 62
     7
370
    18
100
AcDbDimension
  2
*D16
 10
2234.292266163014
 20
2665.321656219477
 30
0.0
 11
2664.400440604733
 21
3458.837969023805
 31
0.0
 70
    35
 71
     5
 42
730.0
  3
STANDARD
100
AcDbDiametricDimension
 15
2609.564474870094
 25
3291.477203485578
 35
0.0
 40
0.0
1001
ACAD
1000
DSTYLE
1002
{
1070
    41
1040
3.0
1070
    42
1040
2.0
1070
    43
1040
10.0
1070
    44
1040
2.0
1070
    73
1070
     0
1070
    74
1070
     0
1070
    77
1070
     1
1070
    78
1070
     8
1070
    79
1070
     2
1070
   140
1040
3.2
1070
   147
1040
0.9999999999999996
1070
   172
1070
     1
1070
   179
1070
     8
1070
   271
1070
     8
1070
   272
1070
     8
1070
   288
1070
     1
1070
   341
1005
4A
1070
   342
1005
4A
1002
}
  0
ARC
  5
2D4B2
330
17
100
AcDbEntity
  8
CEN
 62
     7
370
    25
100
AcDbCircle
 10
2421.928370516567
 20
2978.399429852529
 30
0.0
 40
365.0
100
AcDbArc
 50
314.0992026432205
 51
345.9007973567731
  0
ARC
  5
2D4B3
330
17
100
AcDbEntity
  8
CEN
 62
     7
370
    25
100
AcDbCircle
 10
2421.928370516555
 20
2978.399429852529
 30
0.0
 40
365.0
100
AcDbArc
 50
194.0992026432267
 51
243.2261593689048
  0
LEADER
  5
2D4B4
330
17
100
AcDbEntity
  8
DIM
 62
     7
370
    18
100
AcDbLeader
  3
STANDARD
 74
     0
 40
51.2
 41
245.7599999999998
 76
     2
 10
2105.82909813524
 20
2795.899429852529
 30
0.0
 10
2081.347690376565
 20
2590.554599154589
 30
0.0
211
1.0
221
-0.0000000000000002
231
0.0
1001
ACAD
1000
DSTYLE
1002
{
1070
    41
1040
3.0
1070
    42
1040
2.0
1070
    43
1040
10.0
1070
    44
1040
2.0
1070
    73
1070
     0
1070
    74
1070
     0
1070
    77
1070
     1
1070
    78
1070
     8
1070
    79
1070
     2
1070
   140
1040
3.2
1070
   147
1040
0.9999999999999996
1070
   172
1070
     1
1070
   179
1070
     8
1070
   271
1070
     8
1070
   272
1070
     8
1070
   341
1005
5132
1070
   342
1005
4A
1002
}
  0
DIMENSION
  5
2D4B5
330
17
100
AcDbEntity
  8
DIM
 62
     7
370
    18
100
AcDbDimension
  2
*D17
 10
2421.928370516559
 20
2978.399429852529
 30
0.0
 11
2586.334350139372
 21
3073.319266444143
 31
0.0
 70
    34
 71
     5
 42
2.0943951023932
  3
STANDARD
100
AcDb2LineAngularDimension
 13
2421.928370516559
 23
2496.366833618837
 33
0.0
 14
2421.928370516559
 24
3378.399429852523
 34
0.0
 15
2747.370656857166
 25
2790.50523822809
 35
0.0
 16
2570.476450129232
 26
3004.592464220671
 36
0.0
1001
ACAD
1000
DSTYLE
1002
{
1070
    41
1040
3.0
1070
    42
1040
2.0
1070
    43
1040
10.0
1070
    44
1040
2.0
1070
    73
1070
     0
1070
    74
1070
     0
1070
    77
1070
     1
1070
    78
1070
     8
1070
    79
1070
     2
1070
   140
1040
3.2
1070
   147
1040
0.9999999999999996
1070
   172
1070
     1
1070
   179
1070
     8
1070
   271
1070
     8
1070
   272
1070
     8
1070
   341
1005
4A
1070
   342
1005
4A
1002
}
  0
DIMENSION
  5
2D4B6
330
17
100
AcDbEntity
  8
DIM
 62
     7
370
    18
100
AcDbDimension
  2
*D18
 10
2421.928370516559
 20
2978.399429852529
 30
0.0
 11
2257.522390893753
 21
3073.319266444141
 31
0.0
 70
    34
 71
     5
 42
2.094395102393197
  3
STANDARD
100
AcDb2LineAngularDimension
 13
2421.928370516559
 23
2496.366833618837
 33
0.0
 14
2421.928370516559
 24
3378.399429852523
 34
0.0
 15
2096.486084175954
 25
2790.50523822809
 35
0.0
 16
2324.970497545217
 26
3093.949323296421
 36
0.0
1001
ACAD
1000
DSTYLE
1002
{
1070
    41
1040
3.0
1070
    42
1040
2.0
1070
    43
1040
10.0
1070
    44
1040
2.0
1070
    73
1070
     0
1070
    74
1070
     0
1070
    77
1070
     1
1070
    78
1070
     8
1070
    79
1070
     2
1070
   140
1040
3.2
1070
   147
1040
0.9999999999999996
1070
   172
1070
     1
1070
   179
1070
     8
1070
   271
1070
     8
1070
   272
1070
     8
1070
   341
1005
4A
1070
   342
1005
4A
1002
}
  0
LINE
  5
2D4B7
330
17
100
AcDbEntity
  8
MCEN
 62
     7
370
    25
100
AcDbLine
 10
2421.928370516559
 20
2496.366833618837
 30
0.0
 11
2421.928370516559
 21
3408.399429852529
 31
0.0
  0
CIRCLE
  5
2D4B8
330
17
100
AcDbEntity
  8
ZUKEI
 62
     7
370
    25
100
AcDbCircle
 10
2421.928370516559
 20
2978.399429852529
 30
0.0
 40
340.5
  0
ARC
  5
2D4B9
330
17
100
AcDbEntity
  8
ZUKEI
 62
     7
370
    25
100
AcDbCircle
 10
2421.928370516559
 20
2974.673602045579
 30
0.0
 40
411.9999999999999
100
AcDbArc
 50
252.922145010765
 51
287.0778549892349
  0
ARC
  5
2D4BA
330
17
100
AcDbEntity
  8
ZUKEI
 62
     7
370
    25
100
AcDbCircle
 10
2421.928370516559
 20
2936.173602045577
 30
0.0
 40
302.5000000000001
100
AcDbArc
 50
243.9172091667248
 51
296.0827908332751
  0
LINE
  5
2D4BC
330
17
100
AcDbEntity
  8
DIM
 62
     7
370
    18
100
AcDbLine
 10
2012.089763186886
 20
2200.600452190371
 30
0.0
 11
2831.91613317083
 21
2200.60045219037
 31
0.0
  0
TEXT
  5
2D4BE
330
17
100
AcDbEntity
  8
DIM
 62
     7
370
    18
100
AcDbText
 10
2022.568370516559
 20
2216.346746443968
 30
0.0
 40
48.0
  1
基礎ボルトおよび配管位置図（上空図）
 41
0.8
 72
     1
 11
2421.928370516559
 21
2216.346746443968
 31
0.0
100
AcDbText
  0
LINE
  5
2D4BF
330
17
100
AcDbEntity
  8
DIM
 62
     7
370
    18
100
AcDbLine
 10
2081.347690376565
 20
2590.554599154589
 30
0.0
 11
1564.091116034201
 21
2590.55459915459
 31
0.0
  0
TEXT
  5
2D4C0
330
17
100
AcDbEntity
  8
DIM
 62
     7
370
    18
100
AcDbText
 10
1565.24632608529
 20
2600.17959915459
 30
0.0
 40
48.0
  1
3-M12アンカーボルト
 41
0.8
 11
1565.24632608529
 21
2624.17959915459
 31
0.0
100
AcDbText
 73
     2
  0
TEXT
  5
2D4C5
330
17
100
AcDbEntity
  8
DIM
 62
     7
370
    18
100
AcDbText
 10
1565.24632608529
 20
2532.830609775101
 30
0.0
 40
48.0
  1
（3-φ17穴）
 41
0.8
 11
1565.24632608529
 21
2556.830609775101
 31
0.0
100
AcDbText
 73
     2
  0
LINE
  5
2D4C6
330
17
100
AcDbEntity
  8
ZUKEI
 62
     7
370
    25
100
AcDbLine
 10
2164.11427683504
 20
2688.440708976621
 30
0.0
 11
2173.45802963783
 21
2699.576159947659
 31
0.0
  0
ARC
  5
2D4C7
330
17
100
AcDbEntity
  8
ZUKEI
 62
     7
370
    25
100
AcDbCircle
 10
2439.952125073705
 20
2998.502769666189
 30
0.0
 40
415.0
100
AcDbArc
 50
228.1220189339782
 51
231.8779810660445
  0
LINE
  5
2D4C8
330
17
100
AcDbEntity
  8
ZUKEI
 62
     7
370
    25
100
AcDbLine
 10
2162.920342065612
 20
2689.506991048811
 30
0.0
 11
2193.471452959042
 21
2725.916387213802
 31
0.0
  0
LINE
  5
2D4CA
330
17
100
AcDbEntity
  8
ZUKEI
 62
     7
370
    25
100
AcDbLine
 10
2183.756750918455
 20
2672.023168065345
 30
0.0
 11
2214.353331505081
 21
2708.486752900555
 31
0.0
  0
LINE
  5
2D4CB
330
17
100
AcDbEntity
  8
ZUKEI
 62
     7
370
    25
100
AcDbLine
 10
2182.499343469895
 20
2673.013806344145
 30
0.0
 11
2191.843096272685
 21
2684.149257315185
 31
0.0
  0
ARC
  5
2D4CC
330
17
100
AcDbEntity
  8
ZUKEI
 62
     7
370
    25
100
AcDbCircle
 10
2439.952125073705
 20
2998.502769666189
 30
0.0
 40
400.47
100
AcDbArc
 50
228.1220189339782
 51
231.8779810660445
  0
LINE
  5
2D4CD
330
17
100
AcDbEntity
  8
ZUKEI
 62
     7
370
    25
100
AcDbLine
 10
2288.928370516559
 20
2597.090498610055
 30
0.0
 11
2288.928370516559
 21
2664.480300692749
 31
0.0
  0
ARC
  5
2D4CE
330
17
100
AcDbEntity
  8
ZUKEI
 62
     7
370
    25
100
AcDbCircle
 10
2305.928370516562
 20
2597.090498610055
 30
0.0
 40
17.0
100
AcDbArc
 50
180.0
 51
252.922145010765
  0
CIRCLE
  5
2D4CF
330
17
100
AcDbEntity
  8
ZUKEI
 62
     7
370
    25
100
AcDbCircle
 10
2331.92837051656
 20
2612.673602045579
 30
0.0
 40
15.5
  0
CIRCLE
  5
2D4D0
330
17
100
AcDbEntity
  8
ZUKEI
 62
     7
370
    25
100
AcDbCircle
 10
2331.92837051656
 20
2612.673602045579
 30
0.0
 40
9.5
  0
CIRCLE
  5
2D4D4
330
17
100
AcDbEntity
  8
ZUKEI
 62
     7
370
    25
100
AcDbCircle
 10
2421.928370516559
 20
2597.673602045579
 30
0.0
 40
15.5
  0
CIRCLE
  5
2D4D5
330
17
100
AcDbEntity
  8
ZUKEI
 62
     7
370
    25
100
AcDbCircle
 10
2421.928370516559
 20
2597.673602045579
 30
0.0
 40
9.5
  0
LINE
  5
2D4D6
330
17
100
AcDbEntity
  8
ZUKEI
 62
     7
370
    25
100
AcDbLine
 10
2554.928370516559
 20
2597.090498610058
 30
0.0
 11
2554.928370516559
 21
2664.480300692753
 31
0.0
  0
CIRCLE
  5
2D4D7
330
17
100
AcDbEntity
  8
ZUKEI
 62
     7
370
    25
100
AcDbCircle
 10
2511.928370516562
 20
2612.673602045579
 30
0.0
 40
9.5
  0
CIRCLE
  5
2D4D8
330
17
100
AcDbEntity
  8
ZUKEI
 62
     7
370
    25
100
AcDbCircle
 10
2511.928370516562
 20
2612.673602045579
 30
0.0
 40
15.5
  0
ARC
  5
2D4D9
330
17
100
AcDbEntity
  8
ZUKEI
 62
     7
370
    25
100
AcDbCircle
 10
2537.92837051656
 20
2597.090498610058
 30
0.0
 40
17.0
100
AcDbArc
 50
287.0778549892349
 51
0.0
  0
LINE
  5
2D4DA
330
17
100
AcDbEntity
  8
ZUKEI
 62
     7
370
    25
100
AcDbLine
 10
2660.099990114668
 20
2672.023168065345
 30
0.0
 11
2629.50340952804
 21
2708.486752900557
 31
0.0
  0
ARC
  5
2D4DB
330
17
100
AcDbEntity
  8
ZUKEI
 62
     7
370
    25
100
AcDbCircle
 10
2403.904615959418
 20
2998.502769666189
 30
0.0
 40
400.47
100
AcDbArc
 50
308.1220189339554
 51
311.8779810660218
  0
LINE
  5
2D4DC
330
17
100
AcDbEntity
  8
ZUKEI
 62
     7
370
    25
100
AcDbLine
 10
2661.35739756323
 20
2673.013806344145
 30
0.0
 11
2652.013644760438
 21
2684.149257315185
 31
0.0
  0
LINE
  5
2D4DD
330
17
100
AcDbEntity
  8
ZUKEI
 62
     7
370
    25
100
AcDbLine
 10
2680.936398967511
 20
2689.506991048811
 30
0.0
 11
2650.385288074087
 21
2725.916387213795
 31
0.0
  0
ARC
  5
2D4DE
330
17
100
AcDbEntity
  8
ZUKEI
 62
     7
370
    25
100
AcDbCircle
 10
2403.904615959418
 20
2998.502769666189
 30
0.0
 40
415.0
100
AcDbArc
 50
308.1220189339554
 51
311.8779810660218
  0
LINE
  5
2D4DF
330
17
100
AcDbEntity
  8
ZUKEI
 62
     7
370
    25
100
AcDbLine
 10
2679.742464198085
 20
2688.440708976621
 30
0.0
 11
2670.398711395293
 21
2699.576159947659
 31
0.0
  0
ARC
  5
2D4E0
330
17
100
AcDbEntity
  8
CEN
 62
     7
370
    25
100
AcDbCircle
 10
2421.928370516555
 20
2978.399429852529
 30
0.0
 40
365.0
100
AcDbArc
 50
56.77384063106145
 51
105.9007973567968
  0
DIMENSION
  5
2D4E1
330
17
100
AcDbEntity
  8
DIM
 62
     7
370
    18
100
AcDbDimension
  2
*D19
 10
2738.02764289788
 20
3549.668391293538
 30
0.0
 11
2421.928370516559
 21
3549.668391293538
 31
0.0
 70
   160
  1
633
 71
     5
 42
632.1985447626412
  3
STANDARD
100
AcDbAlignedDimension
 13
2105.82909813524
 23
2795.899429852529
 33
0.0
 14
2738.02764289788
 24
2795.899429852528
 34
0.0
100
AcDbRotatedDimension
1001
ACAD
1000
DSTYLE
1002
{
1070
    41
1040
3.0
1070
    42
1040
2.0
1070
    43
1040
10.0
1070
    44
1040
2.0
1070
    73
1070
     0
1070
    74
1070
     0
1070
    77
1070
     1
1070
    78
1070
     8
1070
    79
1070
     2
1070
   140
1040
3.2
1070
   147
1040
0.9999999999999996
1070
   172
1070
     1
1070
   179
1070
     8
1070
   271
1070
     0
1070
   272
1070
     8
1070
   341
1005
4A
1070
   342
1005
4A
1002
}
  0
LINE
  5
2D4E2
330
17
100
AcDbEntity
  8
CEN
 62
     7
370
    25
100
AcDbLine
 10
2049.537446889253
 20
2763.399429852527
 30
0.0
 11
2421.928370516559
 21
2978.399429852529
 31
0.0
  0
LINE
  5
2D4E3
330
17
100
AcDbEntity
  8
MCEN
 62
     7
370
    25
100
AcDbLine
 10
2031.928370516554
 20
2978.399429852529
 30
0.0
 11
2811.928370516556
 21
2978.399429852529
 31
0.0
  0
LINE
  5
2D4E4
330
17
100
AcDbEntity
  8
DASH
 62
     7
370
    18
100
AcDbLine
 10
2208.583562302329
 20
2811.923477210611
 30
0.0
 11
2147.831041506648
 21
2776.847992975276
 31
0.0
  0
LINE
  5
2D4E5
330
17
100
AcDbEntity
  8
DASH
 62
     7
370
    18
100
AcDbLine
 10
2208.251350720002
 20
2813.579195625533
 30
0.0
 11
2146.86053651962
 21
2778.135192521171
 31
0.0
  0
LINE
  5
2D4E6
330
17
100
AcDbEntity
  8
DASH
 62
     7
370
    18
100
AcDbLine
 10
2198.77138447584
 20
2814.918667738995
 30
0.0
 11
2149.407936460127
 21
2786.418667738995
 31
0.0
  0
LINE
  5
2D4E7
330
17
100
AcDbEntity
  8
DASH
 62
     7
370
    18
100
AcDbLine
 10
2197.971384475839
 20
2816.30430838505
 30
0.0
 11
2148.607936460126
 21
2787.804308385049
 31
0.0
  0
CIRCLE
  5
2D4E8
330
17
100
AcDbEntity
  8
DASH
 62
     7
370
    18
100
AcDbCircle
 10
2170.781003419073
 20
2833.399429852529
 30
0.0
 40
5.5
  0
LINE
  5
2D4E9
330
17
100
AcDbEntity
  8
DASH
 62
     7
370
    18
100
AcDbLine
 10
2171.083562302329
 20
2876.875382494445
 30
0.0
 11
2110.331041506648
 21
2841.799898259108
 31
0.0
  0
LINE
  5
2D4EA
330
17
100
AcDbEntity
  8
DASH
 62
     7
370
    18
100
AcDbLine
 10
2172.35135072
 20
2875.759819617256
 30
0.0
 11
2110.960536519618
 21
2840.315816512894
 31
0.0
  0
LINE
  5
2D4EB
330
17
100
AcDbEntity
  8
DASH
 62
     7
370
    18
100
AcDbLine
 10
2168.77138447584
 20
2866.88019196606
 30
0.0
 11
2119.407936460127
 21
2838.380191966061
 31
0.0
  0
LINE
  5
2D4EC
330
17
100
AcDbEntity
  8
DASH
 62
     7
370
    18
100
AcDbLine
 10
2169.571384475839
 20
2865.494551320006
 30
0.0
 11
2120.207936460126
 21
2836.994551320007
 31
0.0
  0
LINE
  5
2D4ED
330
17
100
AcDbEntity
  8
ZUKEI
 62
     7
370
    25
100
AcDbLine
 10
2130.303196049414
 20
2792.709048795761
 30
0.0
 11
2115.303196049415
 21
2818.689810909295
 31
0.0
  0
LINE
  5
2D4EE
330
17
100
AcDbEntity
  8
ZUKEI
 62
     7
370
    25
100
AcDbLine
 10
2128.917555403361
 20
2791.909048795761
 30
0.0
 11
2113.91755540336
 21
2817.889810909294
 31
0.0
  0
LINE
  5
2D4EF
330
17
100
AcDbEntity
  8
ZUKEI
 62
     7
370
    25
100
AcDbLine
 10
2122.434270499117
 20
2789.320623049443
 30
0.0
 11
2101.448783068203
 21
2777.204646232129
 31
0.0
  0
ARC
  5
2D4F0
330
17
100
AcDbEntity
  8
ZUKEI
 62
     7
370
    25
100
AcDbCircle
 10
2120.744216550643
 20
2790.065686956141
 30
0.0
 40
23.39999999999999
100
AcDbArc
 50
210.0000000000103
 51
298.347759035622
  0
ARC
  5
2D4F1
330
17
100
AcDbEntity
  8
ZUKEI
 62
     7
370
    25
100
AcDbCircle
 10
2120.744216550643
 20
2790.065686956141
 30
0.0
 40
25.0
100
AcDbArc
 50
210.0000000000103
 51
298.4015084429366
  0
LINE
  5
2D4F2
330
17
100
AcDbEntity
  8
ZUKEI
 62
     7
370
    25
100
AcDbLine
 10
2121.634270499116
 20
2790.706263695498
 30
0.0
 11
2100.648783068201
 21
2778.590286878184
 31
0.0
  0
ARC
  5
2D4F3
330
17
100
AcDbEntity
  8
DASH
 62
     7
370
    18
100
AcDbCircle
 10
2126.907936460127
 20
2825.389810909296
 30
0.0
 40
15.0
100
AcDbArc
 50
119.9999999999973
 51
148.5832703310939
  0
ARC
  5
2D4F4
330
17
100
AcDbEntity
  8
DASH
 62
     7
370
    18
100
AcDbCircle
 10
2126.907936460127
 20
2825.389810909296
 30
0.0
 40
13.4
100
AcDbArc
 50
119.9999999999973
 51
153.2933140377811
  0
ARC
  5
2D4F5
330
17
100
AcDbEntity
  8
ZUKEI
 62
     7
370
    25
100
AcDbCircle
 10
2104.434270499115
 20
2820.497537585683
 30
0.0
 40
8.0
100
AcDbArc
 50
299.9999999999972
 51
12.2810681265804
  0
ARC
  5
2D4F6
330
17
100
AcDbEntity
  8
ZUKEI
 62
     7
370
    25
100
AcDbCircle
 10
2104.434270499115
 20
2820.497537585683
 30
0.0
 40
9.599999999999999
100
AcDbArc
 50
299.9999999999972
 51
12.2810681265804
  0
ARC
  5
2D4F7
330
17
100
AcDbEntity
  8
ZUKEI
 62
     7
370
    25
100
AcDbCircle
 10
2108.234487795523
 20
2811.733172748914
 30
0.0
 40
23.39999999999999
100
AcDbArc
 50
121.6522409643473
 51
210.0000000000103
  0
ARC
  5
2D4F8
330
17
100
AcDbEntity
  8
ZUKEI
 62
     7
370
    25
100
AcDbCircle
 10
2108.234487795523
 20
2811.733172748914
 30
0.0
 40
25.0
100
AcDbArc
 50
121.5984915570723
 51
210.0000000000103
  0
LINE
  5
2D4F9
330
17
100
AcDbEntity
  8
ZUKEI
 62
     7
370
    25
100
AcDbLine
 10
2109.234270499117
 20
2812.183693709352
 30
0.0
 11
2088.248783068204
 21
2800.067716892038
 31
0.0
  0
LINE
  5
2D4FA
330
17
100
AcDbEntity
  8
ZUKEI
 62
     7
370
    25
100
AcDbLine
 10
2108.434270499115
 20
2813.569334355407
 30
0.0
 11
2087.448783068202
 21
2801.453357538094
 31
0.0
  0
ARC
  5
2D4FB
330
17
100
AcDbEntity
  8
ZUKEI
 62
     7
370
    25
100
AcDbCircle
 10
2126.907936460127
 20
2825.389810909296
 30
0.0
 40
13.4
100
AcDbArc
 50
153.2933140377811
 51
210.0000000000103
  0
ARC
  5
2D4FC
330
17
100
AcDbEntity
  8
ZUKEI
 62
     7
370
    25
100
AcDbCircle
 10
2126.907936460127
 20
2825.389810909296
 30
0.0
 40
15.0
100
AcDbArc
 50
148.5832703310939
 51
210.0000000000103
  0
LINE
  5
2D4FD
330
17
100
AcDbEntity
  8
ZUKEI
 62
     7
370
    25
100
AcDbLine
 10
2100.479222102089
 20
2778.365686956141
 30
0.0
 11
2094.224357724528
 21
2789.199429852528
 31
0.0
  0
LINE
  5
2D4FE
330
17
100
AcDbEntity
  8
ZUKEI
 62
     7
370
    25
100
AcDbLine
 10
2099.093581456032
 20
2777.56568695614
 30
0.0
 11
2092.838717078473
 21
2788.399429852528
 31
0.0
  0
CIRCLE
  5
2D4FF
330
17
100
AcDbEntity
  8
ZUKEI
 62
     7
370
    25
100
AcDbCircle
 10
2105.82909813524
 20
2795.899429852529
 30
0.0
 40
8.0
  0
LINE
  5
2D500
330
17
100
AcDbEntity
  8
ZUKEI
 62
     7
370
    25
100
AcDbLine
 10
2087.969493346969
 20
2800.033172748915
 30
0.0
 11
2094.224357724528
 21
2789.199429852528
 31
0.0
  0
LINE
  5
2D501
330
17
100
AcDbEntity
  8
ZUKEI
 62
     7
370
    25
100
AcDbLine
 10
2086.583852700914
 20
2799.233172748916
 30
0.0
 11
2092.838717078473
 21
2788.399429852528
 31
0.0
  0
LINE
  5
2D502
330
17
100
AcDbEntity
  8
ZUKEI
 62
     7
370
    25
100
AcDbLine
 10
2110.960536519618
 20
2840.315816512894
 30
0.0
 11
2095.935400742491
 21
2831.641050327359
 31
0.0
  0
LINE
  5
2D503
330
17
100
AcDbEntity
  8
ZUKEI
 62
     7
370
    25
100
AcDbLine
 10
2110.331041506648
 20
2841.799898259108
 30
0.0
 11
2095.13540074249
 21
2833.026690973414
 31
0.0
  0
ARC
  5
2D504
330
17
100
AcDbEntity
  8
ZUKEI
 62
     7
370
    25
100
AcDbCircle
 10
2141.907936460127
 20
2799.409048795761
 30
0.0
 40
13.4
100
AcDbArc
 50
210.0000000000103
 51
266.7066859622378
  0
ARC
  5
2D505
330
17
100
AcDbEntity
  8
ZUKEI
 62
     7
370
    25
100
AcDbCircle
 10
2141.907936460127
 20
2799.409048795761
 30
0.0
 40
15.0
100
AcDbArc
 50
210.0000000000103
 51
271.416729668902
  0
ARC
  5
2D506
330
17
100
AcDbEntity
  8
ZUKEI
 62
     7
370
    25
100
AcDbCircle
 10
2126.434270499116
 20
2782.392419819167
 30
0.0
 40
8.0
100
AcDbArc
 50
47.7189318733813
 51
119.9999999999973
  0
ARC
  5
2D507
330
17
100
AcDbEntity
  8
ZUKEI
 62
     7
370
    25
100
AcDbCircle
 10
2126.434270499116
 20
2782.392419819167
 30
0.0
 40
9.599999999999999
100
AcDbArc
 50
47.7189318733813
 51
119.9999999999973
  0
ARC
  5
2D508
330
17
100
AcDbEntity
  8
DASH
 62
     7
370
    18
100
AcDbCircle
 10
2141.907936460127
 20
2799.409048795761
 30
0.0
 40
15.0
100
AcDbArc
 50
271.416729668902
 51
299.9999999999972
  0
ARC
  5
2D509
330
17
100
AcDbEntity
  8
DASH
 62
     7
370
    18
100
AcDbCircle
 10
2141.907936460127
 20
2799.409048795761
 30
0.0
 40
13.4
100
AcDbArc
 50
266.7066859622378
 51
299.9999999999972
  0
CIRCLE
  5
2D50A
330
17
100
AcDbEntity
  8
DASH
 62
     7
370
    18
100
AcDbCircle
 10
2147.970114286616
 20
2802.909048795762
 30
0.0
 40
1.5
  0
LINE
  5
2D50B
330
17
100
AcDbEntity
  8
ZUKEI
 62
     7
370
    25
100
AcDbLine
 10
2146.86053651962
 20
2778.135192521171
 30
0.0
 11
2131.835400742489
 21
2769.460426335635
 31
0.0
  0
LINE
  5
2D50C
330
17
100
AcDbEntity
  8
ZUKEI
 62
     7
370
    25
100
AcDbLine
 10
2147.831041506648
 20
2776.847992975276
 30
0.0
 11
2132.635400742489
 21
2768.074785689581
 31
0.0
  0
LINE
  5
2D50D
330
17
100
AcDbEntity
  8
DASH
 62
     7
370
    18
100
AcDbLine
 10
2204.261765532606
 20
2835.409048795761
 30
0.0
 11
2189.261765532606
 21
2861.389810909293
 31
0.0
  0
LINE
  5
2D50E
330
17
100
AcDbEntity
  8
DASH
 62
     7
370
    18
100
AcDbLine
 10
2214.073943359097
 20
2832.413858267378
 30
0.0
 11
2191.573943359097
 21
2871.385001437678
 31
0.0
  0
LINE
  5
2D50F
330
17
100
AcDbEntity
  8
DASH
 62
     7
370
    18
100
AcDbLine
 10
2202.876124886552
 20
2834.609048795762
 30
0.0
 11
2187.876124886552
 21
2860.589810909294
 31
0.0
  0
LINE
  5
2D510
330
17
100
AcDbEntity
  8
DASH
 62
     7
370
    18
100
AcDbLine
 10
2190.188302713042
 20
2870.585001437678
 30
0.0
 11
2212.688302713042
 21
2831.613858267377
 31
0.0
  0
ARC
  5
2D511
330
17
100
AcDbEntity
  8
DASH
 62
     7
370
    18
100
AcDbCircle
 10
2201.08356230233
 20
2824.913858267379
 30
0.0
 40
15.0
100
AcDbArc
 50
299.9999999999972
 51
30.00000000001032
  0
ARC
  5
2D512
330
17
100
AcDbEntity
  8
DASH
 62
     7
370
    18
100
AcDbCircle
 10
2201.08356230233
 20
2824.913858267379
 30
0.0
 40
13.4
100
AcDbArc
 50
299.9999999999972
 51
30.00000000001032
  0
ARC
  5
2D513
330
17
100
AcDbEntity
  8
DASH
 62
     7
370
    18
100
AcDbCircle
 10
2191.27138447584
 20
2827.909048795762
 30
0.0
 40
13.4
100
AcDbArc
 50
299.9999999999972
 51
30.00000000001032
  0
ARC
  5
2D514
330
17
100
AcDbEntity
  8
DASH
 62
     7
370
    18
100
AcDbCircle
 10
2191.27138447584
 20
2827.909048795762
 30
0.0
 40
15.0
100
AcDbArc
 50
299.9999999999972
 51
30.00000000001032
  0
ARC
  5
2D515
330
17
100
AcDbEntity
  8
DASH
 62
     7
370
    18
100
AcDbCircle
 10
2178.58356230233
 20
2863.885001437679
 30
0.0
 40
13.4
100
AcDbArc
 50
30.00000000001032
 51
119.9999999999973
  0
ARC
  5
2D516
330
17
100
AcDbEntity
  8
DASH
 62
     7
370
    18
100
AcDbCircle
 10
2176.27138447584
 20
2853.889810909295
 30
0.0
 40
13.4
100
AcDbArc
 50
30.00000000001032
 51
119.9999999999973
  0
ARC
  5
2D517
330
17
100
AcDbEntity
  8
DASH
 62
     7
370
    18
100
AcDbCircle
 10
2176.27138447584
 20
2853.889810909295
 30
0.0
 40
15.0
100
AcDbArc
 50
30.00000000001032
 51
119.9999999999973
  0
ARC
  5
2D518
330
17
100
AcDbEntity
  8
DASH
 62
     7
370
    18
100
AcDbCircle
 10
2178.58356230233
 20
2863.885001437679
 30
0.0
 40
15.0
100
AcDbArc
 50
30.00000000001032
 51
119.9999999999973
  0
ARC
  5
2D519
330
17
100
AcDbEntity
  8
ZUKEI
 62
     7
370
    25
100
AcDbCircle
 10
2735.622253237596
 20
2811.733172748914
 30
0.0
 40
23.39999999999999
100
AcDbArc
 50
329.9999999999897
 51
58.34775903565252
  0
ARC
  5
2D51A
330
17
100
AcDbEntity
  8
ZUKEI
 62
     7
370
    25
100
AcDbCircle
 10
2735.622253237596
 20
2811.733172748914
 30
0.0
 40
25.0
100
AcDbArc
 50
329.9999999999897
 51
58.40150844292768
  0
DIMENSION
  5
2D51B
330
17
100
AcDbEntity
  8
DIM
 62
     7
370
    18
100
AcDbDimension
  2
*D20
 10
2907.928370516556
 20
3358.399429852529
 30
0.0
 11
2868.928370516556
 21
3490.828001281101
 31
0.0
 70
    32
 71
     5
 42
15.0
  3
STANDARD
100
AcDbAlignedDimension
 13
2421.928370516559
 23
3343.399429852529
 33
0.0
 14
2421.928370516559
 24
3358.399429852529
 34
0.0
 50
90.0
100
AcDbRotatedDimension
1001
ACAD
1000
DSTYLE
1002
{
1070
    41
1040
3.0
1070
    42
1040
2.0
1070
    43
1040
10.0
1070
    44
1040
2.0
1070
    73
1070
     0
1070
    74
1070
     0
1070
    77
1070
     1
1070
    78
1070
     8
1070
    79
1070
     2
1070
   140
1040
3.2
1070
   147
1040
0.9999999999999996
1070
   172
1070
     1
1070
   179
1070
     8
1070
   271
1070
     8
1070
   272
1070
     8
1070
   341
1005
4A
1070
   342
1005
4A
1002
}
  0
DIMENSION
  5
2D51C
330
17
100
AcDbEntity
  8
DIM
 62
     7
370
    18
100
AcDbDimension
  2
*D21
 10
2907.928370516556
 20
2795.899429852528
 30
0.0
 11
2868.928370516556
 21
3069.649429852529
 31
0.0
 70
    32
 71
     5
 42
547.5000000000009
  3
STANDARD
100
AcDbAlignedDimension
 13
2421.928370516559
 23
3343.399429852529
 33
0.0
 14
2738.02764289788
 24
2795.899429852528
 34
0.0
 50
90.0
100
AcDbRotatedDimension
1001
ACAD
1000
DSTYLE
1002
{
1070
    41
1040
3.0
1070
    42
1040
2.0
1070
    43
1040
10.0
1070
    44
1040
2.0
1070
    73
1070
     0
1070
    74
1070
     0
1070
    77
1070
     1
1070
    78
1070
     8
1070
    79
1070
     2
1070
   140
1040
3.2
1070
   147
1040
0.9999999999999996
1070
   172
1070
     1
1070
   179
1070
     8
1070
   271
1070
     8
1070
   272
1070
     8
1070
   341
1005
4A
1070
   342
1005
4A
1002
}
  0
LINE
  5
2D51D
330
17
100
AcDbEntity
  8
CEN
 62
     7
370
    25
100
AcDbLine
 10
2421.928370516555
 20
2978.399429852529
 30
0.0
 11
2794.31929414387
 21
2763.399429852528
 31
0.0
  0
ARC
  5
2D51E
330
17
100
AcDbEntity
  8
DASH
 62
     7
370
    18
100
AcDbCircle
 10
2665.273178730791
 20
2863.885001437678
 30
0.0
 40
13.4
100
AcDbArc
 50
60.00000000000272
 51
149.9999999999896
  0
ARC
  5
2D51F
330
17
100
AcDbEntity
  8
DASH
 62
     7
370
    18
100
AcDbCircle
 10
2667.585356557281
 20
2853.889810909294
 30
0.0
 40
13.4
100
AcDbArc
 50
60.00000000000272
 51
149.9999999999896
  0
ARC
  5
2D520
330
17
100
AcDbEntity
  8
DASH
 62
     7
370
    18
100
AcDbCircle
 10
2667.585356557281
 20
2853.889810909294
 30
0.0
 40
15.0
100
AcDbArc
 50
60.00000000000272
 51
149.9999999999896
  0
ARC
  5
2D521
330
17
100
AcDbEntity
  8
DASH
 62
     7
370
    18
100
AcDbCircle
 10
2665.273178730791
 20
2863.885001437678
 30
0.0
 40
15.0
100
AcDbArc
 50
60.00000000000272
 51
149.9999999999896
  0
LINE
  5
2D522
330
17
100
AcDbEntity
  8
DASH
 62
     7
370
    18
100
AcDbLine
 10
2635.273178730791
 20
2811.92347721061
 30
0.0
 11
2696.025699526475
 21
2776.847992975274
 31
0.0
  0
LINE
  5
2D523
330
17
100
AcDbEntity
  8
DASH
 62
     7
370
    18
100
AcDbLine
 10
2635.605390313121
 20
2813.579195625532
 30
0.0
 11
2696.996204513503
 21
2778.13519252117
 31
0.0
  0
LINE
  5
2D524
330
17
100
AcDbEntity
  8
DASH
 62
     7
370
    18
100
AcDbLine
 10
2645.085356557283
 20
2814.918667738994
 30
0.0
 11
2694.448804572996
 21
2786.418667738994
 31
0.0
  0
LINE
  5
2D525
330
17
100
AcDbEntity
  8
DASH
 62
     7
370
    18
100
AcDbLine
 10
2645.885356557282
 20
2816.304308385049
 30
0.0
 11
2695.248804572995
 21
2787.804308385049
 31
0.0
  0
LINE
  5
2D526
330
17
100
AcDbEntity
  8
DASH
 62
     7
370
    18
100
AcDbLine
 10
2639.594975500517
 20
2835.40904879576
 30
0.0
 11
2654.594975500517
 21
2861.389810909293
 31
0.0
  0
LINE
  5
2D527
330
17
100
AcDbEntity
  8
DASH
 62
     7
370
    18
100
AcDbLine
 10
2629.782797674024
 20
2832.413858267377
 30
0.0
 11
2652.282797674025
 21
2871.385001437678
 31
0.0
  0
LINE
  5
2D528
330
17
100
AcDbEntity
  8
DASH
 62
     7
370
    18
100
AcDbLine
 10
2640.98061614657
 20
2834.609048795761
 30
0.0
 11
2655.980616146571
 21
2860.589810909293
 31
0.0
  0
LINE
  5
2D529
330
17
100
AcDbEntity
  8
DASH
 62
     7
370
    18
100
AcDbLine
 10
2653.668438320081
 20
2870.585001437677
 30
0.0
 11
2631.168438320081
 21
2831.613858267377
 31
0.0
  0
ARC
  5
2D52A
330
17
100
AcDbEntity
  8
DASH
 62
     7
370
    18
100
AcDbCircle
 10
2652.585356557281
 20
2827.909048795761
 30
0.0
 40
13.4
100
AcDbArc
 50
149.9999999999896
 51
240.0000000000026
  0
ARC
  5
2D52B
330
17
100
AcDbEntity
  8
DASH
 62
     7
370
    18
100
AcDbCircle
 10
2642.773178730791
 20
2824.913858267378
 30
0.0
 40
15.0
100
AcDbArc
 50
149.9999999999896
 51
240.0000000000026
  0
ARC
  5
2D52C
330
17
100
AcDbEntity
  8
DASH
 62
     7
370
    18
100
AcDbCircle
 10
2642.773178730791
 20
2824.913858267378
 30
0.0
 40
13.4
100
AcDbArc
 50
149.9999999999896
 51
240.0000000000026
  0
ARC
  5
2D52D
330
17
100
AcDbEntity
  8
DASH
 62
     7
370
    18
100
AcDbCircle
 10
2652.585356557281
 20
2827.909048795761
 30
0.0
 40
15.0
100
AcDbArc
 50
149.9999999999896
 51
240.0000000000026
  0
LINE
  5
2D52E
330
17
100
AcDbEntity
  8
DASH
 62
     7
370
    18
100
AcDbLine
 10
2672.773178730791
 20
2876.875382494444
 30
0.0
 11
2733.525699526475
 21
2841.799898259108
 31
0.0
  0
LINE
  5
2D52F
330
17
100
AcDbEntity
  8
DASH
 62
     7
370
    18
100
AcDbLine
 10
2671.505390313118
 20
2875.759819617254
 30
0.0
 11
2732.896204513501
 21
2840.315816512894
 31
0.0
  0
LINE
  5
2D530
330
17
100
AcDbEntity
  8
DASH
 62
     7
370
    18
100
AcDbLine
 10
2675.085356557282
 20
2866.88019196606
 30
0.0
 11
2724.448804572995
 21
2838.38019196606
 31
0.0
  0
LINE
  5
2D531
330
17
100
AcDbEntity
  8
DASH
 62
     7
370
    18
100
AcDbLine
 10
2674.285356557282
 20
2865.494551320006
 30
0.0
 11
2723.648804572996
 21
2836.994551320006
 31
0.0
  0
ARC
  5
2D532
330
17
100
AcDbEntity
  8
ZUKEI
 62
     7
370
    25
100
AcDbCircle
 10
2701.948804572996
 20
2799.409048795761
 30
0.0
 40
13.4
100
AcDbArc
 50
273.293314037762
 51
329.9999999999897
  0
ARC
  5
2D533
330
17
100
AcDbEntity
  8
ZUKEI
 62
     7
370
    25
100
AcDbCircle
 10
2701.948804572996
 20
2799.409048795761
 30
0.0
 40
15.0
100
AcDbArc
 50
268.583270331098
 51
329.9999999999897
  0
LINE
  5
2D534
330
17
100
AcDbEntity
  8
ZUKEI
 62
     7
370
    25
100
AcDbLine
 10
2696.996204513503
 20
2778.13519252117
 30
0.0
 11
2712.021340290632
 21
2769.460426335634
 31
0.0
  0
LINE
  5
2D535
330
17
100
AcDbEntity
  8
ZUKEI
 62
     7
370
    25
100
AcDbLine
 10
2696.025699526475
 20
2776.847992975274
 30
0.0
 11
2711.221340290631
 21
2768.07478568958
 31
0.0
  0
CIRCLE
  5
2D536
330
17
100
AcDbEntity
  8
DASH
 62
     7
370
    18
100
AcDbCircle
 10
2673.075737614048
 20
2833.399429852528
 30
0.0
 40
5.5
  0
ARC
  5
2D537
330
17
100
AcDbEntity
  8
DASH
 62
     7
370
    18
100
AcDbCircle
 10
2701.948804572996
 20
2799.409048795761
 30
0.0
 40
15.0
100
AcDbArc
 50
240.0000000000026
 51
268.583270331098
  0
ARC
  5
2D538
330
17
100
AcDbEntity
  8
DASH
 62
     7
370
    18
100
AcDbCircle
 10
2701.948804572996
 20
2799.409048795761
 30
0.0
 40
13.4
100
AcDbArc
 50
240.0000000000026
 51
273.293314037762
  0
CIRCLE
  5
2D539
330
17
100
AcDbEntity
  8
DASH
 62
     7
370
    18
100
AcDbCircle
 10
2695.886626746503
 20
2802.909048795761
 30
0.0
 40
1.5
  0
ARC
  5
2D53A
330
17
100
AcDbEntity
  8
ZUKEI
 62
     7
370
    25
100
AcDbCircle
 10
2739.422470534004
 20
2820.497537585682
 30
0.0
 40
8.0
100
AcDbArc
 50
167.7189318734195
 51
240.0000000000026
  0
ARC
  5
2D53B
330
17
100
AcDbEntity
  8
ZUKEI
 62
     7
370
    25
100
AcDbCircle
 10
2739.422470534004
 20
2820.497537585682
 30
0.0
 40
9.599999999999999
100
AcDbArc
 50
167.7189318734195
 51
240.0000000000026
  0
LINE
  5
2D53C
330
17
100
AcDbEntity
  8
ZUKEI
 62
     7
370
    25
100
AcDbLine
 10
2713.553544983708
 20
2792.709048795761
 30
0.0
 11
2728.553544983708
 21
2818.689810909294
 31
0.0
  0
LINE
  5
2D53D
330
17
100
AcDbEntity
  8
ZUKEI
 62
     7
370
    25
100
AcDbLine
 10
2714.939185629762
 20
2791.90904879576
 30
0.0
 11
2729.939185629762
 21
2817.889810909294
 31
0.0
  0
LINE
  5
2D53E
330
17
100
AcDbEntity
  8
ZUKEI
 62
     7
370
    25
100
AcDbLine
 10
2734.622470534006
 20
2812.18369370935
 30
0.0
 11
2755.607957964919
 21
2800.067716892038
 31
0.0
  0
LINE
  5
2D53F
330
17
100
AcDbEntity
  8
ZUKEI
 62
     7
370
    25
100
AcDbLine
 10
2735.422470534004
 20
2813.569334355406
 30
0.0
 11
2756.407957964916
 21
2801.453357538091
 31
0.0
  0
ARC
  5
2D540
330
17
100
AcDbEntity
  8
ZUKEI
 62
     7
370
    25
100
AcDbCircle
 10
2716.948804572996
 20
2825.389810909292
 30
0.0
 40
13.4
100
AcDbArc
 50
329.9999999999897
 51
26.70668596221871
  0
ARC
  5
2D541
330
17
100
AcDbEntity
  8
ZUKEI
 62
     7
370
    25
100
AcDbCircle
 10
2716.948804572996
 20
2825.389810909292
 30
0.0
 40
15.0
100
AcDbArc
 50
329.9999999999897
 51
31.4167296689061
  0
LINE
  5
2D542
330
17
100
AcDbEntity
  8
ZUKEI
 62
     7
370
    25
100
AcDbLine
 10
2743.377518931032
 20
2778.36568695614
 30
0.0
 11
2749.632383308593
 21
2789.199429852527
 31
0.0
  0
LINE
  5
2D543
330
17
100
AcDbEntity
  8
ZUKEI
 62
     7
370
    25
100
AcDbLine
 10
2744.763159577087
 20
2777.56568695614
 30
0.0
 11
2751.018023954648
 21
2788.399429852527
 31
0.0
  0
LINE
  5
2D544
330
17
100
AcDbEntity
  8
ZUKEI
 62
     7
370
    25
100
AcDbLine
 10
2721.422470534005
 20
2789.320623049442
 30
0.0
 11
2742.407957964918
 21
2777.204646232128
 31
0.0
  0
ARC
  5
2D545
330
17
100
AcDbEntity
  8
ZUKEI
 62
     7
370
    25
100
AcDbCircle
 10
2723.112524482476
 20
2790.06568695614
 30
0.0
 40
23.39999999999999
100
AcDbArc
 50
241.6522409643778
 51
329.9999999999897
  0
ARC
  5
2D546
330
17
100
AcDbEntity
  8
ZUKEI
 62
     7
370
    25
100
AcDbCircle
 10
2723.112524482476
 20
2790.06568695614
 30
0.0
 40
25.0
100
AcDbArc
 50
241.5984915570632
 51
329.9999999999897
  0
LINE
  5
2D547
330
17
100
AcDbEntity
  8
ZUKEI
 62
     7
370
    25
100
AcDbLine
 10
2722.222470534005
 20
2790.706263695497
 30
0.0
 11
2743.207957964918
 21
2778.590286878183
 31
0.0
  0
ARC
  5
2D548
330
17
100
AcDbEntity
  8
ZUKEI
 62
     7
370
    25
100
AcDbCircle
 10
2717.422470534005
 20
2782.392419819166
 30
0.0
 40
8.0
100
AcDbArc
 50
60.00000000000272
 51
132.2810681266186
  0
ARC
  5
2D549
330
17
100
AcDbEntity
  8
ZUKEI
 62
     7
370
    25
100
AcDbCircle
 10
2717.422470534005
 20
2782.392419819166
 30
0.0
 40
9.599999999999999
100
AcDbArc
 50
60.00000000000272
 51
132.2810681266186
  0
CIRCLE
  5
2D54A
330
17
100
AcDbEntity
  8
ZUKEI
 62
     7
370
    25
100
AcDbCircle
 10
2738.02764289788
 20
2795.899429852528
 30
0.0
 40
8.0
  0
LINE
  5
2D54B
330
17
100
AcDbEntity
  8
ZUKEI
 62
     7
370
    25
100
AcDbLine
 10
2755.887247686154
 20
2800.033172748912
 30
0.0
 11
2749.632383308593
 21
2789.199429852527
 31
0.0
  0
LINE
  5
2D54C
330
17
100
AcDbEntity
  8
ZUKEI
 62
     7
370
    25
100
AcDbLine
 10
2757.272888332209
 20
2799.233172748915
 30
0.0
 11
2751.018023954648
 21
2788.399429852527
 31
0.0
  0
ARC
  5
2D54D
330
17
100
AcDbEntity
  8
DASH
 62
     7
370
    18
100
AcDbCircle
 10
2716.948804572996
 20
2825.389810909292
 30
0.0
 40
15.0
100
AcDbArc
 50
31.4167296689061
 51
60.00000000000272
  0
ARC
  5
2D54E
330
17
100
AcDbEntity
  8
DASH
 62
     7
370
    18
100
AcDbCircle
 10
2716.948804572996
 20
2825.389810909292
 30
0.0
 40
13.4
100
AcDbArc
 50
26.70668596221871
 51
60.00000000000272
  0
LINE
  5
2D54F
330
17
100
AcDbEntity
  8
ZUKEI
 62
     7
370
    25
100
AcDbLine
 10
2732.896204513501
 20
2840.315816512894
 30
0.0
 11
2747.921340290631
 21
2831.641050327358
 31
0.0
  0
LINE
  5
2D550
330
17
100
AcDbEntity
  8
ZUKEI
 62
     7
370
    25
100
AcDbLine
 10
2733.525699526475
 20
2841.799898259108
 30
0.0
 11
2748.72134029063
 21
2833.026690973413
 31
0.0
  0
ARC
  5
2D551
330
17
100
AcDbEntity
  8
ZUKEI
 62
     7
370
    25
100
AcDbCircle
 10
2409.41864176144
 20
3333.399429852529
 30
0.0
 40
23.39999999999999
100
AcDbArc
 50
90.0
 51
178.3477590356239
  0
ARC
  5
2D552
330
17
100
AcDbEntity
  8
ZUKEI
 62
     7
370
    25
100
AcDbCircle
 10
2409.41864176144
 20
3333.399429852529
 30
0.0
 40
25.0
100
AcDbArc
 50
90.0
 51
178.4015084429456
  0
LINE
  5
2D553
330
17
100
AcDbEntity
  8
ZUKEI
 62
     7
370
    25
100
AcDbLine
 10
2434.328370516559
 20
3332.308332152736
 30
0.0
 11
2434.328370516561
 21
3356.540285787362
 31
0.0
  0
LINE
  5
2D554
330
17
100
AcDbEntity
  8
ZUKEI
 62
     7
370
    25
100
AcDbLine
 10
2435.928370516561
 20
3332.308332152736
 30
0.0
 11
2435.928370516561
 21
3356.540285787362
 31
0.0
  0
ARC
  5
2D555
330
17
100
AcDbEntity
  8
ZUKEI
 62
     7
370
    25
100
AcDbCircle
 10
2434.438099271681
 20
3333.399429852529
 30
0.0
 40
23.39999999999999
100
AcDbArc
 50
1.652240964375939
 51
90.0
  0
ARC
  5
2D556
330
17
100
AcDbEntity
  8
ZUKEI
 62
     7
370
    25
100
AcDbCircle
 10
2434.438099271681
 20
3333.399429852529
 30
0.0
 40
25.0
100
AcDbArc
 50
1.598491557054334
 51
90.0
  0
CIRCLE
  5
2D557
330
17
100
AcDbEntity
  8
ZUKEI
 62
     7
370
    25
100
AcDbCircle
 10
2421.928370516559
 20
3343.399429852529
 30
0.0
 40
8.0
  0
LINE
  5
2D558
330
17
100
AcDbEntity
  8
ZUKEI
 62
     7
370
    25
100
AcDbLine
 10
2409.528370516559
 20
3332.308332152736
 30
0.0
 11
2409.528370516559
 21
3356.540285787362
 31
0.0
  0
LINE
  5
2D559
330
17
100
AcDbEntity
  8
ZUKEI
 62
     7
370
    25
100
AcDbLine
 10
2407.928370516561
 20
3332.308332152736
 30
0.0
 11
2407.928370516561
 21
3356.540285787362
 31
0.0
  0
ARC
  5
2D55A
330
17
100
AcDbEntity
  8
DASH
 62
     7
370
    18
100
AcDbCircle
 10
2399.428370516559
 20
3246.399429852529
 30
0.0
 40
13.4
100
AcDbArc
 50
180.0
 51
270.0
  0
ARC
  5
2D55B
330
17
100
AcDbEntity
  8
DASH
 62
     7
370
    18
100
AcDbCircle
 10
2399.428370516559
 20
3246.399429852529
 30
0.0
 40
15.0
100
AcDbArc
 50
180.0
 51
270.0
  0
ARC
  5
2D55C
330
17
100
AcDbEntity
  8
DASH
 62
     7
370
    18
100
AcDbCircle
 10
2444.428370516559
 20
3246.399429852529
 30
0.0
 40
13.4
100
AcDbArc
 50
270.0
 51
0.0
  0
ARC
  5
2D55D
330
17
100
AcDbEntity
  8
DASH
 62
     7
370
    18
100
AcDbCircle
 10
2444.428370516559
 20
3246.399429852529
 30
0.0
 40
15.0
100
AcDbArc
 50
270.0
 51
0.0
  0
ARC
  5
2D55E
330
17
100
AcDbEntity
  8
DASH
 62
     7
370
    18
100
AcDbCircle
 10
2436.92837051656
 20
3253.399429852528
 30
0.0
 40
15.0
100
AcDbArc
 50
270.0
 51
0.0
  0
ARC
  5
2D55F
330
17
100
AcDbEntity
  8
DASH
 62
     7
370
    18
100
AcDbCircle
 10
2436.92837051656
 20
3253.399429852528
 30
0.0
 40
13.4
100
AcDbArc
 50
270.0
 51
0.0
  0
ARC
  5
2D560
330
17
100
AcDbEntity
  8
DASH
 62
     7
370
    18
100
AcDbCircle
 10
2406.928370516562
 20
3253.399429852528
 30
0.0
 40
15.0
100
AcDbArc
 50
180.0
 51
270.0
  0
ARC
  5
2D561
330
17
100
AcDbEntity
  8
DASH
 62
     7
370
    18
100
AcDbCircle
 10
2406.928370516562
 20
3253.399429852528
 30
0.0
 40
13.4
100
AcDbArc
 50
180.0
 51
270.0
  0
LINE
  5
2D562
330
17
100
AcDbEntity
  8
DASH
 62
     7
370
    18
100
AcDbLine
 10
2436.92837051656
 20
3239.999429852529
 30
0.0
 11
2406.928370516562
 21
3239.99942985253
 31
0.0
  0
LINE
  5
2D563
330
17
100
AcDbEntity
  8
DASH
 62
     7
370
    18
100
AcDbLine
 10
2436.92837051656
 20
3238.39942985253
 30
0.0
 11
2406.928370516562
 21
3238.39942985253
 31
0.0
  0
LINE
  5
2D564
330
17
100
AcDbEntity
  8
DASH
 62
     7
370
    18
100
AcDbLine
 10
2444.428370516559
 20
3231.39942985253
 30
0.0
 11
2399.428370516559
 21
3231.39942985253
 31
0.0
  0
LINE
  5
2D565
330
17
100
AcDbEntity
  8
DASH
 62
     7
370
    18
100
AcDbLine
 10
2399.428370516559
 20
3232.999429852529
 30
0.0
 11
2444.428370516559
 21
3232.999429852529
 31
0.0
  0
LINE
  5
2D566
330
17
100
AcDbEntity
  8
ZUKEI
 62
     7
370
    25
100
AcDbLine
 10
2436.92837051656
 20
3323.799429852528
 30
0.0
 11
2406.928370516562
 21
3323.799429852528
 31
0.0
  0
LINE
  5
2D567
330
17
100
AcDbEntity
  8
ZUKEI
 62
     7
370
    25
100
AcDbLine
 10
2436.92837051656
 20
3325.399429852529
 30
0.0
 11
2406.928370516562
 21
3325.399429852529
 31
0.0
  0
ARC
  5
2D568
330
17
100
AcDbEntity
  8
DASH
 62
     7
370
    18
100
AcDbCircle
 10
2406.92837051656
 20
3310.399429852529
 30
0.0
 40
13.4
100
AcDbArc
 50
146.7066859622127
 51
180.0
  0
ARC
  5
2D569
330
17
100
AcDbEntity
  8
DASH
 62
     7
370
    18
100
AcDbCircle
 10
2406.92837051656
 20
3310.399429852529
 30
0.0
 40
15.0
100
AcDbArc
 50
151.4167296688953
 51
180.0
  0
LINE
  5
2D56A
330
17
100
AcDbEntity
  8
ZUKEI
 62
     7
370
    25
100
AcDbLine
 10
2384.428370516562
 20
3316.550398323201
 30
0.0
 11
2384.428370516562
 21
3334.09681289459
 31
0.0
  0
LINE
  5
2D56B
330
17
100
AcDbEntity
  8
ZUKEI
 62
     7
370
    25
100
AcDbLine
 10
2386.028370516562
 20
3316.747280523518
 30
0.0
 11
2386.028370516562
 21
3334.09681289459
 31
0.0
  0
ARC
  5
2D56C
330
17
100
AcDbEntity
  8
ZUKEI
 62
     7
370
    25
100
AcDbCircle
 10
2399.92837051656
 20
3332.308332152736
 30
0.0
 40
8.0
100
AcDbArc
 50
287.7189318734078
 51
0.0
  0
ARC
  5
2D56D
330
17
100
AcDbEntity
  8
ZUKEI
 62
     7
370
    25
100
AcDbCircle
 10
2399.92837051656
 20
3332.308332152736
 30
0.0
 40
9.599999999999999
100
AcDbArc
 50
287.7189318734078
 51
0.0
  0
ARC
  5
2D56E
330
17
100
AcDbEntity
  8
ZUKEI
 62
     7
370
    25
100
AcDbCircle
 10
2406.92837051656
 20
3310.399429852529
 30
0.0
 40
13.4
100
AcDbArc
 50
90.0
 51
146.7066859622127
  0
ARC
  5
2D56F
330
17
100
AcDbEntity
  8
ZUKEI
 62
     7
370
    25
100
AcDbCircle
 10
2406.92837051656
 20
3310.399429852529
 30
0.0
 40
15.0
100
AcDbArc
 50
90.0
 51
151.4167296688953
  0
LINE
  5
2D570
330
17
100
AcDbEntity
  8
DASH
 62
     7
370
    18
100
AcDbLine
 10
2386.02837051656
 20
3245.859274314796
 30
0.0
 11
2386.028370516562
 21
3316.747280523518
 31
0.0
  0
LINE
  5
2D571
330
17
100
AcDbEntity
  8
DASH
 62
     7
370
    18
100
AcDbLine
 10
2393.528370516559
 20
3253.39942985253
 30
0.0
 11
2393.528370516559
 21
3310.399429852529
 31
0.0
  0
LINE
  5
2D572
330
17
100
AcDbEntity
  8
DASH
 62
     7
370
    18
100
AcDbLine
 10
2391.928370516561
 20
3253.39942985253
 30
0.0
 11
2391.928370516561
 21
3310.399429852529
 31
0.0
  0
LINE
  5
2D573
330
17
100
AcDbEntity
  8
DASH
 62
     7
370
    18
100
AcDbLine
 10
2384.428370516562
 20
3246.39942985253
 30
0.0
 11
2384.428370516562
 21
3316.550398323201
 31
0.0
  0
ARC
  5
2D574
330
17
100
AcDbEntity
  8
DASH
 62
     7
370
    18
100
AcDbCircle
 10
2436.92837051656
 20
3310.399429852529
 30
0.0
 40
13.4
100
AcDbArc
 50
0.0
 51
33.29331403778716
  0
ARC
  5
2D575
330
17
100
AcDbEntity
  8
DASH
 62
     7
370
    18
100
AcDbCircle
 10
2436.92837051656
 20
3310.399429852529
 30
0.0
 40
15.0
100
AcDbArc
 50
0.0
 51
28.58327033110471
  0
LINE
  5
2D576
330
17
100
AcDbEntity
  8
ZUKEI
 62
     7
370
    25
100
AcDbLine
 10
2459.42837051656
 20
3316.5503983232
 30
0.0
 11
2459.42837051656
 21
3334.096812894592
 31
0.0
  0
LINE
  5
2D577
330
17
100
AcDbEntity
  8
ZUKEI
 62
     7
370
    25
100
AcDbLine
 10
2457.828370516561
 20
3316.747280523518
 30
0.0
 11
2457.828370516561
 21
3334.096812894592
 31
0.0
  0
ARC
  5
2D578
330
17
100
AcDbEntity
  8
ZUKEI
 62
     7
370
    25
100
AcDbCircle
 10
2436.92837051656
 20
3310.399429852529
 30
0.0
 40
15.0
100
AcDbArc
 50
28.58327033110471
 51
90.0
  0
ARC
  5
2D579
330
17
100
AcDbEntity
  8
ZUKEI
 62
     7
370
    25
100
AcDbCircle
 10
2436.92837051656
 20
3310.399429852529
 30
0.0
 40
13.4
100
AcDbArc
 50
33.29331403778716
 51
90.0
  0
ARC
  5
2D57A
330
17
100
AcDbEntity
  8
ZUKEI
 62
     7
370
    25
100
AcDbCircle
 10
2443.928370516561
 20
3332.308332152736
 30
0.0
 40
8.0
100
AcDbArc
 50
180.0
 51
252.2810681265921
  0
ARC
  5
2D57B
330
17
100
AcDbEntity
  8
ZUKEI
 62
     7
370
    25
100
AcDbCircle
 10
2443.928370516561
 20
3332.308332152736
 30
0.0
 40
9.599999999999999
100
AcDbArc
 50
180.0
 51
252.2810681265921
  0
CIRCLE
  5
2D57C
330
17
100
AcDbEntity
  8
DASH
 62
     7
370
    18
100
AcDbCircle
 10
2421.928370516559
 20
3268.399429852528
 30
0.0
 40
5.5
  0
CIRCLE
  5
2D57D
330
17
100
AcDbEntity
  8
DASH
 62
     7
370
    18
100
AcDbCircle
 10
2436.92837051656
 20
3303.399429852529
 30
0.0
 40
1.5
  0
LINE
  5
2D57E
330
17
100
AcDbEntity
  8
DASH
 62
     7
370
    18
100
AcDbLine
 10
2450.328370516561
 20
3253.39942985253
 30
0.0
 11
2450.328370516561
 21
3310.399429852529
 31
0.0
  0
LINE
  5
2D57F
330
17
100
AcDbEntity
  8
DASH
 62
     7
370
    18
100
AcDbLine
 10
2451.928370516561
 20
3253.39942985253
 30
0.0
 11
2451.928370516561
 21
3310.399429852529
 31
0.0
  0
LINE
  5
2D580
330
17
100
AcDbEntity
  8
DASH
 62
     7
370
    18
100
AcDbLine
 10
2457.828370516561
 20
3245.859274314798
 30
0.0
 11
2457.828370516561
 21
3316.747280523518
 31
0.0
  0
LINE
  5
2D581
330
17
100
AcDbEntity
  8
DASH
 62
     7
370
    18
100
AcDbLine
 10
2459.42837051656
 20
3246.39942985253
 30
0.0
 11
2459.42837051656
 21
3316.5503983232
 31
0.0
  0
LINE
  5
2D582
330
17
100
AcDbEntity
  8
ZUKEI
 62
     7
370
    25
100
AcDbLine
 10
2409.41864176144
 20
3356.799429852528
 30
0.0
 11
2421.928370516559
 21
3356.799429852528
 31
0.0
  0
LINE
  5
2D583
330
17
100
AcDbEntity
  8
ZUKEI
 62
     7
370
    25
100
AcDbLine
 10
2409.41864176144
 20
3358.399429852529
 30
0.0
 11
2421.928370516559
 21
3358.399429852529
 31
0.0
  0
LINE
  5
2D584
330
17
100
AcDbEntity
  8
ZUKEI
 62
     7
370
    25
100
AcDbLine
 10
2434.438099271681
 20
3356.799429852528
 30
0.0
 11
2421.928370516559
 21
3356.799429852528
 31
0.0
  0
LINE
  5
2D585
330
17
100
AcDbEntity
  8
ZUKEI
 62
     7
370
    25
100
AcDbLine
 10
2434.438099271681
 20
3358.399429852529
 30
0.0
 11
2421.928370516559
 21
3358.399429852529
 31
0.0
  0
HATCH
  5
2D8C7
330
17
100
AcDbEntity
  8
0
 62
     7
100
AcDbHatch
 10
0.0
 20
0.0
 30
0.0
210
0.0
220
0.0
230
1.0
  2
ANSI31
 70
     0
 71
     1
 91
        1
 92
        1
 93
       12
 72
     2
 10
972.904350989169
 20
1980.332293340294
 40
1.853999999999998
 50
90.0
 51
180.0
 73
     1
 72
     1
 10
971.0503509891692
 20
1980.332293340294
 11
971.0503509891692
 21
1963.646293340294
 72
     1
 10
971.0503509891692
 20
1963.646293340294
 11
975.1291509891688
 21
1963.646293340294
 72
     1
 10
975.1291509891688
 20
1963.646293340294
 11
975.1291509891688
 21
1976.995093340294
 72
     2
 10
976.2415509891688
 20
1976.995093340294
 40
1.112399999999998
 50
180.0
 51
270.0
 73
     0
 72
     1
 10
976.2415509891688
 20
1978.107493340294
 11
978.8371509891687
 21
1978.107493340294
 72
     2
 10
978.8371509891687
 20
1976.995093340294
 40
1.112399999999998
 50
270.0
 51
360.0
 73
     0
 72
     1
 10
979.949550989169
 20
1976.995093340294
 11
979.949550989169
 21
1963.646293340294
 72
     1
 10
979.949550989169
 20
1963.646293340294
 11
984.0283509891687
 21
1963.646293340294
 72
     1
 10
984.0283509891687
 20
1963.646293340294
 11
984.0283509891687
 21
1980.332293340294
 72
     2
 10
982.1743509891687
 20
1980.332293340294
 40
1.853999999999998
 50
0.0
 51
90.0
 73
     1
 72
     1
 10
982.1743509891687
 20
1982.186293340294
 11
972.904350989169
 21
1982.186293340294
 97
       12
330
2D921
330
2D8D1
330
2D8F6
330
2D8F8
330
2D8D3
330
2D923
330
2D8D4
330
2D8FB
330
2D8FA
330
2D8D8
330
2D924
330
2D91A
 75
     0
 76
     1
 52
0.0
 41
0.05
 77
     0
 78
     1
 53
45.0
 43
886.5646248728735
 44
1770.775311847593
 45
-0.1122532015133644
 46
0.1122532015133644
 79
     0
 98
        1
 10
886.5646248728735
 20
1770.775311847593
  0
HATCH
  5
2D8C8
330
17
100
AcDbEntity
  8
0
 62
     7
100
AcDbHatch
 10
0.0
 20
0.0
 30
0.0
210
0.0
220
0.0
230
1.0
  2
ANSI31
 70
     0
 71
     0
 91
        2
 92
        1
 93
       14
 72
     1
 10
941.3863509891688
 20
1995.164293340294
 11
945.4651509891691
 21
1995.164293340294
 72
     1
 10
945.4651509891691
 20
1995.164293340294
 11
945.4651509891691
 21
1978.107493340294
 72
     2
 10
946.5775509891692
 20
1978.107493340294
 40
1.112399999999998
 50
180.0
 51
270.0
 73
     1
 72
     1
 10
946.5775509891692
 20
1976.995093340294
 11
950.2855509891691
 21
1976.995093340294
 72
     1
 10
950.2855509891688
 20
1976.995093340294
 11
950.2855509891688
 21
1995.164293340295
 72
     1
 10
950.2855509891688
 20
1995.164293340294
 11
954.364350989169
 21
1995.164293340294
 72
     1
 10
954.364350989169
 20
1995.164293340294
 11
954.364350989169
 21
1964.758693340294
 72
     1
 10
954.364350989169
 20
1964.758693340294
 11
954.364350989169
 21
1964.697334454893
 72
     2
 10
939.532350989169
 20
1964.697334454893
 40
14.832
 50
360.0
 51
398.1572265873694
 73
     0
 72
     1
 10
951.1950245905833
 20
1955.533805196639
 11
950.2855509891691
 21
1954.376293340294
 72
     1
 10
950.2855509891688
 20
1954.376293340294
 11
950.2855509891688
 21
1972.916293340294
 72
     1
 10
950.2855509891688
 20
1972.916293340294
 11
943.2403509891686
 21
1972.916293340294
 72
     2
 10
943.2403509891692
 20
1974.770293340294
 40
1.853999999999998
 50
90.0
 51
180.0
 73
     0
 72
     1
 10
941.3863509891688
 20
1974.770293340294
 11
941.3863509891688
 21
1995.164293340294
 97
        0
 92
       48
 93
        1
 72
     1
 10
954.364350989169
 20
1964.758693340294
 11
954.364350989169
 21
1964.697334454893
 97
        0
 75
     0
 76
     1
 52
0.0
 41
0.05
 77
     0
 78
     1
 53
45.0
 43
886.5646248728735
 44
1770.775311847593
 45
-0.1122532015133644
 46
0.1122532015133644
 79
     0
 98
        1
 10
886.5646248728735
 20
1770.775311847593
  0
LINE
  5
2D8C9
330
17
100
AcDbEntity
  8
0
 62
     7
100
AcDbLine
 10
941.3863509891688
 20
1995.164293340294
 30
0.0
 11
941.3863509891688
 21
1974.770293340294
 31
0.0
  0
ARC
  5
2D8CA
330
17
100
AcDbEntity
  8
0
 62
     7
100
AcDbCircle
 10
946.5775509891692
 20
1978.107493340294
 30
0.0
 40
1.112399999999998
100
AcDbArc
 50
180.0
 51
270.0
  0
HATCH
  5
2D8CB
330
17
100
AcDbEntity
  8
0
 62
     7
100
AcDbHatch
 10
0.0
 20
0.0
 30
0.0
210
0.0
220
0.0
230
1.0
  2
ANSI31
 70
     0
 71
     1
 91
        1
 92
        1
 93
       12
 72
     1
 10
956.2183509891688
 20
1982.186293340294
 11
960.2971509891688
 21
1982.186293340294
 72
     1
 10
960.2971509891688
 20
1982.186293340294
 11
960.2971509891688
 21
1968.837493340294
 72
     2
 10
961.409550989169
 20
1968.837493340294
 40
1.112399999999998
 50
180.0
 51
270.0
 73
     1
 72
     1
 10
961.409550989169
 20
1967.725093340294
 11
964.0051509891693
 21
1967.725093340294
 72
     2
 10
964.0051509891693
 20
1968.837493340294
 40
1.112399999999998
 50
270.0
 51
360.0
 73
     1
 72
     1
 10
965.1175509891691
 20
1968.837493340294
 11
965.1175509891691
 21
1982.186293340294
 72
     1
 10
965.1175509891691
 20
1982.186293340294
 11
969.1963509891687
 21
1982.186293340294
 72
     1
 10
969.1963509891687
 20
1982.186293340294
 11
969.1963509891687
 21
1965.500293340294
 72
     2
 10
967.3423509891691
 20
1965.500293340294
 40
1.853999999999998
 50
360.0
 51
450.0
 73
     0
 72
     1
 10
967.3423509891691
 20
1963.646293340294
 11
958.072350989169
 21
1963.646293340294
 72
     2
 10
958.072350989169
 20
1965.500293340294
 40
1.853999999999998
 50
90.0
 51
180.0
 73
     0
 72
     1
 10
956.2183509891688
 20
1965.500293340294
 11
956.2183509891688
 21
1982.186293340294
 97
       12
330
2D91F
330
2D8CF
330
2D8F4
330
2D8F5
330
2D8F2
330
2D8D2
330
2D920
330
2D8D0
330
2D8F7
330
2D8F1
330
2D8F3
330
2D8CE
 75
     0
 76
     1
 52
0.0
 41
0.05
 77
     0
 78
     1
 53
45.0
 43
886.5646248728735
 44
1770.775311847593
 45
-0.1122532015133644
 46
0.1122532015133644
 79
     0
 98
        1
 10
886.5646248728735
 20
1770.775311847593
  0
LINE
  5
2D8CC
330
17
100
AcDbEntity
  8
0
 62
     7
100
AcDbLine
 10
954.364350989169
 20
1995.164293340294
 30
0.0
 11
954.364350989169
 21
1964.758693340294
 31
0.0
  0
LINE
  5
2D8CD
330
17
100
AcDbEntity
  8
0
 62
     7
100
AcDbLine
 10
950.2855509891688
 20
1995.164293340294
 30
0.0
 11
950.2855509891688
 21
1976.995093340294
 31
0.0
  0
LINE
  5
2D8CE
102
{ACAD_REACTORS
330
2D8CB
102
}
330
17
100
AcDbEntity
  8
0
 62
     7
100
AcDbLine
 10
956.2183509891688
 20
1982.186293340294
 30
0.0
 11
956.2183509891688
 21
1965.500293340294
 31
0.0
  0
LINE
  5
2D8CF
102
{ACAD_REACTORS
330
2D8CB
102
}
330
17
100
AcDbEntity
  8
0
 62
     7
100
AcDbLine
 10
960.2971509891688
 20
1982.186293340294
 30
0.0
 11
960.2971509891688
 21
1968.837493340294
 31
0.0
  0
LINE
  5
2D8D0
102
{ACAD_REACTORS
330
2D8CB
102
}
330
17
100
AcDbEntity
  8
0
 62
     7
100
AcDbLine
 10
969.1963509891687
 20
1982.186293340294
 30
0.0
 11
969.1963509891687
 21
1965.500293340294
 31
0.0
  0
LINE
  5
2D8D1
102
{ACAD_REACTORS
330
2D8C7
102
}
330
17
100
AcDbEntity
  8
0
 62
     7
100
AcDbLine
 10
971.0503509891692
 20
1963.646293340294
 30
0.0
 11
971.0503509891692
 21
1980.332293340294
 31
0.0
  0
LINE
  5
2D8D2
102
{ACAD_REACTORS
330
2D8CB
102
}
330
17
100
AcDbEntity
  8
0
 62
     7
100
AcDbLine
 10
965.1175509891691
 20
1982.186293340294
 30
0.0
 11
965.1175509891691
 21
1968.837493340294
 31
0.0
  0
ARC
  5
2D8D3
102
{ACAD_REACTORS
330
2D8C7
102
}
330
17
100
AcDbEntity
  8
0
 62
     7
100
AcDbCircle
 10
976.2415509891688
 20
1976.995093340294
 30
0.0
 40
1.112399999999998
100
AcDbArc
 50
90.0
 51
180.0
  0
ARC
  5
2D8D4
102
{ACAD_REACTORS
330
2D8C7
102
}
330
17
100
AcDbEntity
  8
0
 62
     7
100
AcDbCircle
 10
978.8371509891687
 20
1976.995093340294
 30
0.0
 40
1.112399999999998
100
AcDbArc
 50
0.0
 51
90.0
  0
HATCH
  5
2D8D5
330
17
100
AcDbEntity
  8
0
 62
     7
100
AcDbHatch
 10
0.0
 20
0.0
 30
0.0
210
0.0
220
0.0
230
1.0
  2
ANSI31
 70
     0
 71
     1
 91
        1
 92
        1
 93
       15
 72
     1
 10
1014.433950989167
 20
1982.186293340294
 11
1009.242750989169
 21
1982.186293340294
 72
     1
 10
1009.242750989169
 20
1982.186293340294
 11
1004.793150989168
 21
1974.770293340294
 72
     1
 10
1004.793150989168
 20
1974.770293340294
 11
1004.793150989168
 21
1995.164293340294
 72
     1
 10
1004.793150989168
 20
1995.164293340294
 11
1000.714350989168
 21
1995.164293340294
 72
     1
 10
1000.714350989168
 20
1995.164293340294
 11
1000.714350989168
 21
1963.646293340294
 72
     1
 10
1000.714350989168
 20
1963.646293340294
 11
1004.793150989168
 21
1963.646293340294
 72
     1
 10
1004.793150989168
 20
1963.646293340294
 11
1004.793150989168
 21
1970.691493340294
 72
     1
 10
1004.793150989168
 20
1970.691493340294
 11
1008.871950989169
 21
1970.691493340294
 72
     2
 10
1008.871950989169
 20
1969.579093340294
 40
1.112399999999998
 50
270.0
 51
360.0
 73
     0
 72
     1
 10
1009.984350989169
 20
1969.579093340294
 11
1009.984350989169
 21
1963.646293340294
 72
     1
 10
1009.984350989169
 20
1963.646293340294
 11
1014.063150989169
 21
1963.646293340294
 72
     1
 10
1014.063150989169
 20
1963.646293340294
 11
1014.063150989169
 21
1972.916293340294
 72
     2
 10
1012.209150989168
 20
1972.916293340294
 40
1.853999999999998
 50
0.0
 51
90.0
 73
     1
 72
     1
 10
1012.209150989168
 20
1974.770293340294
 11
1009.984350989169
 21
1974.770293340294
 72
     1
 10
1009.984350989169
 20
1974.770293340294
 11
1014.433950989167
 21
1982.186293340294
 97
       15
330
2D927
330
2D8DE
330
2D8DD
330
2D929
330
2D8DC
330
2D905
330
2D906
330
2D904
330
2D909
330
2D90A
330
2D908
330
2D907
330
2D902
330
2D90B
330
2D8D6
 75
     0
 76
     1
 52
0.0
 41
0.05
 77
     0
 78
     1
 53
45.0
 43
886.5646248728735
 44
1770.775311847593
 45
-0.1122532015133644
 46
0.1122532015133644
 79
     0
 98
        1
 10
886.5646248728735
 20
1770.775311847593
  0
LINE
  5
2D8D6
102
{ACAD_REACTORS
330
2D8D5
102
}
330
17
100
AcDbEntity
  8
0
 62
     7
100
AcDbLine
 10
1014.433950989167
 20
1982.186293340294
 30
0.0
 11
1009.984350989169
 21
1974.770293340294
 31
0.0
  0
HATCH
  5
2D8D7
330
17
100
AcDbEntity
  8
0
 62
     7
100
AcDbHatch
 10
0.0
 20
0.0
 30
0.0
210
0.0
220
0.0
230
1.0
  2
ANSI31
 70
     0
 71
     1
 91
        2
 92
        1
 93
        8
 72
     1
 10
997.0063509891687
 20
1982.186293340294
 11
987.7363509891688
 21
1982.186293340294
 72
     2
 10
987.7363509891688
 20
1980.332293340294
 40
1.853999999999998
 50
90.0
 51
180.0
 73
     1
 72
     1
 10
985.882350989169
 20
1980.332293340294
 11
985.882350989169
 21
1965.500293340294
 72
     2
 10
987.7363509891688
 20
1965.500293340294
 40
1.853999999999998
 50
180.0
 51
270.0
 73
     1
 72
     1
 10
987.7363509891688
 20
1963.646293340294
 11
997.0063509891687
 21
1963.646293340294
 72
     2
 10
997.0063509891687
 20
1965.500293340294
 40
1.853999999999998
 50
270.0
 51
360.0
 73
     1
 72
     1
 10
998.8603509891687
 20
1965.500293340294
 11
998.8603509891687
 21
1980.332293340294
 72
     2
 10
997.0063509891687
 20
1980.332293340294
 40
1.853999999999998
 50
0.0
 51
90.0
 73
     1
 97
        8
330
2D922
330
2D925
330
2D8D9
330
2D8FC
330
2D8F9
330
2D903
330
2D8DF
330
2D928
 92
       16
 93
        8
 72
     2
 10
993.6691509891687
 20
1976.995093340294
 40
1.112399999999998
 50
0.0
 51
90.0
 73
     1
 72
     1
 10
993.6691509891687
 20
1978.107493340294
 11
991.0735509891688
 21
1978.107493340294
 72
     2
 10
991.0735509891688
 20
1976.995093340294
 40
1.112399999999998
 50
90.0
 51
180.0
 73
     1
 72
     1
 10
989.9611509891688
 20
1976.995093340294
 11
989.9611509891688
 21
1968.837493340294
 72
     2
 10
991.0735509891688
 20
1968.837493340294
 40
1.112399999999998
 50
180.0
 51
270.0
 73
     1
 72
     1
 10
991.0735509891688
 20
1967.725093340294
 11
993.6691509891687
 21
1967.725093340294
 72
     2
 10
993.6691509891687
 20
1968.837493340294
 40
1.112399999999998
 50
270.0
 51
360.0
 73
     1
 72
     1
 10
994.7815509891688
 20
1968.837493340294
 11
994.7815509891688
 21
1976.995093340294
 97
        8
330
2D8DB
330
2D926
330
2D8DA
330
2D8FD
330
2D900
330
2D8FF
330
2D901
330
2D8FE
 75
     0
 76
     1
 52
0.0
 41
0.05
 77
     0
 78
     1
 53
45.0
 43
886.5646248728735
 44
1770.775311847593
 45
-0.1122532015133644
 46
0.1122532015133644
 79
     0
 98
        1
 10
886.5646248728735
 20
1770.775311847593
  0
LINE
  5
2D8D8
102
{ACAD_REACTORS
330
2D8C7
102
}
330
17
100
AcDbEntity
  8
0
 62
     7
100
AcDbLine
 10
984.0283509891687
 20
1963.646293340294
 30
0.0
 11
984.0283509891687
 21
1980.332293340294
 31
0.0
  0
LINE
  5
2D8D9
102
{ACAD_REACTORS
330
2D8D7
102
}
330
17
100
AcDbEntity
  8
0
 62
     7
100
AcDbLine
 10
985.882350989169
 20
1965.500293340294
 30
0.0
 11
985.882350989169
 21
1980.332293340294
 31
0.0
  0
ARC
  5
2D8DA
102
{ACAD_REACTORS
330
2D8D7
102
}
330
17
100
AcDbEntity
  8
0
 62
     7
100
AcDbCircle
 10
991.0735509891688
 20
1976.995093340294
 30
0.0
 40
1.112399999999998
100
AcDbArc
 50
90.0
 51
180.0
  0
ARC
  5
2D8DB
102
{ACAD_REACTORS
330
2D8D7
102
}
330
17
100
AcDbEntity
  8
0
 62
     7
100
AcDbCircle
 10
993.6691509891687
 20
1976.995093340294
 30
0.0
 40
1.112399999999998
100
AcDbArc
 50
0.0
 51
90.0
  0
LINE
  5
2D8DC
102
{ACAD_REACTORS
330
2D8D5
102
}
330
17
100
AcDbEntity
  8
0
 62
     7
100
AcDbLine
 10
1000.714350989168
 20
1963.646293340294
 30
0.0
 11
1000.714350989168
 21
1995.164293340294
 31
0.0
  0
LINE
  5
2D8DD
102
{ACAD_REACTORS
330
2D8D5
102
}
330
17
100
AcDbEntity
  8
0
 62
     7
100
AcDbLine
 10
1004.793150989168
 20
1974.770293340294
 30
0.0
 11
1004.793150989168
 21
1995.164293340294
 31
0.0
  0
LINE
  5
2D8DE
102
{ACAD_REACTORS
330
2D8D5
102
}
330
17
100
AcDbEntity
  8
0
 62
     7
100
AcDbLine
 10
1009.242750989169
 20
1982.186293340294
 30
0.0
 11
1004.793150989168
 21
1974.770293340294
 31
0.0
  0
LINE
  5
2D8DF
102
{ACAD_REACTORS
330
2D8D7
102
}
330
17
100
AcDbEntity
  8
0
 62
     7
100
AcDbLine
 10
998.8603509891687
 20
1965.500293340294
 30
0.0
 11
998.8603509891687
 21
1980.332293340294
 31
0.0
  0
LINE
  5
2D8E0
330
17
100
AcDbEntity
  8
0
 62
     7
100
AcDbLine
 10
1032.645550989168
 20
1955.166293340294
 30
0.0
 11
1032.645550989168
 21
1995.166293340294
 31
0.0
  0
HATCH
  5
2D8E1
330
17
100
AcDbEntity
  8
0
 62
     7
100
AcDbHatch
 10
0.0
 20
0.0
 30
0.0
210
0.0
220
0.0
230
1.0
  2
ANSI31
 70
     0
 71
     1
 91
        2
 92
        1
 93
       12
 72
     1
 10
1027.041150989169
 20
1982.186293340294
 11
1015.917150989168
 21
1982.186293340294
 72
     1
 10
1015.917150989168
 20
1982.186293340294
 11
1015.917150989168
 21
1978.107493340294
 72
     1
 10
1015.917150989168
 20
1978.107493340294
 11
1024.816350989168
 21
1978.107493340294
 72
     1
 10
1024.816350989168
 20
1978.107493340294
 11
1024.816350989168
 21
1974.770293340294
 72
     1
 10
1024.816350989168
 20
1974.770293340294
 11
1017.771150989168
 21
1974.770293340294
 72
     2
 10
1017.771150989168
 20
1972.916293340294
 40
1.853999999999998
 50
90.0
 51
180.0
 73
     1
 72
     1
 10
1015.917150989168
 20
1972.916293340294
 11
1015.917150989168
 21
1965.500293340294
 72
     2
 10
1017.771150989168
 20
1965.500293340294
 40
1.853999999999998
 50
180.0
 51
270.0
 73
     1
 72
     1
 10
1017.771150989168
 20
1963.646293340294
 11
1027.041150989169
 21
1963.646293340294
 72
     2
 10
1027.041150989169
 20
1965.500293340294
 40
1.853999999999998
 50
270.0
 51
360.0
 73
     1
 72
     1
 10
1028.895150989169
 20
1965.500293340294
 11
1028.895150989169
 21
1980.332293340294
 72
     2
 10
1027.041150989169
 20
1980.332293340294
 40
1.853999999999998
 50
0.0
 51
90.0
 73
     1
 97
       12
330
2D918
330
2D92A
330
2D919
330
2D8E3
330
2D90F
330
2D8E7
330
2D90C
330
2D8E6
330
2D90E
330
2D916
330
2D8E2
330
2D92B
 92
       16
 93
        6
 72
     2
 10
1021.108350989168
 20
1969.579093340294
 40
1.112399999999998
 50
90.0
 51
180.0
 73
     1
 72
     1
 10
1019.995950989168
 20
1969.579093340294
 11
1019.995950989168
 21
1968.837493340294
 72
     2
 10
1021.108350989168
 20
1968.837493340294
 40
1.112399999999998
 50
180.0
 51
270.0
 73
     1
 72
     1
 10
1021.108350989168
 20
1967.725093340294
 11
1024.816350989168
 21
1967.725093340294
 72
     1
 10
1024.816350989168
 20
1967.725093340294
 11
1024.816350989168
 21
1970.691493340294
 72
     1
 10
1024.816350989168
 20
1970.691493340294
 11
1021.108350989168
 21
1970.691493340294
 97
        6
330
2D912
330
2D914
330
2D913
330
2D910
330
2D915
330
2D911
 75
     0
 76
     1
 52
0.0
 41
0.05
 77
     0
 78
     1
 53
45.0
 43
886.5646248728735
 44
1770.775311847593
 45
-0.1122532015133644
 46
0.1122532015133644
 79
     0
 98
        1
 10
886.5646248728735
 20
1770.775311847593
  0
LINE
  5
2D8E2
102
{ACAD_REACTORS
330
2D8E1
102
}
330
17
100
AcDbEntity
  8
0
 62
     7
100
AcDbLine
 10
1028.895150989169
 20
1980.332293340294
 30
0.0
 11
1028.895150989169
 21
1965.500293340294
 31
0.0
  0
LINE
  5
2D8E3
102
{ACAD_REACTORS
330
2D8E1
102
}
330
17
100
AcDbEntity
  8
0
 62
     7
100
AcDbLine
 10
1024.816350989168
 20
1978.107493340294
 30
0.0
 11
1024.816350989168
 21
1974.770293340294
 31
0.0
  0
LINE
  5
2D8E4
330
17
100
AcDbEntity
  8
0
 62
     7
100
AcDbLine
 10
937.6455509891687
 20
1995.166293340294
 30
0.0
 11
937.6455509891687
 21
1955.166293340294
 31
0.0
  0
LINE
  5
2D8E5
330
17
100
AcDbEntity
  8
0
 62
     7
100
AcDbLine
 10
939.6455509891687
 20
1953.166293340294
 30
0.0
 11
1030.645550989168
 21
1953.166293340294
 31
0.0
  0
ARC
  5
2D8E6
102
{ACAD_REACTORS
330
2D8E1
102
}
330
17
100
AcDbEntity
  8
0
 62
     7
100
AcDbCircle
 10
1017.771150989168
 20
1965.500293340294
 30
0.0
 40
1.853999999999998
100
AcDbArc
 50
180.0
 51
270.0
  0
ARC
  5
2D8E7
102
{ACAD_REACTORS
330
2D8E1
102
}
330
17
100
AcDbEntity
  8
0
 62
     7
100
AcDbCircle
 10
1017.771150989168
 20
1972.916293340294
 30
0.0
 40
1.853999999999998
100
AcDbArc
 50
90.0
 51
180.0
  0
ARC
  5
2D8E8
330
17
100
AcDbEntity
  8
0
 62
     7
100
AcDbCircle
 10
939.532350989169
 20
1964.697334454893
 30
0.0
 40
14.832
100
AcDbArc
 50
321.8427734126485
 51
0.0
  0
LINE
  5
2D8E9
330
17
100
AcDbEntity
  8
0
 62
     7
100
AcDbLine
 10
943.2403509891692
 20
1972.916293340294
 30
0.0
 11
950.2855509891688
 21
1972.916293340294
 31
0.0
  0
LINE
  5
2D8EA
330
17
100
AcDbEntity
  8
0
 62
     7
100
AcDbLine
 10
946.5775509891692
 20
1976.995093340294
 30
0.0
 11
950.2855509891688
 21
1976.995093340294
 31
0.0
  0
ARC
  5
2D8EB
330
17
100
AcDbEntity
  8
0
 62
     7
100
AcDbCircle
 10
943.2403509891692
 20
1974.770293340294
 30
0.0
 40
1.853999999999998
100
AcDbArc
 50
180.0
 51
270.0
  0
LINE
  5
2D8EC
330
17
100
AcDbEntity
  8
0
 62
     7
100
AcDbLine
 10
950.2855509891688
 20
1972.916293340294
 30
0.0
 11
950.2855509891688
 21
1954.376293340294
 31
0.0
  0
LINE
  5
2D8ED
330
17
100
AcDbEntity
  8
0
 62
     7
100
AcDbLine
 10
951.1950245905833
 20
1955.533805196639
 30
0.0
 11
950.2855509891688
 21
1954.376293340294
 31
0.0
  0
LINE
  5
2D8EE
330
17
100
AcDbEntity
  8
0
 62
     7
100
AcDbLine
 10
954.364350989169
 20
1964.758693340294
 30
0.0
 11
954.364350989169
 21
1964.697334454893
 31
0.0
  0
LINE
  5
2D8EF
330
17
100
AcDbEntity
  8
0
 62
     7
100
AcDbLine
 10
954.364350989169
 20
1964.758693340294
 30
0.0
 11
954.364350989169
 21
1964.697334454893
 31
0.0
  0
ARC
  5
2D8F0
330
17
100
AcDbEntity
  8
0
 62
     7
100
AcDbCircle
 10
939.6455509891687
 20
1955.166293340294
 30
0.0
 40
2.0
100
AcDbArc
 50
180.0
 51
270.0
  0
LINE
  5
2D8F1
102
{ACAD_REACTORS
330
2D8CB
102
}
330
17
100
AcDbEntity
  8
0
 62
     7
100
AcDbLine
 10
958.072350989169
 20
1963.646293340294
 30
0.0
 11
967.3423509891691
 21
1963.646293340294
 31
0.0
  0
ARC
  5
2D8F2
102
{ACAD_REACTORS
330
2D8CB
102
}
330
17
100
AcDbEntity
  8
0
 62
     7
100
AcDbCircle
 10
964.0051509891693
 20
1968.837493340294
 30
0.0
 40
1.112399999999998
100
AcDbArc
 50
270.0
 51
0.0
  0
ARC
  5
2D8F3
102
{ACAD_REACTORS
330
2D8CB
102
}
330
17
100
AcDbEntity
  8
0
 62
     7
100
AcDbCircle
 10
958.072350989169
 20
1965.500293340294
 30
0.0
 40
1.853999999999998
100
AcDbArc
 50
180.0
 51
270.0
  0
ARC
  5
2D8F4
102
{ACAD_REACTORS
330
2D8CB
102
}
330
17
100
AcDbEntity
  8
0
 62
     7
100
AcDbCircle
 10
961.409550989169
 20
1968.837493340294
 30
0.0
 40
1.112399999999998
100
AcDbArc
 50
180.0
 51
270.0
  0
LINE
  5
2D8F5
102
{ACAD_REACTORS
330
2D8CB
102
}
330
17
100
AcDbEntity
  8
0
 62
     7
100
AcDbLine
 10
961.409550989169
 20
1967.725093340294
 30
0.0
 11
964.0051509891693
 21
1967.725093340294
 31
0.0
  0
LINE
  5
2D8F6
102
{ACAD_REACTORS
330
2D8C7
102
}
330
17
100
AcDbEntity
  8
0
 62
     7
100
AcDbLine
 10
971.0503509891692
 20
1963.646293340294
 30
0.0
 11
975.1291509891688
 21
1963.646293340294
 31
0.0
  0
ARC
  5
2D8F7
102
{ACAD_REACTORS
330
2D8CB
102
}
330
17
100
AcDbEntity
  8
0
 62
     7
100
AcDbCircle
 10
967.3423509891691
 20
1965.500293340294
 30
0.0
 40
1.853999999999998
100
AcDbArc
 50
270.0
 51
0.0
  0
LINE
  5
2D8F8
102
{ACAD_REACTORS
330
2D8C7
102
}
330
17
100
AcDbEntity
  8
0
 62
     7
100
AcDbLine
 10
975.1291509891688
 20
1963.646293340294
 30
0.0
 11
975.1291509891688
 21
1976.995093340294
 31
0.0
  0
LINE
  5
2D8F9
102
{ACAD_REACTORS
330
2D8D7
102
}
330
17
100
AcDbEntity
  8
0
 62
     7
100
AcDbLine
 10
997.0063509891687
 20
1963.646293340294
 30
0.0
 11
987.7363509891688
 21
1963.646293340294
 31
0.0
  0
LINE
  5
2D8FA
102
{ACAD_REACTORS
330
2D8C7
102
}
330
17
100
AcDbEntity
  8
0
 62
     7
100
AcDbLine
 10
979.949550989169
 20
1963.646293340294
 30
0.0
 11
984.0283509891687
 21
1963.646293340294
 31
0.0
  0
LINE
  5
2D8FB
102
{ACAD_REACTORS
330
2D8C7
102
}
330
17
100
AcDbEntity
  8
0
 62
     7
100
AcDbLine
 10
979.949550989169
 20
1963.646293340294
 30
0.0
 11
979.949550989169
 21
1976.995093340294
 31
0.0
  0
ARC
  5
2D8FC
102
{ACAD_REACTORS
330
2D8D7
102
}
330
17
100
AcDbEntity
  8
0
 62
     7
100
AcDbCircle
 10
987.7363509891688
 20
1965.500293340294
 30
0.0
 40
1.853999999999998
100
AcDbArc
 50
180.0
 51
270.0
  0
LINE
  5
2D8FD
102
{ACAD_REACTORS
330
2D8D7
102
}
330
17
100
AcDbEntity
  8
0
 62
     7
100
AcDbLine
 10
989.9611509891688
 20
1968.837493340294
 30
0.0
 11
989.9611509891688
 21
1976.995093340294
 31
0.0
  0
LINE
  5
2D8FE
102
{ACAD_REACTORS
330
2D8D7
102
}
330
17
100
AcDbEntity
  8
0
 62
     7
100
AcDbLine
 10
994.7815509891688
 20
1968.837493340294
 30
0.0
 11
994.7815509891688
 21
1976.995093340294
 31
0.0
  0
LINE
  5
2D8FF
102
{ACAD_REACTORS
330
2D8D7
102
}
330
17
100
AcDbEntity
  8
0
 62
     7
100
AcDbLine
 10
993.6691509891687
 20
1967.725093340294
 30
0.0
 11
991.0735509891688
 21
1967.725093340294
 31
0.0
  0
ARC
  5
2D900
102
{ACAD_REACTORS
330
2D8D7
102
}
330
17
100
AcDbEntity
  8
0
 62
     7
100
AcDbCircle
 10
991.0735509891688
 20
1968.837493340294
 30
0.0
 40
1.112399999999998
100
AcDbArc
 50
180.0
 51
270.0
  0
ARC
  5
2D901
102
{ACAD_REACTORS
330
2D8D7
102
}
330
17
100
AcDbEntity
  8
0
 62
     7
100
AcDbCircle
 10
993.6691509891687
 20
1968.837493340294
 30
0.0
 40
1.112399999999998
100
AcDbArc
 50
270.0
 51
0.0
  0
ARC
  5
2D902
102
{ACAD_REACTORS
330
2D8D5
102
}
330
17
100
AcDbEntity
  8
0
 62
     7
100
AcDbCircle
 10
1012.209150989168
 20
1972.916293340294
 30
0.0
 40
1.853999999999998
100
AcDbArc
 50
0.0
 51
90.0
  0
ARC
  5
2D903
102
{ACAD_REACTORS
330
2D8D7
102
}
330
17
100
AcDbEntity
  8
0
 62
     7
100
AcDbCircle
 10
997.0063509891687
 20
1965.500293340294
 30
0.0
 40
1.853999999999998
100
AcDbArc
 50
270.0
 51
0.0
  0
LINE
  5
2D904
102
{ACAD_REACTORS
330
2D8D5
102
}
330
17
100
AcDbEntity
  8
0
 62
     7
100
AcDbLine
 10
1004.793150989168
 20
1970.691493340294
 30
0.0
 11
1008.871950989169
 21
1970.691493340294
 31
0.0
  0
LINE
  5
2D905
102
{ACAD_REACTORS
330
2D8D5
102
}
330
17
100
AcDbEntity
  8
0
 62
     7
100
AcDbLine
 10
1004.793150989168
 20
1963.646293340294
 30
0.0
 11
1000.714350989168
 21
1963.646293340294
 31
0.0
  0
LINE
  5
2D906
102
{ACAD_REACTORS
330
2D8D5
102
}
330
17
100
AcDbEntity
  8
0
 62
     7
100
AcDbLine
 10
1004.793150989168
 20
1963.646293340294
 30
0.0
 11
1004.793150989168
 21
1970.691493340294
 31
0.0
  0
LINE
  5
2D907
102
{ACAD_REACTORS
330
2D8D5
102
}
330
17
100
AcDbEntity
  8
0
 62
     7
100
AcDbLine
 10
1014.063150989169
 20
1972.916293340294
 30
0.0
 11
1014.063150989169
 21
1963.646293340294
 31
0.0
  0
LINE
  5
2D908
102
{ACAD_REACTORS
330
2D8D5
102
}
330
17
100
AcDbEntity
  8
0
 62
     7
100
AcDbLine
 10
1014.063150989169
 20
1963.646293340294
 30
0.0
 11
1009.984350989169
 21
1963.646293340294
 31
0.0
  0
ARC
  5
2D909
102
{ACAD_REACTORS
330
2D8D5
102
}
330
17
100
AcDbEntity
  8
0
 62
     7
100
AcDbCircle
 10
1008.871950989169
 20
1969.579093340294
 30
0.0
 40
1.112399999999998
100
AcDbArc
 50
0.0
 51
90.0
  0
LINE
  5
2D90A
102
{ACAD_REACTORS
330
2D8D5
102
}
330
17
100
AcDbEntity
  8
0
 62
     7
100
AcDbLine
 10
1009.984350989169
 20
1969.579093340294
 30
0.0
 11
1009.984350989169
 21
1963.646293340294
 31
0.0
  0
LINE
  5
2D90B
102
{ACAD_REACTORS
330
2D8D5
102
}
330
17
100
AcDbEntity
  8
0
 62
     7
100
AcDbLine
 10
1009.984350989169
 20
1974.770293340294
 30
0.0
 11
1012.209150989168
 21
1974.770293340294
 31
0.0
  0
LINE
  5
2D90C
102
{ACAD_REACTORS
330
2D8E1
102
}
330
17
100
AcDbEntity
  8
0
 62
     7
100
AcDbLine
 10
1015.917150989168
 20
1972.916293340294
 30
0.0
 11
1015.917150989168
 21
1965.500293340294
 31
0.0
  0
ARC
  5
2D90D
330
17
100
AcDbEntity
  8
0
 62
     7
100
AcDbCircle
 10
1030.645550989168
 20
1955.166293340294
 30
0.0
 40
2.0
100
AcDbArc
 50
270.0
 51
0.0
  0
LINE
  5
2D90E
102
{ACAD_REACTORS
330
2D8E1
102
}
330
17
100
AcDbEntity
  8
0
 62
     7
100
AcDbLine
 10
1027.041150989169
 20
1963.646293340294
 30
0.0
 11
1017.771150989168
 21
1963.646293340294
 31
0.0
  0
LINE
  5
2D90F
102
{ACAD_REACTORS
330
2D8E1
102
}
330
17
100
AcDbEntity
  8
0
 62
     7
100
AcDbLine
 10
1017.771150989168
 20
1974.770293340294
 30
0.0
 11
1024.816350989168
 21
1974.770293340294
 31
0.0
  0
LINE
  5
2D910
102
{ACAD_REACTORS
330
2D8E1
102
}
330
17
100
AcDbEntity
  8
0
 62
     7
100
AcDbLine
 10
1024.816350989168
 20
1967.725093340294
 30
0.0
 11
1021.108350989168
 21
1967.725093340294
 31
0.0
  0
LINE
  5
2D911
102
{ACAD_REACTORS
330
2D8E1
102
}
330
17
100
AcDbEntity
  8
0
 62
     7
100
AcDbLine
 10
1021.108350989168
 20
1970.691493340294
 30
0.0
 11
1024.816350989168
 21
1970.691493340294
 31
0.0
  0
ARC
  5
2D912
102
{ACAD_REACTORS
330
2D8E1
102
}
330
17
100
AcDbEntity
  8
0
 62
     7
100
AcDbCircle
 10
1021.108350989168
 20
1969.579093340294
 30
0.0
 40
1.112399999999998
100
AcDbArc
 50
90.0
 51
180.0
  0
ARC
  5
2D913
102
{ACAD_REACTORS
330
2D8E1
102
}
330
17
100
AcDbEntity
  8
0
 62
     7
100
AcDbCircle
 10
1021.108350989168
 20
1968.837493340294
 30
0.0
 40
1.112399999999998
100
AcDbArc
 50
180.0
 51
270.0
  0
LINE
  5
2D914
102
{ACAD_REACTORS
330
2D8E1
102
}
330
17
100
AcDbEntity
  8
0
 62
     7
100
AcDbLine
 10
1019.995950989168
 20
1969.579093340294
 30
0.0
 11
1019.995950989168
 21
1968.837493340294
 31
0.0
  0
LINE
  5
2D915
102
{ACAD_REACTORS
330
2D8E1
102
}
330
17
100
AcDbEntity
  8
0
 62
     7
100
AcDbLine
 10
1024.816350989168
 20
1970.691493340294
 30
0.0
 11
1024.816350989168
 21
1967.725093340294
 31
0.0
  0
ARC
  5
2D916
102
{ACAD_REACTORS
330
2D8E1
102
}
330
17
100
AcDbEntity
  8
0
 62
     7
100
AcDbCircle
 10
1027.041150989169
 20
1965.500293340294
 30
0.0
 40
1.853999999999998
100
AcDbArc
 50
270.0
 51
0.0
  0
LINE
  5
2D917
330
17
100
AcDbEntity
  8
0
 62
     7
100
AcDbLine
 10
1030.645550989168
 20
1997.166293340294
 30
0.0
 11
939.6455509891687
 21
1997.166293340294
 31
0.0
  0
LINE
  5
2D918
102
{ACAD_REACTORS
330
2D8E1
102
}
330
17
100
AcDbEntity
  8
0
 62
     7
100
AcDbLine
 10
1027.041150989169
 20
1982.186293340294
 30
0.0
 11
1015.917150989168
 21
1982.186293340294
 31
0.0
  0
LINE
  5
2D919
102
{ACAD_REACTORS
330
2D8E1
102
}
330
17
100
AcDbEntity
  8
0
 62
     7
100
AcDbLine
 10
1024.816350989168
 20
1978.107493340294
 30
0.0
 11
1015.917150989168
 21
1978.107493340294
 31
0.0
  0
LINE
  5
2D91A
102
{ACAD_REACTORS
330
2D8C7
102
}
330
17
100
AcDbEntity
  8
0
 62
     7
100
AcDbLine
 10
972.904350989169
 20
1982.186293340294
 30
0.0
 11
982.1743509891687
 21
1982.186293340294
 31
0.0
  0
LINE
  5
2D91B
330
17
100
AcDbEntity
  8
0
 62
     7
100
AcDbLine
 10
945.4651509891691
 20
1995.164293340294
 30
0.0
 11
945.4651509891691
 21
1978.107493340294
 31
0.0
  0
LINE
  5
2D91C
330
17
100
AcDbEntity
  8
0
 62
     7
100
AcDbLine
 10
941.3863509891688
 20
1995.164293340294
 30
0.0
 11
945.4651509891691
 21
1995.164293340294
 31
0.0
  0
LINE
  5
2D91D
330
17
100
AcDbEntity
  8
0
 62
     7
100
AcDbLine
 10
950.2855509891688
 20
1995.164293340294
 30
0.0
 11
954.364350989169
 21
1995.164293340294
 31
0.0
  0
ARC
  5
2D91E
330
17
100
AcDbEntity
  8
0
 62
     7
100
AcDbCircle
 10
939.6455509891687
 20
1995.166293340294
 30
0.0
 40
2.0
100
AcDbArc
 50
90.0
 51
180.0
  0
LINE
  5
2D91F
102
{ACAD_REACTORS
330
2D8CB
102
}
330
17
100
AcDbEntity
  8
0
 62
     7
100
AcDbLine
 10
956.2183509891688
 20
1982.186293340294
 30
0.0
 11
960.2971509891688
 21
1982.186293340294
 31
0.0
  0
LINE
  5
2D920
102
{ACAD_REACTORS
330
2D8CB
102
}
330
17
100
AcDbEntity
  8
0
 62
     7
100
AcDbLine
 10
965.1175509891691
 20
1982.186293340294
 30
0.0
 11
969.1963509891687
 21
1982.186293340294
 31
0.0
  0
ARC
  5
2D921
102
{ACAD_REACTORS
330
2D8C7
102
}
330
17
100
AcDbEntity
  8
0
 62
     7
100
AcDbCircle
 10
972.904350989169
 20
1980.332293340294
 30
0.0
 40
1.853999999999998
100
AcDbArc
 50
90.0
 51
180.0
  0
LINE
  5
2D922
102
{ACAD_REACTORS
330
2D8D7
102
}
330
17
100
AcDbEntity
  8
0
 62
     7
100
AcDbLine
 10
997.0063509891687
 20
1982.186293340294
 30
0.0
 11
987.7363509891688
 21
1982.186293340294
 31
0.0
  0
LINE
  5
2D923
102
{ACAD_REACTORS
330
2D8C7
102
}
330
17
100
AcDbEntity
  8
0
 62
     7
100
AcDbLine
 10
976.2415509891688
 20
1978.107493340294
 30
0.0
 11
978.8371509891687
 21
1978.107493340294
 31
0.0
  0
ARC
  5
2D924
102
{ACAD_REACTORS
330
2D8C7
102
}
330
17
100
AcDbEntity
  8
0
 62
     7
100
AcDbCircle
 10
982.1743509891687
 20
1980.332293340294
 30
0.0
 40
1.853999999999998
100
AcDbArc
 50
0.0
 51
90.0
  0
ARC
  5
2D925
102
{ACAD_REACTORS
330
2D8D7
102
}
330
17
100
AcDbEntity
  8
0
 62
     7
100
AcDbCircle
 10
987.7363509891688
 20
1980.332293340294
 30
0.0
 40
1.853999999999998
100
AcDbArc
 50
90.0
 51
180.0
  0
LINE
  5
2D926
102
{ACAD_REACTORS
330
2D8D7
102
}
330
17
100
AcDbEntity
  8
0
 62
     7
100
AcDbLine
 10
993.6691509891687
 20
1978.107493340294
 30
0.0
 11
991.0735509891688
 21
1978.107493340294
 31
0.0
  0
LINE
  5
2D927
102
{ACAD_REACTORS
330
2D8D5
102
}
330
17
100
AcDbEntity
  8
0
 62
     7
100
AcDbLine
 10
1014.433950989167
 20
1982.186293340294
 30
0.0
 11
1009.242750989169
 21
1982.186293340294
 31
0.0
  0
ARC
  5
2D928
102
{ACAD_REACTORS
330
2D8D7
102
}
330
17
100
AcDbEntity
  8
0
 62
     7
100
AcDbCircle
 10
997.0063509891687
 20
1980.332293340294
 30
0.0
 40
1.853999999999998
100
AcDbArc
 50
0.0
 51
90.0
  0
LINE
  5
2D929
102
{ACAD_REACTORS
330
2D8D5
102
}
330
17
100
AcDbEntity
  8
0
 62
     7
100
AcDbLine
 10
1000.714350989168
 20
1995.164293340294
 30
0.0
 11
1004.793150989168
 21
1995.164293340294
 31
0.0
  0
LINE
  5
2D92A
102
{ACAD_REACTORS
330
2D8E1
102
}
330
17
100
AcDbEntity
  8
0
 62
     7
100
AcDbLine
 10
1015.917150989168
 20
1982.186293340294
 30
0.0
 11
1015.917150989168
 21
1978.107493340294
 31
0.0
  0
ARC
  5
2D92B
102
{ACAD_REACTORS
330
2D8E1
102
}
330
17
100
AcDbEntity
  8
0
 62
     7
100
AcDbCircle
 10
1027.041150989169
 20
1980.332293340294
 30
0.0
 40
1.853999999999998
100
AcDbArc
 50
0.0
 51
90.0
  0
ARC
  5
2D92C
330
17
100
AcDbEntity
  8
0
 62
     7
100
AcDbCircle
 10
1030.645550989168
 20
1995.166293340294
 30
0.0
 40
2.0
100
AcDbArc
 50
0.0
 51
90.0
  0
TEXT
  5
2DACB
330
17
100
AcDbEntity
  8
0
 62
     7
370
    18
100
AcDbText
 10
2171.026769592067
 20
1828.876574522616
 30
0.0
 40
48.0
  1
リモコンケーブル引込口
 41
0.8
100
AcDbText
  0
TEXT
  5
2DACC
330
17
100
AcDbEntity
  8
0
 62
     7
370
    18
100
AcDbText
 10
2171.026769592067
 20
1908.876574522617
 30
0.0
 40
48.0
  1
100・200V補助電源引込口
 41
0.8
100
AcDbText
  0
LINE
  5
2DACD
330
17
100
AcDbEntity
  8
WAKU
 62
     7
100
AcDbLine
 10
2830.4422361379
 20
2129.667808085736
 30
0.0
 11
2030.442236137897
 21
2129.667808085736
 31
0.0
  0
LINE
  5
2DACE
330
17
100
AcDbEntity
  8
WAKU
 62
     7
100
AcDbLine
 10
2030.442236137897
 20
2049.667808085736
 30
0.0
 11
2830.4422361379
 21
2049.667808085736
 31
0.0
  0
TEXT
  5
2DACF
330
17
100
AcDbEntity
  8
DIMTEXT
 62
     7
100
AcDbText
 10
2340.147142356088
 20
2065.667808085736
 30
0.0
 40
48.0
  1
名      称
 41
0.8
 72
     1
 11
2450.227142356088
 21
2089.667808085736
 31
0.0
100
AcDbText
 73
     2
  0
LINE
  5
2DAD0
330
17
100
AcDbEntity
  8
WAKU
 62
     7
100
AcDbLine
 10
2030.442236137897
 20
1809.667808085737
 30
0.0
 11
2830.4422361379
 21
1809.667808085737
 31
0.0
  0
LINE
  5
2DAD1
330
17
100
AcDbEntity
  8
WAKU
 62
     7
100
AcDbLine
 10
2030.442236137897
 20
1889.667808085736
 30
0.0
 11
2830.4422361379
 21
1889.667808085736
 31
0.0
  0
LINE
  5
2DAD2
330
17
100
AcDbEntity
  8
WAKU
 62
     7
100
AcDbLine
 10
2030.442236137897
 20
1969.667808085736
 30
0.0
 11
2830.4422361379
 21
1969.667808085736
 31
0.0
  0
TEXT
  5
2DAD3
330
17
100
AcDbEntity
  8
DIMTEXT
 62
     7
100
AcDbText
 10
2053.275837647138
 20
2065.667808085736
 30
0.0
 40
48.0
  1
番号
 41
0.8
 72
     1
 11
2094.235837647138
 21
2089.667808085736
 31
0.0
100
AcDbText
 73
     2
  0
LINE
  5
2DAD4
330
17
100
AcDbEntity
  8
WAKU
 62
     7
100
AcDbLine
 10
2030.442236137897
 20
2129.667808085736
 30
0.0
 11
2030.442236137897
 21
1809.667808085737
 31
0.0
  0
TEXT
  5
2DAD5
330
17
100
AcDbEntity
  8
0
 62
     7
370
    18
100
AcDbText
 10
2171.026769592067
 20
1988.876574522617
 30
0.0
 40
48.0
  1
200V電源引込口
 41
0.8
100
AcDbText
  0
LINE
  5
2DAD6
330
17
100
AcDbEntity
  8
WAKU
 62
     7
100
AcDbLine
 10
2155.532720380596
 20
2129.667808085736
 30
0.0
 11
2155.532720380596
 21
1809.667808085737
 31
0.0
  0
TEXT
  5
2DAD7
330
17
100
AcDbEntity
  8
DIMTEXT
 62
     7
100
AcDbText
 10
2081.435837647137
 20
1824.75481286155
 30
0.0
 40
48.0
  1
3
 41
0.8
 72
     1
 11
2094.235837647138
 21
1848.75481286155
 31
0.0
100
AcDbText
 73
     2
  0
TEXT
  5
2DAD8
330
17
100
AcDbEntity
  8
DIMTEXT
 62
     7
100
AcDbText
 10
2081.435837647137
 20
1904.75481286155
 30
0.0
 40
48.0
  1
2
 41
0.8
 72
     1
 11
2094.235837647138
 21
1928.75481286155
 31
0.0
100
AcDbText
 73
     2
  0
TEXT
  5
2DAD9
330
17
100
AcDbEntity
  8
DIMTEXT
 62
     7
100
AcDbText
 10
2089.664409075709
 20
1984.754812861549
 30
0.0
 40
48.0
  1
1
 41
0.8
 72
     1
 11
2094.235837647138
 21
2008.75481286155
 31
0.0
100
AcDbText
 73
     2
  0
LINE
  5
2DADA
330
17
100
AcDbEntity
  8
WAKU
 62
     7
100
AcDbLine
 10
2830.4422361379
 20
2129.667808085736
 30
0.0
 11
2830.4422361379
 21
1809.667808085737
 31
0.0
  0
LEADER
  5
2DADB
330
17
100
AcDbEntity
  8
DIM
100
AcDbLeader
  3
STANDARD
 76
     2
 10
2331.92837051656
 20
2612.673602045579
 30
0.0
 10
2208.238651092648
 20
2516.388170037263
 30
0.0
1001
SSE_BALOON
1005
2DAE5
1001
ACAD
1000
DSTYLE
1002
{
1070
    41
1040
3.0
1070
    42
1040
2.0
1070
    43
1040
10.0
1070
    44
1040
2.0
1070
    73
1070
     0
1070
    74
1070
     0
1070
    77
1070
     1
1070
    78
1070
     8
1070
    79
1070
     2
1070
   140
1040
3.2
1070
   147
1040
0.9999999999999996
1070
   172
1070
     1
1070
   179
1070
     4
1070
   271
1070
     2
1070
   272
1070
     2
1070
   341
1005
5132
1070
   342
1005
4A
1002
}
  0
INSERT
  5
2DAE5
330
17
100
AcDbEntity
  8
DIM
100
AcDbBlockReference
 66
     1
  2
SSE_BALOON1
 10
2172.729256745733
 20
2488.746120310167
 30
0.0
 41
45.0
 42
45.0
 43
45.0
1001
SSE_BALOON
1005
2DADB
  0
ATTRIB
  5
2DAE6
330
2DAE5
100
AcDbEntity
  8
DIMTEXT
100
AcDbText
 10
2169.157828174304
 20
2473.746120310167
 30
0.0
 40
30.0
  1
1
 72
     4
 11
2172.729256745733
 21
2488.746120310167
 31
0.0
100
AcDbAttribute
  2
BAL_NUM
 70
     0
  0
SEQEND
  5
2DAE7
330
2DAE5
100
AcDbEntity
  8
DIM
  0
LEADER
  5
2DAE9
330
17
100
AcDbEntity
  8
DIM
100
AcDbLeader
  3
STANDARD
 76
     2
 10
2421.928370516559
 20
2597.673602045579
 30
0.0
 10
2361.581380957273
 20
2523.628481291533
 30
0.0
1001
SSE_BALOON
1005
2DAEA
1001
ACAD
1000
DSTYLE
1002
{
1070
    41
1040
3.0
1070
    42
1040
2.0
1070
    43
1040
10.0
1070
    44
1040
2.0
1070
    73
1070
     0
1070
    74
1070
     0
1070
    77
1070
     1
1070
    78
1070
     8
1070
    79
1070
     2
1070
   140
1040
3.2
1070
   147
1040
0.9999999999999996
1070
   172
1070
     1
1070
   179
1070
     4
1070
   271
1070
     2
1070
   272
1070
     2
1070
   341
1005
5132
1070
   342
1005
4A
1002
}
  0
INSERT
  5
2DAEA
330
17
100
AcDbEntity
  8
DIM
100
AcDbBlockReference
 66
     1
  2
SSE_BALOON1
 10
2333.152154932536
 20
2488.746120310167
 30
0.0
 41
45.0
 42
45.0
 43
45.0
1001
SSE_BALOON
1005
2DAE9
  0
ATTRIB
  5
2DAEB
330
2DAEA
100
AcDbEntity
  8
DIMTEXT
100
AcDbText
 10
2323.152154932536
 20
2473.746120310167
 30
0.0
 40
30.0
  1
2
 72
     4
 11
2333.152154932536
 21
2488.746120310167
 31
0.0
100
AcDbAttribute
  2
BAL_NUM
 70
     0
  0
SEQEND
  5
2DAEC
330
2DAEA
100
AcDbEntity
  8
DIM
  0
LEADER
  5
2DAEE
330
17
100
AcDbEntity
  8
DIM
100
AcDbLeader
  3
STANDARD
 76
     2
 10
2511.928370516562
 20
2612.673602045579
 30
0.0
 10
2572.694446779455
 20
2525.642534902459
 30
0.0
1001
SSE_BALOON
1005
2DAEF
1001
ACAD
1000
DSTYLE
1002
{
1070
    41
1040
3.0
1070
    42
1040
2.0
1070
    43
1040
10.0
1070
    44
1040
2.0
1070
    73
1070
     0
1070
    74
1070
     0
1070
    77
1070
     1
1070
    78
1070
     8
1070
    79
1070
     2
1070
   140
1040
3.2
1070
   147
1040
0.9999999999999996
1070
   172
1070
     1
1070
   179
1070
     4
1070
   271
1070
     2
1070
   272
1070
     2
1070
   341
1005
5132
1070
   342
1005
4A
1002
}
  0
INSERT
  5
2DAEF
330
17
100
AcDbEntity
  8
DIM
100
AcDbBlockReference
 66
     1
  2
SSE_BALOON1
 10
2598.455941111767
 20
2488.746120310167
 30
0.0
 41
45.0
 42
45.0
 43
45.0
1001
SSE_BALOON
1005
2DAEE
  0
ATTRIB
  5
2DAF0
330
2DAEF
100
AcDbEntity
  8
DIMTEXT
100
AcDbText
 10
2588.455941111767
 20
2473.746120310167
 30
0.0
 40
30.0
  1
3
 72
     4
 11
2598.455941111767
 21
2488.746120310167
 31
0.0
100
AcDbAttribute
  2
BAL_NUM
 70
     0
  0
SEQEND
  5
2DAF1
330
2DAEF
100
AcDbEntity
  8
DIM
  0
LINE
  5
2DB04
330
17
100
AcDbEntity
  8
WAKU
 62
     7
100
AcDbLine
 10
3037.687343440971
 20
4177.769072248509
 30
0.0
 11
937.6873434409739
 21
4177.76907224851
 31
0.0
  0
TEXT
  5
2DB05
330
17
100
AcDbEntity
  8
DIMTEXT
 62
     7
100
AcDbText
 10
1474.344486298117
 20
4113.769072248511
 30
0.0
 40
48.0
  1
SM837B-H09
 41
0.8
 72
     1
 11
1662.687343440975
 21
4137.769072248511
 31
0.0
100
AcDbText
 73
     2
  0
TEXT
  5
2DB06
330
17
100
AcDbEntity
  8
DIMTEXT
 62
     7
100
AcDbText
 10
2005.14448629812
 20
4113.511722742679
 30
0.0
 40
48.0
  1
SM837BW-H12
 41
0.8
 72
     1
 11
2212.687343440977
 21
4137.511722742679
 31
0.0
100
AcDbText
 73
     2
  0
TEXT
  5
2DB5A
330
17
100
AcDbEntity
  8
DIMTEXT
 62
     7
100
AcDbText
 10
2575.258772012405
 20
4113.51172274268
 30
0.0
 40
48.0
  1
UM837B-H15
 41
0.8
 72
     1
 11
2762.687343440977
 21
4137.51172274268
 31
0.0
100
AcDbText
 73
     2
  0
ENDSEC
  0
SECTION
  2
OBJECTS
  0
DICTIONARY
  5
C
330
0
100
AcDbDictionary
281
     1
  3
ACAD_GROUP
350
D
  3
ACAD_LAYOUT
350
34
  3
ACAD_MLINESTYLE
350
1A
  3
ACAD_PLOTSETTINGS
350
35
  3
ACAD_PLOTSTYLENAME
350
32
  3
AcadDim
350
2C65E
  3
AcDbVariableDictionary
350
44
  0
DICTIONARY
  5
2C31C
330
2
100
AcDbDictionary
280
     1
281
     1
  3
ACAD_LAYERSTATES
360
2C31D
  0
DICTIONARY
  5
D
102
{ACAD_REACTORS
330
C
102
}
330
C
100
AcDbDictionary
281
     1
  3
*A1
350
3917
  3
*A10
350
14DF3
  3
*A2
350
14E80
  3
*A3
350
14E82
  3
*A4
350
17876
  3
*A5
350
3E2F
  3
*A6
350
14154
  3
*A7
350
14C46
  3
*A8
350
14C48
  3
*A9
350
14DF1
  0
DICTIONARY
  5
34
102
{ACAD_REACTORS
330
C
102
}
330
C
100
AcDbDictionary
281
     1
  3
Model
350
36
  3
ﾚｲｱｳﾄ1
350
37
  0
DICTIONARY
  5
1A
102
{ACAD_REACTORS
330
C
102
}
330
C
100
AcDbDictionary
281
     1
  3
STANDARD
350
1B
  0
DICTIONARY
  5
35
102
{ACAD_REACTORS
330
C
102
}
330
C
100
AcDbDictionary
281
     1
  0
ACDBDICTIONARYWDFLT
  5
32
102
{ACAD_REACTORS
330
C
102
}
330
C
100
AcDbDictionary
281
     1
  3
Normal
350
33
100
AcDbDictionaryWithDefault
340
33
  0
XRECORD
  5
2C65E
102
{ACAD_REACTORS
330
C
102
}
330
C
100
AcDbXrecord
280
     1
 90
   990106
  3

 60
     0
 61
     0
 62
     4
 63
     4
 64
     1
 65
     0
 66
     0
 67
     2
 68
     1
 69
     0
 70
     0
 71
     0
 72
     0
 40
0.0
170
     2
340
0
  0
DICTIONARY
  5
44
102
{ACAD_REACTORS
330
C
102
}
330
C
100
AcDbDictionary
281
     1
  3
DIMASSOC
350
45
  3
SORTENTS
350
6F8C
  0
DICTIONARY
  5
2C31D
102
{ACAD_REACTORS
330
2C31C
102
}
330
2C31C
100
AcDbDictionary
281
     1
  0
GROUP
  5
3917
102
{ACAD_REACTORS
330
D
102
}
330
D
100
AcDbGroup
300
SSE_Dim15
 70
     1
 71
     1
  0
GROUP
  5
14DF3
102
{ACAD_REACTORS
330
D
102
}
330
D
100
AcDbGroup
300

 70
     1
 71
     1
  0
GROUP
  5
14E80
102
{ACAD_REACTORS
330
D
102
}
330
D
100
AcDbGroup
300

 70
     1
 71
     1
  0
GROUP
  5
14E82
102
{ACAD_REACTORS
330
D
102
}
330
D
100
AcDbGroup
300

 70
     1
 71
     1
  0
GROUP
  5
17876
102
{ACAD_REACTORS
330
D
102
}
330
D
100
AcDbGroup
300

 70
     1
 71
     1
  0
GROUP
  5
3E2F
102
{ACAD_REACTORS
330
D
102
}
330
D
100
AcDbGroup
300

 70
     1
 71
     1
  0
GROUP
  5
14154
102
{ACAD_REACTORS
330
D
102
}
330
D
100
AcDbGroup
300

 70
     1
 71
     1
  0
GROUP
  5
14C46
102
{ACAD_REACTORS
330
D
102
}
330
D
100
AcDbGroup
300

 70
     1
 71
     1
  0
GROUP
  5
14C48
102
{ACAD_REACTORS
330
D
102
}
330
D
100
AcDbGroup
300

 70
     1
 71
     1
  0
GROUP
  5
14DF1
102
{ACAD_REACTORS
330
D
102
}
330
D
100
AcDbGroup
300

 70
     1
 71
     1
  0
LAYOUT
  5
36
102
{ACAD_REACTORS
330
34
102
}
330
34
100
AcDbPlotSettings
  1

  2
DocuPrint 360 - 技術開発部 熱利用技術Ｇ.pc3
  4
A4
  6

 40
0.0
 41
0.0
 42
0.97332763671875
 43
0.96832275390625
 44
209.9733276367186
 45
296.9683227539062
 46
0.0
 47
0.21
 48
-146.8466723106355
 49
-64.40253034048168
140
6384.6204135816
141
4550.539056607019
142
1.0
143
15.07177033492822
 70
 11956
 72
     1
 73
     0
 74
     2
  7
monochrome.ctb
 75
     0
147
0.0663492063492064
148
0.0
149
0.0
100
AcDbLayout
  1
Model
 70
     1
 71
     0
 10
0.0
 20
0.0
 11
12.0
 21
9.0
 12
0.0
 22
0.0
 32
0.0
 14
0.0
 24
0.0
 34
0.0
 15
0.0
 25
0.0
 35
0.0
146
0.0
 13
0.0
 23
0.0
 33
0.0
 16
1.0
 26
0.0
 36
0.0
 17
0.0
 27
1.0
 37
0.0
 76
     0
330
17
  0
LAYOUT
  5
37
102
{ACAD_REACTORS
330
34
102
}
330
34
100
AcDbPlotSettings
  1

  2
EPSON LP-8300C
  4

  6

 40
0.0
 41
0.0
 42
0.0
 43
0.0
 44
0.0
 45
0.0
 46
0.0
 47
0.0
 48
0.0
 49
0.0
140
0.0
141
0.0
142
1.0
143
1.0
 70
   688
 72
     0
 73
     0
 74
     5
  7
monochrome.ctb
 75
    16
147
1.0
148
0.0
149
0.0
100
AcDbLayout
  1
ﾚｲｱｳﾄ1
 70
     0
 71
     1
 10
0.0
 20
0.0
 11
12.0
 21
9.0
 12
0.0
 22
0.0
 32
0.0
 14
1.000000000000000E+20
 24
1.000000000000000E+20
 34
1.000000000000000E+20
 15
-1.000000000000000E+20
 25
-1.000000000000000E+20
 35
-1.000000000000000E+20
146
0.0
 13
0.0
 23
0.0
 33
0.0
 16
1.0
 26
0.0
 36
0.0
 17
0.0
 27
1.0
 37
0.0
 76
     0
330
14
  0
MLINESTYLE
  5
1B
102
{ACAD_REACTORS
330
1A
102
}
330
1A
100
AcDbMlineStyle
  2
STANDARD
 70
     0
  3

 62
   256
 51
90.0
 52
90.0
 71
     2
 49
0.5
 62
   256
  6
BYLAYER
 49
-0.5
 62
   256
  6
BYLAYER
  0
ACDBPLACEHOLDER
  5
33
102
{ACAD_REACTORS
330
32
102
}
330
32
  0
DICTIONARYVAR
  5
45
102
{ACAD_REACTORS
330
44
102
}
330
44
100
DictionaryVariables
280
     0
  1
1
  0
DICTIONARYVAR
  5
6F8C
102
{ACAD_REACTORS
330
44
102
}
330
44
100
DictionaryVariables
280
     0
  1
96
  0
ENDSEC
  0
EOF
